osu file format v14

[General]
AudioFilename: audio.mp3
AudioLeadIn: 0
PreviewTime: 57280
Countdown: 0
SampleSet: Normal
StackLeniency: 0.7
Mode: 1
LetterboxInBreaks: 0
WidescreenStoryboard: 1

[Editor]
DistanceSpacing: 0.5
BeatDivisor: 4
GridSize: 8
TimelineZoom: 2.1

[Metadata]
Title:Streaming Heart feat. Hatsune Miku
TitleUnicode:ストリーミングハート feat. 初音ミク
Artist:DECO*27
ArtistUnicode:DECO*27
Creator:Chromoxx
Version:Inner Oni
Source:
Tags:tasuke912 electronic j-rock jrock rock japanese vocaloid deco27 ががめ gagame yuma saito kous
BeatmapID:3599355
BeatmapSetID:1758476

[Difficulty]
HPDrainRate:6
CircleSize:5
OverallDifficulty:6
ApproachRate:6
SliderMultiplier:1.4
SliderTickRate:1

[Events]
//Background and Video events
0,0,"bg.jpg",0,0
Video,-125,"output.mp4"
//Break Periods
//Storyboard Layer 0 (Background)
//Storyboard Layer 1 (Fail)
//Storyboard Layer 2 (Pass)
//Storyboard Layer 3 (Foreground)
//Storyboard Layer 4 (Overlay)
//Storyboard Sound Samples

[TimingPoints]
1280,285.714285714286,4,1,0,80,1,0
10422,-100,4,1,0,100,0,0
29922,-100,4,1,0,70,0,0
38994,-100,4,1,0,100,0,0
48280,-100,4,1,0,60,0,0
57280,-100,4,1,0,100,0,1
75565,-100,4,1,0,100,0,0
75851,-100,4,1,0,70,0,0
84851,-100,4,1,0,50,0,0
92565,-100,4,1,0,65,0,0
93708,-100,4,1,0,100,0,0
103137,-100,4,1,0,75,0,0
112137,-100,4,1,0,100,0,0
121208,-100,4,1,0,50,0,0
129137,-100,4,1,0,65,0,0
131137,-100,4,1,0,85,0,0
131565,-100,4,1,0,100,0,1
139422,-100,4,1,0,100,0,0
140708,-100,4,1,0,100,0,1
168137,-100,4,1,0,100,0,0
168280,-100,4,1,0,50,0,0

[HitObjects]
230,152,1280,5,0,0:0:0:0:
205,143,1565,1,8,0:0:0:0:
165,220,1708,1,0,0:0:0:0:
122,199,1851,1,8,0:0:0:0:
245,204,2137,1,8,0:0:0:0:
310,238,2280,1,0,0:0:0:0:
149,115,2565,1,8,0:0:0:0:
149,115,2851,1,0,0:0:0:0:
149,115,2994,1,8,0:0:0:0:
149,115,3137,1,8,0:0:0:0:
149,115,3280,1,0,0:0:0:0:
213,135,3565,1,8,0:0:0:0:
287,197,3851,1,0,0:0:0:0:
236,227,3994,1,8,0:0:0:0:
212,228,4137,1,0,0:0:0:0:
254,212,4422,1,0,0:0:0:0:
264,193,4565,1,8,0:0:0:0:
264,193,4851,1,0,0:0:0:0:
233,118,5137,1,8,0:0:0:0:
158,146,5280,1,0,0:0:0:0:
158,146,5422,1,0,0:0:0:0:
179,141,5565,1,8,0:0:0:0:
179,141,5851,1,0,0:0:0:0:
250,160,6137,1,8,0:0:0:0:
258,223,6280,1,0,0:0:0:0:
244,212,6422,1,8,0:0:0:0:
263,205,6708,1,8,0:0:0:0:
248,186,6851,1,0,0:0:0:0:
248,188,7137,1,8,0:0:0:0:
282,208,7422,1,0,0:0:0:0:
282,208,7565,1,8,0:0:0:0:
282,208,7708,1,8,0:0:0:0:
230,168,7851,1,0,0:0:0:0:
230,168,8137,1,8,0:0:0:0:
250,196,9280,1,0,0:0:0:0:
204,194,9351,1,0,0:0:0:0:
250,196,9422,1,0,0:0:0:0:
191,180,9494,1,0,0:0:0:0:
187,173,9565,1,8,0:0:0:0:
240,178,9708,1,0,0:0:0:0:
314,205,9851,1,8,0:0:0:0:
292,194,9922,1,8,0:0:0:0:
292,194,9994,1,0,0:0:0:0:
292,194,10065,1,0,0:0:0:0:
292,194,10137,1,8,0:0:0:0:
286,192,10280,1,8,0:0:0:0:
286,192,10422,1,4,0:0:0:0:
257,263,10851,1,0,0:0:0:0:
224,272,10994,1,8,0:0:0:0:
225,235,11137,1,0,0:0:0:0:
181,81,11208,1,0,0:0:0:0:
181,81,11280,1,0,0:0:0:0:
181,81,11422,1,0,0:0:0:0:
277,243,11565,1,8,0:0:0:0:
326,235,11708,1,0,0:0:0:0:
322,223,11780,1,8,0:0:0:0:
271,243,11922,1,8,0:0:0:0:
206,216,11994,1,0,0:0:0:0:
370,281,12137,1,8,0:0:0:0:
313,256,12208,1,8,0:0:0:0:
306,256,12280,1,8,0:0:0:0:
185,35,12351,1,8,0:0:0:0:
185,35,12422,1,0,0:0:0:0:
190,97,12565,1,8,0:0:0:0:
227,159,12708,1,4,0:0:0:0:
333,188,13137,1,8,0:0:0:0:
176,165,13280,1,0,0:0:0:0:
223,166,13422,1,8,0:0:0:0:
197,169,13494,1,8,0:0:0:0:
213,237,13565,1,0,0:0:0:0:
200,234,13708,1,8,0:0:0:0:
197,221,13851,1,0,0:0:0:0:
289,251,13994,1,8,0:0:0:0:
289,251,14065,1,0,0:0:0:0:
240,233,14208,1,8,0:0:0:0:
236,230,14280,1,0,0:0:0:0:
295,250,14422,1,8,0:0:0:0:
295,250,14494,1,8,0:0:0:0:
295,248,14565,1,0,0:0:0:0:
293,243,14637,1,0,0:0:0:0:
291,241,14708,1,8,0:0:0:0:
289,239,14851,1,0,0:0:0:0:
227,159,14994,1,12,0:0:0:0:
280,213,15422,1,8,0:0:0:0:
237,193,15565,1,0,0:0:0:0:
237,193,15708,1,8,0:0:0:0:
166,166,15780,1,8,0:0:0:0:
144,166,15851,1,8,0:0:0:0:
166,166,15994,1,8,0:0:0:0:
310,233,16137,1,0,0:0:0:0:
217,193,16280,1,8,0:0:0:0:
200,181,16351,1,0,0:0:0:0:
209,200,16494,1,0,0:0:0:0:
205,190,16565,1,8,0:0:0:0:
295,176,16708,1,0,0:0:0:0:
279,169,16780,1,0,0:0:0:0:
272,165,16851,1,0,0:0:0:0:
259,159,16922,1,0,0:0:0:0:
229,148,16994,1,8,0:0:0:0:
319,229,17137,1,0,0:0:0:0:
281,199,17280,1,12,0:0:0:0:
176,165,17708,1,0,0:0:0:0:
333,188,17851,1,8,0:0:0:0:
223,166,17994,1,0,0:0:0:0:
197,169,18065,1,0,0:0:0:0:
213,237,18137,1,8,0:0:0:0:
200,234,18280,1,0,0:0:0:0:
197,221,18422,1,8,0:0:0:0:
289,251,18565,1,0,0:0:0:0:
289,251,18637,1,8,0:0:0:0:
240,233,18780,1,0,0:0:0:0:
236,230,18851,1,8,0:0:0:0:
295,250,18994,1,0,0:0:0:0:
295,250,19065,1,0,0:0:0:0:
295,248,19137,1,8,0:0:0:0:
293,243,19208,1,8,0:0:0:0:
291,241,19280,1,0,0:0:0:0:
289,239,19422,1,8,0:0:0:0:
227,159,19565,1,4,0:0:0:0:
257,263,19994,1,0,0:0:0:0:
224,272,20137,1,8,0:0:0:0:
225,235,20280,1,0,0:0:0:0:
181,81,20351,1,0,0:0:0:0:
181,81,20422,1,0,0:0:0:0:
181,81,20565,1,0,0:0:0:0:
277,243,20708,1,8,0:0:0:0:
326,235,20851,1,0,0:0:0:0:
322,223,20922,1,8,0:0:0:0:
271,243,21065,1,8,0:0:0:0:
206,216,21137,1,0,0:0:0:0:
370,281,21280,1,8,0:0:0:0:
313,256,21351,1,8,0:0:0:0:
306,256,21422,1,8,0:0:0:0:
185,35,21494,1,8,0:0:0:0:
185,35,21565,1,0,0:0:0:0:
190,97,21708,1,8,0:0:0:0:
227,159,21851,1,4,0:0:0:0:
333,188,22280,1,8,0:0:0:0:
176,165,22422,1,0,0:0:0:0:
223,166,22565,1,8,0:0:0:0:
197,169,22637,1,8,0:0:0:0:
213,237,22708,1,0,0:0:0:0:
200,234,22851,1,8,0:0:0:0:
197,221,22994,1,0,0:0:0:0:
289,251,23137,1,8,0:0:0:0:
289,251,23208,1,0,0:0:0:0:
240,233,23351,1,8,0:0:0:0:
236,230,23422,1,0,0:0:0:0:
295,250,23565,1,8,0:0:0:0:
295,250,23637,1,8,0:0:0:0:
295,248,23708,1,0,0:0:0:0:
293,243,23780,1,0,0:0:0:0:
291,241,23851,1,8,0:0:0:0:
289,239,23994,1,0,0:0:0:0:
227,159,24137,1,12,0:0:0:0:
280,213,24565,1,8,0:0:0:0:
237,193,24708,1,0,0:0:0:0:
237,193,24851,1,8,0:0:0:0:
166,166,24922,1,8,0:0:0:0:
144,166,24994,1,8,0:0:0:0:
166,166,25137,1,8,0:0:0:0:
310,233,25280,1,0,0:0:0:0:
217,193,25422,1,8,0:0:0:0:
200,181,25494,1,0,0:0:0:0:
209,200,25637,1,0,0:0:0:0:
205,190,25708,1,8,0:0:0:0:
295,176,25851,1,0,0:0:0:0:
279,169,25922,1,0,0:0:0:0:
272,165,25994,1,0,0:0:0:0:
259,159,26065,1,0,0:0:0:0:
229,148,26137,1,8,0:0:0:0:
319,229,26280,1,0,0:0:0:0:
281,199,26422,1,12,0:0:0:0:
176,165,26851,1,0,0:0:0:0:
333,188,26994,1,8,0:0:0:0:
223,166,27137,1,0,0:0:0:0:
197,169,27208,1,0,0:0:0:0:
213,237,27280,1,8,0:0:0:0:
200,234,27422,1,0,0:0:0:0:
197,221,27565,1,8,0:0:0:0:
289,251,27708,1,0,0:0:0:0:
289,251,27780,1,8,0:0:0:0:
240,233,27922,1,0,0:0:0:0:
236,230,27994,1,8,0:0:0:0:
295,250,28137,1,0,0:0:0:0:
295,250,28208,1,0,0:0:0:0:
295,248,28280,1,8,0:0:0:0:
293,243,28351,1,8,0:0:0:0:
291,241,28422,1,0,0:0:0:0:
289,239,28565,1,8,0:0:0:0:
227,159,28708,1,0,0:0:0:0:
285,176,29851,1,0,0:0:0:0:
355,202,30137,1,8,0:0:0:0:
355,202,30280,1,8,0:0:0:0:
245,227,30422,1,0,0:0:0:0:
245,227,30708,1,8,0:0:0:0:
190,157,30851,1,0,0:0:0:0:
271,266,31137,1,0,0:0:0:0:
245,289,31280,1,8,0:0:0:0:
313,252,31565,1,0,0:0:0:0:
313,252,31708,1,8,0:0:0:0:
220,230,31851,1,0,0:0:0:0:
220,230,32137,1,8,0:0:0:0:
279,216,32422,1,0,0:0:0:0:
279,216,32565,1,0,0:0:0:0:
234,185,32708,1,8,0:0:0:0:
319,229,32994,1,0,0:0:0:0:
319,229,33137,1,8,0:0:0:0:
319,229,33422,1,8,0:0:0:0:
319,229,33565,1,0,0:0:0:0:
214,173,33851,1,8,0:0:0:0:
194,123,33994,1,0,0:0:0:0:
194,123,34137,1,8,0:0:0:0:
356,295,34422,1,0,0:0:0:0:
231,210,34708,1,8,0:0:0:0:
231,210,34851,1,8,0:0:0:0:
200,168,34994,1,0,0:0:0:0:
200,168,35280,1,8,0:0:0:0:
151,153,35422,1,0,0:0:0:0:
151,153,35708,1,0,0:0:0:0:
151,153,35851,1,8,0:0:0:0:
223,171,36137,1,0,0:0:0:0:
223,171,36280,1,8,0:0:0:0:
223,171,36422,1,0,0:0:0:0:
208,136,36708,1,8,0:0:0:0:
213,160,36994,1,0,0:0:0:0:
213,160,37137,1,0,0:0:0:0:
213,160,37280,1,8,0:0:0:0:
265,157,37565,1,0,0:0:0:0:
229,243,37851,1,8,0:0:0:0:
243,203,37994,1,8,0:0:0:0:
175,223,38065,1,8,0:0:0:0:
243,203,38137,1,8,0:0:0:0:
175,223,38280,1,8,0:0:0:0:
239,226,38422,1,0,0:0:0:0:
239,226,38565,1,8,0:0:0:0:
239,226,38708,1,8,0:0:0:0:
204,198,38851,1,8,0:0:0:0:
191,179,38922,1,8,0:0:0:0:
186,168,38994,1,0,0:0:0:0:
371,177,39280,1,8,0:0:0:0:
261,242,39422,1,0,0:0:0:0:
261,242,39494,1,0,0:0:0:0:
261,242,39565,1,8,0:0:0:0:
260,255,39708,1,0,0:0:0:0:
260,255,39851,1,8,0:0:0:0:
231,255,39922,1,8,0:0:0:0:
155,235,39994,1,0,0:0:0:0:
159,239,40137,1,8,0:0:0:0:
183,271,40208,1,8,0:0:0:0:
360,216,40280,1,8,0:0:0:0:
197,158,40422,1,0,0:0:0:0:
291,116,40565,1,8,0:0:0:0:
255,149,40637,1,8,0:0:0:0:
202,137,40708,1,0,0:0:0:0:
208,153,40780,1,0,0:0:0:0:
184,122,40851,1,8,0:0:0:0:
262,181,40994,1,0,0:0:0:0:
212,231,41137,1,8,0:0:0:0:
262,244,41280,1,0,0:0:0:0:
262,244,41422,1,0,0:0:0:0:
232,258,41565,1,8,0:0:0:0:
192,180,41708,1,8,0:0:0:0:
192,197,41780,1,8,0:0:0:0:
161,159,41851,1,0,0:0:0:0:
240,237,41994,1,8,0:0:0:0:
251,209,42137,1,0,0:0:0:0:
240,205,42208,1,0,0:0:0:0:
219,193,42280,1,8,0:0:0:0:
199,214,42422,1,0,0:0:0:0:
183,215,42494,1,0,0:0:0:0:
170,199,42565,1,0,0:0:0:0:
167,195,42708,1,8,0:0:0:0:
239,224,42851,1,0,0:0:0:0:
235,218,42922,1,0,0:0:0:0:
222,223,42994,1,8,0:0:0:0:
216,217,43065,1,8,0:0:0:0:
198,202,43137,1,0,0:0:0:0:
250,233,43280,1,8,0:0:0:0:
250,233,43422,1,8,0:0:0:0:
271,224,43565,1,0,0:0:0:0:
247,258,43708,1,0,0:0:0:0:
247,258,43851,1,8,0:0:0:0:
211,246,43994,1,0,0:0:0:0:
186,215,44065,1,0,0:0:0:0:
164,203,44137,1,8,0:0:0:0:
253,203,44280,1,0,0:0:0:0:
253,203,44422,1,8,0:0:0:0:
229,189,44494,1,8,0:0:0:0:
186,169,44565,1,0,0:0:0:0:
186,169,44708,1,8,0:0:0:0:
296,234,44780,1,0,0:0:0:0:
186,169,44851,1,8,0:0:0:0:
296,234,44922,1,8,0:0:0:0:
289,230,44994,1,0,0:0:0:0:
333,275,45137,1,8,0:0:0:0:
396,283,45208,1,8,0:0:0:0:
396,283,45280,1,0,0:0:0:0:
396,283,45351,1,0,0:0:0:0:
396,283,45422,1,8,0:0:0:0:
275,288,45565,1,0,0:0:0:0:
275,288,45708,1,0,0:0:0:0:
174,209,45851,1,8,0:0:0:0:
244,125,45994,1,0,0:0:0:0:
236,126,46065,1,0,0:0:0:0:
234,128,46137,1,8,0:0:0:0:
234,128,46280,1,0,0:0:0:0:
221,125,46422,1,8,0:0:0:0:
221,125,46494,1,8,0:0:0:0:
221,125,46565,1,0,0:0:0:0:
258,178,46708,1,8,0:0:0:0:
258,178,46851,1,8,0:0:0:0:
268,181,46994,1,0,0:0:0:0:
196,232,47065,1,0,0:0:0:0:
268,181,47137,1,0,0:0:0:0:
181,227,47208,1,0,0:0:0:0:
196,232,47280,1,8,0:0:0:0:
137,247,47422,1,0,0:0:0:0:
164,126,47565,1,8,0:0:0:0:
164,126,47637,1,8,0:0:0:0:
164,126,47708,1,0,0:0:0:0:
164,126,47780,1,0,0:0:0:0:
164,126,47851,1,8,0:0:0:0:
164,126,47994,1,8,0:0:0:0:
172,128,48137,1,0,0:0:0:0:
229,169,48422,1,8,0:0:0:0:
222,244,48565,1,0,0:0:0:0:
189,173,48708,1,0,0:0:0:0:
291,199,48994,1,8,0:0:0:0:
272,190,49280,1,0,0:0:0:0:
218,119,49565,1,8,0:0:0:0:
218,119,49708,1,8,0:0:0:0:
156,111,49851,1,0,0:0:0:0:
156,111,50137,1,8,0:0:0:0:
156,111,50422,1,0,0:0:0:0:
156,111,50708,1,8,0:0:0:0:
156,111,50851,1,8,0:0:0:0:
156,111,50994,1,8,0:0:0:0:
246,169,51280,1,0,0:0:0:0:
246,169,51565,1,8,0:0:0:0:
209,145,51851,1,0,0:0:0:0:
209,145,51994,1,8,0:0:0:0:
209,145,52137,1,8,0:0:0:0:
183,129,52422,1,0,0:0:0:0:
183,129,52708,1,8,0:0:0:0:
183,129,52994,1,0,0:0:0:0:
183,129,53137,1,0,0:0:0:0:
306,146,53280,1,8,0:0:0:0:
268,282,53565,1,0,0:0:0:0:
268,282,53851,1,8,0:0:0:0:
268,282,54137,1,0,0:0:0:0:
268,282,54280,1,0,0:0:0:0:
268,282,54422,1,0,0:0:0:0:
263,277,54708,1,8,0:0:0:0:
204,162,54994,1,0,0:0:0:0:
204,162,55280,1,0,0:0:0:0:
204,162,55565,1,0,0:0:0:0:
204,162,55851,1,8,0:0:0:0:
215,152,56137,1,0,0:0:0:0:
215,152,56208,1,0,0:0:0:0:
192,124,56280,1,0,0:0:0:0:
192,124,56351,1,0,0:0:0:0:
192,124,56422,1,0,0:0:0:0:
192,124,56494,1,0,0:0:0:0:
192,124,56565,1,0,0:0:0:0:
192,124,56637,1,0,0:0:0:0:
192,124,56708,1,8,0:0:0:0:
205,259,57280,1,4,0:0:0:0:
209,248,57565,1,8,0:0:0:0:
215,268,57708,1,0,0:0:0:0:
169,267,57780,1,0,0:0:0:0:
215,268,57851,1,0,0:0:0:0:
169,267,57994,1,0,0:0:0:0:
204,241,58137,1,8,0:0:0:0:
212,268,58208,1,0,0:0:0:0:
226,228,58280,1,8,0:0:0:0:
384,306,58351,1,8,0:0:0:0:
210,280,58422,1,0,0:0:0:0:
208,279,58565,1,0,0:0:0:0:
195,236,58708,1,8,0:0:0:0:
272,230,58851,1,0,0:0:0:0:
257,302,58922,1,0,0:0:0:0:
180,165,58994,1,0,0:0:0:0:
257,302,59065,1,0,0:0:0:0:
98,138,59137,1,8,0:0:0:0:
292,233,59280,1,0,0:0:0:0:
208,127,59422,1,8,0:0:0:0:
192,273,59565,1,0,0:0:0:0:
265,249,59708,1,0,0:0:0:0:
197,234,59780,1,0,0:0:0:0:
161,201,59851,1,8,0:0:0:0:
336,244,59994,1,8,0:0:0:0:
217,199,60065,1,8,0:0:0:0:
160,181,60137,1,0,0:0:0:0:
160,181,60280,1,0,0:0:0:0:
299,232,60422,1,8,0:0:0:0:
299,232,60565,1,0,0:0:0:0:
197,243,60637,1,0,0:0:0:0:
170,226,60708,1,8,0:0:0:0:
198,242,60780,1,8,0:0:0:0:
272,255,60851,1,0,0:0:0:0:
272,255,60994,1,8,0:0:0:0:
231,262,61137,1,0,0:0:0:0:
309,249,61208,1,0,0:0:0:0:
307,252,61280,1,8,0:0:0:0:
307,252,61351,1,8,0:0:0:0:
307,252,61422,1,0,0:0:0:0:
306,252,61494,1,0,0:0:0:0:
306,251,61565,1,8,0:0:0:0:
309,249,61637,1,8,0:0:0:0:
309,249,61708,1,0,0:0:0:0:
188,135,61851,1,12,0:0:0:0:
209,248,62137,1,0,0:0:0:0:
215,268,62280,1,8,0:0:0:0:
169,267,62351,1,8,0:0:0:0:
215,268,62422,1,8,0:0:0:0:
169,267,62565,1,8,0:0:0:0:
204,241,62708,1,0,0:0:0:0:
212,268,62780,1,8,0:0:0:0:
226,228,62851,1,0,0:0:0:0:
384,306,62922,1,0,0:0:0:0:
210,280,62994,1,8,0:0:0:0:
208,279,63137,1,8,0:0:0:0:
195,236,63280,1,0,0:0:0:0:
272,230,63422,1,8,0:0:0:0:
257,302,63494,1,8,0:0:0:0:
180,165,63565,1,8,0:0:0:0:
257,302,63637,1,8,0:0:0:0:
98,138,63708,1,0,0:0:0:0:
292,233,63851,1,8,0:0:0:0:
208,127,63994,1,0,0:0:0:0:
192,273,64137,1,8,0:0:0:0:
265,249,64280,1,8,0:0:0:0:
197,234,64351,1,8,0:0:0:0:
161,201,64422,1,0,0:0:0:0:
336,244,64565,1,0,0:0:0:0:
217,199,64637,1,0,0:0:0:0:
160,181,64708,1,8,0:0:0:0:
160,181,64851,1,8,0:0:0:0:
299,232,64994,1,0,0:0:0:0:
299,232,65137,1,8,0:0:0:0:
197,243,65208,1,8,0:0:0:0:
170,226,65280,1,0,0:0:0:0:
256,207,65351,1,0,0:0:0:0:
175,155,65422,1,8,0:0:0:0:
272,255,65565,1,0,0:0:0:0:
309,249,65708,1,0,0:0:0:0:
307,252,65851,1,8,0:0:0:0:
307,252,65922,1,8,0:0:0:0:
307,252,65994,1,8,0:0:0:0:
306,252,66065,1,8,0:0:0:0:
306,251,66137,1,8,0:0:0:0:
309,249,66208,1,8,0:0:0:0:
309,249,66280,1,8,0:0:0:0:
188,135,66422,1,4,0:0:0:0:
261,243,66708,1,8,0:0:0:0:
249,270,66851,1,0,0:0:0:0:
213,238,66922,1,0,0:0:0:0:
191,224,66994,1,0,0:0:0:0:
191,224,67137,1,0,0:0:0:0:
206,222,67280,1,8,0:0:0:0:
200,212,67351,1,0,0:0:0:0:
188,198,67422,1,8,0:0:0:0:
354,261,67565,1,0,0:0:0:0:
267,229,67708,1,8,0:0:0:0:
267,229,67780,1,8,0:0:0:0:
267,229,67851,1,0,0:0:0:0:
267,229,67922,1,0,0:0:0:0:
267,229,67994,1,8,0:0:0:0:
289,264,68137,1,0,0:0:0:0:
249,244,68208,1,0,0:0:0:0:
226,227,68280,1,8,0:0:0:0:
169,194,68351,1,0,0:0:0:0:
158,185,68422,1,8,0:0:0:0:
191,191,68565,1,0,0:0:0:0:
211,99,68708,1,12,0:0:0:0:
352,132,68994,1,0,0:0:0:0:
352,132,69137,1,8,0:0:0:0:
208,194,69208,1,8,0:0:0:0:
241,136,69280,1,8,0:0:0:0:
282,248,69422,1,8,0:0:0:0:
284,253,69565,1,0,0:0:0:0:
247,234,69637,1,8,0:0:0:0:
233,232,69708,1,0,0:0:0:0:
233,232,69851,1,8,0:0:0:0:
314,237,69994,1,0,0:0:0:0:
308,237,70065,1,0,0:0:0:0:
300,232,70137,1,8,0:0:0:0:
300,232,70208,1,8,0:0:0:0:
300,232,70280,1,0,0:0:0:0:
299,231,70422,1,8,0:0:0:0:
298,231,70494,1,8,0:0:0:0:
298,230,70565,1,0,0:0:0:0:
298,230,70637,1,8,0:0:0:0:
298,230,70708,1,0,0:0:0:0:
298,230,70851,1,8,0:0:0:0:
298,230,70994,1,4,0:0:0:0:
261,243,71280,1,8,0:0:0:0:
249,270,71422,1,0,0:0:0:0:
213,238,71494,1,0,0:0:0:0:
191,224,71565,1,0,0:0:0:0:
191,224,71708,1,0,0:0:0:0:
206,222,71851,1,8,0:0:0:0:
200,212,71922,1,0,0:0:0:0:
188,198,71994,1,8,0:0:0:0:
354,261,72137,1,0,0:0:0:0:
267,229,72280,1,8,0:0:0:0:
267,229,72351,1,8,0:0:0:0:
267,229,72422,1,0,0:0:0:0:
267,229,72494,1,0,0:0:0:0:
267,229,72565,1,8,0:0:0:0:
289,264,72708,1,0,0:0:0:0:
249,244,72780,1,0,0:0:0:0:
226,227,72851,1,8,0:0:0:0:
169,194,72922,1,0,0:0:0:0:
158,185,72994,1,8,0:0:0:0:
191,191,73137,1,0,0:0:0:0:
211,99,73280,1,12,0:0:0:0:
352,132,73565,1,0,0:0:0:0:
352,132,73708,1,8,0:0:0:0:
208,194,73780,1,8,0:0:0:0:
241,136,73851,1,8,0:0:0:0:
282,248,73994,1,8,0:0:0:0:
284,253,74137,1,0,0:0:0:0:
247,234,74208,1,8,0:0:0:0:
233,232,74280,1,0,0:0:0:0:
233,232,74422,1,8,0:0:0:0:
314,237,74565,1,0,0:0:0:0:
308,237,74637,1,0,0:0:0:0:
300,232,74708,1,8,0:0:0:0:
300,232,74780,1,8,0:0:0:0:
300,232,74851,1,0,0:0:0:0:
299,231,74994,1,8,0:0:0:0:
298,231,75065,1,8,0:0:0:0:
298,230,75137,1,0,0:0:0:0:
298,230,75208,1,8,0:0:0:0:
298,230,75280,1,0,0:0:0:0:
298,230,75422,1,8,0:0:0:0:
298,230,75565,1,4,0:0:0:0:
397,260,75851,1,8,0:0:0:0:
397,260,75994,1,8,0:0:0:0:
228,153,76422,1,8,0:0:0:0:
228,153,76994,1,8,0:0:0:0:
278,245,77137,1,8,0:0:0:0:
278,245,77565,1,8,0:0:0:0:
202,248,78137,1,8,0:0:0:0:
202,248,78280,1,8,0:0:0:0:
202,248,78708,1,8,0:0:0:0:
320,274,79280,1,8,0:0:0:0:
320,274,79422,1,8,0:0:0:0:
320,274,79851,1,8,0:0:0:0:
320,274,80422,1,8,0:0:0:0:
320,274,80565,1,8,0:0:0:0:
320,274,80994,1,8,0:0:0:0:
320,274,81565,1,8,0:0:0:0:
320,274,81708,1,8,0:0:0:0:
320,274,82137,1,8,0:0:0:0:
320,274,82708,1,8,0:0:0:0:
320,274,82851,1,8,0:0:0:0:
153,179,83280,1,8,0:0:0:0:
228,189,83851,1,8,0:0:0:0:
228,189,83994,1,8,0:0:0:0:
228,189,84422,1,8,0:0:0:0:
324,210,84708,1,0,0:0:0:0:
324,210,84994,1,8,0:0:0:0:
324,210,85137,1,0,0:0:0:0:
261,255,85565,1,8,0:0:0:0:
242,260,85851,1,0,0:0:0:0:
242,260,86137,1,8,0:0:0:0:
242,260,86280,1,0,0:0:0:0:
200,258,86708,1,8,0:0:0:0:
200,258,86994,1,0,0:0:0:0:
200,258,87280,1,8,0:0:0:0:
200,258,87422,1,0,0:0:0:0:
200,258,87851,1,8,0:0:0:0:
200,258,88137,1,0,0:0:0:0:
171,253,88422,1,8,0:0:0:0:
171,253,88565,1,0,0:0:0:0:
171,253,89280,1,8,0:0:0:0:
185,242,89565,1,0,0:0:0:0:
185,242,89708,1,8,0:0:0:0:
184,242,90137,1,0,0:0:0:0:
224,229,90422,1,8,0:0:0:0:
224,229,90708,1,0,0:0:0:0:
224,229,90851,1,8,0:0:0:0:
246,196,91280,1,0,0:0:0:0:
246,196,91565,1,8,0:0:0:0:
246,196,91851,1,0,0:0:0:0:
246,196,91994,1,8,0:0:0:0:
246,196,92422,1,0,0:0:0:0:
253,254,92708,1,8,0:0:0:0:
253,254,92994,1,8,0:0:0:0:
231,293,93065,1,8,0:0:0:0:
253,254,93137,1,8,0:0:0:0:
271,268,93208,1,8,0:0:0:0:
223,242,93280,1,8,0:0:0:0:
247,255,93351,1,8,0:0:0:0:
223,242,93422,1,0,0:0:0:0:
384,279,93851,1,4,0:0:0:0:
371,177,94137,1,8,0:0:0:0:
261,242,94280,1,0,0:0:0:0:
261,242,94351,1,0,0:0:0:0:
261,242,94422,1,8,0:0:0:0:
260,255,94565,1,0,0:0:0:0:
260,255,94708,1,8,0:0:0:0:
231,255,94780,1,8,0:0:0:0:
155,235,94851,1,0,0:0:0:0:
159,239,94994,1,8,0:0:0:0:
183,271,95065,1,8,0:0:0:0:
360,216,95137,1,8,0:0:0:0:
197,158,95280,1,0,0:0:0:0:
291,116,95422,1,8,0:0:0:0:
255,149,95494,1,8,0:0:0:0:
202,137,95565,1,0,0:0:0:0:
208,153,95637,1,0,0:0:0:0:
184,122,95708,1,8,0:0:0:0:
262,181,95851,1,0,0:0:0:0:
212,231,95994,1,8,0:0:0:0:
262,244,96137,1,0,0:0:0:0:
262,244,96280,1,0,0:0:0:0:
232,258,96422,1,8,0:0:0:0:
192,180,96565,1,8,0:0:0:0:
192,197,96637,1,8,0:0:0:0:
161,159,96708,1,0,0:0:0:0:
240,237,96851,1,8,0:0:0:0:
251,209,96994,1,0,0:0:0:0:
240,205,97065,1,0,0:0:0:0:
219,193,97137,1,8,0:0:0:0:
199,214,97280,1,0,0:0:0:0:
183,215,97351,1,0,0:0:0:0:
170,199,97422,1,0,0:0:0:0:
167,195,97565,1,8,0:0:0:0:
239,224,97708,1,0,0:0:0:0:
235,218,97780,1,0,0:0:0:0:
222,223,97851,1,8,0:0:0:0:
216,217,97922,1,8,0:0:0:0:
198,202,97994,1,0,0:0:0:0:
250,233,98137,1,8,0:0:0:0:
250,233,98280,1,8,0:0:0:0:
271,224,98422,1,0,0:0:0:0:
247,258,98565,1,0,0:0:0:0:
247,258,98708,1,8,0:0:0:0:
211,246,98851,1,0,0:0:0:0:
186,215,98922,1,0,0:0:0:0:
164,203,98994,1,8,0:0:0:0:
253,203,99137,1,0,0:0:0:0:
253,203,99280,1,8,0:0:0:0:
229,189,99351,1,8,0:0:0:0:
186,169,99422,1,0,0:0:0:0:
186,169,99565,1,8,0:0:0:0:
296,234,99637,1,0,0:0:0:0:
186,169,99708,1,8,0:0:0:0:
296,234,99780,1,8,0:0:0:0:
289,230,99851,1,0,0:0:0:0:
333,275,99994,1,8,0:0:0:0:
396,283,100065,1,8,0:0:0:0:
396,283,100137,1,0,0:0:0:0:
396,283,100208,1,0,0:0:0:0:
396,283,100280,1,8,0:0:0:0:
275,288,100422,1,0,0:0:0:0:
275,288,100565,1,0,0:0:0:0:
174,209,100708,1,8,0:0:0:0:
244,125,100851,1,0,0:0:0:0:
236,126,100922,1,0,0:0:0:0:
234,128,100994,1,8,0:0:0:0:
234,128,101137,1,0,0:0:0:0:
221,125,101280,1,8,0:0:0:0:
221,125,101351,1,8,0:0:0:0:
221,125,101422,1,0,0:0:0:0:
258,178,101565,1,8,0:0:0:0:
258,178,101708,1,8,0:0:0:0:
268,181,101851,1,0,0:0:0:0:
196,232,101922,1,0,0:0:0:0:
268,181,101994,1,0,0:0:0:0:
181,227,102065,1,0,0:0:0:0:
196,232,102137,1,8,0:0:0:0:
137,247,102280,1,0,0:0:0:0:
164,126,102422,1,8,0:0:0:0:
164,126,102494,1,8,0:0:0:0:
164,126,102565,1,0,0:0:0:0:
164,126,102637,1,0,0:0:0:0:
164,126,102708,1,8,0:0:0:0:
164,126,102851,1,8,0:0:0:0:
172,128,102994,1,0,0:0:0:0:
366,208,103280,1,0,0:0:0:0:
366,208,103422,1,0,0:0:0:0:
193,195,103851,1,8,0:0:0:0:
255,221,104137,1,0,0:0:0:0:
255,221,104280,1,0,0:0:0:0:
255,221,104565,1,0,0:0:0:0:
255,221,104851,1,0,0:0:0:0:
180,174,105280,1,0,0:0:0:0:
180,174,105565,1,0,0:0:0:0:
180,174,105708,1,0,0:0:0:0:
277,178,106137,1,8,0:0:0:0:
233,227,106422,1,0,0:0:0:0:
233,227,106565,1,0,0:0:0:0:
233,227,106708,1,0,0:0:0:0:
245,219,106851,1,0,0:0:0:0:
241,221,107280,1,8,0:0:0:0:
242,224,107565,1,0,0:0:0:0:
242,224,107851,1,0,0:0:0:0:
241,221,107994,1,0,0:0:0:0:
225,208,108422,1,8,0:0:0:0:
295,191,108708,1,0,0:0:0:0:
295,191,108851,1,0,0:0:0:0:
295,191,109137,1,0,0:0:0:0:
232,192,109565,1,8,0:0:0:0:
226,185,109851,1,0,0:0:0:0:
225,188,110137,1,0,0:0:0:0:
225,188,110280,1,0,0:0:0:0:
226,185,110708,1,8,0:0:0:0:
270,149,111137,1,0,0:0:0:0:
270,149,111422,1,0,0:0:0:0:
270,149,111708,1,0,0:0:0:0:
240,182,111851,1,8,0:0:0:0:
299,209,112137,1,4,0:0:0:0:
306,211,112422,1,8,0:0:0:0:
219,192,112565,1,0,0:0:0:0:
194,88,112637,1,0,0:0:0:0:
194,88,112708,1,8,0:0:0:0:
194,88,112780,1,8,0:0:0:0:
187,88,112851,1,0,0:0:0:0:
187,88,112994,1,8,0:0:0:0:
263,261,113137,1,8,0:0:0:0:
338,249,113280,1,0,0:0:0:0:
338,249,113351,1,0,0:0:0:0:
338,249,113422,1,0,0:0:0:0:
338,249,113494,1,0,0:0:0:0:
338,249,113565,1,8,0:0:0:0:
327,247,113708,1,0,0:0:0:0:
280,236,113851,1,8,0:0:0:0:
280,236,113922,1,0,0:0:0:0:
273,237,113994,1,0,0:0:0:0:
273,237,114065,1,0,0:0:0:0:
273,237,114137,1,8,0:0:0:0:
251,205,114280,1,8,0:0:0:0:
270,205,114422,1,0,0:0:0:0:
306,205,114708,1,8,0:0:0:0:
264,215,114851,1,8,0:0:0:0:
286,197,114994,1,0,0:0:0:0:
286,197,115065,1,8,0:0:0:0:
286,197,115137,1,8,0:0:0:0:
286,197,115208,1,8,0:0:0:0:
286,196,115280,1,0,0:0:0:0:
286,196,115422,1,8,0:0:0:0:
362,238,115565,1,0,0:0:0:0:
362,238,115637,1,0,0:0:0:0:
362,238,115708,1,8,0:0:0:0:
362,238,115780,1,0,0:0:0:0:
362,238,115851,1,0,0:0:0:0:
285,256,115994,1,0,0:0:0:0:
158,227,116137,1,8,0:0:0:0:
188,228,116208,1,8,0:0:0:0:
158,227,116280,1,0,0:0:0:0:
142,217,116351,1,0,0:0:0:0:
143,217,116422,1,8,0:0:0:0:
143,217,116565,1,8,0:0:0:0:
195,251,116708,1,0,0:0:0:0:
242,233,116994,1,8,0:0:0:0:
242,233,117137,1,8,0:0:0:0:
243,226,117280,1,0,0:0:0:0:
222,274,117351,1,0,0:0:0:0:
195,258,117422,1,8,0:0:0:0:
194,258,117494,1,8,0:0:0:0:
184,253,117565,1,0,0:0:0:0:
184,253,117708,1,8,0:0:0:0:
182,142,117851,1,0,0:0:0:0:
352,243,117994,1,8,0:0:0:0:
352,243,118065,1,0,0:0:0:0:
345,242,118137,1,8,0:0:0:0:
336,241,118208,1,8,0:0:0:0:
336,241,118280,1,0,0:0:0:0:
289,283,118422,1,8,0:0:0:0:
256,305,118565,1,0,0:0:0:0:
319,283,118637,1,0,0:0:0:0:
284,271,118708,1,8,0:0:0:0:
277,269,118780,1,8,0:0:0:0:
230,261,118851,1,0,0:0:0:0:
188,203,118994,1,0,0:0:0:0:
329,216,119280,1,8,0:0:0:0:
251,182,119422,1,0,0:0:0:0:
277,217,119565,1,8,0:0:0:0:
301,215,119637,1,8,0:0:0:0:
169,203,119708,1,0,0:0:0:0:
188,180,119780,1,8,0:0:0:0:
173,197,119851,1,0,0:0:0:0:
174,198,119994,1,8,0:0:0:0:
248,197,120137,1,0,0:0:0:0:
242,210,120208,1,0,0:0:0:0:
233,207,120280,1,8,0:0:0:0:
224,202,120351,1,0,0:0:0:0:
237,214,120422,1,8,0:0:0:0:
261,232,120565,1,0,0:0:0:0:
261,232,120708,1,8,0:0:0:0:
172,128,121280,1,0,0:0:0:0:
229,169,121565,1,8,0:0:0:0:
222,244,121708,1,0,0:0:0:0:
189,173,121851,1,0,0:0:0:0:
291,199,122137,1,8,0:0:0:0:
272,190,122422,1,0,0:0:0:0:
218,119,122708,1,8,0:0:0:0:
218,119,122851,1,8,0:0:0:0:
156,111,122994,1,0,0:0:0:0:
156,111,123280,1,8,0:0:0:0:
156,111,123565,1,0,0:0:0:0:
156,111,123851,1,8,0:0:0:0:
156,111,123994,1,8,0:0:0:0:
156,111,124137,1,8,0:0:0:0:
246,169,124422,1,0,0:0:0:0:
246,169,124708,1,8,0:0:0:0:
209,145,124994,1,0,0:0:0:0:
209,145,125137,1,8,0:0:0:0:
209,145,125280,1,8,0:0:0:0:
183,129,125565,1,0,0:0:0:0:
183,129,125851,1,8,0:0:0:0:
183,129,126137,1,0,0:0:0:0:
183,129,126280,1,0,0:0:0:0:
306,146,126422,1,8,0:0:0:0:
268,282,126708,1,0,0:0:0:0:
268,282,126994,1,8,0:0:0:0:
268,282,127280,1,0,0:0:0:0:
268,282,127422,1,0,0:0:0:0:
268,282,127565,1,0,0:0:0:0:
263,277,127851,1,8,0:0:0:0:
204,162,128137,1,0,0:0:0:0:
204,162,128422,1,0,0:0:0:0:
204,162,128708,1,0,0:0:0:0:
204,162,128994,1,8,0:0:0:0:
215,152,129280,1,0,0:0:0:0:
215,152,129351,1,0,0:0:0:0:
192,124,129422,1,0,0:0:0:0:
192,124,129494,1,0,0:0:0:0:
192,124,129565,1,0,0:0:0:0:
192,124,129637,1,0,0:0:0:0:
192,124,129708,1,0,0:0:0:0:
192,124,129780,1,0,0:0:0:0:
192,124,129851,1,8,0:0:0:0:
241,172,131280,1,8,0:0:0:0:
261,242,131565,1,4,0:0:0:0:
209,248,131851,1,8,0:0:0:0:
215,268,131994,1,0,0:0:0:0:
169,267,132065,1,0,0:0:0:0:
215,268,132137,1,0,0:0:0:0:
169,267,132280,1,0,0:0:0:0:
204,241,132422,1,8,0:0:0:0:
212,268,132494,1,0,0:0:0:0:
226,228,132565,1,8,0:0:0:0:
384,306,132637,1,8,0:0:0:0:
210,280,132708,1,0,0:0:0:0:
208,279,132851,1,0,0:0:0:0:
195,236,132994,1,8,0:0:0:0:
272,230,133137,1,0,0:0:0:0:
257,302,133208,1,0,0:0:0:0:
180,165,133280,1,0,0:0:0:0:
257,302,133351,1,0,0:0:0:0:
98,138,133422,1,8,0:0:0:0:
292,233,133565,1,0,0:0:0:0:
208,127,133708,1,8,0:0:0:0:
192,273,133851,1,0,0:0:0:0:
265,249,133994,1,0,0:0:0:0:
197,234,134065,1,0,0:0:0:0:
161,201,134137,1,8,0:0:0:0:
336,244,134280,1,8,0:0:0:0:
217,199,134351,1,8,0:0:0:0:
160,181,134422,1,0,0:0:0:0:
160,181,134565,1,0,0:0:0:0:
299,232,134708,1,8,0:0:0:0:
299,232,134851,1,0,0:0:0:0:
197,243,134922,1,0,0:0:0:0:
170,226,134994,1,8,0:0:0:0:
198,242,135065,1,8,0:0:0:0:
272,255,135137,1,0,0:0:0:0:
272,255,135280,1,8,0:0:0:0:
231,262,135422,1,0,0:0:0:0:
309,249,135494,1,0,0:0:0:0:
307,252,135565,1,8,0:0:0:0:
307,252,135637,1,8,0:0:0:0:
307,252,135708,1,0,0:0:0:0:
306,252,135780,1,0,0:0:0:0:
306,251,135851,1,8,0:0:0:0:
309,249,135922,1,8,0:0:0:0:
309,249,135994,1,0,0:0:0:0:
188,135,136137,1,12,0:0:0:0:
209,248,136422,1,0,0:0:0:0:
215,268,136565,1,8,0:0:0:0:
169,267,136637,1,8,0:0:0:0:
215,268,136708,1,8,0:0:0:0:
169,267,136851,1,8,0:0:0:0:
204,241,136994,1,0,0:0:0:0:
212,268,137065,1,8,0:0:0:0:
226,228,137137,1,0,0:0:0:0:
384,306,137208,1,0,0:0:0:0:
210,280,137280,1,8,0:0:0:0:
208,279,137422,1,8,0:0:0:0:
195,236,137565,1,0,0:0:0:0:
272,230,137708,1,8,0:0:0:0:
257,302,137780,1,8,0:0:0:0:
180,165,137851,1,8,0:0:0:0:
257,302,137922,1,8,0:0:0:0:
98,138,137994,1,0,0:0:0:0:
292,233,138137,1,8,0:0:0:0:
208,127,138280,1,0,0:0:0:0:
192,273,138422,1,8,0:0:0:0:
265,249,138565,1,8,0:0:0:0:
197,234,138637,1,8,0:0:0:0:
161,201,138708,1,0,0:0:0:0:
336,244,138851,1,0,0:0:0:0:
217,199,138922,1,0,0:0:0:0:
160,181,138994,1,8,0:0:0:0:
132,142,139065,1,8,0:0:0:0:
160,181,139137,1,0,0:0:0:0:
299,232,139280,1,8,0:0:0:0:
299,232,139422,1,8,0:0:0:0:
346,237,140708,1,4,0:0:0:0:
264,226,140994,1,8,0:0:0:0:
221,217,141137,1,0,0:0:0:0:
205,207,141208,1,0,0:0:0:0:
181,197,141280,1,8,0:0:0:0:
250,232,141422,1,0,0:0:0:0:
242,166,141565,1,8,0:0:0:0:
234,163,141637,1,0,0:0:0:0:
234,163,141708,1,8,0:0:0:0:
234,163,141780,1,8,0:0:0:0:
234,163,141851,1,0,0:0:0:0:
348,184,141994,1,8,0:0:0:0:
400,264,142137,1,0,0:0:0:0:
393,267,142208,1,0,0:0:0:0:
375,263,142280,1,8,0:0:0:0:
362,262,142351,1,8,0:0:0:0:
361,262,142422,1,0,0:0:0:0:
211,272,142494,1,0,0:0:0:0:
198,262,142565,1,8,0:0:0:0:
218,259,142708,1,0,0:0:0:0:
218,259,142851,1,8,0:0:0:0:
229,250,142922,1,8,0:0:0:0:
218,243,142994,1,8,0:0:0:0:
221,208,143065,1,8,0:0:0:0:
209,197,143137,1,0,0:0:0:0:
260,196,143280,1,8,0:0:0:0:
202,269,143422,1,0,0:0:0:0:
195,264,143494,1,0,0:0:0:0:
198,262,143565,1,8,0:0:0:0:
238,259,143708,1,0,0:0:0:0:
372,296,143851,1,8,0:0:0:0:
348,286,143922,1,8,0:0:0:0:
348,286,143994,1,0,0:0:0:0:
348,286,144065,1,8,0:0:0:0:
348,286,144137,1,0,0:0:0:0:
207,211,144280,1,8,0:0:0:0:
203,205,144351,1,0,0:0:0:0:
191,191,144422,1,8,0:0:0:0:
301,257,144565,1,0,0:0:0:0:
273,251,144708,1,8,0:0:0:0:
273,251,144780,1,8,0:0:0:0:
273,251,144851,1,0,0:0:0:0:
273,251,144922,1,0,0:0:0:0:
273,251,144994,1,8,0:0:0:0:
273,251,145065,1,8,0:0:0:0:
273,251,145137,1,0,0:0:0:0:
244,243,145280,1,12,0:0:0:0:
264,226,145565,1,0,0:0:0:0:
221,217,145708,1,8,0:0:0:0:
205,207,145780,1,8,0:0:0:0:
181,197,145851,1,0,0:0:0:0:
250,232,145994,1,8,0:0:0:0:
242,166,146137,1,0,0:0:0:0:
234,163,146208,1,8,0:0:0:0:
234,163,146280,1,0,0:0:0:0:
234,163,146351,1,0,0:0:0:0:
234,163,146422,1,8,0:0:0:0:
348,184,146565,1,0,0:0:0:0:
400,264,146708,1,8,0:0:0:0:
393,267,146780,1,8,0:0:0:0:
375,263,146851,1,0,0:0:0:0:
362,262,146922,1,0,0:0:0:0:
361,262,146994,1,8,0:0:0:0:
211,272,147065,1,8,0:0:0:0:
198,262,147137,1,0,0:0:0:0:
218,259,147280,1,8,0:0:0:0:
218,259,147351,1,0,0:0:0:0:
229,250,147422,1,8,0:0:0:0:
218,243,147494,1,8,0:0:0:0:
221,208,147565,1,0,0:0:0:0:
209,197,147708,1,0,0:0:0:0:
260,196,147851,1,8,0:0:0:0:
202,269,147922,1,0,0:0:0:0:
195,264,147994,1,8,0:0:0:0:
198,262,148065,1,8,0:0:0:0:
238,259,148137,1,0,0:0:0:0:
348,286,148280,1,0,0:0:0:0:
372,296,148422,1,8,0:0:0:0:
348,286,148494,1,0,0:0:0:0:
348,286,148565,1,8,0:0:0:0:
236,107,148637,1,8,0:0:0:0:
348,286,148708,1,0,0:0:0:0:
207,211,148851,1,0,0:0:0:0:
191,191,148994,1,8,0:0:0:0:
203,205,149065,1,8,0:0:0:0:
301,257,149137,1,8,0:0:0:0:
273,251,149208,1,8,0:0:0:0:
273,251,149280,1,0,0:0:0:0:
172,123,149351,1,0,0:0:0:0:
273,251,149422,1,0,0:0:0:0:
273,251,149494,1,0,0:0:0:0:
273,251,149565,1,8,0:0:0:0:
273,251,149637,1,8,0:0:0:0:
273,251,149708,1,0,0:0:0:0:
244,243,150137,1,12,0:0:0:0:
338,264,150422,1,0,0:0:0:0:
194,224,150494,1,0,0:0:0:0:
338,264,150565,1,0,0:0:0:0:
237,115,150708,1,8,0:0:0:0:
400,276,150851,1,8,0:0:0:0:
176,262,150922,1,8,0:0:0:0:
144,244,150994,1,0,0:0:0:0:
324,261,151137,1,8,0:0:0:0:
324,261,151208,1,8,0:0:0:0:
316,259,151280,1,0,0:0:0:0:
316,259,151351,1,0,0:0:0:0:
316,259,151422,1,8,0:0:0:0:
316,259,151494,1,8,0:0:0:0:
316,259,151565,1,0,0:0:0:0:
316,259,151637,1,0,0:0:0:0:
338,288,151708,1,8,0:0:0:0:
154,183,151851,1,0,0:0:0:0:
154,183,151994,1,0,0:0:0:0:
228,307,152137,1,12,0:0:0:0:
269,230,152422,1,0,0:0:0:0:
386,210,152565,1,0,0:0:0:0:
269,230,152708,1,8,0:0:0:0:
180,137,152780,1,8,0:0:0:0:
165,264,152851,1,8,0:0:0:0:
198,156,152994,1,0,0:0:0:0:
256,182,153137,1,0,0:0:0:0:
256,182,153208,1,0,0:0:0:0:
256,182,153280,1,8,0:0:0:0:
334,317,153422,1,0,0:0:0:0:
339,246,153494,1,0,0:0:0:0:
347,238,153565,1,8,0:0:0:0:
347,238,153637,1,8,0:0:0:0:
347,238,153708,1,0,0:0:0:0:
347,237,153780,1,0,0:0:0:0:
346,237,153851,1,8,0:0:0:0:
346,237,153922,1,8,0:0:0:0:
346,237,153994,1,0,0:0:0:0:
346,237,154137,1,8,0:0:0:0:
320,233,154280,1,8,0:0:0:0:
45,114,154422,1,4,0:0:0:0:
103,109,154708,1,8,0:0:0:0:
112,116,154851,1,8,0:0:0:0:
338,264,154994,1,0,0:0:0:0:
194,224,155065,1,0,0:0:0:0:
338,264,155137,1,0,0:0:0:0:
237,115,155280,1,8,0:0:0:0:
400,276,155422,1,8,0:0:0:0:
176,262,155494,1,8,0:0:0:0:
144,244,155565,1,0,0:0:0:0:
324,261,155708,1,8,0:0:0:0:
324,261,155780,1,8,0:0:0:0:
316,259,155851,1,0,0:0:0:0:
316,259,155922,1,0,0:0:0:0:
316,259,155994,1,8,0:0:0:0:
316,259,156065,1,8,0:0:0:0:
316,259,156137,1,0,0:0:0:0:
316,259,156208,1,0,0:0:0:0:
338,288,156280,1,8,0:0:0:0:
154,183,156422,1,0,0:0:0:0:
154,183,156565,1,0,0:0:0:0:
228,307,156708,1,12,0:0:0:0:
269,230,156994,1,0,0:0:0:0:
386,210,157137,1,0,0:0:0:0:
269,230,157280,1,8,0:0:0:0:
180,137,157351,1,8,0:0:0:0:
165,264,157422,1,8,0:0:0:0:
198,156,157565,1,0,0:0:0:0:
256,182,157708,1,0,0:0:0:0:
256,182,157780,1,0,0:0:0:0:
256,182,157851,1,8,0:0:0:0:
334,317,157994,1,0,0:0:0:0:
339,246,158065,1,0,0:0:0:0:
347,238,158137,1,8,0:0:0:0:
347,238,158208,1,8,0:0:0:0:
347,238,158280,1,0,0:0:0:0:
346,237,158422,1,8,0:0:0:0:
346,237,158494,1,8,0:0:0:0:
346,237,158565,1,0,0:0:0:0:
346,237,158708,1,8,0:0:0:0:
320,233,158851,1,8,0:0:0:0:
303,163,158994,1,4,0:0:0:0:
298,278,159280,1,8,0:0:0:0:
250,239,159422,1,0,0:0:0:0:
185,205,159494,1,0,0:0:0:0:
170,197,159565,1,8,0:0:0:0:
186,212,159708,1,0,0:0:0:0:
222,234,159851,1,8,0:0:0:0:
221,228,159922,1,8,0:0:0:0:
222,234,159994,1,8,0:0:0:0:
192,219,160065,1,8,0:0:0:0:
176,210,160137,1,0,0:0:0:0:
384,195,160280,1,8,0:0:0:0:
384,195,160351,1,8,0:0:0:0:
379,200,160422,1,0,0:0:0:0:
378,200,160494,1,0,0:0:0:0:
378,200,160565,1,8,0:0:0:0:
378,200,160637,1,8,0:0:0:0:
378,200,160708,1,0,0:0:0:0:
378,200,160780,1,0,0:0:0:0:
378,200,160851,1,8,0:0:0:0:
378,200,160994,1,0,0:0:0:0:
345,230,161137,1,0,0:0:0:0:
256,253,161280,1,12,0:0:0:0:
254,285,161565,1,0,0:0:0:0:
254,285,161708,1,8,0:0:0:0:
204,227,161780,1,8,0:0:0:0:
197,220,161851,1,0,0:0:0:0:
197,220,161994,1,8,0:0:0:0:
214,213,162137,1,0,0:0:0:0:
220,245,162208,1,0,0:0:0:0:
214,213,162280,1,0,0:0:0:0:
220,237,162351,1,0,0:0:0:0:
220,231,162422,1,8,0:0:0:0:
394,276,162565,1,0,0:0:0:0:
394,276,162637,1,0,0:0:0:0:
394,276,162708,1,8,0:0:0:0:
394,276,162780,1,8,0:0:0:0:
394,276,162851,1,0,0:0:0:0:
394,276,162922,1,0,0:0:0:0:
394,276,162994,1,8,0:0:0:0:
394,276,163065,1,8,0:0:0:0:
394,276,163137,1,0,0:0:0:0:
394,276,163280,1,8,0:0:0:0:
394,276,163422,1,8,0:0:0:0:
389,273,163565,1,4,0:0:0:0:
389,273,163851,1,8,0:0:0:0:
389,273,163994,1,0,0:0:0:0:
389,273,164065,1,0,0:0:0:0:
389,273,164137,1,8,0:0:0:0:
389,273,164280,1,0,0:0:0:0:
325,188,164422,1,8,0:0:0:0:
325,188,164494,1,8,0:0:0:0:
325,188,164565,1,8,0:0:0:0:
325,188,164637,1,8,0:0:0:0:
325,188,164708,1,0,0:0:0:0:
325,188,164851,1,8,0:0:0:0:
325,188,164922,1,8,0:0:0:0:
325,188,164994,1,0,0:0:0:0:
325,188,165065,1,0,0:0:0:0:
325,188,165137,1,8,0:0:0:0:
325,188,165208,1,8,0:0:0:0:
325,188,165280,1,0,0:0:0:0:
325,188,165351,1,0,0:0:0:0:
325,188,165422,1,8,0:0:0:0:
315,197,165565,1,0,0:0:0:0:
314,199,165708,1,0,0:0:0:0:
307,206,165851,1,12,0:0:0:0:
299,282,166137,1,0,0:0:0:0:
283,276,166280,1,8,0:0:0:0:
157,216,166351,1,8,0:0:0:0:
125,204,166422,1,0,0:0:0:0:
308,250,166565,1,8,0:0:0:0:
308,250,166708,1,0,0:0:0:0:
308,250,166780,1,0,0:0:0:0:
308,250,166851,1,0,0:0:0:0:
308,250,166922,1,0,0:0:0:0:
308,250,166994,1,8,0:0:0:0:
407,315,167137,1,0,0:0:0:0:
407,315,167208,1,0,0:0:0:0:
407,315,167280,1,8,0:0:0:0:
407,315,167351,1,8,0:0:0:0:
407,315,167422,1,0,0:0:0:0:
407,315,167494,1,0,0:0:0:0:
407,315,167565,1,8,0:0:0:0:
407,315,167637,1,8,0:0:0:0:
407,315,167708,1,8,0:0:0:0:
407,315,167780,1,8,0:0:0:0:
407,315,167851,1,0,0:0:0:0:
289,254,167994,1,0,0:0:0:0:
280,253,168065,1,0,0:0:0:0:
236,243,168137,1,8,0:0:0:0:
293,242,168422,1,0,0:0:0:0:
293,242,168565,1,8,0:0:0:0:
293,242,168708,1,0,0:0:0:0:
145,238,168994,1,8,0:0:0:0:
147,226,169137,1,0,0:0:0:0:
191,242,169422,1,8,0:0:0:0:
191,242,169708,1,0,0:0:0:0:
214,176,169994,1,0,0:0:0:0:
214,176,170137,1,8,0:0:0:0:
197,251,170422,1,0,0:0:0:0:
256,232,170708,1,8,0:0:0:0:
256,232,170851,1,0,0:0:0:0:
256,232,170994,1,8,0:0:0:0:
217,227,171280,1,0,0:0:0:0:
217,227,171422,1,8,0:0:0:0:
217,227,171708,1,0,0:0:0:0:
217,227,171994,1,8,0:0:0:0:
216,219,172280,1,8,0:0:0:0:
216,219,172422,1,0,0:0:0:0:
305,234,172708,1,8,0:0:0:0:
305,234,172994,1,0,0:0:0:0:
305,234,173137,1,8,0:0:0:0:
300,236,173280,1,0,0:0:0:0:
185,218,173565,1,8,0:0:0:0:
185,218,173708,1,0,0:0:0:0:
234,100,173994,1,8,0:0:0:0:
238,128,174280,1,0,0:0:0:0:
238,128,174565,1,0,0:0:0:0:
238,128,174708,1,8,0:0:0:0:
230,127,174994,1,0,0:0:0:0:
281,227,175280,1,8,0:0:0:0:
281,227,175422,1,0,0:0:0:0:
281,227,175565,1,8,0:0:0:0:
244,221,175851,1,0,0:0:0:0:
244,221,175994,1,8,0:0:0:0:
159,168,176280,1,8,0:0:0:0:
227,134,176565,1,0,0:0:0:0:
227,134,176851,1,0,0:0:0:0:
227,134,177137,1,8,0:0:0:0:
