osu file format v14

[General]
AudioFilename: audio.mp3
AudioLeadIn: 0
PreviewTime: 57280
Countdown: 0
SampleSet: Normal
StackLeniency: 0.7
Mode: 1
LetterboxInBreaks: 0
WidescreenStoryboard: 1

[Editor]
DistanceSpacing: 0.5
BeatDivisor: 2
GridSize: 8
TimelineZoom: 2.1

[Metadata]
Title:Streaming Heart feat. Hatsune Miku
TitleUnicode:ストリーミングハート feat. 初音ミク
Artist:DECO*27
ArtistUnicode:DECO*27
Creator:Chromoxx
Version:Futsuu
Source:
Tags:tasuke912 electronic j-rock jrock rock japanese vocaloid deco27 ががめ gagame yuma saito kous
BeatmapID:3598709
BeatmapSetID:1758476

[Difficulty]
HPDrainRate:7
CircleSize:5
OverallDifficulty:4
ApproachRate:6
SliderMultiplier:1.4
SliderTickRate:1

[Events]
//Background and Video events
0,0,"bg.jpg",0,0
Video,-125,"output.mp4"
//Break Periods
2,75765,83657
2,103194,111087
//Storyboard Layer 0 (Background)
//Storyboard Layer 1 (Fail)
//Storyboard Layer 2 (Pass)
//Storyboard Layer 3 (Foreground)
//Storyboard Layer 4 (Overlay)
//Storyboard Sound Samples

[TimingPoints]
1280,285.714285714286,4,1,0,80,1,0
10422,-100,4,1,0,100,0,0
29922,-100,4,1,0,70,0,0
38994,-100,4,1,0,100,0,0
48280,-100,4,1,0,60,0,0
57280,-100,4,1,0,100,0,1
75565,-100,4,1,0,100,0,0
75851,-100,4,1,0,70,0,0
84851,-100,4,1,0,50,0,0
92565,-100,4,1,0,65,0,0
93708,-100,4,1,0,100,0,0
103137,-100,4,1,0,75,0,0
112137,-100,4,1,0,100,0,0
121208,-100,4,1,0,50,0,0
129137,-100,4,1,0,65,0,0
131137,-100,4,1,0,85,0,0
131565,-100,4,1,0,100,0,1
139422,-100,4,1,0,100,0,0
140708,-100,4,1,0,100,0,1
168137,-100,4,1,0,100,0,0
168280,-100,4,1,0,50,0,0

[HitObjects]
256,216,1280,5,0,0:0:0:0:
256,216,1851,1,8,0:0:0:0:
256,216,2280,1,0,0:0:0:0:
312,208,2565,1,0,0:0:0:0:
312,208,2851,1,8,0:0:0:0:
304,192,3565,1,0,0:0:0:0:
336,264,4137,1,8,0:0:0:0:
336,264,4565,1,0,0:0:0:0:
336,264,4851,1,8,0:0:0:0:
336,264,5137,1,0,0:0:0:0:
336,264,5851,1,8,0:0:0:0:
264,232,6422,1,0,0:0:0:0:
264,232,6851,1,8,0:0:0:0:
264,232,7137,1,8,0:0:0:0:
264,232,7422,1,0,0:0:0:0:
264,232,8137,1,8,0:0:0:0:
264,232,9280,1,0,0:0:0:0:
336,176,9565,1,8,0:0:0:0:
336,176,9708,1,0,0:0:0:0:
336,176,9851,1,8,0:0:0:0:
240,160,10137,1,8,0:0:0:0:
240,152,10422,1,4,0:0:0:0:
288,176,10851,1,0,0:0:0:0:
288,176,10994,1,8,0:0:0:0:
304,168,11280,1,0,0:0:0:0:
304,168,11565,1,8,0:0:0:0:
232,208,11994,1,0,0:0:0:0:
296,184,12137,1,0,0:0:0:0:
304,176,12422,1,0,0:0:0:0:
264,240,12708,1,8,0:0:0:0:
240,208,13137,1,8,0:0:0:0:
224,192,13280,1,0,0:0:0:0:
240,168,13565,1,8,0:0:0:0:
240,168,13851,1,0,0:0:0:0:
232,160,14280,1,8,0:0:0:0:
232,160,14422,1,8,0:0:0:0:
240,160,14708,1,8,0:0:0:0:
104,184,14994,1,0,0:0:0:0:
288,176,15422,1,0,0:0:0:0:
288,176,15565,1,8,0:0:0:0:
304,168,15851,1,0,0:0:0:0:
304,168,16137,1,8,0:0:0:0:
232,208,16565,1,0,0:0:0:0:
296,184,16708,1,0,0:0:0:0:
304,176,16994,1,0,0:0:0:0:
264,240,17280,1,8,0:0:0:0:
240,208,17708,1,8,0:0:0:0:
224,192,17851,1,0,0:0:0:0:
240,168,18137,1,8,0:0:0:0:
240,168,18422,1,0,0:0:0:0:
232,160,18851,1,8,0:0:0:0:
232,160,18994,1,8,0:0:0:0:
240,160,19280,1,8,0:0:0:0:
104,184,19565,1,0,0:0:0:0:
288,176,19994,1,0,0:0:0:0:
288,176,20137,1,8,0:0:0:0:
304,168,20422,1,0,0:0:0:0:
304,168,20708,1,8,0:0:0:0:
232,208,21137,1,0,0:0:0:0:
296,184,21280,1,0,0:0:0:0:
304,176,21565,1,0,0:0:0:0:
264,240,21851,1,8,0:0:0:0:
240,208,22280,1,8,0:0:0:0:
224,192,22422,1,0,0:0:0:0:
240,168,22708,1,8,0:0:0:0:
240,168,22994,1,0,0:0:0:0:
232,160,23422,1,8,0:0:0:0:
232,160,23565,1,8,0:0:0:0:
240,160,23851,1,8,0:0:0:0:
104,184,24137,1,0,0:0:0:0:
288,176,24565,1,0,0:0:0:0:
288,176,24708,1,8,0:0:0:0:
304,168,24994,1,0,0:0:0:0:
304,168,25280,1,8,0:0:0:0:
232,208,25708,1,0,0:0:0:0:
296,184,25851,1,0,0:0:0:0:
304,176,26137,1,0,0:0:0:0:
264,240,26422,1,8,0:0:0:0:
240,208,26851,1,8,0:0:0:0:
224,192,26994,1,0,0:0:0:0:
240,168,27280,1,8,0:0:0:0:
240,168,27565,1,0,0:0:0:0:
232,160,27994,1,8,0:0:0:0:
232,160,28137,1,8,0:0:0:0:
240,160,28422,1,8,0:0:0:0:
104,184,28708,1,0,0:0:0:0:
192,160,29851,1,0,0:0:0:0:
240,128,30422,1,8,0:0:0:0:
160,224,30851,1,0,0:0:0:0:
160,224,31137,1,0,0:0:0:0:
200,160,31422,1,8,0:0:0:0:
256,160,31708,1,0,0:0:0:0:
256,160,31851,1,0,0:0:0:0:
144,56,32137,1,8,0:0:0:0:
152,104,32708,1,0,0:0:0:0:
328,192,33137,1,8,0:0:0:0:
328,192,33422,1,8,0:0:0:0:
328,192,33708,1,0,0:0:0:0:
272,160,33994,1,8,0:0:0:0:
272,160,34137,1,8,0:0:0:0:
216,192,34422,1,0,0:0:0:0:
240,128,34994,1,8,0:0:0:0:
160,224,35422,1,0,0:0:0:0:
160,224,35708,1,0,0:0:0:0:
200,160,35994,1,8,0:0:0:0:
256,160,36280,1,0,0:0:0:0:
256,160,36422,1,0,0:0:0:0:
144,56,36708,1,8,0:0:0:0:
152,104,37280,1,0,0:0:0:0:
224,120,37851,1,8,0:0:0:0:
224,120,38137,1,8,0:0:0:0:
304,224,38422,1,0,0:0:0:0:
304,224,38565,1,0,0:0:0:0:
280,232,38708,1,8,0:0:0:0:
344,200,38994,1,0,0:0:0:0:
240,264,39565,1,8,0:0:0:0:
240,264,39851,1,0,0:0:0:0:
232,216,40137,1,8,0:0:0:0:
232,216,40422,1,8,0:0:0:0:
240,200,40565,1,0,0:0:0:0:
240,200,40851,1,0,0:0:0:0:
240,200,41137,1,8,0:0:0:0:
320,200,41565,1,0,0:0:0:0:
256,208,41851,1,8,0:0:0:0:
256,216,41994,1,8,0:0:0:0:
248,192,42137,1,0,0:0:0:0:
248,192,42422,1,8,0:0:0:0:
240,184,42708,1,0,0:0:0:0:
248,192,42851,1,8,0:0:0:0:
248,192,43137,1,8,0:0:0:0:
248,192,43422,1,0,0:0:0:0:
305,258,43851,1,8,0:0:0:0:
305,258,44137,1,0,0:0:0:0:
208,249,44422,1,0,0:0:0:0:
266,263,44708,1,8,0:0:0:0:
233,244,44994,1,0,0:0:0:0:
233,244,45137,1,0,0:0:0:0:
192,118,45422,1,8,0:0:0:0:
192,118,45708,1,0,0:0:0:0:
267,277,46137,1,8,0:0:0:0:
365,269,46422,1,0,0:0:0:0:
365,269,46565,1,0,0:0:0:0:
276,215,46708,1,8,0:0:0:0:
345,209,46994,1,0,0:0:0:0:
345,209,47280,1,8,0:0:0:0:
284,157,47422,1,8,0:0:0:0:
284,157,47565,1,0,0:0:0:0:
270,152,47851,1,8,0:0:0:0:
249,159,48137,1,0,0:0:0:0:
389,129,48994,1,0,0:0:0:0:
343,204,49280,1,8,0:0:0:0:
203,209,49565,1,0,0:0:0:0:
203,209,49851,1,8,0:0:0:0:
203,209,50422,1,0,0:0:0:0:
155,187,51280,1,8,0:0:0:0:
155,187,51565,1,0,0:0:0:0:
155,187,51851,1,8,0:0:0:0:
155,187,52137,1,0,0:0:0:0:
219,166,52708,1,8,0:0:0:0:
219,166,53565,1,0,0:0:0:0:
219,166,53851,1,8,0:0:0:0:
219,166,54137,1,8,0:0:0:0:
219,166,54422,1,0,0:0:0:0:
225,220,54994,1,8,0:0:0:0:
157,177,55851,1,8,0:0:0:0:
255,165,56137,1,0,0:0:0:0:
255,165,56280,1,0,0:0:0:0:
255,165,56422,1,0,0:0:0:0:
255,165,56565,1,0,0:0:0:0:
228,198,56708,1,8,0:0:0:0:
291,177,57280,1,4,0:0:0:0:
273,216,57708,1,0,0:0:0:0:
245,107,58137,1,8,0:0:0:0:
245,107,58280,1,8,0:0:0:0:
197,141,58422,1,0,0:0:0:0:
197,141,58851,1,8,0:0:0:0:
197,141,59137,1,0,0:0:0:0:
169,98,59280,1,0,0:0:0:0:
377,253,59422,1,8,0:0:0:0:
102,210,59708,1,8,0:0:0:0:
377,253,59851,1,0,0:0:0:0:
377,253,60137,1,8,0:0:0:0:
336,265,60422,1,8,0:0:0:0:
267,274,60565,1,0,0:0:0:0:
275,249,60994,1,8,0:0:0:0:
202,197,61137,1,0,0:0:0:0:
202,197,61280,1,8,0:0:0:0:
220,193,61565,1,0,0:0:0:0:
235,205,61851,1,8,0:0:0:0:
235,205,62280,1,8,0:0:0:0:
277,262,62708,1,0,0:0:0:0:
277,262,62851,1,0,0:0:0:0:
40,151,62994,1,8,0:0:0:0:
323,325,63422,1,0,0:0:0:0:
268,184,63708,1,8,0:0:0:0:
268,184,63851,1,8,0:0:0:0:
169,194,63994,1,0,0:0:0:0:
224,72,64280,1,0,0:0:0:0:
169,194,64422,1,8,0:0:0:0:
169,194,64708,1,0,0:0:0:0:
196,190,64994,1,8,0:0:0:0:
196,190,65280,1,0,0:0:0:0:
262,192,65851,1,8,0:0:0:0:
262,192,65994,1,8,0:0:0:0:
262,192,66137,1,8,0:0:0:0:
228,210,66280,1,8,0:0:0:0:
228,210,66422,1,0,0:0:0:0:
265,213,66851,1,0,0:0:0:0:
241,255,67280,1,8,0:0:0:0:
126,104,67422,1,8,0:0:0:0:
305,158,67708,1,4,0:0:0:0:
305,158,67994,1,12,0:0:0:0:
305,158,68280,1,4,0:0:0:0:
201,71,68708,1,8,0:0:0:0:
201,71,69137,1,8,0:0:0:0:
201,71,69565,1,0,0:0:0:0:
200,148,69708,1,0,0:0:0:0:
228,143,69994,1,12,0:0:0:0:
191,91,70280,1,4,0:0:0:0:
156,88,70565,1,12,0:0:0:0:
288,211,70994,1,0,0:0:0:0:
288,211,71422,1,0,0:0:0:0:
288,211,71851,1,8,0:0:0:0:
288,211,71994,1,8,0:0:0:0:
267,184,72280,1,4,0:0:0:0:
267,184,72565,1,12,0:0:0:0:
267,184,72851,1,4,0:0:0:0:
231,206,73280,1,8,0:0:0:0:
238,199,73565,1,8,0:0:0:0:
238,199,73851,1,8,0:0:0:0:
238,198,74137,1,8,0:0:0:0:
247,176,74422,1,0,0:0:0:0:
246,177,74708,1,8,0:0:0:0:
246,177,74851,1,8,0:0:0:0:
236,175,74994,1,0,0:0:0:0:
251,169,75280,1,8,0:0:0:0:
251,168,75565,1,4,0:0:0:0:
200,241,84708,5,0,0:0:0:0:
260,209,85851,1,0,0:0:0:0:
260,209,86994,1,8,0:0:0:0:
260,209,88137,1,8,0:0:0:0:
260,209,89280,1,0,0:0:0:0:
260,209,90422,1,8,0:0:0:0:
260,209,91565,1,0,0:0:0:0:
260,209,92708,1,8,0:0:0:0:
260,209,92994,1,8,0:0:0:0:
260,209,93137,1,8,0:0:0:0:
260,209,93422,1,0,0:0:0:0:
344,200,93851,1,0,0:0:0:0:
240,264,94422,1,8,0:0:0:0:
240,264,94708,1,0,0:0:0:0:
232,216,94994,1,8,0:0:0:0:
232,216,95280,1,8,0:0:0:0:
240,200,95422,1,0,0:0:0:0:
240,200,95708,1,0,0:0:0:0:
240,200,95994,1,8,0:0:0:0:
320,200,96422,1,0,0:0:0:0:
256,208,96708,1,8,0:0:0:0:
256,216,96851,1,8,0:0:0:0:
248,192,96994,1,0,0:0:0:0:
248,192,97280,1,8,0:0:0:0:
240,184,97565,1,0,0:0:0:0:
248,192,97708,1,8,0:0:0:0:
248,192,97994,1,8,0:0:0:0:
248,192,98280,1,0,0:0:0:0:
305,258,98708,1,8,0:0:0:0:
305,258,98994,1,0,0:0:0:0:
208,249,99280,1,0,0:0:0:0:
266,263,99565,1,8,0:0:0:0:
233,244,99851,1,0,0:0:0:0:
233,244,99994,1,0,0:0:0:0:
192,118,100280,1,8,0:0:0:0:
192,118,100565,1,0,0:0:0:0:
267,277,100994,1,8,0:0:0:0:
365,269,101137,1,8,0:0:0:0:
365,269,101280,1,0,0:0:0:0:
276,215,101565,1,8,0:0:0:0:
345,209,101851,1,0,0:0:0:0:
345,209,102137,1,0,0:0:0:0:
284,157,102280,1,8,0:0:0:0:
284,157,102565,1,8,0:0:0:0:
270,152,102851,1,8,0:0:0:0:
249,159,102994,1,0,0:0:0:0:
216,225,112137,5,0,0:0:0:0:
163,241,112422,1,0,0:0:0:0:
225,264,112565,1,0,0:0:0:0:
233,241,113280,1,0,0:0:0:0:
98,163,113422,1,0,0:0:0:0:
233,241,113565,1,0,0:0:0:0:
233,241,113708,1,0,0:0:0:0:
220,211,113851,1,0,0:0:0:0:
224,256,114422,1,8,0:0:0:0:
224,256,114708,1,8,0:0:0:0:
224,256,114851,1,8,0:0:0:0:
224,256,115565,1,8,0:0:0:0:
224,256,115708,1,8,0:0:0:0:
190,243,115851,1,8,0:0:0:0:
224,256,115994,1,8,0:0:0:0:
190,243,116137,1,8,0:0:0:0:
191,200,116708,1,0,0:0:0:0:
191,200,116994,1,0,0:0:0:0:
191,200,117137,1,0,0:0:0:0:
290,184,117994,1,0,0:0:0:0:
290,184,118137,1,0,0:0:0:0:
290,184,118280,1,0,0:0:0:0:
290,184,118422,1,0,0:0:0:0:
281,173,118994,1,8,0:0:0:0:
281,173,119280,1,8,0:0:0:0:
281,173,119422,1,8,0:0:0:0:
243,212,120137,1,8,0:0:0:0:
243,212,120280,1,8,0:0:0:0:
243,212,120422,1,8,0:0:0:0:
243,212,120565,1,8,0:0:0:0:
249,159,121280,1,0,0:0:0:0:
389,129,122137,1,0,0:0:0:0:
343,204,122422,1,8,0:0:0:0:
203,209,122708,1,0,0:0:0:0:
203,209,122994,1,8,0:0:0:0:
203,209,123565,1,0,0:0:0:0:
155,187,124422,1,8,0:0:0:0:
155,187,124708,1,0,0:0:0:0:
155,187,124994,1,8,0:0:0:0:
155,187,125280,1,0,0:0:0:0:
219,166,125851,1,8,0:0:0:0:
219,166,126708,1,0,0:0:0:0:
219,166,126994,1,8,0:0:0:0:
219,166,127280,1,8,0:0:0:0:
219,166,127565,1,0,0:0:0:0:
225,220,128137,1,8,0:0:0:0:
157,177,128994,1,8,0:0:0:0:
255,165,129280,1,0,0:0:0:0:
255,165,129422,1,0,0:0:0:0:
255,165,129565,1,0,0:0:0:0:
255,165,129708,1,0,0:0:0:0:
228,198,129851,1,8,0:0:0:0:
122,143,131280,1,8,0:0:0:0:
291,177,131565,1,4,0:0:0:0:
273,216,131994,1,0,0:0:0:0:
245,107,132422,1,8,0:0:0:0:
245,107,132565,1,8,0:0:0:0:
197,141,132708,1,0,0:0:0:0:
197,141,133137,1,8,0:0:0:0:
197,141,133422,1,0,0:0:0:0:
169,98,133565,1,0,0:0:0:0:
377,253,133708,1,8,0:0:0:0:
324,161,133994,1,8,0:0:0:0:
377,253,134137,1,0,0:0:0:0:
377,253,134422,1,8,0:0:0:0:
336,265,134708,1,8,0:0:0:0:
267,274,134851,1,0,0:0:0:0:
275,249,135280,1,8,0:0:0:0:
202,197,135422,1,0,0:0:0:0:
202,197,135565,1,8,0:0:0:0:
220,193,135851,1,0,0:0:0:0:
235,205,136137,1,8,0:0:0:0:
235,205,136565,1,8,0:0:0:0:
277,262,136994,1,0,0:0:0:0:
277,262,137137,1,0,0:0:0:0:
40,151,137280,1,8,0:0:0:0:
323,325,137708,1,0,0:0:0:0:
268,184,137994,1,8,0:0:0:0:
268,184,138137,1,8,0:0:0:0:
169,194,138280,1,0,0:0:0:0:
457,218,138565,1,0,0:0:0:0:
169,194,138708,1,8,0:0:0:0:
169,194,138994,1,0,0:0:0:0:
196,190,139280,1,8,0:0:0:0:
325,154,139422,1,8,0:0:0:0:
331,248,140708,1,4,0:0:0:0:
340,229,140994,1,8,0:0:0:0:
367,196,141280,1,0,0:0:0:0:
344,184,141422,1,0,0:0:0:0:
288,189,141565,1,8,0:0:0:0:
288,189,141851,1,0,0:0:0:0:
274,145,142137,1,8,0:0:0:0:
274,145,142280,1,0,0:0:0:0:
253,164,142565,1,0,0:0:0:0:
253,164,142708,1,8,0:0:0:0:
182,221,142851,1,8,0:0:0:0:
287,135,142994,1,0,0:0:0:0:
287,135,143280,1,8,0:0:0:0:
287,135,143565,1,0,0:0:0:0:
255,158,143994,1,8,0:0:0:0:
330,124,144280,1,0,0:0:0:0:
330,124,144422,1,8,0:0:0:0:
306,130,144708,1,0,0:0:0:0:
224,229,145280,1,8,0:0:0:0:
273,253,145565,1,0,0:0:0:0:
224,229,145851,1,8,0:0:0:0:
224,229,145994,1,8,0:0:0:0:
229,237,146137,1,0,0:0:0:0:
306,179,146422,1,8,0:0:0:0:
288,161,146708,1,0,0:0:0:0:
288,161,146851,1,8,0:0:0:0:
275,183,147137,1,8,0:0:0:0:
282,173,147280,1,0,0:0:0:0:
277,273,147422,1,0,0:0:0:0:
269,151,147565,1,8,0:0:0:0:
324,207,147851,1,0,0:0:0:0:
253,222,148137,1,8,0:0:0:0:
253,222,148280,1,8,0:0:0:0:
253,222,148422,1,0,0:0:0:0:
200,165,148708,1,8,0:0:0:0:
200,196,149280,1,8,0:0:0:0:
200,196,149565,1,8,0:0:0:0:
240,199,150137,1,12,0:0:0:0:
287,283,150708,1,8,0:0:0:0:
287,283,150851,1,8,0:0:0:0:
296,262,151137,1,4,0:0:0:0:
263,247,151422,1,12,0:0:0:0:
263,247,151708,1,4,0:0:0:0:
265,256,152137,1,8,0:0:0:0:
183,221,152422,1,0,0:0:0:0:
251,250,152565,1,8,0:0:0:0:
241,267,152994,1,0,0:0:0:0:
168,104,153137,1,0,0:0:0:0:
200,228,153422,1,12,0:0:0:0:
212,212,153708,1,4,0:0:0:0:
212,211,153994,1,12,0:0:0:0:
214,223,154422,1,0,0:0:0:0:
214,223,154708,1,8,0:0:0:0:
214,223,154851,1,0,0:0:0:0:
241,179,155280,1,8,0:0:0:0:
241,179,155422,1,8,0:0:0:0:
228,209,155708,1,4,0:0:0:0:
228,209,155994,1,12,0:0:0:0:
228,209,156280,1,4,0:0:0:0:
213,205,156708,1,8,0:0:0:0:
201,205,156994,1,0,0:0:0:0:
201,205,157137,1,8,0:0:0:0:
195,207,157565,1,0,0:0:0:0:
195,207,157708,1,0,0:0:0:0:
201,205,157994,1,12,0:0:0:0:
195,207,158280,1,4,0:0:0:0:
180,173,158994,1,0,0:0:0:0:
244,226,159280,1,8,0:0:0:0:
244,226,159565,1,0,0:0:0:0:
244,226,159708,1,0,0:0:0:0:
244,226,159851,1,8,0:0:0:0:
346,308,159994,1,8,0:0:0:0:
203,211,160280,1,4,0:0:0:0:
203,211,160565,1,12,0:0:0:0:
203,211,160851,1,4,0:0:0:0:
209,205,161280,1,8,0:0:0:0:
209,205,161565,1,0,0:0:0:0:
213,203,161851,1,8,0:0:0:0:
209,205,161994,1,8,0:0:0:0:
202,190,162137,1,0,0:0:0:0:
202,190,162280,1,0,0:0:0:0:
228,210,162565,1,12,0:0:0:0:
228,210,162851,1,4,0:0:0:0:
228,210,163137,1,12,0:0:0:0:
249,187,163565,1,0,0:0:0:0:
249,187,163851,1,8,0:0:0:0:
249,187,164137,1,0,0:0:0:0:
249,187,164280,1,0,0:0:0:0:
249,187,164422,1,8,0:0:0:0:
222,175,164565,1,8,0:0:0:0:
253,196,164851,1,4,0:0:0:0:
253,196,165137,1,12,0:0:0:0:
253,196,165422,1,4,0:0:0:0:
183,151,165851,1,8,0:0:0:0:
255,205,166137,1,0,0:0:0:0:
255,205,166422,1,8,0:0:0:0:
255,205,166565,1,8,0:0:0:0:
255,200,166708,1,0,0:0:0:0:
255,200,166994,1,8,0:0:0:0:
307,238,167280,1,0,0:0:0:0:
307,238,167565,1,8,0:0:0:0:
307,238,167708,1,8,0:0:0:0:
307,238,167851,1,8,0:0:0:0:
265,269,168137,1,0,0:0:0:0:
265,269,168708,1,8,0:0:0:0:
265,281,169137,1,0,0:0:0:0:
265,281,169422,1,0,0:0:0:0:
265,281,169708,1,8,0:0:0:0:
242,172,170422,1,0,0:0:0:0:
242,172,170994,1,0,0:0:0:0:
263,198,171422,1,8,0:0:0:0:
263,198,171708,1,0,0:0:0:0:
263,198,171994,1,8,0:0:0:0:
261,209,172708,1,0,0:0:0:0:
261,209,173280,1,8,0:0:0:0:
261,209,173708,1,0,0:0:0:0:
261,209,173994,1,0,0:0:0:0:
261,209,174280,1,0,0:0:0:0:
261,209,174994,1,8,0:0:0:0:
261,209,175565,1,0,0:0:0:0:
261,209,175994,1,8,0:0:0:0:
261,209,176280,1,8,0:0:0:0:
261,209,176565,1,0,0:0:0:0:
239,191,177137,1,8,0:0:0:0:
