osu file format v14

[General]
AudioFilename: audio.mp3
AudioLeadIn: 0
PreviewTime: 57280
Countdown: 0
SampleSet: Normal
StackLeniency: 0.7
Mode: 1
LetterboxInBreaks: 0
WidescreenStoryboard: 0

[Editor]
DistanceSpacing: 0.5
BeatDivisor: 12
GridSize: 8
TimelineZoom: 2.1

[Metadata]
Title:Streaming Heart feat. Hatsune Miku
TitleUnicode:ストリーミングハート feat. 初音ミク
Artist:DECO*27
ArtistUnicode:DECO*27
Creator:Chromoxx
Version:Anniversary Oni
Source:
Tags:tasuke912 electronic j-rock jrock rock japanese vocaloid deco27 ががめ gagame yuma saito kous
BeatmapID:3598708
BeatmapSetID:1758476

[Difficulty]
HPDrainRate:7
CircleSize:5
OverallDifficulty:7
ApproachRate:6
SliderMultiplier:1.4
SliderTickRate:1

[Events]
//Background and Video events
0,0,"bg.jpg",0,0
Video,-125,"output.mp4"
//Break Periods
//Storyboard Layer 0 (Background)
//Storyboard Layer 1 (Fail)
//Storyboard Layer 2 (Pass)
//Storyboard Layer 3 (Foreground)
//Storyboard Layer 4 (Overlay)
//Storyboard Sound Samples

[TimingPoints]
1280,285.714285714286,4,1,0,80,1,0
10422,-100,4,1,0,100,0,0
28899,-93.4579439252336,4,1,0,100,0,0
29089,-87.719298245614,4,1,0,100,0,0
29280,-82.6446280991736,4,1,0,100,0,0
29470,-78.125,4,1,0,100,0,0
29660,-74.0740740740741,4,1,0,100,0,0
29922,-100,4,1,0,70,0,0
38994,-100,4,1,0,100,0,0
48280,-100,4,1,0,60,0,0
57280,-100,4,1,0,100,0,1
75565,-100,4,1,0,100,0,0
75851,-100,4,1,0,70,0,0
84851,-100,4,1,0,50,0,0
92565,-100,4,1,0,65,0,0
93708,-100,4,1,0,100,0,0
103137,-100,4,1,0,75,0,0
112137,-100,4,1,0,100,0,0
120708,-25,4,1,0,30,0,0
121208,-100,4,1,0,50,0,0
129137,-100,4,1,0,65,0,0
131137,-100,4,1,0,85,0,0
131280,-28.5714285714286,4,1,0,85,0,0
131565,-100,4,1,0,100,0,1
139422,-100,4,1,0,100,0,0
140708,-100,4,1,0,100,0,1
168137,-100,4,1,0,100,0,0
168280,-100,4,1,0,50,0,0

[HitObjects]
308,271,1280,5,0,0:0:0:0:
217,296,1565,1,8,0:0:0:0:
217,296,1708,1,8,0:0:0:0:
230,238,1851,1,0,0:0:0:0:
297,184,2137,1,8,0:0:0:0:
145,163,2280,1,8,0:0:0:0:
138,182,2422,1,0,0:0:0:0:
138,182,2565,1,8,0:0:0:0:
192,149,2851,1,0,0:0:0:0:
201,233,3137,1,0,0:0:0:0:
201,233,3280,1,8,0:0:0:0:
201,233,3422,1,8,0:0:0:0:
192,182,3565,1,0,0:0:0:0:
277,126,3851,1,8,0:0:0:0:
272,130,3994,1,0,0:0:0:0:
254,132,4137,1,8,0:0:0:0:
283,237,4422,1,0,0:0:0:0:
209,213,4565,1,0,0:0:0:0:
189,201,4708,1,8,0:0:0:0:
150,211,4851,1,8,0:0:0:0:
146,254,5137,1,0,0:0:0:0:
146,254,5422,1,0,0:0:0:0:
170,226,5565,1,8,0:0:0:0:
210,222,5708,1,0,0:0:0:0:
211,258,5851,1,8,0:0:0:0:
250,278,6137,1,0,0:0:0:0:
250,278,6280,1,0,0:0:0:0:
162,195,6422,1,8,0:0:0:0:
171,235,6708,1,0,0:0:0:0:
290,177,6851,1,0,0:0:0:0:
290,177,6994,1,8,0:0:0:0:
155,109,7137,1,0,0:0:0:0:
175,107,7422,1,8,0:0:0:0:
206,179,7708,1,8,0:0:0:0:
193,153,7851,1,0,0:0:0:0:
193,153,7994,1,0,0:0:0:0:
191,132,8137,1,8,0:0:0:0:
191,135,8422,1,0,0:0:0:0:
191,129,8565,1,8,0:0:0:0:
187,93,8708,1,0,0:0:0:0:
242,266,8994,1,8,0:0:0:0:
242,266,9137,1,8,0:0:0:0:
98,194,9280,1,0,0:0:0:0:
216,230,9351,1,8,0:0:0:0:
216,230,9422,1,8,0:0:0:0:
98,194,9494,1,0,0:0:0:0:
103,204,9565,1,8,0:0:0:0:
255,200,9708,1,0,0:0:0:0:
293,244,9851,1,8,0:0:0:0:
293,244,9922,1,8,0:0:0:0:
293,244,9994,1,0,0:0:0:0:
164,240,10065,1,8,0:0:0:0:
173,234,10137,1,8,0:0:0:0:
166,228,10208,1,0,0:0:0:0:
159,221,10280,1,8,0:0:0:0:
182,232,10422,1,4,0:0:0:0:
250,248,10637,1,0,0:0:0:0:
220,310,10708,1,0,0:0:0:0:
174,245,10851,1,0,0:0:0:0:
221,250,10994,1,8,0:0:0:0:
144,248,11137,1,0,0:0:0:0:
233,103,11208,1,0,0:0:0:0:
233,103,11280,1,8,0:0:0:0:
233,103,11422,1,0,0:0:0:0:
233,103,11565,1,8,0:0:0:0:
179,188,11708,1,0,0:0:0:0:
325,297,11780,1,0,0:0:0:0:
201,247,11922,1,0,0:0:0:0:
201,245,11994,1,0,0:0:0:0:
201,247,12137,1,8,0:0:0:0:
227,290,12280,1,0,0:0:0:0:
227,290,12351,1,0,0:0:0:0:
227,290,12422,1,8,0:0:0:0:
227,290,12494,1,0,0:0:0:0:
227,290,12565,1,8,0:0:0:0:
228,283,12708,1,4,0:0:0:0:
159,254,12922,1,0,0:0:0:0:
159,254,12994,1,8,0:0:0:0:
189,276,13137,1,0,0:0:0:0:
157,244,13280,1,8,0:0:0:0:
164,137,13422,1,0,0:0:0:0:
158,125,13494,1,8,0:0:0:0:
158,125,13565,1,8,0:0:0:0:
158,125,13708,1,0,0:0:0:0:
157,123,13851,1,8,0:0:0:0:
156,123,13994,1,0,0:0:0:0:
156,123,14065,1,8,0:0:0:0:
155,120,14208,1,0,0:0:0:0:
155,120,14280,1,8,0:0:0:0:
163,169,14422,1,0,0:0:0:0:
163,169,14565,1,8,0:0:0:0:
163,169,14637,1,0,0:0:0:0:
163,169,14708,1,0,0:0:0:0:
163,169,14780,1,8,0:0:0:0:
163,169,14851,1,0,0:0:0:0:
163,169,14994,1,12,0:0:0:0:
191,278,15208,1,8,0:0:0:0:
205,255,15280,1,8,0:0:0:0:
144,256,15422,1,8,0:0:0:0:
164,223,15565,1,0,0:0:0:0:
283,237,15708,1,8,0:0:0:0:
283,237,15780,1,8,0:0:0:0:
283,237,15851,1,0,0:0:0:0:
277,235,15994,1,8,0:0:0:0:
255,232,16137,1,0,0:0:0:0:
235,238,16280,1,8,0:0:0:0:
235,238,16351,1,8,0:0:0:0:
235,238,16494,1,8,0:0:0:0:
235,238,16565,1,8,0:0:0:0:
162,237,16708,1,0,0:0:0:0:
250,277,16851,1,8,0:0:0:0:
302,235,16922,1,8,0:0:0:0:
240,203,16994,1,0,0:0:0:0:
222,199,17065,1,8,0:0:0:0:
42,122,17137,1,0,0:0:0:0:
250,277,17280,1,12,0:0:0:0:
181,259,17494,1,8,0:0:0:0:
165,245,17565,1,0,0:0:0:0:
179,248,17708,1,8,0:0:0:0:
201,233,17851,1,0,0:0:0:0:
201,233,17994,1,8,0:0:0:0:
161,221,18065,1,0,0:0:0:0:
331,260,18137,1,0,0:0:0:0:
322,258,18280,1,8,0:0:0:0:
217,150,18422,1,0,0:0:0:0:
214,242,18565,1,8,0:0:0:0:
204,218,18637,1,0,0:0:0:0:
202,132,18780,1,8,0:0:0:0:
202,132,18851,1,0,0:0:0:0:
261,270,18994,1,8,0:0:0:0:
313,264,19137,1,0,0:0:0:0:
313,264,19208,1,8,0:0:0:0:
313,264,19280,1,8,0:0:0:0:
313,264,19351,1,0,0:0:0:0:
313,264,19422,1,8,0:0:0:0:
182,232,19565,1,4,0:0:0:0:
250,248,19780,1,0,0:0:0:0:
220,310,19851,1,0,0:0:0:0:
174,245,19994,1,0,0:0:0:0:
221,250,20137,1,8,0:0:0:0:
144,248,20280,1,0,0:0:0:0:
233,103,20351,1,0,0:0:0:0:
233,103,20422,1,8,0:0:0:0:
116,110,20494,1,8,0:0:0:0:
233,103,20565,1,0,0:0:0:0:
233,103,20708,1,8,0:0:0:0:
179,188,20851,1,0,0:0:0:0:
325,297,20922,1,0,0:0:0:0:
201,247,21065,1,0,0:0:0:0:
201,245,21137,1,0,0:0:0:0:
349,167,21280,1,8,0:0:0:0:
245,160,21351,1,8,0:0:0:0:
227,290,21422,1,0,0:0:0:0:
227,290,21494,1,0,0:0:0:0:
227,290,21565,1,8,0:0:0:0:
227,290,21637,1,0,0:0:0:0:
227,290,21708,1,8,0:0:0:0:
228,283,21851,1,4,0:0:0:0:
159,254,22065,1,0,0:0:0:0:
159,254,22137,1,8,0:0:0:0:
189,276,22280,1,0,0:0:0:0:
157,244,22422,1,8,0:0:0:0:
164,137,22565,1,0,0:0:0:0:
158,125,22637,1,8,0:0:0:0:
158,125,22708,1,8,0:0:0:0:
288,179,22780,1,8,0:0:0:0:
158,125,22851,1,0,0:0:0:0:
157,123,22994,1,8,0:0:0:0:
156,123,23137,1,0,0:0:0:0:
156,123,23208,1,8,0:0:0:0:
155,120,23351,1,0,0:0:0:0:
155,120,23422,1,8,0:0:0:0:
163,169,23565,1,0,0:0:0:0:
282,171,23637,1,0,0:0:0:0:
163,169,23708,1,8,0:0:0:0:
163,169,23780,1,0,0:0:0:0:
163,169,23851,1,0,0:0:0:0:
163,169,23922,1,8,0:0:0:0:
163,169,23994,1,0,0:0:0:0:
163,169,24137,1,12,0:0:0:0:
191,278,24351,1,8,0:0:0:0:
205,255,24422,1,8,0:0:0:0:
144,256,24565,1,8,0:0:0:0:
164,223,24708,1,0,0:0:0:0:
283,237,24851,1,8,0:0:0:0:
283,237,24922,1,8,0:0:0:0:
283,237,24994,1,0,0:0:0:0:
341,190,25065,1,0,0:0:0:0:
277,235,25137,1,8,0:0:0:0:
255,232,25280,1,0,0:0:0:0:
235,238,25422,1,8,0:0:0:0:
235,238,25494,1,8,0:0:0:0:
235,238,25637,1,8,0:0:0:0:
235,238,25708,1,8,0:0:0:0:
162,237,25851,1,0,0:0:0:0:
315,188,25922,1,0,0:0:0:0:
250,277,25994,1,8,0:0:0:0:
302,235,26065,1,8,0:0:0:0:
240,203,26137,1,0,0:0:0:0:
222,199,26208,1,8,0:0:0:0:
42,122,26280,1,0,0:0:0:0:
250,277,26422,1,12,0:0:0:0:
181,259,26637,1,8,0:0:0:0:
165,245,26708,1,0,0:0:0:0:
179,248,26851,1,8,0:0:0:0:
201,233,26994,1,0,0:0:0:0:
201,233,27137,1,8,0:0:0:0:
161,221,27208,1,0,0:0:0:0:
331,260,27280,1,0,0:0:0:0:
376,170,27351,1,0,0:0:0:0:
322,258,27422,1,8,0:0:0:0:
217,150,27565,1,0,0:0:0:0:
214,242,27708,1,8,0:0:0:0:
204,218,27780,1,0,0:0:0:0:
202,132,27922,1,8,0:0:0:0:
202,132,27994,1,0,0:0:0:0:
261,270,28137,1,8,0:0:0:0:
294,167,28208,1,8,0:0:0:0:
313,264,28280,1,0,0:0:0:0:
313,264,28351,1,8,0:0:0:0:
313,264,28422,1,8,0:0:0:0:
313,264,28494,1,0,0:0:0:0:
313,264,28565,1,8,0:0:0:0:
108,126,28637,1,8,0:0:0:0:
147,255,28708,1,0,0:0:0:0:
239,205,28899,1,0,0:0:0:0:
239,205,29089,1,0,0:0:0:0:
239,205,29280,1,0,0:0:0:0:
239,205,29470,1,8,0:0:0:0:
194,156,29660,1,8,0:0:0:0:
189,147,29708,1,8,0:0:0:0:
189,147,29756,1,8,0:0:0:0:
189,147,29803,1,8,0:0:0:0:
189,147,29851,1,0,0:0:0:0:
303,280,30137,1,8,0:0:0:0:
199,236,30280,1,8,0:0:0:0:
216,248,30422,1,0,0:0:0:0:
200,252,30708,1,0,0:0:0:0:
200,252,30851,1,0,0:0:0:0:
197,255,30994,1,8,0:0:0:0:
212,258,31137,1,0,0:0:0:0:
269,237,31422,1,8,0:0:0:0:
179,267,31565,1,0,0:0:0:0:
196,257,31708,1,0,0:0:0:0:
187,233,31851,1,8,0:0:0:0:
187,233,31994,1,8,0:0:0:0:
285,189,32137,1,0,0:0:0:0:
185,144,32422,1,8,0:0:0:0:
241,151,32565,1,0,0:0:0:0:
189,185,32708,1,8,0:0:0:0:
221,189,32994,1,8,0:0:0:0:
285,189,33137,1,8,0:0:0:0:
184,132,33280,1,0,0:0:0:0:
184,132,33422,1,0,0:0:0:0:
205,226,33708,1,8,0:0:0:0:
182,260,33851,1,8,0:0:0:0:
263,239,33994,1,0,0:0:0:0:
263,239,34137,1,0,0:0:0:0:
235,175,34280,1,8,0:0:0:0:
235,175,34422,1,8,0:0:0:0:
254,183,34708,1,0,0:0:0:0:
254,183,34851,1,0,0:0:0:0:
144,168,34994,1,8,0:0:0:0:
232,220,35280,1,8,0:0:0:0:
232,220,35422,1,8,0:0:0:0:
183,253,35565,1,0,0:0:0:0:
183,253,35708,1,8,0:0:0:0:
213,212,35994,1,0,0:0:0:0:
169,242,36137,1,8,0:0:0:0:
169,242,36280,1,8,0:0:0:0:
128,238,36422,1,0,0:0:0:0:
128,238,36565,1,0,0:0:0:0:
143,236,36708,1,8,0:0:0:0:
205,264,36994,1,0,0:0:0:0:
205,264,37137,1,8,0:0:0:0:
199,226,37280,1,0,0:0:0:0:
183,192,37565,1,0,0:0:0:0:
183,192,37708,1,0,0:0:0:0:
196,179,37851,1,8,0:0:0:0:
194,221,37994,1,8,0:0:0:0:
219,184,38065,1,8,0:0:0:0:
193,168,38137,1,8,0:0:0:0:
224,249,38280,1,8,0:0:0:0:
294,242,38422,1,0,0:0:0:0:
294,242,38494,1,0,0:0:0:0:
294,242,38565,1,8,0:0:0:0:
294,242,38637,1,0,0:0:0:0:
294,242,38708,1,8,0:0:0:0:
294,242,38780,1,8,0:0:0:0:
193,264,38851,1,8,0:0:0:0:
240,254,38922,1,8,0:0:0:0:
192,250,38994,1,0,0:0:0:0:
173,184,39208,1,0,0:0:0:0:
204,197,39280,1,8,0:0:0:0:
164,262,39422,1,0,0:0:0:0:
210,285,39494,1,0,0:0:0:0:
122,240,39565,1,8,0:0:0:0:
122,240,39708,1,8,0:0:0:0:
172,199,39851,1,0,0:0:0:0:
250,243,39922,1,0,0:0:0:0:
177,211,39994,1,8,0:0:0:0:
275,209,40137,1,0,0:0:0:0:
287,200,40208,1,0,0:0:0:0:
263,183,40280,1,0,0:0:0:0:
213,165,40351,1,0,0:0:0:0:
207,161,40422,1,8,0:0:0:0:
223,159,40565,1,0,0:0:0:0:
205,167,40637,1,8,0:0:0:0:
200,161,40708,1,0,0:0:0:0:
179,158,40780,1,0,0:0:0:0:
190,208,40851,1,8,0:0:0:0:
220,209,40922,1,0,0:0:0:0:
232,197,40994,1,8,0:0:0:0:
216,198,41065,1,8,0:0:0:0:
190,185,41137,1,0,0:0:0:0:
122,148,41208,1,0,0:0:0:0:
122,148,41280,1,8,0:0:0:0:
98,200,41422,1,0,0:0:0:0:
224,216,41565,1,8,0:0:0:0:
155,229,41708,1,8,0:0:0:0:
138,200,41780,1,8,0:0:0:0:
121,231,41851,1,0,0:0:0:0:
127,228,41994,1,0,0:0:0:0:
124,224,42137,1,8,0:0:0:0:
121,217,42208,1,8,0:0:0:0:
113,213,42280,1,0,0:0:0:0:
145,265,42422,1,8,0:0:0:0:
220,258,42494,1,8,0:0:0:0:
147,250,42565,1,8,0:0:0:0:
187,263,42637,1,8,0:0:0:0:
146,245,42708,1,0,0:0:0:0:
144,246,42851,1,8,0:0:0:0:
116,204,42922,1,0,0:0:0:0:
137,205,42994,1,8,0:0:0:0:
134,226,43065,1,8,0:0:0:0:
272,172,43137,1,0,0:0:0:0:
307,230,43208,1,8,0:0:0:0:
207,213,43280,1,0,0:0:0:0:
201,197,43351,1,0,0:0:0:0:
152,177,43422,1,8,0:0:0:0:
192,192,43494,1,8,0:0:0:0:
145,173,43565,1,0,0:0:0:0:
263,216,43780,1,0,0:0:0:0:
201,216,43851,1,8,0:0:0:0:
136,189,43994,1,0,0:0:0:0:
134,226,44065,1,0,0:0:0:0:
106,210,44137,1,0,0:0:0:0:
132,216,44280,1,0,0:0:0:0:
118,209,44422,1,8,0:0:0:0:
114,224,44494,1,0,0:0:0:0:
108,216,44565,1,0,0:0:0:0:
118,218,44708,1,8,0:0:0:0:
137,250,44780,1,8,0:0:0:0:
115,222,44851,1,0,0:0:0:0:
182,241,44922,1,0,0:0:0:0:
75,229,44994,1,0,0:0:0:0:
180,185,45137,1,8,0:0:0:0:
278,207,45208,1,8,0:0:0:0:
165,168,45280,1,8,0:0:0:0:
168,161,45351,1,0,0:0:0:0:
291,238,45422,1,8,0:0:0:0:
291,238,45494,1,8,0:0:0:0:
291,238,45565,1,0,0:0:0:0:
291,238,45637,1,0,0:0:0:0:
172,169,45708,1,8,0:0:0:0:
153,150,45780,1,0,0:0:0:0:
150,148,45851,1,8,0:0:0:0:
199,237,45994,1,8,0:0:0:0:
189,218,46137,1,0,0:0:0:0:
251,94,46280,1,8,0:0:0:0:
251,94,46351,1,8,0:0:0:0:
251,94,46422,1,8,0:0:0:0:
132,76,46565,1,8,0:0:0:0:
132,76,46708,1,0,0:0:0:0:
132,76,46780,1,8,0:0:0:0:
132,76,46851,1,8,0:0:0:0:
180,134,46994,1,0,0:0:0:0:
187,172,47065,1,0,0:0:0:0:
149,153,47137,1,8,0:0:0:0:
187,172,47208,1,8,0:0:0:0:
145,146,47280,1,8,0:0:0:0:
277,221,47422,1,0,0:0:0:0:
245,205,47494,1,0,0:0:0:0:
233,197,47565,1,0,0:0:0:0:
248,222,47637,1,8,0:0:0:0:
349,283,47708,1,0,0:0:0:0:
290,235,47780,1,8,0:0:0:0:
290,235,47851,1,8,0:0:0:0:
354,248,47922,1,8,0:0:0:0:
354,248,47994,1,0,0:0:0:0:
290,234,48065,1,8,0:0:0:0:
290,234,48137,1,0,0:0:0:0:
205,246,48422,1,8,0:0:0:0:
217,251,48565,1,0,0:0:0:0:
218,250,48851,1,0,0:0:0:0:
218,250,48994,1,8,0:0:0:0:
200,157,49280,1,0,0:0:0:0:
200,157,49565,1,8,0:0:0:0:
200,157,49708,1,0,0:0:0:0:
200,157,49851,1,8,0:0:0:0:
223,111,50137,1,0,0:0:0:0:
339,107,50422,1,8,0:0:0:0:
341,112,50708,1,0,0:0:0:0:
341,113,50851,1,8,0:0:0:0:
340,114,51137,1,8,0:0:0:0:
293,129,51280,1,0,0:0:0:0:
224,216,51565,1,8,0:0:0:0:
224,216,51851,1,0,0:0:0:0:
224,216,51994,1,8,0:0:0:0:
346,84,52137,1,0,0:0:0:0:
305,97,52422,1,8,0:0:0:0:
261,142,52708,1,0,0:0:0:0:
258,133,52994,1,8,0:0:0:0:
258,133,53137,1,0,0:0:0:0:
258,133,53422,1,0,0:0:0:0:
256,132,53565,1,8,0:0:0:0:
258,133,53851,1,0,0:0:0:0:
319,210,54137,1,8,0:0:0:0:
319,210,54280,1,8,0:0:0:0:
204,258,54422,1,0,0:0:0:0:
171,236,54708,1,8,0:0:0:0:
204,162,54994,5,0,0:0:0:0:
204,162,55280,1,0,0:0:0:0:
204,162,55565,1,0,0:0:0:0:
204,162,55851,1,8,0:0:0:0:
215,152,56137,1,0,0:0:0:0:
215,152,56208,1,0,0:0:0:0:
192,124,56280,1,0,0:0:0:0:
192,124,56351,1,0,0:0:0:0:
192,124,56422,1,0,0:0:0:0:
192,124,56494,1,0,0:0:0:0:
192,124,56565,1,0,0:0:0:0:
192,124,56637,1,0,0:0:0:0:
192,124,56708,1,8,0:0:0:0:
336,230,57280,1,4,0:0:0:0:
205,224,57494,1,0,0:0:0:0:
241,207,57565,1,8,0:0:0:0:
255,169,57708,1,0,0:0:0:0:
203,107,57780,1,0,0:0:0:0:
168,91,57851,1,8,0:0:0:0:
168,91,57994,1,0,0:0:0:0:
180,165,58137,1,8,0:0:0:0:
156,163,58208,1,0,0:0:0:0:
182,210,58280,1,8,0:0:0:0:
184,190,58351,1,8,0:0:0:0:
183,184,58422,1,0,0:0:0:0:
250,209,58565,1,0,0:0:0:0:
173,155,58637,1,0,0:0:0:0:
173,155,58708,1,8,0:0:0:0:
270,264,58851,1,0,0:0:0:0:
191,224,58922,1,8,0:0:0:0:
157,236,58994,1,0,0:0:0:0:
215,215,59065,1,0,0:0:0:0:
205,206,59137,1,8,0:0:0:0:
204,204,59208,1,0,0:0:0:0:
166,191,59280,1,8,0:0:0:0:
257,203,59422,1,0,0:0:0:0:
250,209,59494,1,0,0:0:0:0:
242,200,59565,1,0,0:0:0:0:
171,224,59637,1,0,0:0:0:0:
242,197,59708,1,8,0:0:0:0:
266,220,59851,1,0,0:0:0:0:
201,225,59994,1,8,0:0:0:0:
107,144,60065,1,8,0:0:0:0:
107,144,60137,1,0,0:0:0:0:
136,205,60280,1,0,0:0:0:0:
107,186,60351,1,0,0:0:0:0:
110,208,60422,1,8,0:0:0:0:
100,196,60494,1,0,0:0:0:0:
157,240,60565,1,8,0:0:0:0:
139,216,60637,1,8,0:0:0:0:
123,203,60708,1,0,0:0:0:0:
194,211,60851,1,0,0:0:0:0:
206,235,60922,1,0,0:0:0:0:
176,208,60994,1,8,0:0:0:0:
245,189,61137,1,0,0:0:0:0:
63,147,61208,1,0,0:0:0:0:
59,142,61280,1,8,0:0:0:0:
59,142,61351,1,0,0:0:0:0:
59,142,61422,1,8,0:0:0:0:
59,141,61494,1,8,0:0:0:0:
59,141,61565,1,0,0:0:0:0:
59,141,61637,1,8,0:0:0:0:
62,137,61708,1,0,0:0:0:0:
62,137,61780,1,0,0:0:0:0:
62,137,61851,1,8,0:0:0:0:
194,257,62065,1,8,0:0:0:0:
164,228,62137,1,0,0:0:0:0:
185,189,62280,1,8,0:0:0:0:
270,248,62351,1,8,0:0:0:0:
200,216,62422,1,0,0:0:0:0:
200,216,62565,1,8,0:0:0:0:
280,199,62708,1,0,0:0:0:0:
272,131,62780,1,8,0:0:0:0:
272,131,62851,1,0,0:0:0:0:
272,131,62922,1,0,0:0:0:0:
272,131,62994,1,8,0:0:0:0:
180,161,63137,1,8,0:0:0:0:
180,172,63208,1,8,0:0:0:0:
139,148,63280,1,0,0:0:0:0:
320,216,63422,1,8,0:0:0:0:
320,216,63494,1,0,0:0:0:0:
320,216,63565,1,8,0:0:0:0:
320,216,63637,1,8,0:0:0:0:
333,225,63708,1,0,0:0:0:0:
333,224,63780,1,8,0:0:0:0:
333,224,63851,1,0,0:0:0:0:
333,224,63994,1,8,0:0:0:0:
228,207,64065,1,8,0:0:0:0:
207,218,64137,1,8,0:0:0:0:
137,193,64208,1,8,0:0:0:0:
128,188,64280,1,0,0:0:0:0:
341,254,64422,1,8,0:0:0:0:
341,254,64494,1,0,0:0:0:0:
341,254,64565,1,0,0:0:0:0:
341,254,64708,1,8,0:0:0:0:
341,254,64780,1,8,0:0:0:0:
341,254,64851,1,0,0:0:0:0:
341,254,64994,1,8,0:0:0:0:
341,254,65065,1,0,0:0:0:0:
341,254,65137,1,0,0:0:0:0:
303,256,65280,1,8,0:0:0:0:
219,248,65422,1,8,0:0:0:0:
229,232,65565,1,0,0:0:0:0:
229,232,65708,1,0,0:0:0:0:
218,204,65851,1,8,0:0:0:0:
184,215,65922,1,8,0:0:0:0:
142,192,65994,1,8,0:0:0:0:
142,192,66065,1,8,0:0:0:0:
169,223,66137,1,8,0:0:0:0:
142,192,66208,1,8,0:0:0:0:
149,197,66280,1,8,0:0:0:0:
191,214,66351,1,8,0:0:0:0:
168,271,66422,1,0,0:0:0:0:
213,234,66637,1,0,0:0:0:0:
207,225,66708,1,8,0:0:0:0:
220,221,66851,1,0,0:0:0:0:
217,219,66922,1,0,0:0:0:0:
213,218,66994,1,0,0:0:0:0:
213,221,67065,1,0,0:0:0:0:
214,221,67137,1,8,0:0:0:0:
214,221,67280,1,0,0:0:0:0:
278,291,67351,1,0,0:0:0:0:
245,219,67422,1,8,0:0:0:0:
140,196,67494,1,8,0:0:0:0:
218,242,67565,1,0,0:0:0:0:
252,296,67708,1,8,0:0:0:0:
276,236,67780,1,0,0:0:0:0:
236,247,67851,1,8,0:0:0:0:
297,249,67994,1,0,0:0:0:0:
297,249,68065,1,8,0:0:0:0:
276,236,68137,1,0,0:0:0:0:
276,236,68280,1,8,0:0:0:0:
276,236,68351,1,0,0:0:0:0:
276,236,68422,1,8,0:0:0:0:
276,236,68494,1,8,0:0:0:0:
276,236,68565,1,0,0:0:0:0:
341,287,68708,1,12,0:0:0:0:
222,262,68922,1,8,0:0:0:0:
215,292,68994,1,0,0:0:0:0:
251,306,69137,1,8,0:0:0:0:
247,299,69208,1,8,0:0:0:0:
233,284,69280,1,8,0:0:0:0:
229,277,69351,1,8,0:0:0:0:
217,269,69422,1,0,0:0:0:0:
217,269,69565,1,8,0:0:0:0:
217,269,69637,1,8,0:0:0:0:
213,264,69708,1,0,0:0:0:0:
207,261,69780,1,0,0:0:0:0:
192,253,69851,1,8,0:0:0:0:
334,302,69994,1,0,0:0:0:0:
334,302,70065,1,8,0:0:0:0:
334,302,70137,1,0,0:0:0:0:
334,302,70280,1,8,0:0:0:0:
334,302,70351,1,0,0:0:0:0:
334,302,70422,1,8,0:0:0:0:
334,302,70565,1,0,0:0:0:0:
334,302,70637,1,8,0:0:0:0:
334,302,70708,1,0,0:0:0:0:
334,302,70780,1,0,0:0:0:0:
334,302,70851,1,8,0:0:0:0:
334,302,70994,1,4,0:0:0:0:
319,299,71208,1,0,0:0:0:0:
249,243,71280,1,8,0:0:0:0:
265,265,71422,1,0,0:0:0:0:
405,312,71494,1,0,0:0:0:0:
365,284,71565,1,0,0:0:0:0:
365,284,71637,1,0,0:0:0:0:
242,248,71708,1,8,0:0:0:0:
304,314,71851,1,0,0:0:0:0:
132,238,71922,1,8,0:0:0:0:
186,204,71994,1,8,0:0:0:0:
145,191,72065,1,8,0:0:0:0:
135,216,72137,1,0,0:0:0:0:
135,216,72280,1,8,0:0:0:0:
127,208,72351,1,8,0:0:0:0:
213,238,72422,1,8,0:0:0:0:
188,238,72565,1,0,0:0:0:0:
188,238,72637,1,0,0:0:0:0:
175,232,72708,1,0,0:0:0:0:
176,234,72851,1,8,0:0:0:0:
177,249,72922,1,8,0:0:0:0:
179,233,72994,1,8,0:0:0:0:
204,245,73065,1,8,0:0:0:0:
181,233,73137,1,0,0:0:0:0:
188,233,73280,1,12,0:0:0:0:
398,290,73422,1,0,0:0:0:0:
398,290,73494,1,0,0:0:0:0:
337,280,73565,1,8,0:0:0:0:
337,280,73708,1,8,0:0:0:0:
337,280,73780,1,8,0:0:0:0:
337,280,73851,1,0,0:0:0:0:
282,302,73994,1,0,0:0:0:0:
231,289,74065,1,0,0:0:0:0:
298,270,74137,1,8,0:0:0:0:
101,192,74208,1,0,0:0:0:0:
298,270,74280,1,8,0:0:0:0:
227,285,74351,1,8,0:0:0:0:
298,270,74422,1,0,0:0:0:0:
270,290,74565,1,0,0:0:0:0:
90,252,74637,1,0,0:0:0:0:
171,246,74708,1,8,0:0:0:0:
276,257,74851,1,8,0:0:0:0:
298,270,74922,1,8,0:0:0:0:
293,252,74994,1,8,0:0:0:0:
290,250,75137,1,8,0:0:0:0:
290,250,75280,1,8,0:0:0:0:
290,250,75422,1,8,0:0:0:0:
272,249,75565,1,4,0:0:0:0:
339,276,75851,1,8,0:0:0:0:
339,276,75994,1,8,0:0:0:0:
309,247,76422,1,8,0:0:0:0:
232,256,76708,1,0,0:0:0:0:
248,252,76994,1,8,0:0:0:0:
111,121,77137,1,0,0:0:0:0:
111,121,77565,1,8,0:0:0:0:
121,134,77851,1,0,0:0:0:0:
257,259,78137,1,8,0:0:0:0:
257,259,78280,1,8,0:0:0:0:
257,259,78708,1,8,0:0:0:0:
176,237,78994,1,0,0:0:0:0:
216,237,79280,1,8,0:0:0:0:
216,237,79422,1,0,0:0:0:0:
216,237,79708,1,0,0:0:0:0:
216,237,79851,1,8,0:0:0:0:
216,237,79994,1,8,0:0:0:0:
165,220,80137,1,0,0:0:0:0:
165,220,80422,1,8,0:0:0:0:
165,220,80565,1,8,0:0:0:0:
165,220,80994,1,8,0:0:0:0:
196,208,81280,1,0,0:0:0:0:
196,208,81565,1,8,0:0:0:0:
196,208,81708,1,0,0:0:0:0:
196,208,82137,1,8,0:0:0:0:
207,212,82422,1,0,0:0:0:0:
207,212,82708,1,8,0:0:0:0:
207,212,82851,1,8,0:0:0:0:
207,212,83280,1,8,0:0:0:0:
207,212,83565,1,0,0:0:0:0:
207,212,83851,1,8,0:0:0:0:
204,194,83994,1,0,0:0:0:0:
269,182,84280,1,0,0:0:0:0:
269,182,84422,1,8,0:0:0:0:
269,182,84565,1,8,0:0:0:0:
202,200,84708,1,0,0:0:0:0:
241,238,84994,1,8,0:0:0:0:
228,170,85137,1,0,0:0:0:0:
252,167,85565,1,8,0:0:0:0:
218,173,85851,1,0,0:0:0:0:
218,174,86137,1,8,0:0:0:0:
218,173,86280,1,0,0:0:0:0:
168,109,86708,1,8,0:0:0:0:
214,244,86994,1,0,0:0:0:0:
214,244,87280,1,8,0:0:0:0:
214,244,87422,1,0,0:0:0:0:
224,174,87851,1,8,0:0:0:0:
224,174,88137,1,0,0:0:0:0:
256,171,88422,1,8,0:0:0:0:
256,171,88565,1,8,0:0:0:0:
247,178,88994,1,0,0:0:0:0:
247,178,89280,1,8,0:0:0:0:
247,178,89565,1,0,0:0:0:0:
231,153,89708,1,8,0:0:0:0:
231,153,90137,1,0,0:0:0:0:
231,153,90422,1,8,0:0:0:0:
231,153,90708,1,0,0:0:0:0:
231,153,90851,1,8,0:0:0:0:
244,177,91280,1,0,0:0:0:0:
244,177,91565,1,8,0:0:0:0:
244,177,91851,1,0,0:0:0:0:
244,177,91994,1,8,0:0:0:0:
244,177,92422,1,0,0:0:0:0:
240,186,92708,1,8,0:0:0:0:
240,186,92994,1,8,0:0:0:0:
202,207,93065,1,8,0:0:0:0:
240,186,93137,1,8,0:0:0:0:
201,228,93208,1,8,0:0:0:0:
202,207,93280,1,8,0:0:0:0:
232,202,93351,1,8,0:0:0:0:
224,195,93422,1,0,0:0:0:0:
285,172,93851,1,12,0:0:0:0:
204,197,94065,1,8,0:0:0:0:
173,184,94137,1,0,0:0:0:0:
164,262,94280,1,8,0:0:0:0:
210,285,94351,1,8,0:0:0:0:
122,240,94422,1,0,0:0:0:0:
122,240,94565,1,0,0:0:0:0:
172,199,94708,1,8,0:0:0:0:
250,243,94780,1,8,0:0:0:0:
177,211,94851,1,0,0:0:0:0:
275,209,94994,1,8,0:0:0:0:
287,200,95065,1,8,0:0:0:0:
263,183,95137,1,8,0:0:0:0:
213,165,95208,1,8,0:0:0:0:
207,161,95280,1,0,0:0:0:0:
223,159,95422,1,8,0:0:0:0:
205,167,95494,1,0,0:0:0:0:
200,161,95565,1,8,0:0:0:0:
179,158,95637,1,8,0:0:0:0:
190,208,95708,1,0,0:0:0:0:
220,209,95780,1,8,0:0:0:0:
232,197,95851,1,0,0:0:0:0:
216,198,95922,1,0,0:0:0:0:
190,185,95994,1,8,0:0:0:0:
122,148,96065,1,8,0:0:0:0:
122,148,96137,1,0,0:0:0:0:
98,200,96280,1,8,0:0:0:0:
224,216,96422,1,0,0:0:0:0:
155,229,96565,1,0,0:0:0:0:
138,200,96637,1,0,0:0:0:0:
121,231,96708,1,8,0:0:0:0:
127,228,96851,1,8,0:0:0:0:
124,224,96994,1,0,0:0:0:0:
121,217,97065,1,0,0:0:0:0:
113,213,97137,1,8,0:0:0:0:
145,265,97280,1,0,0:0:0:0:
220,258,97351,1,0,0:0:0:0:
147,250,97422,1,0,0:0:0:0:
187,263,97494,1,0,0:0:0:0:
146,245,97565,1,8,0:0:0:0:
144,246,97708,1,0,0:0:0:0:
116,204,97780,1,8,0:0:0:0:
137,205,97851,1,0,0:0:0:0:
134,226,97922,1,0,0:0:0:0:
272,172,97994,1,8,0:0:0:0:
307,230,98065,1,0,0:0:0:0:
207,213,98137,1,8,0:0:0:0:
201,197,98208,1,8,0:0:0:0:
152,177,98280,1,0,0:0:0:0:
192,192,98351,1,0,0:0:0:0:
145,173,98422,1,8,0:0:0:0:
201,216,98637,1,8,0:0:0:0:
263,216,98708,1,0,0:0:0:0:
136,189,98851,1,8,0:0:0:0:
134,226,98922,1,8,0:0:0:0:
106,210,98994,1,8,0:0:0:0:
132,216,99137,1,8,0:0:0:0:
118,209,99280,1,0,0:0:0:0:
114,224,99351,1,8,0:0:0:0:
108,216,99422,1,8,0:0:0:0:
118,218,99565,1,0,0:0:0:0:
137,250,99637,1,0,0:0:0:0:
115,222,99708,1,8,0:0:0:0:
182,241,99780,1,8,0:0:0:0:
75,229,99851,1,8,0:0:0:0:
180,185,99994,1,0,0:0:0:0:
278,207,100065,1,0,0:0:0:0:
165,168,100137,1,0,0:0:0:0:
168,161,100208,1,8,0:0:0:0:
291,238,100280,1,0,0:0:0:0:
291,238,100351,1,0,0:0:0:0:
291,238,100422,1,8,0:0:0:0:
291,238,100494,1,8,0:0:0:0:
172,169,100565,1,0,0:0:0:0:
153,150,100637,1,8,0:0:0:0:
150,148,100708,1,0,0:0:0:0:
199,237,100851,1,0,0:0:0:0:
189,218,100994,1,8,0:0:0:0:
251,94,101137,1,0,0:0:0:0:
251,94,101208,1,0,0:0:0:0:
251,94,101280,1,0,0:0:0:0:
132,76,101422,1,0,0:0:0:0:
132,76,101565,1,8,0:0:0:0:
132,76,101637,1,0,0:0:0:0:
132,76,101708,1,0,0:0:0:0:
180,134,101851,1,8,0:0:0:0:
187,172,101922,1,8,0:0:0:0:
149,153,101994,1,0,0:0:0:0:
228,230,102065,1,0,0:0:0:0:
266,231,102137,1,8,0:0:0:0:
325,103,102208,1,0,0:0:0:0:
277,221,102280,1,8,0:0:0:0:
172,248,102422,1,0,0:0:0:0:
214,217,102565,1,8,0:0:0:0:
214,217,102708,1,8,0:0:0:0:
214,217,102851,1,8,0:0:0:0:
209,196,102994,1,0,0:0:0:0:
265,229,103280,1,8,0:0:0:0:
265,229,103422,1,0,0:0:0:0:
297,211,103708,1,0,0:0:0:0:
297,211,103851,1,8,0:0:0:0:
222,210,104137,1,0,0:0:0:0:
222,210,104280,1,0,0:0:0:0:
155,204,104422,1,8,0:0:0:0:
155,204,104565,1,0,0:0:0:0:
209,194,104851,1,0,0:0:0:0:
259,147,105137,1,8,0:0:0:0:
259,147,105280,1,8,0:0:0:0:
249,146,105565,1,0,0:0:0:0:
189,159,105708,1,8,0:0:0:0:
278,265,105994,1,8,0:0:0:0:
225,225,106137,1,0,0:0:0:0:
200,217,106422,1,8,0:0:0:0:
255,250,106565,1,8,0:0:0:0:
234,221,106708,1,0,0:0:0:0:
211,169,106851,1,8,0:0:0:0:
246,194,106994,1,0,0:0:0:0:
189,162,107280,1,8,0:0:0:0:
236,146,107565,1,0,0:0:0:0:
230,219,107851,1,8,0:0:0:0:
241,235,107994,1,8,0:0:0:0:
219,86,108137,1,0,0:0:0:0:
151,141,108280,1,0,0:0:0:0:
126,111,108422,1,8,0:0:0:0:
185,217,108708,1,0,0:0:0:0:
229,227,108851,1,0,0:0:0:0:
240,214,108994,1,8,0:0:0:0:
240,214,109137,1,0,0:0:0:0:
298,175,109280,1,8,0:0:0:0:
294,190,109422,1,8,0:0:0:0:
273,178,109565,1,0,0:0:0:0:
246,203,109851,1,8,0:0:0:0:
246,202,110137,1,0,0:0:0:0:
246,203,110280,1,0,0:0:0:0:
185,154,110422,1,8,0:0:0:0:
185,154,110565,1,8,0:0:0:0:
237,140,110708,1,0,0:0:0:0:
237,140,110851,1,8,0:0:0:0:
268,153,111137,1,0,0:0:0:0:
268,153,111422,1,0,0:0:0:0:
268,153,111708,1,0,0:0:0:0:
271,222,111851,1,8,0:0:0:0:
271,222,111994,1,8,0:0:0:0:
277,185,112137,1,4,0:0:0:0:
282,210,112351,1,0,0:0:0:0:
251,185,112422,1,8,0:0:0:0:
277,185,112565,1,0,0:0:0:0:
213,263,112708,1,8,0:0:0:0:
199,256,112780,1,0,0:0:0:0:
161,224,112851,1,0,0:0:0:0:
148,209,112922,1,8,0:0:0:0:
146,208,112994,1,0,0:0:0:0:
146,208,113137,1,8,0:0:0:0:
389,265,113280,1,0,0:0:0:0:
389,265,113351,1,8,0:0:0:0:
389,265,113422,1,8,0:0:0:0:
389,265,113494,1,0,0:0:0:0:
389,265,113565,1,8,0:0:0:0:
389,265,113637,1,8,0:0:0:0:
389,265,113708,1,0,0:0:0:0:
291,280,113851,1,8,0:0:0:0:
222,249,113922,1,8,0:0:0:0:
191,232,113994,1,0,0:0:0:0:
186,224,114065,1,8,0:0:0:0:
173,210,114137,1,8,0:0:0:0:
223,212,114208,1,8,0:0:0:0:
273,233,114280,1,0,0:0:0:0:
60,178,114422,1,12,0:0:0:0:
342,273,114637,1,8,0:0:0:0:
342,273,114708,1,0,0:0:0:0:
342,273,114851,1,8,0:0:0:0:
223,273,114994,1,0,0:0:0:0:
223,273,115065,1,8,0:0:0:0:
223,273,115137,1,8,0:0:0:0:
223,273,115208,1,0,0:0:0:0:
223,273,115280,1,8,0:0:0:0:
221,205,115422,1,0,0:0:0:0:
198,199,115565,1,8,0:0:0:0:
198,199,115637,1,0,0:0:0:0:
195,193,115708,1,0,0:0:0:0:
195,193,115780,1,8,0:0:0:0:
195,193,115851,1,0,0:0:0:0:
195,193,115922,1,0,0:0:0:0:
195,193,115994,1,8,0:0:0:0:
195,193,116137,1,0,0:0:0:0:
64,190,116208,1,0,0:0:0:0:
80,189,116280,1,8,0:0:0:0:
80,189,116351,1,0,0:0:0:0:
80,189,116422,1,0,0:0:0:0:
86,182,116494,1,0,0:0:0:0:
86,182,116565,1,8,0:0:0:0:
86,182,116708,1,4,0:0:0:0:
213,301,116922,1,0,0:0:0:0:
144,238,116994,1,8,0:0:0:0:
252,225,117137,1,0,0:0:0:0:
356,278,117280,1,8,0:0:0:0:
356,278,117351,1,8,0:0:0:0:
356,278,117422,1,0,0:0:0:0:
356,278,117494,1,8,0:0:0:0:
352,274,117565,1,0,0:0:0:0:
137,214,117708,1,8,0:0:0:0:
227,206,117851,1,0,0:0:0:0:
227,206,117922,1,0,0:0:0:0:
309,277,117994,1,8,0:0:0:0:
309,277,118065,1,0,0:0:0:0:
309,277,118137,1,8,0:0:0:0:
309,277,118208,1,0,0:0:0:0:
309,277,118280,1,8,0:0:0:0:
287,265,118422,1,0,0:0:0:0:
287,265,118494,1,8,0:0:0:0:
287,265,118565,1,8,0:0:0:0:
287,264,118637,1,0,0:0:0:0:
287,264,118708,1,0,0:0:0:0:
287,264,118780,1,8,0:0:0:0:
287,264,118851,1,0,0:0:0:0:
146,189,118994,1,12,0:0:0:0:
149,214,119208,1,8,0:0:0:0:
143,202,119280,1,0,0:0:0:0:
287,222,119422,1,8,0:0:0:0:
368,308,119565,1,0,0:0:0:0:
229,259,119637,1,0,0:0:0:0:
175,241,119708,1,8,0:0:0:0:
170,237,119780,1,0,0:0:0:0:
165,233,119851,1,8,0:0:0:0:
165,233,119994,1,0,0:0:0:0:
154,130,120137,1,8,0:0:0:0:
154,130,120208,1,8,0:0:0:0:
154,130,120280,1,0,0:0:0:0:
154,130,120351,1,8,0:0:0:0:
154,130,120422,1,0,0:0:0:0:
154,130,120494,1,8,0:0:0:0:
154,130,120565,1,0,0:0:0:0:
256,192,120708,12,0,121137,0:0:0:0:
229,86,121280,5,0,0:0:0:0:
205,246,121565,1,8,0:0:0:0:
217,251,121708,1,0,0:0:0:0:
218,250,121994,1,0,0:0:0:0:
218,250,122137,1,8,0:0:0:0:
200,157,122422,1,0,0:0:0:0:
200,157,122708,1,8,0:0:0:0:
200,157,122851,1,0,0:0:0:0:
200,157,122994,1,8,0:0:0:0:
223,111,123280,1,0,0:0:0:0:
339,107,123565,1,8,0:0:0:0:
341,112,123851,1,0,0:0:0:0:
341,113,123994,1,8,0:0:0:0:
340,114,124280,1,8,0:0:0:0:
293,129,124422,1,0,0:0:0:0:
224,216,124708,1,8,0:0:0:0:
224,216,124994,1,0,0:0:0:0:
224,216,125137,1,8,0:0:0:0:
346,84,125280,1,0,0:0:0:0:
305,97,125565,1,8,0:0:0:0:
261,142,125851,1,0,0:0:0:0:
258,133,126137,1,8,0:0:0:0:
258,133,126280,1,0,0:0:0:0:
258,133,126565,1,0,0:0:0:0:
256,132,126708,1,8,0:0:0:0:
258,133,126994,1,0,0:0:0:0:
319,210,127280,1,8,0:0:0:0:
319,210,127422,5,8,0:0:0:0:
204,258,127565,1,0,0:0:0:0:
171,236,127851,1,8,0:0:0:0:
204,162,128137,5,0,0:0:0:0:
204,162,128422,1,0,0:0:0:0:
204,162,128708,1,0,0:0:0:0:
204,162,128994,1,8,0:0:0:0:
215,152,129280,1,0,0:0:0:0:
215,152,129351,1,0,0:0:0:0:
192,124,129422,1,0,0:0:0:0:
192,124,129494,1,0,0:0:0:0:
192,124,129565,1,0,0:0:0:0:
192,124,129637,1,0,0:0:0:0:
192,124,129708,1,0,0:0:0:0:
192,124,129780,1,0,0:0:0:0:
192,124,129851,1,8,0:0:0:0:
262,176,131280,1,12,0:0:0:0:
336,230,131565,1,4,0:0:0:0:
205,224,131780,1,0,0:0:0:0:
241,207,131851,1,8,0:0:0:0:
255,169,131994,1,0,0:0:0:0:
203,107,132065,1,0,0:0:0:0:
168,91,132137,1,8,0:0:0:0:
168,91,132280,1,0,0:0:0:0:
180,165,132422,1,8,0:0:0:0:
156,163,132494,1,0,0:0:0:0:
182,210,132565,1,8,0:0:0:0:
184,190,132637,1,8,0:0:0:0:
183,184,132708,1,0,0:0:0:0:
250,209,132851,1,0,0:0:0:0:
173,155,132922,1,0,0:0:0:0:
173,155,132994,1,8,0:0:0:0:
270,264,133137,1,0,0:0:0:0:
191,224,133208,1,8,0:0:0:0:
157,236,133280,1,0,0:0:0:0:
215,215,133351,1,0,0:0:0:0:
205,206,133422,1,8,0:0:0:0:
204,204,133494,1,0,0:0:0:0:
166,191,133565,1,8,0:0:0:0:
257,203,133708,1,0,0:0:0:0:
250,209,133780,1,0,0:0:0:0:
242,200,133851,1,0,0:0:0:0:
171,224,133922,1,0,0:0:0:0:
242,197,133994,1,8,0:0:0:0:
266,220,134137,1,0,0:0:0:0:
201,225,134280,1,8,0:0:0:0:
107,144,134351,1,8,0:0:0:0:
107,144,134422,1,0,0:0:0:0:
136,205,134565,1,0,0:0:0:0:
107,186,134637,1,0,0:0:0:0:
110,208,134708,1,8,0:0:0:0:
100,196,134780,1,0,0:0:0:0:
157,240,134851,1,8,0:0:0:0:
139,216,134922,1,8,0:0:0:0:
123,203,134994,1,0,0:0:0:0:
194,211,135137,1,0,0:0:0:0:
206,235,135208,1,0,0:0:0:0:
176,208,135280,1,8,0:0:0:0:
245,189,135422,1,0,0:0:0:0:
63,147,135494,1,0,0:0:0:0:
59,142,135565,1,8,0:0:0:0:
59,142,135637,1,0,0:0:0:0:
59,142,135708,1,8,0:0:0:0:
59,141,135780,1,8,0:0:0:0:
59,141,135851,1,0,0:0:0:0:
59,141,135922,1,8,0:0:0:0:
62,137,135994,1,0,0:0:0:0:
62,137,136065,1,0,0:0:0:0:
62,137,136137,1,8,0:0:0:0:
194,257,136351,1,8,0:0:0:0:
164,228,136422,1,0,0:0:0:0:
185,189,136565,1,8,0:0:0:0:
270,248,136637,1,8,0:0:0:0:
200,216,136708,1,0,0:0:0:0:
200,216,136851,1,8,0:0:0:0:
280,199,136994,1,0,0:0:0:0:
272,131,137065,1,8,0:0:0:0:
272,131,137137,1,0,0:0:0:0:
272,131,137208,1,0,0:0:0:0:
272,131,137280,1,8,0:0:0:0:
180,161,137422,1,8,0:0:0:0:
180,172,137494,1,8,0:0:0:0:
139,148,137565,1,0,0:0:0:0:
320,216,137708,1,8,0:0:0:0:
320,216,137780,1,0,0:0:0:0:
320,216,137851,1,8,0:0:0:0:
320,216,137922,1,8,0:0:0:0:
333,225,137994,1,0,0:0:0:0:
333,224,138065,1,8,0:0:0:0:
333,224,138137,1,0,0:0:0:0:
333,224,138280,1,8,0:0:0:0:
228,207,138351,1,8,0:0:0:0:
207,218,138422,1,8,0:0:0:0:
137,193,138494,1,8,0:0:0:0:
128,188,138565,1,0,0:0:0:0:
341,254,138708,1,8,0:0:0:0:
341,254,138780,1,0,0:0:0:0:
341,254,138851,1,0,0:0:0:0:
341,254,138994,1,8,0:0:0:0:
341,254,139065,1,8,0:0:0:0:
341,254,139137,1,0,0:0:0:0:
303,256,139280,1,8,0:0:0:0:
219,248,139422,1,8,0:0:0:0:
336,230,140708,1,4,0:0:0:0:
36,194,140851,1,0,0:0:0:0:
205,224,140922,1,0,0:0:0:0:
241,207,140994,1,8,0:0:0:0:
203,107,141065,1,8,0:0:0:0:
255,169,141137,1,0,0:0:0:0:
203,244,141208,1,0,0:0:0:0:
168,91,141280,1,8,0:0:0:0:
168,91,141422,1,0,0:0:0:0:
324,329,141494,1,0,0:0:0:0:
180,165,141565,1,8,0:0:0:0:
156,163,141637,1,0,0:0:0:0:
182,210,141708,1,8,0:0:0:0:
184,190,141780,1,8,0:0:0:0:
183,184,141851,1,0,0:0:0:0:
250,209,141994,1,0,0:0:0:0:
343,282,142065,1,0,0:0:0:0:
343,282,142137,1,8,0:0:0:0:
343,282,142208,1,0,0:0:0:0:
343,282,142280,1,8,0:0:0:0:
191,224,142351,1,8,0:0:0:0:
157,236,142422,1,8,0:0:0:0:
215,215,142565,1,0,0:0:0:0:
205,206,142637,1,0,0:0:0:0:
166,191,142708,1,8,0:0:0:0:
316,296,142780,1,0,0:0:0:0:
257,203,142851,1,8,0:0:0:0:
219,103,142922,1,8,0:0:0:0:
242,200,142994,1,0,0:0:0:0:
263,216,143065,1,0,0:0:0:0:
242,197,143137,1,8,0:0:0:0:
373,207,143208,1,0,0:0:0:0:
266,220,143280,1,8,0:0:0:0:
201,225,143351,1,8,0:0:0:0:
107,144,143422,1,0,0:0:0:0:
107,144,143565,1,8,0:0:0:0:
222,131,143637,1,8,0:0:0:0:
136,205,143708,1,0,0:0:0:0:
107,186,143780,1,0,0:0:0:0:
110,208,143851,1,8,0:0:0:0:
100,196,143922,1,0,0:0:0:0:
157,240,143994,1,8,0:0:0:0:
139,216,144065,1,8,0:0:0:0:
123,203,144137,1,0,0:0:0:0:
194,211,144280,1,0,0:0:0:0:
206,235,144351,1,0,0:0:0:0:
176,208,144422,1,8,0:0:0:0:
283,251,144494,1,8,0:0:0:0:
309,213,144565,1,0,0:0:0:0:
309,213,144637,1,8,0:0:0:0:
309,213,144708,1,0,0:0:0:0:
59,142,144780,1,0,0:0:0:0:
59,142,144851,1,8,0:0:0:0:
374,284,144922,1,0,0:0:0:0:
374,284,144994,1,8,0:0:0:0:
59,141,145065,1,8,0:0:0:0:
62,137,145137,1,0,0:0:0:0:
62,137,145208,1,0,0:0:0:0:
62,137,145280,1,8,0:0:0:0:
342,319,145422,1,8,0:0:0:0:
194,257,145494,1,8,0:0:0:0:
273,309,145565,1,0,0:0:0:0:
192,278,145637,1,0,0:0:0:0:
185,189,145708,1,8,0:0:0:0:
270,248,145780,1,8,0:0:0:0:
200,216,145851,1,0,0:0:0:0:
200,216,145994,1,8,0:0:0:0:
374,224,146065,1,8,0:0:0:0:
280,199,146137,1,0,0:0:0:0:
272,131,146208,1,8,0:0:0:0:
272,131,146280,1,0,0:0:0:0:
272,131,146351,1,0,0:0:0:0:
272,131,146422,1,8,0:0:0:0:
180,161,146565,1,8,0:0:0:0:
328,289,146637,1,0,0:0:0:0:
311,288,146708,1,8,0:0:0:0:
311,288,146780,1,8,0:0:0:0:
311,288,146851,1,0,0:0:0:0:
306,285,146922,1,0,0:0:0:0:
306,285,146994,1,0,0:0:0:0:
333,225,147137,1,8,0:0:0:0:
333,224,147208,1,0,0:0:0:0:
333,224,147280,1,8,0:0:0:0:
320,216,147351,1,8,0:0:0:0:
333,224,147422,1,0,0:0:0:0:
228,207,147494,1,8,0:0:0:0:
207,218,147565,1,0,0:0:0:0:
333,225,147708,1,8,0:0:0:0:
333,224,147780,1,0,0:0:0:0:
333,224,147851,1,8,0:0:0:0:
320,216,147922,1,8,0:0:0:0:
333,224,147994,1,0,0:0:0:0:
228,207,148065,1,8,0:0:0:0:
207,218,148137,1,0,0:0:0:0:
333,225,148280,1,8,0:0:0:0:
333,224,148351,1,0,0:0:0:0:
333,224,148422,1,8,0:0:0:0:
320,216,148494,1,8,0:0:0:0:
333,224,148565,1,0,0:0:0:0:
228,207,148637,1,8,0:0:0:0:
207,218,148708,1,0,0:0:0:0:
411,298,148780,1,0,0:0:0:0:
409,291,148851,1,8,0:0:0:0:
409,291,148922,1,0,0:0:0:0:
409,291,148994,1,8,0:0:0:0:
409,291,149065,1,8,0:0:0:0:
409,291,149137,1,0,0:0:0:0:
409,291,149208,1,8,0:0:0:0:
409,291,149280,1,8,0:0:0:0:
409,291,149351,1,0,0:0:0:0:
409,291,149422,1,8,0:0:0:0:
409,291,149494,1,8,0:0:0:0:
409,291,149565,1,0,0:0:0:0:
409,291,149637,1,0,0:0:0:0:
281,278,149708,1,0,0:0:0:0:
314,251,149780,1,8,0:0:0:0:
343,232,149851,1,0,0:0:0:0:
335,225,150137,1,12,0:0:0:0:
331,279,150280,1,0,0:0:0:0:
318,279,150351,1,0,0:0:0:0:
316,277,150422,1,8,0:0:0:0:
187,262,150565,1,0,0:0:0:0:
248,286,150637,1,8,0:0:0:0:
184,257,150708,1,0,0:0:0:0:
175,243,150780,1,0,0:0:0:0:
165,233,150851,1,8,0:0:0:0:
170,239,150922,1,8,0:0:0:0:
155,221,150994,1,0,0:0:0:0:
235,232,151137,1,8,0:0:0:0:
318,267,151208,1,8,0:0:0:0:
232,312,151280,1,8,0:0:0:0:
318,266,151351,1,0,0:0:0:0:
318,266,151422,1,8,0:0:0:0:
368,280,151494,1,8,0:0:0:0:
205,275,151565,1,0,0:0:0:0:
192,267,151637,1,0,0:0:0:0:
194,258,151708,1,8,0:0:0:0:
241,222,151780,1,0,0:0:0:0:
368,280,151851,1,0,0:0:0:0:
368,280,151922,1,0,0:0:0:0:
233,202,151994,1,8,0:0:0:0:
286,276,152137,1,4,0:0:0:0:
124,175,152280,1,8,0:0:0:0:
185,143,152351,1,8,0:0:0:0:
176,139,152422,1,0,0:0:0:0:
176,139,152494,1,0,0:0:0:0:
176,137,152565,1,8,0:0:0:0:
176,137,152637,1,8,0:0:0:0:
174,136,152708,1,0,0:0:0:0:
299,161,152851,1,8,0:0:0:0:
257,206,152922,1,0,0:0:0:0:
257,206,152994,1,8,0:0:0:0:
257,206,153065,1,8,0:0:0:0:
318,259,153137,1,0,0:0:0:0:
318,259,153208,1,0,0:0:0:0:
318,259,153280,1,8,0:0:0:0:
318,259,153422,1,0,0:0:0:0:
318,259,153494,1,0,0:0:0:0:
440,304,153565,1,0,0:0:0:0:
288,240,153637,1,8,0:0:0:0:
280,232,153708,1,0,0:0:0:0:
360,304,153780,1,0,0:0:0:0:
192,224,153851,1,8,0:0:0:0:
192,216,153922,1,8,0:0:0:0:
192,216,153994,1,0,0:0:0:0:
192,216,154065,1,8,0:0:0:0:
360,304,154137,1,8,0:0:0:0:
360,304,154208,1,8,0:0:0:0:
192,216,154280,1,0,0:0:0:0:
176,224,154422,1,12,0:0:0:0:
392,288,154565,1,0,0:0:0:0:
384,280,154637,1,0,0:0:0:0:
384,280,154708,1,8,0:0:0:0:
384,280,154780,1,8,0:0:0:0:
384,280,154851,1,0,0:0:0:0:
384,280,154922,1,0,0:0:0:0:
384,280,154994,1,8,0:0:0:0:
352,280,155137,1,0,0:0:0:0:
232,280,155208,1,0,0:0:0:0:
216,256,155280,1,8,0:0:0:0:
200,232,155351,1,0,0:0:0:0:
200,232,155422,1,8,0:0:0:0:
200,232,155494,1,8,0:0:0:0:
176,216,155565,1,0,0:0:0:0:
288,240,155708,1,8,0:0:0:0:
224,208,155780,1,0,0:0:0:0:
288,240,155851,1,0,0:0:0:0:
240,232,155922,1,0,0:0:0:0:
224,208,155994,1,8,0:0:0:0:
224,208,156065,1,8,0:0:0:0:
224,208,156137,1,0,0:0:0:0:
224,208,156208,1,0,0:0:0:0:
224,208,156280,1,8,0:0:0:0:
224,208,156351,1,8,0:0:0:0:
224,208,156422,1,8,0:0:0:0:
224,208,156494,1,0,0:0:0:0:
224,208,156565,1,8,0:0:0:0:
264,296,156708,1,4,0:0:0:0:
416,312,156851,1,8,0:0:0:0:
416,312,156922,1,8,0:0:0:0:
416,312,156994,1,0,0:0:0:0:
416,312,157065,1,0,0:0:0:0:
416,312,157137,1,8,0:0:0:0:
408,312,157208,1,8,0:0:0:0:
408,312,157280,1,0,0:0:0:0:
384,304,157422,1,8,0:0:0:0:
384,304,157494,1,8,0:0:0:0:
384,304,157565,1,0,0:0:0:0:
384,304,157637,1,8,0:0:0:0:
384,304,157708,1,0,0:0:0:0:
384,304,157780,1,0,0:0:0:0:
376,304,157851,1,8,0:0:0:0:
376,304,157994,1,0,0:0:0:0:
376,304,158065,1,8,0:0:0:0:
376,304,158137,1,8,0:0:0:0:
376,304,158208,1,8,0:0:0:0:
376,304,158280,1,0,0:0:0:0:
376,304,158351,1,0,0:0:0:0:
376,304,158422,1,8,0:0:0:0:
376,304,158494,1,8,0:0:0:0:
376,304,158565,1,0,0:0:0:0:
376,304,158637,1,0,0:0:0:0:
376,304,158708,1,0,0:0:0:0:
376,304,158780,1,8,0:0:0:0:
376,304,158851,1,0,0:0:0:0:
376,304,158994,1,12,0:0:0:0:
400,256,159137,1,0,0:0:0:0:
400,256,159208,1,0,0:0:0:0:
240,192,159280,1,8,0:0:0:0:
240,192,159351,1,8,0:0:0:0:
240,192,159422,1,0,0:0:0:0:
240,192,159494,1,0,0:0:0:0:
240,192,159565,1,8,0:0:0:0:
240,192,159637,1,0,0:0:0:0:
122,169,159708,1,8,0:0:0:0:
240,192,159780,1,8,0:0:0:0:
240,192,159851,1,0,0:0:0:0:
240,192,159922,1,8,0:0:0:0:
240,192,159994,1,0,0:0:0:0:
240,192,160137,1,0,0:0:0:0:
12,178,160208,1,0,0:0:0:0:
235,232,160280,1,8,0:0:0:0:
318,267,160351,1,8,0:0:0:0:
232,312,160422,1,8,0:0:0:0:
318,266,160494,1,0,0:0:0:0:
318,266,160565,1,8,0:0:0:0:
368,280,160637,1,8,0:0:0:0:
205,275,160708,1,0,0:0:0:0:
192,267,160780,1,0,0:0:0:0:
194,258,160851,1,8,0:0:0:0:
241,222,160922,1,0,0:0:0:0:
368,280,160994,1,0,0:0:0:0:
368,280,161065,1,0,0:0:0:0:
233,202,161137,1,8,0:0:0:0:
286,276,161280,1,4,0:0:0:0:
124,175,161422,1,8,0:0:0:0:
185,143,161494,1,8,0:0:0:0:
176,139,161565,1,0,0:0:0:0:
176,139,161637,1,0,0:0:0:0:
176,137,161708,1,8,0:0:0:0:
176,137,161780,1,8,0:0:0:0:
174,136,161851,1,0,0:0:0:0:
245,123,161922,1,8,0:0:0:0:
245,123,161994,1,0,0:0:0:0:
257,206,162065,1,0,0:0:0:0:
257,206,162137,1,8,0:0:0:0:
240,128,162208,1,0,0:0:0:0:
240,128,162280,1,8,0:0:0:0:
318,259,162422,1,8,0:0:0:0:
318,259,162494,1,8,0:0:0:0:
318,259,162565,1,0,0:0:0:0:
318,259,162637,1,0,0:0:0:0:
440,304,162708,1,0,0:0:0:0:
288,240,162780,1,8,0:0:0:0:
280,232,162851,1,0,0:0:0:0:
360,304,162922,1,0,0:0:0:0:
192,224,162994,1,8,0:0:0:0:
192,216,163065,1,8,0:0:0:0:
192,216,163137,1,0,0:0:0:0:
192,216,163208,1,8,0:0:0:0:
360,304,163280,1,8,0:0:0:0:
360,304,163351,1,8,0:0:0:0:
192,216,163422,1,0,0:0:0:0:
176,224,163565,1,12,0:0:0:0:
392,288,163708,1,0,0:0:0:0:
384,280,163780,1,0,0:0:0:0:
384,280,163851,1,8,0:0:0:0:
384,280,163922,1,8,0:0:0:0:
384,280,163994,1,0,0:0:0:0:
384,280,164065,1,8,0:0:0:0:
384,280,164137,1,0,0:0:0:0:
216,112,164208,1,0,0:0:0:0:
176,40,164280,1,8,0:0:0:0:
232,280,164351,1,8,0:0:0:0:
216,256,164422,1,0,0:0:0:0:
200,232,164494,1,8,0:0:0:0:
200,232,164565,1,0,0:0:0:0:
176,216,164708,1,0,0:0:0:0:
56,192,164780,1,0,0:0:0:0:
288,240,164851,1,8,0:0:0:0:
224,208,164922,1,0,0:0:0:0:
288,240,164994,1,0,0:0:0:0:
240,232,165065,1,0,0:0:0:0:
224,208,165137,1,8,0:0:0:0:
224,208,165208,1,8,0:0:0:0:
224,208,165280,1,0,0:0:0:0:
224,208,165351,1,0,0:0:0:0:
224,208,165422,1,8,0:0:0:0:
224,208,165494,1,8,0:0:0:0:
224,208,165565,1,8,0:0:0:0:
224,208,165637,1,0,0:0:0:0:
224,208,165708,1,8,0:0:0:0:
264,296,165851,1,4,0:0:0:0:
416,312,165994,1,8,0:0:0:0:
416,312,166065,1,8,0:0:0:0:
416,312,166137,1,0,0:0:0:0:
200,216,166208,1,8,0:0:0:0:
200,216,166280,1,0,0:0:0:0:
224,216,166351,1,0,0:0:0:0:
408,312,166422,1,0,0:0:0:0:
200,216,166494,1,8,0:0:0:0:
200,216,166565,1,0,0:0:0:0:
384,304,166637,1,0,0:0:0:0:
384,304,166708,1,8,0:0:0:0:
224,208,166780,1,0,0:0:0:0:
232,224,166851,1,8,0:0:0:0:
264,256,166922,1,8,0:0:0:0:
272,288,166994,1,0,0:0:0:0:
384,304,167065,1,8,0:0:0:0:
376,304,167137,1,0,0:0:0:0:
376,304,167208,1,8,0:0:0:0:
376,304,167280,1,8,0:0:0:0:
376,304,167351,1,8,0:0:0:0:
376,304,167422,1,0,0:0:0:0:
376,304,167494,1,0,0:0:0:0:
376,304,167565,1,8,0:0:0:0:
376,304,167637,1,8,0:0:0:0:
376,304,167708,1,0,0:0:0:0:
376,304,167780,1,0,0:0:0:0:
376,304,167851,1,0,0:0:0:0:
376,304,167922,1,8,0:0:0:0:
376,304,167994,1,0,0:0:0:0:
376,304,168137,1,12,0:0:0:0:
352,256,168422,1,0,0:0:0:0:
48,136,168565,1,0,0:0:0:0:
56,136,168708,1,8,0:0:0:0:
200,136,168994,1,8,0:0:0:0:
200,136,169137,1,0,0:0:0:0:
232,256,169422,1,0,0:0:0:0:
200,224,169708,1,8,0:0:0:0:
264,232,169994,1,0,0:0:0:0:
264,232,170137,1,8,0:0:0:0:
264,232,170280,1,8,0:0:0:0:
280,216,170422,1,0,0:0:0:0:
232,256,170708,1,8,0:0:0:0:
248,304,170851,1,0,0:0:0:0:
248,304,170994,1,8,0:0:0:0:
240,216,171280,1,0,0:0:0:0:
240,216,171422,1,0,0:0:0:0:
240,216,171708,1,8,0:0:0:0:
240,216,171994,1,0,0:0:0:0:
240,240,172280,1,8,0:0:0:0:
333,267,172422,1,8,0:0:0:0:
208,240,172565,1,0,0:0:0:0:
208,232,172708,1,8,0:0:0:0:
208,232,172994,1,8,0:0:0:0:
160,208,173137,1,8,0:0:0:0:
184,224,173280,1,0,0:0:0:0:
154,148,173565,1,0,0:0:0:0:
154,148,173708,1,8,0:0:0:0:
199,268,173994,1,8,0:0:0:0:
199,268,174280,1,0,0:0:0:0:
202,247,174565,1,8,0:0:0:0:
174,260,174708,1,0,0:0:0:0:
174,260,174851,1,0,0:0:0:0:
160,245,174994,1,8,0:0:0:0:
142,154,175280,1,0,0:0:0:0:
142,154,175422,1,8,0:0:0:0:
142,154,175565,1,0,0:0:0:0:
236,204,175851,1,8,0:0:0:0:
236,204,175994,1,8,0:0:0:0:
236,198,176280,1,0,0:0:0:0:
236,198,176565,1,8,0:0:0:0:
237,164,176851,1,0,0:0:0:0:
237,164,177137,1,8,0:0:0:0:
