osu file format v14

[General]
AudioFilename: audio.mp3
AudioLeadIn: 0
PreviewTime: 45296
Countdown: 0
SampleSet: Normal
StackLeniency: 0.7
Mode: 1
LetterboxInBreaks: 0
WidescreenStoryboard: 1

[Editor]
Bookmarks: 1387,12549,23712,34875,46038,68363,85107,96270,101852,108828,114410,119991,153480
DistanceSpacing: 0.8
BeatDivisor: 4
GridSize: 32
TimelineZoom: 2.5

[Metadata]
Title:Salamander feat. Hatsune Miku
TitleUnicode:サラマンダー feat. 初音ミク
Artist:DECO*27
ArtistUnicode:DECO*27
Creator:Capu
Version:Inner Oni
Source:プロジェクトセカイ カラフルステージ! feat. 初音ミク
Tags:japanese rock jp pop jrock j-rock jpop j-pop ボーカロイド cupnoodle プロセカ project sekai colorful stage! カップヌードルのセカイ vocaloid vivien deco27
BeatmapID:4056733
BeatmapSetID:1958128

[Difficulty]
HPDrainRate:6
CircleSize:2
OverallDifficulty:7
ApproachRate:10
SliderMultiplier:1.4
SliderTickRate:1

[Events]
//Background and Video events
0,0,"95363597_p0.png",0,160
//Break Periods
//Storyboard Layer 0 (Background)
//Storyboard Layer 1 (Fail)
//Storyboard Layer 2 (Pass)
//Storyboard Layer 3 (Foreground)
//Storyboard Layer 4 (Overlay)
//Storyboard Sound Samples

[TimingPoints]
1399,348.837209302326,4,1,0,100,1,0
46050,-100,4,1,0,100,0,1
68375,-100,4,1,0,100,0,0
74131,-100,4,1,0,60,0,0
85032,-100,4,1,0,75,0,0
85207,-100,4,1,0,100,0,0
108055,-111.111111111111,4,1,0,100,0,0
114335,-100,4,1,0,100,0,0
120003,-100,4,1,0,100,0,1
153492,-100,4,1,0,100,0,0

[HitObjects]
256,192,701,5,0,0:0:0:0:
256,192,875,1,0,0:0:0:0:
256,192,1050,1,8,0:0:0:0:
256,192,1224,1,8,0:0:0:0:
256,192,1399,1,0,0:0:0:0:
256,192,1747,1,8,0:0:0:0:
256,192,1922,1,0,0:0:0:0:
256,192,2096,1,8,0:0:0:0:
256,192,2271,1,0,0:0:0:0:
256,192,2445,1,8,0:0:0:0:
256,192,2619,1,0,0:0:0:0:
256,192,2794,1,8,0:0:0:0:
256,192,3143,1,8,0:0:0:0:
256,192,3492,1,0,0:0:0:0:
256,192,3666,1,0,0:0:0:0:
256,192,3840,1,8,0:0:0:0:
256,192,4015,1,8,0:0:0:0:
256,192,4189,1,0,0:0:0:0:
256,192,4364,1,8,0:0:0:0:
256,192,4393,1,8,0:0:0:0:
256,192,4538,1,8,0:0:0:0:
256,192,4712,1,8,0:0:0:0:
256,192,4887,1,8,0:0:0:0:
256,192,5061,1,8,0:0:0:0:
256,192,5236,1,8,0:0:0:0:
256,192,5410,1,8,0:0:0:0:
256,192,5585,1,0,0:0:0:0:
256,192,5933,1,8,0:0:0:0:
256,192,6108,1,0,0:0:0:0:
256,192,6195,1,0,0:0:0:0:
256,192,6282,1,8,0:0:0:0:
256,192,6326,1,8,0:0:0:0:
256,192,6457,1,0,0:0:0:0:
256,192,6631,1,8,0:0:0:0:
256,192,6675,1,8,0:0:0:0:
256,192,6805,1,0,0:0:0:0:
256,192,6980,1,12,0:0:0:0:
256,192,7329,1,0,0:0:0:0:
256,192,7503,1,0,0:0:0:0:
256,192,7678,1,8,0:0:0:0:
256,192,7852,1,0,0:0:0:0:
256,192,8026,1,8,0:0:0:0:
256,192,8201,1,8,0:0:0:0:
256,192,8288,1,8,0:0:0:0:
256,192,8375,1,0,0:0:0:0:
256,192,8724,1,8,0:0:0:0:
256,192,8899,1,0,0:0:0:0:
256,192,9073,1,8,0:0:0:0:
256,192,9160,1,0,0:0:0:0:
256,192,9247,1,8,0:0:0:0:
256,192,9422,1,0,0:0:0:0:
256,192,9509,1,0,0:0:0:0:
256,192,9596,1,0,0:0:0:0:
256,192,9683,1,0,0:0:0:0:
256,192,9771,1,12,0:0:0:0:
256,192,9945,1,0,0:0:0:0:
256,192,10119,1,8,0:0:0:0:
256,192,10294,1,8,0:0:0:0:
256,192,10468,1,8,0:0:0:0:
256,192,10643,1,8,0:0:0:0:
256,192,10817,1,8,0:0:0:0:
256,192,10992,1,8,0:0:0:0:
256,192,11166,1,0,0:0:0:0:
256,192,12561,1,12,0:0:0:0:
256,192,12910,1,0,0:0:0:0:
256,192,13085,1,8,0:0:0:0:
256,192,13259,1,0,0:0:0:0:
256,192,13433,1,0,0:0:0:0:
256,192,13608,1,8,0:0:0:0:
256,192,13782,1,0,0:0:0:0:
256,192,14131,1,0,0:0:0:0:
256,192,14305,1,8,0:0:0:0:
256,192,14393,1,0,0:0:0:0:
256,192,14480,1,8,0:0:0:0:
256,192,14654,1,8,0:0:0:0:
256,192,14742,1,0,0:0:0:0:
256,192,14916,1,0,0:0:0:0:
256,192,15003,1,8,0:0:0:0:
256,192,15090,1,8,0:0:0:0:
256,192,15178,1,0,0:0:0:0:
256,192,15265,1,0,0:0:0:0:
256,192,15352,1,8,0:0:0:0:
256,192,15439,1,0,0:0:0:0:
256,192,15526,1,8,0:0:0:0:
256,192,15701,1,0,0:0:0:0:
256,192,15875,1,8,0:0:0:0:
256,192,15962,1,8,0:0:0:0:
256,192,16050,1,0,0:0:0:0:
256,192,16224,1,0,0:0:0:0:
256,192,16399,1,8,0:0:0:0:
256,192,16486,1,0,0:0:0:0:
256,192,16573,1,8,0:0:0:0:
256,192,16922,1,8,0:0:0:0:
256,192,17009,1,8,0:0:0:0:
256,192,17096,1,0,0:0:0:0:
256,192,17271,1,8,0:0:0:0:
256,192,17445,1,0,0:0:0:0:
256,192,17619,1,0,0:0:0:0:
256,192,17707,1,0,0:0:0:0:
256,192,17794,1,8,0:0:0:0:
256,192,17968,1,0,0:0:0:0:
256,192,18143,1,12,0:0:0:0:
256,192,18492,1,0,0:0:0:0:
256,192,18666,1,8,0:0:0:0:
256,192,18840,1,0,0:0:0:0:
256,192,19015,1,0,0:0:0:0:
256,192,19189,1,8,0:0:0:0:
256,192,19364,1,8,0:0:0:0:
256,192,19538,1,0,0:0:0:0:
256,192,19712,1,8,0:0:0:0:
256,192,19887,1,0,0:0:0:0:
256,192,19974,1,0,0:0:0:0:
256,192,20061,1,8,0:0:0:0:
256,192,20236,1,8,0:0:0:0:
256,192,20323,1,8,0:0:0:0:
256,192,20410,1,0,0:0:0:0:
256,192,20497,1,0,0:0:0:0:
256,192,20585,1,8,0:0:0:0:
256,192,20759,1,0,0:0:0:0:
256,192,20933,1,12,0:0:0:0:
256,192,21108,1,0,0:0:0:0:
256,192,21457,1,8,0:0:0:0:
256,192,21631,1,0,0:0:0:0:
256,192,21805,1,0,0:0:0:0:
256,192,21980,1,8,0:0:0:0:
256,192,22067,1,8,0:0:0:0:
256,192,22154,1,0,0:0:0:0:
256,192,22503,1,8,0:0:0:0:
256,192,22590,1,0,0:0:0:0:
256,192,22678,1,8,0:0:0:0:
256,192,22852,1,0,0:0:0:0:
256,192,23026,1,8,0:0:0:0:
256,192,23201,1,8,0:0:0:0:
256,192,23288,1,8,0:0:0:0:
256,192,23375,1,8,0:0:0:0:
256,192,23550,1,8,0:0:0:0:
256,192,23724,1,4,0:0:0:0:
256,192,24247,1,8,0:0:0:0:
256,192,24771,1,0,0:0:0:0:
256,192,24945,1,0,0:0:0:0:
256,192,25643,1,0,0:0:0:0:
256,192,25817,1,8,0:0:0:0:
256,192,25992,1,8,0:0:0:0:
256,192,26166,1,0,0:0:0:0:
256,192,26340,1,8,0:0:0:0:
256,192,26515,1,0,0:0:0:0:
256,192,26864,1,0,0:0:0:0:
256,192,27038,1,0,0:0:0:0:
256,192,27212,1,8,0:0:0:0:
256,192,27561,1,8,0:0:0:0:
256,192,27736,1,0,0:0:0:0:
256,192,27910,1,0,0:0:0:0:
256,192,27997,1,0,0:0:0:0:
256,192,28085,1,8,0:0:0:0:
256,192,28172,1,0,0:0:0:0:
256,192,28259,1,8,0:0:0:0:
256,192,28433,1,0,0:0:0:0:
256,192,28608,1,8,0:0:0:0:
256,192,28695,1,8,0:0:0:0:
256,192,28782,1,0,0:0:0:0:
256,192,28957,1,8,0:0:0:0:
256,192,29305,1,0,0:0:0:0:
256,192,29654,1,8,0:0:0:0:
256,192,29829,1,8,0:0:0:0:
256,192,30003,1,0,0:0:0:0:
256,192,30178,1,0,0:0:0:0:
256,192,30352,1,8,0:0:0:0:
256,192,30526,1,0,0:0:0:0:
256,192,30875,1,0,0:0:0:0:
256,192,31050,1,8,0:0:0:0:
256,192,31224,1,8,0:0:0:0:
256,192,31399,1,0,0:0:0:0:
256,192,31573,1,8,0:0:0:0:
256,192,31747,1,0,0:0:0:0:
256,192,31835,1,0,0:0:0:0:
256,192,31922,1,0,0:0:0:0:
256,192,32096,1,8,0:0:0:0:
256,192,32445,1,8,0:0:0:0:
256,192,32619,1,0,0:0:0:0:
256,192,32794,1,8,0:0:0:0:
256,192,33143,1,8,0:0:0:0:
256,192,33317,1,8,0:0:0:0:
256,192,33492,1,0,0:0:0:0:
256,192,33579,1,0,0:0:0:0:
256,192,33666,1,8,0:0:0:0:
256,192,33753,1,0,0:0:0:0:
256,192,33840,1,8,0:0:0:0:
256,192,34015,1,8,0:0:0:0:
256,192,34364,1,0,0:0:0:0:
256,192,34538,1,8,0:0:0:0:
256,192,34625,1,8,0:0:0:0:
256,192,34712,1,0,0:0:0:0:
256,192,34800,1,0,0:0:0:0:
256,192,34887,1,8,0:0:0:0:
256,192,35061,1,0,0:0:0:0:
256,192,35236,1,8,0:0:0:0:
256,192,35410,1,8,0:0:0:0:
256,192,35585,1,0,0:0:0:0:
256,192,35759,1,8,0:0:0:0:
256,192,35846,1,8,0:0:0:0:
256,192,35933,1,0,0:0:0:0:
256,192,36108,1,8,0:0:0:0:
256,192,36282,1,0,0:0:0:0:
256,192,36457,1,8,0:0:0:0:
256,192,36544,1,0,0:0:0:0:
256,192,36631,1,8,0:0:0:0:
256,192,36805,1,0,0:0:0:0:
256,192,36980,1,8,0:0:0:0:
256,192,37154,1,8,0:0:0:0:
256,192,37329,1,0,0:0:0:0:
256,192,37416,1,8,0:0:0:0:
256,192,37503,1,0,0:0:0:0:
256,192,37678,1,8,0:0:0:0:
256,192,37852,1,8,0:0:0:0:
256,192,38026,1,0,0:0:0:0:
256,192,38201,1,8,0:0:0:0:
256,192,38288,1,0,0:0:0:0:
256,192,38375,1,8,0:0:0:0:
256,192,38550,1,0,0:0:0:0:
256,192,38724,1,8,0:0:0:0:
256,192,38899,1,8,0:0:0:0:
256,192,38986,1,8,0:0:0:0:
256,192,39073,1,0,0:0:0:0:
256,192,39160,1,0,0:0:0:0:
256,192,39335,1,0,0:0:0:0:
256,192,39422,1,8,0:0:0:0:
256,192,39596,1,0,0:0:0:0:
256,192,39771,1,8,0:0:0:0:
256,192,39945,1,0,0:0:0:0:
256,192,40119,1,8,0:0:0:0:
256,192,40468,1,0,0:0:0:0:
256,192,40643,1,0,0:0:0:0:
256,192,40817,1,8,0:0:0:0:
256,192,40992,1,0,0:0:0:0:
256,192,41079,1,0,0:0:0:0:
256,192,41166,1,8,0:0:0:0:
256,192,41340,1,0,0:0:0:0:
256,192,41515,1,8,0:0:0:0:
256,192,41689,1,8,0:0:0:0:
256,192,41864,1,0,0:0:0:0:
256,192,42038,1,8,0:0:0:0:
256,192,42125,1,8,0:0:0:0:
256,192,42212,1,0,0:0:0:0:
256,192,42387,1,8,0:0:0:0:
256,192,42561,1,0,0:0:0:0:
256,192,42736,1,0,0:0:0:0:
256,192,42823,1,0,0:0:0:0:
256,192,42910,1,8,0:0:0:0:
256,192,42997,1,8,0:0:0:0:
256,192,43085,1,0,0:0:0:0:
256,192,43259,1,12,0:0:0:0:
256,192,43608,1,4,0:0:0:0:
256,192,43957,1,12,0:0:0:0:
256,192,44131,1,4,0:0:0:0:
256,192,44480,1,12,0:0:0:0:
256,192,44829,1,12,0:0:0:0:
256,192,45178,1,4,0:0:0:0:
256,192,45352,1,8,0:0:0:0:
256,192,45526,1,8,0:0:0:0:
256,192,45701,1,0,0:0:0:0:
256,192,46050,1,12,0:0:0:0:
256,192,46399,1,8,0:0:0:0:
256,192,46573,1,0,0:0:0:0:
256,192,46660,1,0,0:0:0:0:
256,192,46747,1,8,0:0:0:0:
256,192,46922,1,0,0:0:0:0:
256,192,47096,1,8,0:0:0:0:
256,192,47183,1,8,0:0:0:0:
256,192,47271,1,0,0:0:0:0:
256,192,47358,1,0,0:0:0:0:
256,192,47445,1,8,0:0:0:0:
256,192,47619,1,0,0:0:0:0:
256,192,47794,1,8,0:0:0:0:
256,192,47881,1,0,0:0:0:0:
256,192,47968,1,8,0:0:0:0:
256,192,48143,1,0,0:0:0:0:
256,192,48230,1,8,0:0:0:0:
256,192,48317,1,0,0:0:0:0:
256,192,48404,1,0,0:0:0:0:
256,192,48492,1,8,0:0:0:0:
256,192,48579,1,0,0:0:0:0:
256,192,48666,1,8,0:0:0:0:
256,192,48840,1,0,0:0:0:0:
256,192,49015,1,8,0:0:0:0:
256,192,49102,1,0,0:0:0:0:
256,192,49189,1,8,0:0:0:0:
256,192,49276,1,0,0:0:0:0:
256,192,49364,1,8,0:0:0:0:
256,192,49451,1,8,0:0:0:0:
256,192,49538,1,0,0:0:0:0:
256,192,49625,1,0,0:0:0:0:
256,192,49712,1,8,0:0:0:0:
256,192,49800,1,0,0:0:0:0:
256,192,49887,1,8,0:0:0:0:
256,192,49974,1,8,0:0:0:0:
256,192,50061,1,0,0:0:0:0:
256,192,50149,1,0,0:0:0:0:
256,192,50236,1,8,0:0:0:0:
256,192,50410,1,0,0:0:0:0:
256,192,50585,1,8,0:0:0:0:
256,192,50672,1,0,0:0:0:0:
256,192,50759,1,8,0:0:0:0:
256,192,50846,1,8,0:0:0:0:
256,192,50933,1,0,0:0:0:0:
256,192,51108,1,8,0:0:0:0:
256,192,51195,1,8,0:0:0:0:
256,192,51282,1,0,0:0:0:0:
256,192,51369,1,0,0:0:0:0:
256,192,51457,1,8,0:0:0:0:
256,192,51544,1,0,0:0:0:0:
256,192,51631,1,12,0:0:0:0:
256,192,51980,1,8,0:0:0:0:
256,192,52154,1,0,0:0:0:0:
256,192,52242,1,0,0:0:0:0:
256,192,52329,1,8,0:0:0:0:
256,192,52416,1,8,0:0:0:0:
256,192,52503,1,0,0:0:0:0:
256,192,52678,1,8,0:0:0:0:
256,192,52852,1,0,0:0:0:0:
256,192,52939,1,0,0:0:0:0:
256,192,53026,1,8,0:0:0:0:
256,192,53201,1,0,0:0:0:0:
256,192,53375,1,8,0:0:0:0:
256,192,53462,1,0,0:0:0:0:
256,192,53550,1,8,0:0:0:0:
256,192,53637,1,8,0:0:0:0:
256,192,53724,1,0,0:0:0:0:
256,192,53899,1,8,0:0:0:0:
256,192,54073,1,8,0:0:0:0:
256,192,54160,1,0,0:0:0:0:
256,192,54247,1,8,0:0:0:0:
256,192,54422,1,0,0:0:0:0:
256,192,54596,1,8,0:0:0:0:
256,192,54683,1,0,0:0:0:0:
256,192,54771,1,8,0:0:0:0:
256,192,54858,1,8,0:0:0:0:
256,192,54945,1,0,0:0:0:0:
256,192,55032,1,8,0:0:0:0:
256,192,55119,1,0,0:0:0:0:
256,192,55207,1,0,0:0:0:0:
256,192,55294,1,8,0:0:0:0:
256,192,55381,1,0,0:0:0:0:
256,192,55468,1,8,0:0:0:0:
256,192,55555,1,8,0:0:0:0:
256,192,55643,1,0,0:0:0:0:
256,192,55817,1,8,0:0:0:0:
256,192,55992,1,0,0:0:0:0:
256,192,56166,1,8,0:0:0:0:
256,192,56340,1,0,0:0:0:0:
256,192,56428,1,0,0:0:0:0:
256,192,56515,1,8,0:0:0:0:
256,192,56689,1,0,0:0:0:0:
256,192,56776,1,0,0:0:0:0:
256,192,56864,1,8,0:0:0:0:
256,192,56951,1,8,0:0:0:0:
256,192,57038,1,8,0:0:0:0:
256,192,57125,1,8,0:0:0:0:
256,192,57212,1,4,0:0:0:0:
256,192,57561,1,0,0:0:0:0:
256,192,57736,1,8,0:0:0:0:
256,192,57823,1,8,0:0:0:0:
256,192,57910,1,0,0:0:0:0:
256,192,58085,1,8,0:0:0:0:
256,192,58172,1,8,0:0:0:0:
256,192,58259,1,0,0:0:0:0:
256,192,58433,1,0,0:0:0:0:
256,192,58521,1,0,0:0:0:0:
256,192,58608,1,8,0:0:0:0:
256,192,58695,1,8,0:0:0:0:
256,192,58782,1,0,0:0:0:0:
256,192,58957,1,8,0:0:0:0:
256,192,59131,1,0,0:0:0:0:
256,192,59218,1,0,0:0:0:0:
256,192,59305,1,8,0:0:0:0:
256,192,59393,1,8,0:0:0:0:
256,192,59480,1,0,0:0:0:0:
256,192,59654,1,8,0:0:0:0:
256,192,59742,1,0,0:0:0:0:
256,192,59829,1,0,0:0:0:0:
256,192,59916,1,0,0:0:0:0:
256,192,60003,1,12,0:0:0:0:
256,192,60352,1,0,0:0:0:0:
256,192,60526,1,8,0:0:0:0:
256,192,60614,1,8,0:0:0:0:
256,192,60701,1,0,0:0:0:0:
256,192,60875,1,8,0:0:0:0:
256,192,60962,1,8,0:0:0:0:
256,192,61050,1,0,0:0:0:0:
256,192,61224,1,0,0:0:0:0:
256,192,61311,1,0,0:0:0:0:
256,192,61399,1,8,0:0:0:0:
256,192,61486,1,8,0:0:0:0:
256,192,61573,1,0,0:0:0:0:
256,192,61747,1,8,0:0:0:0:
256,192,61835,1,0,0:0:0:0:
256,192,61922,1,8,0:0:0:0:
256,192,62096,1,12,0:0:0:0:
256,192,62271,1,0,0:0:0:0:
256,192,62358,1,0,0:0:0:0:
256,192,62445,1,8,0:0:0:0:
256,192,62532,1,8,0:0:0:0:
256,192,62619,1,0,0:0:0:0:
256,192,62707,1,0,0:0:0:0:
256,192,62794,1,12,0:0:0:0:
256,192,62968,1,0,0:0:0:0:
256,192,63143,1,8,0:0:0:0:
256,192,63317,1,0,0:0:0:0:
256,192,63404,1,0,0:0:0:0:
256,192,63492,1,8,0:0:0:0:
256,192,63666,1,0,0:0:0:0:
256,192,63753,1,0,0:0:0:0:
256,192,63840,1,8,0:0:0:0:
256,192,63928,1,8,0:0:0:0:
256,192,64015,1,0,0:0:0:0:
256,192,64189,1,8,0:0:0:0:
256,192,64364,1,0,0:0:0:0:
256,192,64451,1,0,0:0:0:0:
256,192,64538,1,8,0:0:0:0:
256,192,64712,1,8,0:0:0:0:
256,192,64800,1,0,0:0:0:0:
256,192,64887,1,8,0:0:0:0:
256,192,64974,1,8,0:0:0:0:
256,192,65061,1,0,0:0:0:0:
256,192,65149,1,0,0:0:0:0:
256,192,65236,1,8,0:0:0:0:
256,192,65323,1,0,0:0:0:0:
256,192,65410,1,0,0:0:0:0:
256,192,65497,1,0,0:0:0:0:
256,192,65585,1,12,0:0:0:0:
256,192,65759,1,0,0:0:0:0:
256,192,65846,1,0,0:0:0:0:
256,192,65933,1,8,0:0:0:0:
256,192,66021,1,0,0:0:0:0:
256,192,66108,1,8,0:0:0:0:
256,192,66282,1,0,0:0:0:0:
256,192,66457,1,8,0:0:0:0:
256,192,66544,1,0,0:0:0:0:
256,192,66631,1,8,0:0:0:0:
256,192,66718,1,8,0:0:0:0:
256,192,66805,1,0,0:0:0:0:
256,192,66893,1,0,0:0:0:0:
256,192,66980,1,8,0:0:0:0:
256,192,67154,1,0,0:0:0:0:
256,192,67242,1,0,0:0:0:0:
256,192,67329,1,8,0:0:0:0:
256,192,67416,1,0,0:0:0:0:
256,192,67503,1,8,0:0:0:0:
256,192,67590,1,8,0:0:0:0:
256,192,67678,1,0,0:0:0:0:
256,192,68375,1,12,0:0:0:0:
256,192,68724,1,0,0:0:0:0:
256,192,68899,1,8,0:0:0:0:
256,192,69073,1,0,0:0:0:0:
256,192,69247,1,0,0:0:0:0:
256,192,69422,1,8,0:0:0:0:
256,192,69596,1,0,0:0:0:0:
256,192,69945,1,0,0:0:0:0:
256,192,70119,1,8,0:0:0:0:
256,192,70207,1,0,0:0:0:0:
256,192,70294,1,8,0:0:0:0:
256,192,70468,1,8,0:0:0:0:
256,192,70555,1,0,0:0:0:0:
256,192,70730,1,0,0:0:0:0:
256,192,70817,1,8,0:0:0:0:
256,192,70904,1,8,0:0:0:0:
256,192,70992,1,0,0:0:0:0:
256,192,71079,1,0,0:0:0:0:
256,192,71166,1,8,0:0:0:0:
256,192,71253,1,0,0:0:0:0:
256,192,71340,1,8,0:0:0:0:
256,192,71515,1,0,0:0:0:0:
256,192,71689,1,8,0:0:0:0:
256,192,71776,1,8,0:0:0:0:
256,192,71864,1,0,0:0:0:0:
256,192,72038,1,0,0:0:0:0:
256,192,72212,1,8,0:0:0:0:
256,192,72300,1,0,0:0:0:0:
256,192,72387,1,8,0:0:0:0:
256,192,72736,1,8,0:0:0:0:
256,192,72823,1,8,0:0:0:0:
256,192,72910,1,0,0:0:0:0:
256,192,73085,1,8,0:0:0:0:
256,192,73259,1,0,0:0:0:0:
256,192,73433,1,0,0:0:0:0:
256,192,73521,1,0,0:0:0:0:
256,192,73608,1,8,0:0:0:0:
256,192,73782,1,0,0:0:0:0:
256,192,73957,1,4,0:0:0:0:
256,192,74305,1,8,0:0:0:0:
256,192,74654,1,0,0:0:0:0:
256,192,75003,1,8,0:0:0:0:
256,192,75352,1,0,0:0:0:0:
256,192,75701,1,8,0:0:0:0:
256,192,76050,1,0,0:0:0:0:
256,192,76399,1,8,0:0:0:0:
256,192,76573,1,0,0:0:0:0:
256,192,76747,1,8,0:0:0:0:
256,192,76922,1,0,0:0:0:0:
256,192,77009,1,0,0:0:0:0:
256,192,77096,1,0,0:0:0:0:
256,192,77271,1,8,0:0:0:0:
256,192,77358,1,8,0:0:0:0:
256,192,77445,1,8,0:0:0:0:
256,192,77619,1,0,0:0:0:0:
256,192,77707,1,0,0:0:0:0:
256,192,77794,1,8,0:0:0:0:
256,192,77968,1,0,0:0:0:0:
256,192,78055,1,8,0:0:0:0:
256,192,78143,1,0,0:0:0:0:
256,192,78317,1,0,0:0:0:0:
256,192,78404,1,0,0:0:0:0:
256,192,78492,1,8,0:0:0:0:
256,192,78666,1,0,0:0:0:0:
256,192,78753,1,8,0:0:0:0:
256,192,78840,1,0,0:0:0:0:
256,192,79015,1,8,0:0:0:0:
256,192,79189,1,8,0:0:0:0:
256,192,79538,1,0,0:0:0:0:
256,192,79712,1,8,0:0:0:0:
256,192,79800,1,0,0:0:0:0:
256,192,80061,1,8,0:0:0:0:
256,192,80236,1,0,0:0:0:0:
256,192,80410,1,8,0:0:0:0:
256,192,80585,1,8,0:0:0:0:
256,192,80759,1,0,0:0:0:0:
256,192,80933,1,8,0:0:0:0:
256,192,81108,1,8,0:0:0:0:
256,192,81282,1,8,0:0:0:0:
256,192,81457,1,0,0:0:0:0:
256,192,81631,1,8,0:0:0:0:
256,192,81805,1,0,0:0:0:0:
256,192,81893,1,0,0:0:0:0:
256,192,81980,1,0,0:0:0:0:
256,192,82154,1,0,0:0:0:0:
256,192,82329,1,8,0:0:0:0:
256,192,82503,1,0,0:0:0:0:
256,192,82590,1,0,0:0:0:0:
256,192,82678,1,8,0:0:0:0:
256,192,82852,1,8,0:0:0:0:
256,192,82939,1,8,0:0:0:0:
256,192,83026,1,0,0:0:0:0:
256,192,83201,1,0,0:0:0:0:
256,192,83288,1,8,0:0:0:0:
256,192,83375,1,0,0:0:0:0:
256,192,83550,1,8,0:0:0:0:
256,192,83637,1,0,0:0:0:0:
256,192,83724,1,8,0:0:0:0:
256,192,83899,1,0,0:0:0:0:
256,192,83986,1,0,0:0:0:0:
256,192,84073,1,8,0:0:0:0:
256,192,84160,1,8,0:0:0:0:
256,192,84247,1,0,0:0:0:0:
256,192,84335,1,0,0:0:0:0:
256,192,84422,1,8,0:0:0:0:
256,192,84596,1,0,0:0:0:0:
256,192,84683,1,8,0:0:0:0:
256,192,84771,1,0,0:0:0:0:
256,192,84858,1,0,0:0:0:0:
256,192,84945,1,8,0:0:0:0:
256,192,85119,1,0,0:0:0:0:
256,192,85294,1,0,0:0:0:0:
256,192,85468,1,8,0:0:0:0:
256,192,85643,1,8,0:0:0:0:
256,192,85817,1,0,0:0:0:0:
256,192,85992,1,0,0:0:0:0:
256,192,86079,1,0,0:0:0:0:
256,192,86166,1,8,0:0:0:0:
256,192,86340,1,8,0:0:0:0:
256,192,86515,1,0,0:0:0:0:
256,192,86689,1,8,0:0:0:0:
256,192,86776,1,8,0:0:0:0:
256,192,86864,1,0,0:0:0:0:
256,192,87038,1,8,0:0:0:0:
256,192,87212,1,0,0:0:0:0:
256,192,87387,1,0,0:0:0:0:
256,192,87561,1,8,0:0:0:0:
256,192,87649,1,0,0:0:0:0:
256,192,87736,1,8,0:0:0:0:
256,192,87910,1,0,0:0:0:0:
256,192,88085,1,8,0:0:0:0:
256,192,88259,1,0,0:0:0:0:
256,192,88433,1,8,0:0:0:0:
256,192,88521,1,0,0:0:0:0:
256,192,88608,1,8,0:0:0:0:
256,192,88782,1,8,0:0:0:0:
256,192,88957,1,0,0:0:0:0:
256,192,89131,1,8,0:0:0:0:
256,192,89218,1,8,0:0:0:0:
256,192,89305,1,0,0:0:0:0:
256,192,89393,1,0,0:0:0:0:
256,192,89567,1,0,0:0:0:0:
256,192,89654,1,8,0:0:0:0:
256,192,89829,1,8,0:0:0:0:
256,192,90003,1,0,0:0:0:0:
256,192,90178,1,0,0:0:0:0:
256,192,90352,1,8,0:0:0:0:
256,192,90701,1,0,0:0:0:0:
256,192,90875,1,0,0:0:0:0:
256,192,91050,1,8,0:0:0:0:
256,192,91224,1,0,0:0:0:0:
256,192,91311,1,0,0:0:0:0:
256,192,91399,1,8,0:0:0:0:
256,192,91573,1,0,0:0:0:0:
256,192,91747,1,8,0:0:0:0:
256,192,91922,1,0,0:0:0:0:
256,192,92096,1,8,0:0:0:0:
256,192,92271,1,0,0:0:0:0:
256,192,92358,1,0,0:0:0:0:
256,192,92445,1,8,0:0:0:0:
256,192,92619,1,8,0:0:0:0:
256,192,92794,1,0,0:0:0:0:
256,192,92968,1,8,0:0:0:0:
256,192,93055,1,0,0:0:0:0:
256,192,93143,1,8,0:0:0:0:
256,192,93230,1,8,0:0:0:0:
256,192,93317,1,0,0:0:0:0:
256,192,93492,1,12,0:0:0:0:
256,192,93840,1,4,0:0:0:0:
256,192,94189,1,12,0:0:0:0:
256,192,94364,1,4,0:0:0:0:
256,192,94712,1,12,0:0:0:0:
256,192,95061,1,12,0:0:0:0:
256,192,95410,1,4,0:0:0:0:
256,192,95585,1,8,0:0:0:0:
256,192,95933,1,0,0:0:0:0:
256,192,96021,1,0,0:0:0:0:
256,192,96108,1,0,0:0:0:0:
256,192,96195,1,0,0:0:0:0:
256,192,96282,1,12,0:0:0:0:
256,192,96457,1,0,0:0:0:0:
256,192,96544,1,0,0:0:0:0:
256,192,96631,1,0,0:0:0:0:
256,192,96805,1,0,0:0:0:0:
256,192,97154,1,0,0:0:0:0:
256,192,97329,1,8,0:0:0:0:
256,192,97503,1,8,0:0:0:0:
256,192,97678,1,4,0:0:0:0:
256,192,97852,1,8,0:0:0:0:
256,192,97939,1,8,0:0:0:0:
256,192,98026,1,8,0:0:0:0:
256,192,98201,1,8,0:0:0:0:
256,192,98550,1,8,0:0:0:0:
256,192,98724,1,0,0:0:0:0:
256,192,98811,1,8,0:0:0:0:
256,192,98899,1,0,0:0:0:0:
256,192,98986,1,0,0:0:0:0:
256,192,99073,1,8,0:0:0:0:
256,192,99247,1,0,0:0:0:0:
256,192,99335,1,0,0:0:0:0:
256,192,99422,1,0,0:0:0:0:
256,192,99596,1,0,0:0:0:0:
256,192,99945,1,8,0:0:0:0:
256,192,100119,1,0,0:0:0:0:
256,192,100294,1,0,0:0:0:0:
256,192,100468,1,8,0:0:0:0:
256,192,100643,1,0,0:0:0:0:
256,192,100730,1,0,0:0:0:0:
256,192,100817,1,8,0:0:0:0:
256,192,100992,1,8,0:0:0:0:
256,192,101340,1,8,0:0:0:0:
256,192,101515,1,0,0:0:0:0:
256,192,101689,1,0,0:0:0:0:
256,192,101864,1,12,0:0:0:0:
256,192,102212,1,8,0:0:0:0:
256,192,102387,1,0,0:0:0:0:
256,192,102561,1,8,0:0:0:0:
256,192,102736,1,8,0:0:0:0:
256,192,102910,1,0,0:0:0:0:
256,192,103085,1,0,0:0:0:0:
256,192,103259,1,8,0:0:0:0:
256,192,103608,1,0,0:0:0:0:
256,192,103957,1,8,0:0:0:0:
256,192,104305,1,0,0:0:0:0:
256,192,104654,1,8,0:0:0:0:
256,192,105003,1,0,0:0:0:0:
256,192,105178,1,0,0:0:0:0:
256,192,105352,1,8,0:0:0:0:
256,192,105701,1,0,0:0:0:0:
256,192,106050,1,8,0:0:0:0:
256,192,106224,1,8,0:0:0:0:
256,192,106399,1,0,0:0:0:0:
256,192,106573,1,8,0:0:0:0:
256,192,106747,1,0,0:0:0:0:
256,192,106835,1,0,0:0:0:0:
256,192,106922,1,0,0:0:0:0:
256,192,107009,1,0,0:0:0:0:
256,192,107096,1,0,0:0:0:0:
256,192,107183,1,0,0:0:0:0:
256,192,107271,1,0,0:0:0:0:
256,192,107358,1,0,0:0:0:0:
256,192,107445,1,8,0:0:0:0:
256,192,108143,5,0,0:0:0:0:
256,192,108317,1,0,0:0:0:0:
256,192,108492,1,8,0:0:0:0:
256,192,108666,1,8,0:0:0:0:
256,192,108840,1,0,0:0:0:0:
256,192,109189,1,8,0:0:0:0:
256,192,109364,1,0,0:0:0:0:
256,192,109538,1,8,0:0:0:0:
256,192,109712,1,0,0:0:0:0:
256,192,109887,1,8,0:0:0:0:
256,192,110061,1,0,0:0:0:0:
256,192,110236,1,8,0:0:0:0:
256,192,110585,1,8,0:0:0:0:
256,192,110933,1,0,0:0:0:0:
256,192,111108,1,0,0:0:0:0:
256,192,111282,1,8,0:0:0:0:
256,192,111457,1,8,0:0:0:0:
256,192,111631,1,0,0:0:0:0:
256,192,111805,1,8,0:0:0:0:
256,192,111835,1,8,0:0:0:0:
256,192,111980,1,8,0:0:0:0:
256,192,112154,1,8,0:0:0:0:
256,192,112329,1,8,0:0:0:0:
256,192,112503,1,8,0:0:0:0:
256,192,112678,1,8,0:0:0:0:
256,192,112852,1,8,0:0:0:0:
256,192,113026,1,0,0:0:0:0:
256,192,113375,1,8,0:0:0:0:
256,192,113550,1,0,0:0:0:0:
256,192,113724,1,8,0:0:0:0:
256,192,113899,1,8,0:0:0:0:
256,192,114073,1,0,0:0:0:0:
256,192,114247,1,0,0:0:0:0:
256,192,114422,1,12,0:0:0:0:
256,192,114771,1,8,0:0:0:0:
256,192,114945,1,8,0:0:0:0:
256,192,115294,1,0,0:0:0:0:
256,192,115468,1,8,0:0:0:0:
256,192,115817,1,0,0:0:0:0:
256,192,116166,1,8,0:0:0:0:
256,192,116340,1,8,0:0:0:0:
256,192,116689,1,0,0:0:0:0:
256,192,116864,1,8,0:0:0:0:
256,192,117038,1,8,0:0:0:0:
256,192,117212,1,4,0:0:0:0:
256,192,117387,1,4,0:0:0:0:
256,192,117736,1,0,0:0:0:0:
256,192,117910,1,12,0:0:0:0:
256,192,118085,1,12,0:0:0:0:
256,192,118259,1,0,0:0:0:0:
256,192,118346,1,0,0:0:0:0:
256,192,118433,1,8,0:0:0:0:
256,192,118521,1,0,0:0:0:0:
256,192,118608,1,8,0:0:0:0:
256,192,118695,1,8,0:0:0:0:
256,192,118782,1,0,0:0:0:0:
256,192,118869,1,0,0:0:0:0:
256,192,118957,1,8,0:0:0:0:
256,192,119305,1,0,0:0:0:0:
256,192,119480,1,8,0:0:0:0:
256,192,119654,1,0,0:0:0:0:
256,192,119829,1,0,0:0:0:0:
256,192,120003,1,12,0:0:0:0:
256,192,120352,1,8,0:0:0:0:
256,192,120526,1,0,0:0:0:0:
256,192,120614,1,0,0:0:0:0:
256,192,120701,1,8,0:0:0:0:
256,192,120875,1,0,0:0:0:0:
256,192,121050,1,8,0:0:0:0:
256,192,121137,1,0,0:0:0:0:
256,192,121224,1,0,0:0:0:0:
256,192,121311,1,0,0:0:0:0:
256,192,121399,1,8,0:0:0:0:
256,192,121573,1,0,0:0:0:0:
256,192,121747,1,8,0:0:0:0:
256,192,121835,1,0,0:0:0:0:
256,192,121922,1,8,0:0:0:0:
256,192,122009,1,8,0:0:0:0:
256,192,122096,1,0,0:0:0:0:
256,192,122183,1,0,0:0:0:0:
256,192,122271,1,8,0:0:0:0:
256,192,122445,1,8,0:0:0:0:
256,192,122619,1,0,0:0:0:0:
256,192,122794,1,8,0:0:0:0:
256,192,122881,1,0,0:0:0:0:
256,192,122968,1,8,0:0:0:0:
256,192,123055,1,0,0:0:0:0:
256,192,123143,1,8,0:0:0:0:
256,192,123230,1,0,0:0:0:0:
256,192,123317,1,8,0:0:0:0:
256,192,123404,1,0,0:0:0:0:
256,192,123492,1,8,0:0:0:0:
256,192,123579,1,8,0:0:0:0:
256,192,123666,1,0,0:0:0:0:
256,192,123753,1,0,0:0:0:0:
256,192,123840,1,8,0:0:0:0:
256,192,123928,1,0,0:0:0:0:
256,192,124015,1,8,0:0:0:0:
256,192,124102,1,0,0:0:0:0:
256,192,124189,1,8,0:0:0:0:
256,192,124364,1,0,0:0:0:0:
256,192,124538,1,8,0:0:0:0:
256,192,124712,1,0,0:0:0:0:
256,192,124800,1,8,0:0:0:0:
256,192,124887,1,0,0:0:0:0:
256,192,124974,1,0,0:0:0:0:
256,192,125061,1,8,0:0:0:0:
256,192,125149,1,0,0:0:0:0:
256,192,125236,1,8,0:0:0:0:
256,192,125323,1,8,0:0:0:0:
256,192,125410,1,0,0:0:0:0:
256,192,125497,1,0,0:0:0:0:
256,192,125585,1,12,0:0:0:0:
256,192,125933,1,8,0:0:0:0:
256,192,126108,1,0,0:0:0:0:
256,192,126195,1,0,0:0:0:0:
256,192,126282,1,8,0:0:0:0:
256,192,126369,1,8,0:0:0:0:
256,192,126457,1,0,0:0:0:0:
256,192,126631,1,8,0:0:0:0:
256,192,126718,1,0,0:0:0:0:
256,192,126805,1,8,0:0:0:0:
256,192,126893,1,8,0:0:0:0:
256,192,126980,1,0,0:0:0:0:
256,192,127154,1,0,0:0:0:0:
256,192,127329,1,8,0:0:0:0:
256,192,127416,1,0,0:0:0:0:
256,192,127503,1,8,0:0:0:0:
256,192,127678,1,0,0:0:0:0:
256,192,127765,1,0,0:0:0:0:
256,192,127852,1,8,0:0:0:0:
256,192,127939,1,8,0:0:0:0:
256,192,128026,1,0,0:0:0:0:
256,192,128114,1,0,0:0:0:0:
256,192,128201,1,8,0:0:0:0:
256,192,128375,1,0,0:0:0:0:
256,192,128462,1,0,0:0:0:0:
256,192,128550,1,8,0:0:0:0:
256,192,128637,1,0,0:0:0:0:
256,192,128724,1,8,0:0:0:0:
256,192,128811,1,0,0:0:0:0:
256,192,128899,1,8,0:0:0:0:
256,192,128986,1,0,0:0:0:0:
256,192,129073,1,8,0:0:0:0:
256,192,129160,1,0,0:0:0:0:
256,192,129247,1,8,0:0:0:0:
256,192,129335,1,0,0:0:0:0:
256,192,129422,1,8,0:0:0:0:
256,192,129509,1,8,0:0:0:0:
256,192,129596,1,0,0:0:0:0:
256,192,129683,1,0,0:0:0:0:
256,192,129771,1,8,0:0:0:0:
256,192,129945,1,0,0:0:0:0:
256,192,130032,1,0,0:0:0:0:
256,192,130119,1,8,0:0:0:0:
256,192,130294,1,0,0:0:0:0:
256,192,130381,1,0,0:0:0:0:
256,192,130468,1,8,0:0:0:0:
256,192,130643,1,8,0:0:0:0:
256,192,130730,1,0,0:0:0:0:
256,192,130817,1,8,0:0:0:0:
256,192,130904,1,8,0:0:0:0:
256,192,130992,1,8,0:0:0:0:
256,192,131079,1,8,0:0:0:0:
256,192,131166,1,4,0:0:0:0:
256,192,131515,1,0,0:0:0:0:
256,192,131689,1,8,0:0:0:0:
256,192,131776,1,8,0:0:0:0:
256,192,131864,1,0,0:0:0:0:
256,192,132038,1,8,0:0:0:0:
256,192,132125,1,8,0:0:0:0:
256,192,132212,1,0,0:0:0:0:
256,192,132387,1,8,0:0:0:0:
256,192,132474,1,0,0:0:0:0:
256,192,132561,1,8,0:0:0:0:
256,192,132649,1,8,0:0:0:0:
256,192,132736,1,0,0:0:0:0:
256,192,132823,1,0,0:0:0:0:
256,192,132910,1,8,0:0:0:0:
256,192,133085,1,0,0:0:0:0:
256,192,133259,1,8,0:0:0:0:
256,192,133346,1,8,0:0:0:0:
256,192,133433,1,0,0:0:0:0:
256,192,133521,1,0,0:0:0:0:
256,192,133608,1,8,0:0:0:0:
256,192,133782,1,0,0:0:0:0:
256,192,133957,1,8,0:0:0:0:
256,192,134131,1,0,0:0:0:0:
256,192,134218,1,0,0:0:0:0:
256,192,134305,1,0,0:0:0:0:
256,192,134480,1,8,0:0:0:0:
256,192,134567,1,8,0:0:0:0:
256,192,134654,1,0,0:0:0:0:
256,192,134829,1,8,0:0:0:0:
256,192,134916,1,8,0:0:0:0:
256,192,135003,1,0,0:0:0:0:
256,192,135178,1,0,0:0:0:0:
256,192,135265,1,0,0:0:0:0:
256,192,135352,1,8,0:0:0:0:
256,192,135439,1,8,0:0:0:0:
256,192,135526,1,0,0:0:0:0:
256,192,135701,1,8,0:0:0:0:
256,192,135875,1,0,0:0:0:0:
256,192,136050,1,12,0:0:0:0:
256,192,136224,1,0,0:0:0:0:
256,192,136311,1,0,0:0:0:0:
256,192,136399,1,0,0:0:0:0:
256,192,136486,1,0,0:0:0:0:
256,192,136573,1,0,0:0:0:0:
256,192,136660,1,0,0:0:0:0:
256,192,136747,1,8,0:0:0:0:
256,192,136922,1,0,0:0:0:0:
256,192,137096,1,8,0:0:0:0:
256,192,137183,1,8,0:0:0:0:
256,192,137271,1,0,0:0:0:0:
256,192,137358,1,0,0:0:0:0:
256,192,137445,1,8,0:0:0:0:
256,192,137619,1,0,0:0:0:0:
256,192,137707,1,0,0:0:0:0:
256,192,137794,1,8,0:0:0:0:
256,192,137881,1,0,0:0:0:0:
256,192,137968,1,8,0:0:0:0:
256,192,138055,1,0,0:0:0:0:
256,192,138143,1,8,0:0:0:0:
256,192,138317,1,0,0:0:0:0:
256,192,138492,1,8,0:0:0:0:
256,192,138579,1,0,0:0:0:0:
256,192,138666,1,0,0:0:0:0:
256,192,138753,1,0,0:0:0:0:
256,192,138840,1,8,0:0:0:0:
256,192,139015,1,0,0:0:0:0:
256,192,139102,1,0,0:0:0:0:
256,192,139189,1,8,0:0:0:0:
256,192,139276,1,0,0:0:0:0:
256,192,139364,1,8,0:0:0:0:
256,192,139451,1,8,0:0:0:0:
256,192,139538,1,4,0:0:0:0:
256,192,139712,1,0,0:0:0:0:
256,192,139800,1,0,0:0:0:0:
256,192,139887,1,8,0:0:0:0:
256,192,139974,1,0,0:0:0:0:
256,192,140061,1,8,0:0:0:0:
256,192,140236,1,0,0:0:0:0:
256,192,140410,1,8,0:0:0:0:
256,192,140497,1,8,0:0:0:0:
256,192,140585,1,0,0:0:0:0:
256,192,140672,1,0,0:0:0:0:
256,192,140759,1,8,0:0:0:0:
256,192,140933,1,8,0:0:0:0:
256,192,141108,1,0,0:0:0:0:
256,192,141195,1,0,0:0:0:0:
256,192,141282,1,8,0:0:0:0:
256,192,141369,1,0,0:0:0:0:
256,192,141457,1,8,0:0:0:0:
256,192,141544,1,8,0:0:0:0:
256,192,141631,1,0,0:0:0:0:
256,192,141718,1,8,0:0:0:0:
256,192,141805,1,0,0:0:0:0:
256,192,141893,1,0,0:0:0:0:
256,192,141980,1,8,0:0:0:0:
256,192,142067,1,8,0:0:0:0:
256,192,142154,1,0,0:0:0:0:
256,192,142242,1,0,0:0:0:0:
256,192,142329,1,12,0:0:0:0:
256,192,142503,1,0,0:0:0:0:
256,192,142590,1,0,0:0:0:0:
256,192,142678,1,0,0:0:0:0:
256,192,142852,1,8,0:0:0:0:
256,192,142939,1,8,0:0:0:0:
256,192,143026,1,0,0:0:0:0:
256,192,143201,1,8,0:0:0:0:
256,192,143288,1,8,0:0:0:0:
256,192,143375,1,0,0:0:0:0:
256,192,143550,1,0,0:0:0:0:
256,192,143637,1,0,0:0:0:0:
256,192,143724,1,8,0:0:0:0:
256,192,143811,1,8,0:0:0:0:
256,192,143899,1,0,0:0:0:0:
256,192,144073,1,8,0:0:0:0:
256,192,144247,1,0,0:0:0:0:
256,192,144335,1,8,0:0:0:0:
256,192,144422,1,0,0:0:0:0:
256,192,144509,1,0,0:0:0:0:
256,192,144596,1,8,0:0:0:0:
256,192,144771,1,8,0:0:0:0:
256,192,144945,1,0,0:0:0:0:
256,192,145032,1,0,0:0:0:0:
256,192,145119,1,8,0:0:0:0:
256,192,145294,1,0,0:0:0:0:
256,192,145381,1,0,0:0:0:0:
256,192,145468,1,0,0:0:0:0:
256,192,145643,1,8,0:0:0:0:
256,192,145730,1,8,0:0:0:0:
256,192,145817,1,0,0:0:0:0:
256,192,145992,1,8,0:0:0:0:
256,192,146079,1,8,0:0:0:0:
256,192,146166,1,0,0:0:0:0:
256,192,146340,1,0,0:0:0:0:
256,192,146428,1,0,0:0:0:0:
256,192,146515,1,8,0:0:0:0:
256,192,146602,1,8,0:0:0:0:
256,192,146689,1,0,0:0:0:0:
256,192,146864,1,8,0:0:0:0:
256,192,147038,1,0,0:0:0:0:
256,192,147125,1,8,0:0:0:0:
256,192,147212,1,0,0:0:0:0:
256,192,147387,1,8,0:0:0:0:
256,192,147474,1,0,0:0:0:0:
256,192,147649,1,0,0:0:0:0:
256,192,147736,1,8,0:0:0:0:
256,192,147823,1,8,0:0:0:0:
256,192,147910,1,4,0:0:0:0:
256,192,148085,1,0,0:0:0:0:
256,192,148172,1,0,0:0:0:0:
256,192,148259,1,8,0:0:0:0:
256,192,148433,1,0,0:0:0:0:
256,192,148521,1,0,0:0:0:0:
256,192,148608,1,8,0:0:0:0:
256,192,148695,1,0,0:0:0:0:
256,192,148782,1,8,0:0:0:0:
256,192,148869,1,0,0:0:0:0:
256,192,148957,1,8,0:0:0:0:
256,192,149044,1,8,0:0:0:0:
256,192,149131,1,0,0:0:0:0:
256,192,149305,1,8,0:0:0:0:
256,192,149480,1,0,0:0:0:0:
256,192,149567,1,0,0:0:0:0:
256,192,149654,1,8,0:0:0:0:
256,192,149742,1,0,0:0:0:0:
256,192,149829,1,8,0:0:0:0:
256,192,149916,1,0,0:0:0:0:
256,192,150003,1,8,0:0:0:0:
256,192,150090,1,8,0:0:0:0:
256,192,150178,1,0,0:0:0:0:
256,192,150265,1,8,0:0:0:0:
256,192,150352,1,0,0:0:0:0:
256,192,150439,1,0,0:0:0:0:
256,192,150526,1,8,0:0:0:0:
256,192,150614,1,0,0:0:0:0:
256,192,150701,1,12,0:0:0:0:
256,192,150875,1,0,0:0:0:0:
256,192,151050,1,8,0:0:0:0:
256,192,151137,1,0,0:0:0:0:
256,192,151224,1,8,0:0:0:0:
256,192,151311,1,8,0:0:0:0:
256,192,151399,1,0,0:0:0:0:
256,192,151573,1,8,0:0:0:0:
256,192,151660,1,8,0:0:0:0:
256,192,151747,1,0,0:0:0:0:
256,192,151835,1,0,0:0:0:0:
256,192,151922,1,8,0:0:0:0:
256,192,152009,1,0,0:0:0:0:
256,192,152096,1,8,0:0:0:0:
256,192,152271,1,0,0:0:0:0:
256,192,152445,1,8,0:0:0:0:
256,192,152619,1,8,0:0:0:0:
256,192,152794,1,0,0:0:0:0:
256,192,152968,1,0,0:0:0:0:
256,192,153143,1,8,0:0:0:0:
256,192,153317,1,0,0:0:0:0:
256,192,153492,1,12,0:0:0:0:
