osu file format v14

[General]
AudioFilename: audio.mp3
AudioLeadIn: 0
PreviewTime: -1
Countdown: 1
SampleSet: None
StackLeniency: 0.7
Mode: 0
LetterboxInBreaks: 0
WidescreenStoryboard: 0

[Editor]
DistanceSpacing: 0.8
BeatDivisor: 4
GridSize: 8
TimelineZoom: 1

[Metadata]
Title:Reversible Campaign
TitleUnicode:Reversible Campaign
Artist:DECO*27
ArtistUnicode:DECO*27
Creator:tsumiki_marvell
Version:Reverse
Source:
Tags:Hatsune Miku
BeatmapID:1120699
BeatmapSetID:528377

[Difficulty]
HPDrainRate:7
CircleSize:4
OverallDifficulty:8
ApproachRate:8
SliderMultiplier:1.6
SliderTickRate:2

[Events]
//Background and Video events
0,0,"reversible_campaign_by_buryooooo-dahzz2g.jpg",0,0
//Break Periods
2,10438,14678
2,35961,39731
2,81590,89678
2,121407,125725
//Storyboard Layer 0 (Background)
//Storyboard Layer 1 (Fail)
//Storyboard Layer 2 (Pass)
//Storyboard Layer 3 (Foreground)
//Storyboard Sound Samples

[TimingPoints]
500.217075586424,314.13612565445,4,3,0,100,1,0
578,-100,4,3,0,50,0,0
9217,-100,4,3,0,100,0,0
61049,-100,4,3,0,100,0,1
66076,-100,4,3,0,100,0,0
66233,-100,4,3,0,100,0,1
70945,-100,4,3,0,100,0,0
71102,-100,4,3,0,100,0,1
73615,-100,4,3,0,100,0,0
73693,-100,4,3,0,100,0,1
75971,-100,4,3,0,100,0,0
76128,-100,4,3,0,100,0,1
78327,-100,4,3,0,100,0,0
78484,-100,4,3,0,100,0,1
78484,-100,4,3,0,100,0,0
80290,-100,4,3,0,100,0,0
120421,-100,4,3,0,50,0,0
120578,-100,4,3,0,60,0,0
120735,-100,4,3,0,70,0,0
120892,-100,4,3,0,80,0,0
121049,-100,4,3,0,90,0,0
131652,-66.6666666666667,4,3,0,100,0,0
132280,-100,4,3,0,90,0,0
134165,-66.6666666666667,4,3,0,80,0,0
134165,-66.6666666666667,4,3,0,90,0,0
134714,-100,4,3,0,80,0,0
136835,-66.6666666666667,4,3,0,70,0,0
137385,-100,4,3,0,70,0,0
139348,-66.6666666666667,4,3,0,60,0,0
139741,-100,4,3,0,60,0,0
141233,-100,4,3,0,60,0,0
141390,-100,4,3,0,70,0,0
141547,-100,4,3,0,80,0,0
141704,-100,4,3,0,90,0,0
141861,-66.6666666666667,4,3,0,100,0,1
143118,-66.6666666666667,4,3,0,100,0,0
143196,-66.6666666666667,4,3,0,100,0,1
146809,-66.6666666666667,4,3,0,100,0,0
146966,-66.6666666666667,4,3,0,100,0,1
151913,-66.6666666666667,4,3,0,100,0,0
151992,-66.6666666666667,4,3,0,100,0,1
154112,-66.6666666666667,4,3,0,100,0,0
154426,-66.6666666666667,4,3,0,100,0,1
156861,-66.6666666666667,4,3,0,100,0,0
157097,-66.6666666666667,4,3,0,100,0,1
159453,-66.6666666666667,4,3,0,100,0,0
159610,-66.6666666666667,4,3,0,100,0,1
160238,-133.333333333333,4,3,0,100,0,1
161966,-133.333333333333,4,3,0,100,0,0

[Colours]
Combo1 : 99,149,194
Combo2 : 94,198,180
Combo3 : 153,153,153
Combo4 : 224,224,224

[HitObjects]
48,112,421,6,0,P|80:64|176:56,1,160
128,128,892,2,0,P|232:128|264:56,1,160
328,32,1364,1,0,0:0:0:0:
352,112,1521,1,0,0:0:0:0:
296,184,1678,6,0,P|360:200|400:280,1,160
312,256,2149,2,0,P|216:272|192:344,1,160
88,288,2620,2,0,L|80:240,2,40
64,144,2934,6,0,L|208:56,1,160
272,96,3405,2,0,L|120:184,1,160
144,240,3877,1,0,0:0:0:0:
256,280,4034,1,0,0:0:0:0:
360,240,4191,1,0,0:0:0:0:
368,120,4348,1,0,0:0:0:0:
256,72,4505,1,0,0:0:0:0:
128,120,4662,6,0,P|72:144|64:192,1,80
128,184,4976,2,0,P|80:232|40:224,1,80
192,264,5290,1,0,0:0:0:0:
272,288,5447,1,0,0:0:0:0:
384,264,5604,6,0,L|320:208,1,80
416,160,5919,1,0,0:0:0:0:
312,72,6076,1,0,0:0:0:0:
200,136,6233,1,0,0:0:0:0:
72,136,6390,2,0,P|40:184|64:224,1,80
104,192,6704,2,0,P|104:248|72:272,1,80
168,320,7018,1,0,0:0:0:0:
272,232,7175,1,0,0:0:0:0:
376,320,7332,1,0,0:0:0:0:
424,248,7489,2,0,L|384:208,2,40
384,88,7803,5,0,0:0:0:0:
256,40,7960,1,0,0:0:0:0:
120,88,8118,1,0,0:0:0:0:
120,192,8275,1,0,0:0:0:0:
256,248,8432,1,0,0:0:0:0:
384,192,8589,1,0,0:0:0:0:
408,272,8746,2,0,L|360:312,4,40
256,192,9217,12,4,10238,0:1:0:0:
160,48,15578,6,0,P|104:80|112:144,1,120
184,120,16049,2,0,P|192:192|152:216,1,120
336,176,16442,2,0,L|384:128,4,40
376,240,16913,2,0,L|280:320,1,120
232,264,17306,2,0,L|312:192,1,80
184,72,17620,1,0,0:0:0:0:
16,168,17777,1,0,0:0:0:0:
136,320,17934,1,0,0:0:0:0:
304,280,18091,6,0,P|336:224|328:184,2,80
408,160,18563,2,0,P|336:96|248:112,1,160
320,160,19034,2,0,P|224:152|208:96,1,160
128,88,19505,2,0,L|96:152,2,40
120,200,19819,1,0,0:0:0:0:
200,248,19976,1,0,0:0:0:0:
288,288,20133,1,0,0:0:0:0:
376,248,20290,1,0,0:0:0:0:
120,72,20447,5,0,0:0:0:0:
176,120,20604,2,0,L|272:72,1,80
280,136,20918,2,0,L|376:96,1,80
360,192,21232,1,0,0:0:0:0:
400,264,21389,1,0,0:0:0:0:
328,272,21546,2,0,L|240:328,2,80
200,248,22017,2,0,L|104:192,1,80
72,240,22331,2,0,L|40:144,1,80
96,72,22646,2,0,L|160:96,3,40
133,86,23039,1,0,0:0:0:0:
224,104,23196,2,0,P|224:168|256:192,2,80
304,120,23667,2,0,L|336:160,1,40
368,128,23824,2,0,L|416:176,1,40
368,200,23981,2,0,L|424:240,1,40
320,256,24217,5,0,0:0:0:0:
296,288,24296,1,0,0:0:0:0:
256,320,24453,2,0,P|168:320|136:272,1,120
216,256,24845,1,0,0:0:0:0:
104,240,25002,2,0,L|80:192,1,40
128,192,25159,2,0,L|112:144,1,40
72,144,25316,2,0,L|80:88,1,40
104,56,25552,6,0,L|144:96,3,40
216,88,25945,2,0,P|296:112|320:176,1,120
368,112,26337,2,0,P|408:192|408:216,1,80
344,208,26652,2,0,P|392:264|432:272,2,80
272,272,27123,1,0,0:0:0:0:
176,304,27280,1,0,0:0:0:0:
80,240,27437,1,0,0:0:0:0:
96,112,27594,1,0,0:0:0:0:
104,96,27672,1,0,0:0:0:0:
112,88,27751,1,0,0:0:0:0:
208,40,27908,2,0,L|264:104,1,80
320,72,28222,2,0,L|360:176,1,80
352,224,28536,2,0,L|328:264,1,40
368,280,28693,2,0,L|328:320,1,40
288,312,28851,2,0,L|248:344,1,40
192,192,29165,2,0,L|200:280,2,80
192,192,29636,2,0,L|152:224,2,40
208,160,29871,5,0,0:0:0:0:
232,144,29950,1,0,0:0:0:0:
248,64,30107,1,0,0:0:0:0:
376,104,30264,1,0,0:0:0:0:
392,232,30421,1,0,0:0:0:0:
264,320,30578,1,0,0:0:0:0:
160,48,30735,6,0,P|72:112|56:160,1,160
160,136,31207,2,0,P|120:208|32:264,1,160
184,248,31678,2,0,L|272:296,1,80
240,360,31992,2,0,L|96:288,1,160
320,328,32463,2,0,P|384:288|392:256,1,80
312,272,32777,2,0,P|336:224|384:232,1,80
416,184,33091,2,0,L|376:144,1,40
360,128,33248,1,0,0:0:0:0:
248,72,33405,1,0,0:0:0:0:
160,144,33563,1,0,0:0:0:0:
160,224,33720,6,0,P|224:240|224:240,2,40
280,184,34034,2,0,P|328:144|336:96,2,80
424,80,34505,1,0,0:0:0:0:
424,200,34819,1,0,0:0:0:0:
120,296,35133,1,0,0:0:0:0:
216,56,35447,1,0,0:0:0:0:
256,192,35761,1,4,0:1:0:0:
64,64,40631,5,0,0:0:0:0:
160,72,40788,2,0,L|88:136,1,80
136,184,41102,2,0,L|200:120,1,80
240,112,41416,1,0,0:0:0:0:
288,112,41573,2,0,L|312:200,2,80
400,72,42201,1,0,0:0:0:0:
424,216,42358,1,0,0:0:0:0:
320,328,42515,1,0,0:0:0:0:
200,296,42830,6,0,L|136:272,2,40
232,304,43144,1,0,0:0:0:0:
88,304,43301,2,0,P|48:232|72:176,1,120
120,224,43693,2,0,P|144:144|136:120,2,80
184,48,44165,1,0,0:0:0:0:
280,96,44322,1,0,0:0:0:0:
288,160,44479,2,0,L|200:232,1,80
256,264,44793,2,0,L|312:216,2,40
248,40,45108,5,0,0:0:0:0:
128,176,45265,1,0,0:0:0:0:
344,200,45422,1,0,0:0:0:0:
240,352,45579,1,4,0:1:0:0:
336,320,45735,5,0,0:0:0:0:
352,304,45814,2,0,P|400:280|416:248,1,80
352,216,46128,2,0,P|384:152|368:96,1,120
296,72,46520,2,0,L|248:112,1,40
232,64,46677,2,0,L|184:96,1,40
176,72,46834,2,0,L|144:96,1,40
80,96,47070,2,0,P|48:176|64:208,1,120
120,160,47463,2,0,P|160:232|152:280,1,120
112,256,47856,1,0,0:0:0:0:
144,304,48013,1,0,0:0:0:0:
176,304,48170,1,0,0:0:0:0:
208,304,48327,1,0,0:0:0:0:
240,296,48484,2,0,L|352:240,1,120
344,240,48876,1,0,0:0:0:0:
344,192,49033,1,0,0:0:0:0:
344,144,49190,1,0,0:0:0:0:
344,144,49347,2,0,L|240:96,1,80
136,88,49662,2,0,L|80:176,1,80
168,160,49976,2,0,L|104:248,1,80
72,208,50290,2,0,L|-8:296,1,80
112,320,50604,5,0,0:0:0:0:
208,288,50761,1,0,0:0:0:0:
120,216,50919,1,0,0:0:0:0:
136,56,51076,2,0,P|208:72|224:96,1,80
272,56,51390,2,0,P|328:80|344:128,1,80
336,160,51704,1,0,0:0:0:0:
264,240,51861,1,0,0:0:0:0:
376,280,52018,1,0,0:0:0:0:
272,320,52175,2,0,L|208:352,2,40
176,288,52489,2,0,P|104:296|88:272,1,80
112,240,52803,2,0,P|80:224|64:200,1,40
56,104,53118,5,0,0:0:0:0:
104,56,53275,2,0,P|176:80|192:104,1,80
232,56,53589,2,0,P|280:96|288:144,1,80
344,88,53903,2,0,P|368:152|352:192,1,80
432,152,54217,2,0,P|432:200|400:240,1,80
344,312,54531,1,0,0:0:0:0:
224,288,54688,1,0,0:0:0:0:
112,264,54845,2,0,P|80:216|80:168,1,80
96,96,55159,2,0,L|152:64,3,40
264,88,55552,2,0,L|360:144,2,80
88,64,56023,6,0,P|40:112|40:144,1,80
120,160,56337,2,0,P|128:216|96:256,1,80
56,224,56651,2,0,P|56:296|88:320,1,80
112,344,56965,2,0,P|168:360|208:352,1,80
168,288,57279,2,0,P|240:272|264:296,1,80
256,328,57593,2,0,P|320:328|352:304,1,80
320,264,57908,2,0,P|352:224|408:216,1,80
440,160,58222,1,0,0:0:0:0:
376,64,58379,1,0,0:0:0:0:
304,56,58536,2,0,L|224:104,1,80
224,48,58850,2,0,L|128:96,1,80
120,48,59164,2,0,L|32:88,1,80
16,144,59478,2,0,L|72:168,2,40
256,192,59792,12,4,60421,0:1:0:0:
72,48,60892,5,0,0:0:0:0:
144,96,61049,2,0,P|232:32|280:32,1,160
248,128,61521,2,0,P|328:80|416:88,1,160
400,88,61913,1,0,0:0:0:0:
392,128,61992,1,0,0:0:0:0:
376,152,62070,1,0,0:0:0:0:
352,176,62149,1,0,0:0:0:0:
400,224,62306,2,0,P|328:288|256:288,1,160
264,344,62777,2,0,P|152:328|104:272,1,160
112,272,63248,1,0,0:0:0:0:
96,248,63327,1,0,0:0:0:0:
96,216,63405,1,0,0:0:0:0:
128,64,63563,5,0,0:0:0:0:
256,112,63720,1,0,0:0:0:0:
168,208,63877,1,0,0:0:0:0:
400,360,64034,5,0,0:0:0:0:
480,240,64191,1,0,0:0:0:0:
288,232,64348,1,0,0:0:0:0:
64,112,64662,6,0,P|112:72|152:64,1,80
176,104,64976,2,0,P|240:88|288:96,1,80
256,168,65290,2,0,P|216:200|168:176,1,80
160,240,65604,2,0,P|96:224|80:192,1,80,0|4,0:0|0:1,0:0:0:0:
120,144,65919,2,0,L|152:176,2,40
248,48,66233,6,0,L|320:112,1,80
360,64,66547,2,0,L|400:136,1,80
456,120,66861,2,0,L|464:224,2,80
256,328,67332,2,0,L|168:256,1,80
136,344,67646,2,0,L|104:256,1,80
48,280,67960,2,0,L|48:176,1,80
48,168,68275,1,0,0:0:0:0:
64,152,68353,1,0,0:0:0:0:
80,136,68432,1,0,0:0:0:0:
184,80,68589,6,0,P|248:128|256:152,1,80
256,192,68903,1,0,0:0:0:0:
328,304,69060,6,0,P|264:256|256:232,1,80
256,192,69374,1,0,0:0:0:0:
424,152,69688,5,0,0:0:0:0:
384,192,69845,1,0,0:0:0:0:
336,192,70002,1,0,0:0:0:0:
256,192,70159,1,0,0:0:0:0:
88,232,70316,5,0,0:0:0:0:
128,192,70473,1,0,0:0:0:0:
176,192,70630,1,0,0:0:0:0:
256,192,70787,1,4,0:1:0:0:
136,48,71102,6,0,B|112:96|112:96|160:112|160:112,2,80
232,48,71573,1,0,0:0:0:0:
336,72,71730,1,0,0:0:0:0:
384,152,71887,1,0,0:0:0:0:
352,240,72044,1,0,0:0:0:0:
288,304,72201,2,0,L|208:288,2,80
144,312,72672,2,0,P|80:272|72:240,1,80
24,224,72987,2,0,P|8:176|24:120,1,80
80,80,73301,2,0,L|152:48,3,40
400,40,73693,6,0,B|424:88|424:88|376:104|376:104,2,80
336,128,74165,1,0,0:0:0:0:
384,216,74322,1,0,0:0:0:0:
328,264,74479,2,0,L|288:296,4,40
256,296,74950,1,0,0:0:0:0:
176,272,75107,1,0,0:0:0:0:
72,112,75342,5,0,0:0:0:0:
88,88,75421,1,0,0:0:0:0:
120,72,75499,1,0,0:0:0:0:
408,240,75657,1,0,0:0:0:0:
392,272,75735,1,0,0:0:0:0:
360,288,75814,1,0,0:0:0:0:
256,192,75971,5,0,0:0:0:0:
256,144,76128,2,0,P|256:88|216:72,1,80
256,240,76442,2,0,P|256:296|280:328,1,80
352,80,76756,6,0,P|392:120|392:176,1,80
400,200,77070,1,0,0:0:0:0:
392,256,77227,2,0,P|368:304|328:328,2,80
272,328,77699,1,0,0:0:0:0:
176,304,77856,1,0,0:0:0:0:
112,240,78013,1,0,0:0:0:0:
112,160,78170,1,0,0:0:0:0:
160,96,78327,1,0,0:0:0:0:
248,56,78484,6,0,P|296:56|336:88,2,80
240,112,78955,2,0,B|224:160|240:192|248:200,1,80
392,216,79269,5,0,0:0:0:0:
360,304,79426,1,0,0:0:0:0:
264,320,79583,1,0,0:0:0:0:
120,168,79741,5,0,0:0:0:0:
152,80,79898,1,0,0:0:0:0:
248,64,80055,1,0,0:0:0:0:
304,192,80290,6,0,P|368:208|400:192,1,80
256,232,80604,6,0,P|248:288|264:320,1,80
208,192,80919,6,0,P|144:192|112:216,1,80
256,144,81233,6,4,P|272:96|256:56,1,80,4|4,0:1|0:1,0:1:0:0:
104,104,90578,6,0,L|176:56,3,80
192,56,91207,5,0,0:0:0:0:
288,40,91364,2,0,B|336:72|336:72|312:112|312:112|376:152,1,160
392,184,91835,2,0,P|400:256|376:288,2,80
320,272,92307,1,0,0:0:0:0:
192,296,92464,1,0,0:0:0:0:
96,224,92621,1,0,0:0:0:0:
96,120,92777,1,0,0:0:0:0:
96,120,92934,2,0,L|88:64,2,40
136,80,93405,6,0,B|176:48|176:48|224:88|224:88,2,80
224,96,93877,2,0,P|264:120|304:112,1,80
352,96,94191,2,0,P|400:112|416:160,1,80
416,176,94505,2,0,P|392:224|352:240,1,80
368,240,94819,1,0,0:0:0:0:
336,288,94976,2,0,L|272:328,3,40
296,312,95369,1,0,0:0:0:0:
168,312,95526,1,0,0:0:0:0:
96,224,95683,1,0,0:0:0:0:
208,104,95840,6,4,P|256:152|256:192,1,80
304,280,96154,2,4,P|256:232|256:192,1,80
392,128,96468,6,0,P|352:88|320:72,1,80
264,48,96782,2,0,B|240:112|192:16|160:96,2,120
264,48,97489,1,0,0:0:0:0:
80,168,97646,1,0,0:0:0:0:
376,160,97803,1,0,0:0:0:0:
120,304,97960,1,0,0:0:0:0:
360,320,98118,1,0,0:0:0:0:
312,80,98432,5,0,0:0:0:0:
336,96,98510,1,0,0:0:0:0:
352,120,98589,1,0,0:0:0:0:
368,160,98746,1,0,0:0:0:0:
376,184,98903,1,0,0:0:0:0:
376,208,99060,2,0,P|344:272|320:280,1,80
296,288,99374,1,0,0:0:0:0:
248,296,99531,1,0,0:0:0:0:
208,296,99688,2,0,P|144:280|120:240,2,80
112,256,100159,1,0,0:0:0:0:
96,240,100238,1,0,0:0:0:0:
80,216,100316,1,0,0:0:0:0:
64,184,100474,2,0,P|56:136|80:80,1,80
88,72,100788,2,0,P|128:48|192:48,1,80
184,40,101023,1,0,0:0:0:0:
224,48,101102,1,0,0:0:0:0:
256,56,101180,1,4,0:1:0:0:
360,56,101337,6,0,P|400:112|408:152,2,80
392,184,101809,2,0,L|368:216,1,40
408,232,101966,2,0,L|384:264,1,40
400,288,102123,2,0,L|368:320,1,40
288,312,102358,1,0,0:0:0:0:
184,304,102515,1,0,0:0:0:0:
88,256,102672,2,0,P|56:232|48:184,1,80
48,136,102987,2,0,P|48:80|80:48,1,80
80,48,103301,1,0,0:0:0:0:
144,96,103458,5,0,0:0:0:0:
176,88,103536,1,0,0:0:0:0:
208,88,103615,1,0,0:0:0:0:
264,72,103772,1,0,0:0:0:0:
328,112,103929,1,0,0:0:0:0:
400,136,104086,1,0,0:0:0:0:
424,216,104243,2,0,L|416:264,3,40
360,224,104636,1,0,0:0:0:0:
320,288,104793,1,0,0:0:0:0:
256,336,104951,1,0,0:0:0:0:
176,312,105107,2,0,P|136:312|104:280,2,80
168,312,105578,1,0,0:0:0:0:
136,304,105657,1,0,0:0:0:0:
112,288,105735,1,0,0:0:0:0:
248,184,105892,6,0,P|256:136|280:192,2,120
360,192,106521,6,0,P|400:144|400:120,1,80
368,96,106835,2,0,P|352:56|320:40,1,80
280,56,107149,2,0,P|248:32|192:40,1,80
160,64,107463,2,0,L|128:112,2,40
80,136,107777,2,0,L|72:176,1,40
120,208,108013,2,0,L|104:248,1,40
56,256,108248,2,0,L|40:296,1,40
96,312,108484,2,0,P|136:272|184:280,1,80
152,336,108798,2,0,P|200:328|216:288,2,80
288,296,109269,2,0,P|304:240|336:232,1,80
360,280,109583,2,0,P|392:248|392:192,2,80
408,160,110055,1,0,0:0:0:0:
328,112,110212,1,0,0:0:0:0:
400,40,110369,1,0,0:0:0:0:
256,64,110526,1,0,0:0:0:0:
112,48,110683,1,0,0:0:0:0:
192,128,110840,1,0,0:0:0:0:
136,152,110997,6,0,B|104:192|104:192|128:224,1,80
128,240,111311,1,0,0:0:0:0:
144,272,111468,1,0,0:0:0:0:
256,192,111625,6,0,P|264:232|304:264,1,80
288,272,111940,2,0,P|344:288|384:256,1,80
392,264,112254,2,0,P|432:216|432:216,2,40
256,192,112568,5,0,0:0:0:0:
256,192,112725,1,0,0:0:0:0:
256,192,112882,6,0,P|240:144|200:112,1,80
224,104,113196,2,0,P|184:72|128:72,1,80
128,72,113510,2,0,L|80:96,2,40
256,192,113824,5,0,0:0:0:0:
360,224,113981,1,0,0:0:0:0:
464,192,114138,1,0,0:0:0:0:
464,192,114296,1,0,0:0:0:0:
256,192,114453,5,0,0:0:0:0:
152,160,114610,1,0,0:0:0:0:
48,192,114767,1,0,0:0:0:0:
48,192,114924,1,0,0:0:0:0:
48,256,115081,2,0,P|72:296|176:328,2,160
56,216,115866,1,0,0:0:0:0:
88,200,115945,1,0,0:0:0:0:
112,192,116023,1,0,0:0:0:0:
224,152,116180,6,0,L|296:240,1,80
352,336,116494,6,0,P|408:312|424:288,1,80
392,248,116809,2,0,P|408:200|384:152,1,80
160,336,117123,6,0,P|104:312|88:288,1,80
120,248,117438,2,0,P|104:200|128:152,1,80
312,320,117751,5,0,0:0:0:0:
200,248,117908,1,0,0:0:0:0:
320,168,118065,1,0,0:0:0:0:
200,88,118222,1,0,0:0:0:0:
320,88,118379,5,0,0:0:0:0:
200,168,118536,1,0,0:0:0:0:
320,248,118693,1,0,0:0:0:0:
200,320,118851,1,0,0:0:0:0:
256,192,119008,5,0,0:0:0:0:
304,232,119165,6,0,P|320:192|304:144,1,80
208,160,119479,2,0,P|264:136|304:168,1,80
208,160,119793,6,0,P|192:200|208:248,1,80
304,232,120107,2,0,P|248:256|208:224,1,80
104,64,120421,5,4,0:0:0:0:
424,192,120578,1,4,0:0:0:0:
104,312,120735,1,4,0:0:0:0:
424,64,120892,5,4,0:0:0:0:
104,192,121049,1,4,0:0:0:0:
416,312,121207,1,4,0:1:0:0:
80,56,126625,5,0,0:0:0:0:
8,120,126782,2,0,P|96:152|176:32,1,240
216,208,127489,2,0,L|296:168,2,80
296,320,128039,2,0,P|344:240|432:232,1,160
384,128,128510,2,0,L|240:176,1,120
200,200,128903,2,0,L|152:232,3,40
200,160,129296,6,0,P|256:128|272:128,1,80
256,256,129610,2,0,P|304:240|328:216,2,80
256,193,130081,1,0,0:0:0:0:
256,193,130238,1,0,0:0:0:0:
328,80,130395,6,0,P|368:80|416:104,2,80
408,144,130866,2,0,P|424:208|400:240,1,80
384,264,131180,2,0,P|368:304|304:336,2,80
296,288,131809,6,8,B|240:224|240:224|296:160|296:160|232:80,1,240.000009155274,8|8,0:3|0:3,0:3:0:0:
168,64,132280,6,0,P|112:96|104:136,1,80,8|0,0:1|0:0,0:0:0:0:
96,128,132594,1,8,0:1:0:0:
88,184,132751,2,0,L|88:272,1,80,8|0,0:1|0:0,0:0:0:0:
96,288,133065,1,8,0:1:0:0:
136,304,133222,2,0,P|184:328|224:320,1,80,8|0,0:1|0:0,0:0:0:0:
256,328,133536,1,8,0:1:0:0:
408,192,133693,1,8,0:1:0:0:
256,48,133851,1,8,0:1:0:0:
112,192,134008,1,8,0:1:0:0:
296,96,134322,6,8,B|240:160|240:160|296:224|296:224|232:304,1,240.000009155274,8|8,0:3|0:3,0:3:0:0:
344,64,134793,6,0,P|400:96|408:136,1,80,8|0,0:1|0:0,0:0:0:0:
416,128,135107,1,8,0:1:0:0:
424,184,135264,2,0,L|424:272,1,80,8|0,0:1|0:0,0:0:0:0:
416,288,135578,1,8,0:1:0:0:
376,304,135735,2,0,P|328:328|288:320,1,80,8|0,0:1|0:0,0:0:0:0:
256,328,136049,1,8,0:1:0:0:
104,192,136206,1,8,0:1:0:0:
256,48,136364,1,8,0:1:0:0:
400,192,136521,1,8,0:1:0:0:
256,328,136678,1,8,0:1:0:0:
352,152,136835,6,8,B|288:208|288:208|224:152|224:152|144:216,1,240.000009155274,8|8,0:3|0:3,0:3:0:0:
384,104,137463,6,0,P|352:48|312:40,1,80,8|0,0:1|0:0,0:0:0:0:
320,32,137777,1,8,0:1:0:0:
264,24,137934,2,0,L|176:24,1,80,8|0,0:1|0:0,0:0:0:0:
160,32,138248,1,8,0:1:0:0:
144,72,138405,2,0,P|120:120|128:160,1,80,8|0,0:1|0:0,0:0:0:0:
120,192,138719,1,8,0:1:0:0:
256,344,138876,1,8,0:1:0:0:
400,192,139034,1,8,0:1:0:0:
256,48,139191,1,8,0:1:0:0:
160,152,139348,6,8,B|224:208|224:208|288:152|288:152|368:216,1,240.000009155274,8|8,0:3|0:3,0:3:0:0:
384,280,139819,6,0,P|352:336|312:344,1,80,8|0,0:1|0:0,0:0:0:0:
320,352,140133,1,8,0:1:0:0:
264,360,140290,2,0,L|176:360,1,80,8|0,0:1|0:0,0:0:0:0:
160,352,140604,1,8,0:1:0:0:
144,312,140761,2,0,P|120:264|128:224,1,80,8|0,0:1|0:0,0:0:0:0:
120,192,141075,1,8,0:1:0:0:
256,40,141232,1,8,0:1:0:0:
400,192,141390,1,8,0:1:0:0:
256,336,141547,1,8,0:1:0:0:
256,192,141704,1,8,0:1:0:0:
80,128,141861,6,0,P|96:88|224:40,1,180.000006866455,4|0,0:1|0:0,0:0:0:0:
214,37,142175,1,0,0:0:0:0:
200,136,142332,2,0,P|288:80|424:136,1,240.000009155274
409,118,142725,1,0,0:0:0:0:
424,136,142803,1,0,0:0:0:0:
432,160,142882,1,0,0:0:0:0:
432,216,143039,1,0,0:0:0:0:
432,256,143196,6,0,P|416:296|288:344,1,180.000006866455,4|0,0:1|0:0,0:0:0:0:
297,346,143510,1,0,0:0:0:0:
312,248,143667,2,0,P|224:304|88:248,1,240.000009155274
102,265,144060,1,0,0:0:0:0:
88,248,144138,1,0,0:0:0:0:
80,224,144217,1,0,0:0:0:0:
72,112,144374,6,0,P|128:56|216:72,1,120.000004577637
184,64,144610,1,0,0:0:0:0:
192,88,144688,1,0,0:0:0:0:
440,112,144845,6,0,P|384:56|296:72,1,120.000004577637
328,72,145081,1,0,0:0:0:0:
320,96,145159,1,0,0:0:0:0:
256,304,145395,5,0,0:0:0:0:
184,248,145552,1,0,0:0:0:0:
328,248,145709,1,0,0:0:0:0:
136,192,145866,1,0,0:0:0:0:
376,192,146023,1,0,0:0:0:0:
256,80,146180,5,0,0:0:0:0:
184,136,146337,1,0,0:0:0:0:
328,136,146494,1,0,0:0:0:0:
136,192,146651,1,4,0:1:0:0:
376,192,146809,1,0,0:0:0:0:
328,136,146966,6,0,L|176:264,1,180.000006866455
168,272,147280,1,0,0:0:0:0:
120,312,147437,2,0,P|48:208|88:112,1,240.000009155274
112,96,147830,1,0,0:0:0:0:
136,80,147908,1,0,0:0:0:0:
160,72,147987,1,0,0:0:0:0:
184,136,148144,6,0,L|336:264,1,180.000006866455
344,272,148458,1,0,0:0:0:0:
368,288,148536,1,0,0:0:0:0:
392,312,148693,2,0,P|464:208|424:112,1,240.000009155274
400,96,149086,1,0,0:0:0:0:
376,80,149164,1,0,0:0:0:0:
352,72,149243,1,0,0:0:0:0:
264,56,149400,6,0,B|232:112|232:112|288:136|288:136|256:192|256:192,1,180.000006866455
256,192,149714,1,0,0:0:0:0:
248,328,149871,6,0,B|280:272|280:272|224:248|224:248|256:192|256:192,1,180.000006866455
256,192,150186,1,0,0:0:0:0:
176,32,150500,6,0,P|96:80|88:128,2,120.000004577637
192,32,150971,2,0,L|264:32,1,60.0000022888184
264,72,151128,2,0,L|336:72,1,60.0000022888184
336,32,151364,6,0,P|416:80|424:128,2,120.000004577637
336,32,151835,1,0,0:0:0:0:
424,160,151992,6,4,P|408:224|384:272,2,120.000004577637,4|4|4,0:1|0:1|0:1,0:1:0:0:
408,160,152463,1,0,0:0:0:0:
168,144,152620,6,0,L|72:240,1,120.000004577637
80,240,152856,1,0,0:0:0:0:
72,256,152934,1,0,0:0:0:0:
104,272,153091,2,0,L|160:312,1,60.0000022888184
152,336,153248,2,0,L|240:360,1,60.0000022888184
224,320,153405,2,0,L|312:312,1,60.0000022888184
304,344,153563,2,0,L|400:296,1,60.0000022888184
384,288,153720,1,0,0:0:0:0:
400,256,153798,2,0,B|424:184|424:184|224:184,1,240.000009155274
256,184,154269,5,4,0:1:0:0:
256,152,154426,2,4,P|184:88|136:96,1,120.000004577637,4|12,0:1|0:1,0:1:0:0:
88,112,154741,1,8,0:1:0:0:
48,176,154898,1,8,0:1:0:0:
256,192,155055,6,0,B|96:192|96:192|120:112,1,240.000009155274
128,96,155447,1,0,0:0:0:0:
144,64,155526,2,0,L|208:40,1,60.0000022888184
216,80,155683,2,0,L|304:64,1,60.0000022888184
288,32,155840,2,0,L|368:48,1,60.0000022888184
336,80,155997,2,0,L|400:112,1,60.0000022888184
400,120,156154,1,0,0:0:0:0:
408,136,156233,1,0,0:0:0:0:
416,160,156311,2,0,L|336:272,1,120.000004577637
288,272,156625,1,0,0:0:0:0:
160,256,156782,1,0,0:0:0:0:
256,200,156940,5,4,0:1:0:0:
256,232,157097,2,4,P|328:296|376:288,1,120.000004577637,4|12,0:1|0:1,0:1:0:0:
424,272,157412,1,8,0:1:0:0:
464,208,157569,1,8,0:1:0:0:
424,128,157725,6,0,P|376:64|312:40,1,120.000004577637
320,48,158039,1,0,0:0:0:0:
248,48,158196,2,0,P|160:56|112:96,2,120.000004577637
88,104,158667,2,0,P|64:176|80:224,1,120.000004577637
88,256,158981,2,0,L|136:312,4,60.0000022888184
256,200,159453,5,4,0:1:0:0:
256,232,159610,2,4,P|184:296|136:288,1,120.000004577637,4|12,0:1|0:1,0:1:0:0:
88,272,159925,1,8,0:1:0:0:
48,208,160082,1,8,0:1:0:0:
80,112,160238,6,4,P|112:72|152:64,1,90.0000034332277
224,64,160631,2,4,L|304:64,2,60.0000022888184
336,96,161102,1,4,0:0:0:0:
360,176,161259,1,4,0:0:0:0:
256,240,161416,1,4,0:0:0:0:
256,192,161573,2,4,B|192:200|184:272|224:304|264:296,1,150.000005722046,4|4,0:0|0:0,0:0:0:0:
