osu file format v14

[General]
AudioFilename: reversible.mp3
AudioLeadIn: 0
PreviewTime: 61043
Countdown: 0
SampleSet: Normal
StackLeniency: 1
Mode: 1
LetterboxInBreaks: 0
WidescreenStoryboard: 0

[Editor]
DistanceSpacing: 0.8
BeatDivisor: 4
GridSize: 32
TimelineZoom: 1.6

[Metadata]
Title:Reversible Campaign
TitleUnicode:リバーシブル・キャンペーン
Artist:DECO*27
ArtistUnicode:DECO*27
Creator:snowball112
Version:Muzukashii
Source:
Tags:GHOST Hatsune Miku 初音ミク Vocaloid
BeatmapID:1175838
BeatmapSetID:555581

[Difficulty]
HPDrainRate:5
CircleSize:2
OverallDifficulty:5
ApproachRate:0
SliderMultiplier:1.4
SliderTickRate:1

[Events]
//Background and Video events
0,0,"miku.jpg",0,0
//Break Periods
//Storyboard Layer 0 (Background)
//Storyboard Layer 1 (Fail)
//Storyboard Layer 2 (Pass)
//Storyboard Layer 3 (Foreground)
//Storyboard Sound Samples

[TimingPoints]
412,315.789473684211,4,1,0,55,1,0
10517,-100,4,1,0,75,0,0
20622,-100,4,1,0,65,0,0
30727,-100,4,1,0,75,0,0
40833,-100,4,1,0,65,0,0
50938,-100,4,1,0,60,0,0
61043,-100,4,1,0,80,0,1
81254,-100,4,1,0,75,0,0
91359,-100,4,1,0,55,0,0
101464,-100,4,1,0,75,0,0
111569,-100,4,1,0,60,0,0
131780,-100,4,1,0,67,0,0
136833,-100,4,1,0,75,0,0
141885,-100,4,1,0,83,0,1
162096,-100,4,1,0,60,0,0

[HitObjects]
256,192,5464,5,0,0:0:0:0:
256,192,5780,1,8,0:0:0:0:
256,192,6254,1,0,0:0:0:0:
256,192,6412,1,8,0:0:0:0:
256,192,6727,1,0,0:0:0:0:
256,192,7043,1,8,0:0:0:0:
256,192,7675,1,8,0:0:0:0:
256,192,7990,1,0,0:0:0:0:
256,192,8306,1,8,0:0:0:0:
256,192,8780,1,0,0:0:0:0:
256,192,8938,1,8,0:0:0:0:
256,192,9254,1,0,0:0:0:0:
256,192,9412,1,8,0:0:0:0:
256,192,9569,1,8,0:0:0:0:
256,192,9727,1,8,0:0:0:0:
256,192,10043,1,0,0:0:0:0:
256,192,10201,1,12,0:0:0:0:
256,192,10517,5,4,0:0:0:0:
256,192,10833,1,8,0:0:0:0:
256,192,10990,1,8,0:0:0:0:
256,192,11306,1,0,0:0:0:0:
256,192,11464,1,8,0:0:0:0:
256,192,11622,1,8,0:0:0:0:
256,192,11938,1,0,0:0:0:0:
256,192,12096,1,8,0:0:0:0:
256,192,12254,1,8,0:0:0:0:
256,192,12412,1,0,0:0:0:0:
256,192,12727,1,8,0:0:0:0:
256,192,13043,1,0,0:0:0:0:
256,192,13359,1,8,0:0:0:0:
256,192,13517,1,8,0:0:0:0:
256,192,13833,5,0,0:0:0:0:
256,192,13990,1,8,0:0:0:0:
256,192,14148,1,0,0:0:0:0:
256,192,14464,1,8,0:0:0:0:
256,192,14780,1,0,0:0:0:0:
256,192,14938,1,8,0:0:0:0:
256,192,15254,1,8,0:0:0:0:
256,192,15569,5,12,0:0:0:0:
256,192,15727,1,0,0:0:0:0:
256,192,15885,1,8,0:0:0:0:
256,192,16043,1,8,0:0:0:0:
256,192,16359,1,8,0:0:0:0:
256,192,16517,1,0,0:0:0:0:
256,192,16675,1,8,0:0:0:0:
256,192,16990,1,8,0:0:0:0:
256,192,17148,1,8,0:0:0:0:
256,192,17306,1,8,0:0:0:0:
256,192,17464,1,0,0:0:0:0:
256,192,17780,1,8,0:0:0:0:
256,192,18096,1,0,0:0:0:0:
256,192,18254,1,0,0:0:0:0:
256,192,18412,1,8,0:0:0:0:
256,192,18569,1,8,0:0:0:0:
256,192,18885,5,0,0:0:0:0:
256,192,18964,1,0,0:0:0:0:
256,192,19043,1,0,0:0:0:0:
256,192,19201,1,8,0:0:0:0:
256,192,19359,1,0,0:0:0:0:
256,192,19517,1,8,0:0:0:0:
256,192,19833,1,0,0:0:0:0:
256,192,19990,1,8,0:0:0:0:
256,192,20148,5,12,0:0:0:0:
256,192,20306,1,12,0:0:0:0:
256,192,20622,5,4,0:0:0:0:
256,192,20938,1,8,0:0:0:0:
256,192,21254,1,0,0:0:0:0:
256,192,21412,1,0,0:0:0:0:
256,192,21569,1,8,0:0:0:0:
256,192,21885,1,0,0:0:0:0:
256,192,22201,1,8,0:0:0:0:
256,192,22359,1,0,0:0:0:0:
256,192,22675,1,0,0:0:0:0:
256,192,22833,1,8,0:0:0:0:
256,192,23148,1,0,0:0:0:0:
256,192,23464,1,8,0:0:0:0:
256,192,23780,1,0,0:0:0:0:
256,192,24096,1,8,0:0:0:0:
244,195,24254,1,8,0:0:0:0:
256,192,24412,1,0,0:0:0:0:
245,184,24727,1,8,0:0:0:0:
246,184,24885,1,0,0:0:0:0:
251,197,25201,1,0,0:0:0:0:
251,197,25359,1,8,0:0:0:0:
256,192,25675,1,0,0:0:0:0:
243,180,25990,1,8,0:0:0:0:
245,184,26306,1,0,0:0:0:0:
245,184,26464,1,0,0:0:0:0:
246,184,26622,1,8,0:0:0:0:
251,197,26938,1,0,0:0:0:0:
247,189,27254,1,8,0:0:0:0:
247,189,27412,1,0,0:0:0:0:
256,192,27727,1,0,0:0:0:0:
256,192,27885,1,8,0:0:0:0:
256,192,28201,1,0,0:0:0:0:
251,197,28517,1,8,0:0:0:0:
256,192,28833,1,0,0:0:0:0:
247,189,29148,1,8,0:0:0:0:
256,192,29306,1,8,0:0:0:0:
256,192,29464,1,0,0:0:0:0:
256,192,29780,1,8,0:0:0:0:
256,192,30096,5,0,0:0:0:0:
256,192,30254,1,0,0:0:0:0:
256,192,30412,1,0,0:0:0:0:
256,192,30569,1,0,0:0:0:0:
256,192,30727,5,4,0:0:0:0:
256,192,31359,1,8,0:0:0:0:
256,192,31675,1,0,0:0:0:0:
256,192,31990,1,0,0:0:0:0:
256,192,32464,1,0,0:0:0:0:
256,192,32622,1,8,0:0:0:0:
256,192,32938,1,0,0:0:0:0:
256,192,33254,1,0,0:0:0:0:
256,192,33885,1,8,0:0:0:0:
256,192,34201,1,0,0:0:0:0:
256,192,34517,1,0,0:0:0:0:
256,192,34990,1,0,0:0:0:0:
256,192,35148,1,8,0:0:0:0:
256,192,35464,1,8,0:0:0:0:
256,192,35780,1,4,0:0:0:0:
256,192,36096,1,8,0:0:0:0:
256,192,36254,1,0,0:0:0:0:
256,192,36412,1,8,0:0:0:0:
256,192,36569,1,8,0:0:0:0:
256,192,36727,1,0,0:0:0:0:
256,192,37043,1,8,0:0:0:0:
256,192,37201,1,0,0:0:0:0:
256,192,37517,1,0,0:0:0:0:
256,192,37675,1,8,0:0:0:0:
256,192,37754,5,8,0:0:0:0:
256,192,37833,1,8,0:0:0:0:
256,192,37990,1,0,0:0:0:0:
256,192,38306,1,0,0:0:0:0:
256,192,38622,1,8,0:0:0:0:
256,192,38780,1,0,0:0:0:0:
256,192,38938,1,8,0:0:0:0:
256,192,39096,1,8,0:0:0:0:
224,192,39254,1,0,0:0:0:0:
256,192,39569,1,8,0:0:0:0:
256,192,39727,1,0,0:0:0:0:
256,192,40043,1,0,0:0:0:0:
256,192,40201,1,8,0:0:0:0:
256,192,40359,1,0,0:0:0:0:
256,192,40517,5,12,0:0:0:0:
256,192,40833,5,4,0:0:0:0:
256,192,41148,1,8,0:0:0:0:
256,192,41306,1,0,0:0:0:0:
256,192,41464,1,0,0:0:0:0:
256,192,41780,1,8,0:0:0:0:
256,192,41938,1,0,0:0:0:0:
256,192,42254,1,0,0:0:0:0:
256,192,42412,1,8,0:0:0:0:
256,192,42569,1,0,0:0:0:0:
256,192,42885,1,0,0:0:0:0:
256,192,43043,1,8,0:0:0:0:
256,192,43359,1,0,0:0:0:0:
256,192,43675,1,8,0:0:0:0:
256,192,43833,1,0,0:0:0:0:
256,192,43990,1,0,0:0:0:0:
246,194,44306,1,8,0:0:0:0:
244,195,44464,1,8,0:0:0:0:
256,192,44622,1,0,0:0:0:0:
245,184,44938,1,8,0:0:0:0:
246,184,45096,1,0,0:0:0:0:
251,197,45412,1,0,0:0:0:0:
251,197,45569,1,8,0:0:0:0:
247,189,45885,1,0,0:0:0:0:
256,192,46043,1,0,0:0:0:0:
243,180,46201,1,8,0:0:0:0:
245,184,46359,1,0,0:0:0:0:
245,184,46517,1,0,0:0:0:0:
246,184,46833,1,8,0:0:0:0:
256,192,46990,1,0,0:0:0:0:
256,192,47306,1,0,0:0:0:0:
247,189,47464,1,8,0:0:0:0:
247,189,47622,1,0,0:0:0:0:
256,192,47938,1,0,0:0:0:0:
256,192,48096,1,8,0:0:0:0:
256,192,48412,1,0,0:0:0:0:
251,197,48727,1,8,0:0:0:0:
256,192,48885,1,0,0:0:0:0:
256,192,49043,1,0,0:0:0:0:
247,189,49359,1,8,0:0:0:0:
256,192,49517,5,8,0:0:0:0:
256,192,49675,1,0,0:0:0:0:
256,192,49990,1,8,0:0:0:0:
256,192,50148,1,0,0:0:0:0:
256,192,50464,1,0,0:0:0:0:
256,192,50622,1,8,0:0:0:0:
256,192,50938,5,4,0:0:0:0:
256,192,51569,1,8,0:0:0:0:
256,192,51885,1,0,0:0:0:0:
256,192,52201,1,0,0:0:0:0:
256,192,52675,1,0,0:0:0:0:
256,192,52833,1,8,0:0:0:0:
256,192,53148,1,0,0:0:0:0:
256,192,53464,1,0,0:0:0:0:
256,192,54096,1,8,0:0:0:0:
256,192,54412,1,0,0:0:0:0:
256,192,54727,1,0,0:0:0:0:
256,192,55201,1,0,0:0:0:0:
256,192,55359,1,8,0:0:0:0:
256,192,55675,1,0,0:0:0:0:
256,192,55990,1,12,0:0:0:0:
256,192,56148,1,0,0:0:0:0:
256,192,56306,1,8,0:0:0:0:
256,192,56464,1,0,0:0:0:0:
256,192,56780,1,0,0:0:0:0:
256,192,56938,1,8,0:0:0:0:
256,192,57096,1,0,0:0:0:0:
256,192,57412,1,0,0:0:0:0:
256,192,57569,1,8,0:0:0:0:
256,192,57727,1,0,0:0:0:0:
256,192,57885,5,8,0:0:0:0:
256,192,58201,1,8,0:0:0:0:
256,192,58359,5,0,0:0:0:0:
256,192,58517,5,0,0:0:0:0:
256,192,58833,1,8,0:0:0:0:
256,192,58990,1,0,0:0:0:0:
256,192,59148,1,0,0:0:0:0:
256,192,59306,1,8,0:0:0:0:
256,192,59464,1,8,0:0:0:0:
256,192,59780,1,8,0:0:0:0:
256,192,59938,1,0,0:0:0:0:
256,192,60017,1,0,0:0:0:0:
256,192,60096,1,0,0:0:0:0:
256,192,60254,1,0,0:0:0:0:
256,192,60412,1,8,0:0:0:0:
256,192,61043,5,4,0:0:0:0:
256,192,61359,1,0,0:0:0:0:
256,192,61517,1,0,0:0:0:0:
256,192,61833,1,0,0:0:0:0:
256,192,61990,1,8,0:0:0:0:
256,192,62148,1,0,0:0:0:0:
256,192,62306,1,0,0:0:0:0:
256,192,62622,1,0,0:0:0:0:
256,192,62780,5,0,0:0:0:0:
256,192,63096,1,0,0:0:0:0:
256,192,63254,1,8,0:0:0:0:
256,192,63412,1,8,0:0:0:0:
256,192,63569,1,0,0:0:0:0:
256,192,63885,1,8,0:0:0:0:
256,192,64043,1,0,0:0:0:0:
256,192,64359,1,8,0:0:0:0:
256,192,64438,1,8,0:0:0:0:
256,192,64517,1,8,0:0:0:0:
256,192,64675,1,8,0:0:0:0:
256,192,64833,5,0,0:0:0:0:
256,192,65148,1,8,0:0:0:0:
256,192,65306,1,0,0:0:0:0:
256,192,65464,1,0,0:0:0:0:
256,192,65622,1,0,0:0:0:0:
256,192,65780,1,8,0:0:0:0:
256,192,66096,5,4,0:0:0:0:
256,192,66412,1,0,0:0:0:0:
256,192,66569,1,0,0:0:0:0:
256,192,66885,1,0,0:0:0:0:
256,192,67043,1,8,0:0:0:0:
256,192,67201,1,0,0:0:0:0:
256,192,67359,1,0,0:0:0:0:
256,192,67675,1,0,0:0:0:0:
256,192,67833,1,0,0:0:0:0:
256,192,68148,1,0,0:0:0:0:
256,192,68306,1,8,0:0:0:0:
256,192,68464,1,8,0:0:0:0:
256,192,68622,1,0,0:0:0:0:
256,192,68938,1,8,0:0:0:0:
256,192,69096,1,0,0:0:0:0:
256,192,69412,1,8,0:0:0:0:
256,192,69490,1,8,0:0:0:0:
256,192,69569,1,8,0:0:0:0:
256,192,69727,1,8,0:0:0:0:
256,192,69885,1,0,0:0:0:0:
256,192,70201,1,8,0:0:0:0:
256,192,70359,1,0,0:0:0:0:
256,192,70517,1,0,0:0:0:0:
256,192,70675,1,0,0:0:0:0:
256,192,70833,1,12,0:0:0:0:
256,192,71148,1,4,0:0:0:0:
256,192,71464,1,8,0:0:0:0:
256,192,71622,1,8,0:0:0:0:
256,192,71780,1,0,0:0:0:0:
256,192,71938,1,0,0:0:0:0:
256,192,72096,1,8,0:0:0:0:
256,192,72254,1,0,0:0:0:0:
256,192,72569,1,0,0:0:0:0:
256,192,72727,1,8,0:0:0:0:
256,192,72885,1,8,0:0:0:0:
256,192,73043,1,0,0:0:0:0:
256,192,73201,1,0,0:0:0:0:
256,192,73359,1,8,0:0:0:0:
256,192,73675,1,4,0:0:0:0:
256,192,73990,1,8,0:0:0:0:
256,192,74148,1,8,0:0:0:0:
256,192,74306,1,0,0:0:0:0:
256,192,74622,1,8,0:0:0:0:
256,192,74780,1,0,0:0:0:0:
256,192,75096,1,0,0:0:0:0:
256,192,75254,1,8,0:0:0:0:
256,192,75412,1,8,0:0:0:0:
256,192,75569,1,0,0:0:0:0:
256,192,75727,1,12,0:0:0:0:
256,192,75885,1,12,0:0:0:0:
256,192,76201,1,4,0:0:0:0:
256,192,76517,1,8,0:0:0:0:
256,192,76675,1,8,0:0:0:0:
256,192,76833,1,0,0:0:0:0:
256,192,76990,1,0,0:0:0:0:
256,192,77148,1,8,0:0:0:0:
256,192,77306,1,0,0:0:0:0:
256,192,77622,1,0,0:0:0:0:
256,192,77780,1,8,0:0:0:0:
256,192,77938,1,8,0:0:0:0:
256,192,78096,1,0,0:0:0:0:
256,192,78254,1,0,0:0:0:0:
256,192,78412,1,8,0:0:0:0:
256,192,78727,1,4,0:0:0:0:
256,192,79043,1,8,0:0:0:0:
256,192,79201,1,8,0:0:0:0:
256,192,79359,1,0,0:0:0:0:
256,192,79438,1,0,0:0:0:0:
256,192,79517,1,0,0:0:0:0:
256,192,79675,1,8,0:0:0:0:
256,192,79833,1,0,0:0:0:0:
256,192,80148,1,0,0:0:0:0:
256,192,80306,1,8,0:0:0:0:
256,192,80464,1,8,0:0:0:0:
256,192,80622,1,0,0:0:0:0:
256,192,81254,5,4,0:0:0:0:
256,192,81569,1,8,0:0:0:0:
256,192,81727,1,8,0:0:0:0:
256,192,82043,1,0,0:0:0:0:
256,192,82201,1,8,0:0:0:0:
256,192,82359,1,8,0:0:0:0:
256,192,82675,1,0,0:0:0:0:
256,192,82833,1,8,0:0:0:0:
256,192,82990,1,8,0:0:0:0:
256,192,83148,1,0,0:0:0:0:
256,192,83464,1,8,0:0:0:0:
256,192,83780,1,0,0:0:0:0:
256,192,84096,1,8,0:0:0:0:
256,192,84254,1,8,0:0:0:0:
256,192,84569,5,0,0:0:0:0:
256,192,84727,1,8,0:0:0:0:
256,192,84885,1,0,0:0:0:0:
256,192,85201,1,8,0:0:0:0:
256,192,85517,1,0,0:0:0:0:
256,192,85675,1,8,0:0:0:0:
256,192,85990,1,8,0:0:0:0:
256,192,86306,5,12,0:0:0:0:
256,192,86464,1,0,0:0:0:0:
256,192,86622,1,8,0:0:0:0:
256,192,86780,1,8,0:0:0:0:
256,192,87096,1,8,0:0:0:0:
256,192,87254,1,0,0:0:0:0:
256,192,87412,1,8,0:0:0:0:
256,192,87727,1,8,0:0:0:0:
256,192,87885,1,8,0:0:0:0:
256,192,88043,1,8,0:0:0:0:
256,192,88201,1,0,0:0:0:0:
256,192,88517,1,8,0:0:0:0:
256,192,88833,1,0,0:0:0:0:
256,192,88990,1,0,0:0:0:0:
256,192,89148,5,8,0:0:0:0:
256,192,89306,1,8,0:0:0:0:
256,192,89622,5,0,0:0:0:0:
256,192,89701,1,0,0:0:0:0:
256,192,89780,1,0,0:0:0:0:
256,192,89938,1,8,0:0:0:0:
256,192,90096,1,0,0:0:0:0:
256,192,90254,1,8,0:0:0:0:
256,192,90569,1,0,0:0:0:0:
256,192,90727,1,0,0:0:0:0:
256,192,90885,1,8,0:0:0:0:
256,192,91043,1,12,0:0:0:0:
256,192,91359,1,0,0:0:0:0:
256,192,92306,1,8,0:0:0:0:
256,192,92622,1,0,0:0:0:0:
256,192,93096,1,0,0:0:0:0:
256,192,93569,1,8,0:0:0:0:
256,192,93885,1,0,0:0:0:0:
256,192,94201,1,8,0:0:0:0:
256,192,94359,1,8,0:0:0:0:
256,192,94833,1,8,0:0:0:0:
256,192,95148,1,0,0:0:0:0:
256,192,95622,1,0,0:0:0:0:
256,192,95938,1,0,0:0:0:0:
256,192,96096,1,8,0:0:0:0:
256,192,96412,1,0,0:0:0:0:
256,192,97359,1,8,0:0:0:0:
256,192,97675,1,0,0:0:0:0:
256,192,98148,1,0,0:0:0:0:
256,192,98622,1,8,0:0:0:0:
256,192,98938,1,0,0:0:0:0:
256,192,99254,1,8,0:0:0:0:
256,192,99412,1,8,0:0:0:0:
256,192,99885,1,8,0:0:0:0:
224,192,100201,1,0,0:0:0:0:
256,192,100517,1,8,0:0:0:0:
256,192,100675,1,8,0:0:0:0:
256,192,100833,1,0,0:0:0:0:
256,192,101148,5,12,0:0:0:0:
256,192,101464,5,4,0:0:0:0:
256,192,101780,1,8,0:0:0:0:
256,192,101938,1,0,0:0:0:0:
256,192,102096,1,0,0:0:0:0:
256,192,102412,1,8,0:0:0:0:
256,192,102569,1,0,0:0:0:0:
256,192,102885,1,0,0:0:0:0:
256,192,103043,1,8,0:0:0:0:
256,192,103201,1,0,0:0:0:0:
256,192,103517,1,0,0:0:0:0:
256,192,103675,1,8,0:0:0:0:
256,192,103990,1,0,0:0:0:0:
256,192,104148,1,0,0:0:0:0:
256,192,104306,1,8,0:0:0:0:
256,192,104622,1,0,0:0:0:0:
256,192,104938,1,8,0:0:0:0:
244,195,105096,1,8,0:0:0:0:
256,192,105254,1,0,0:0:0:0:
245,184,105569,1,8,0:0:0:0:
246,184,105727,1,0,0:0:0:0:
251,197,106043,1,0,0:0:0:0:
251,197,106201,1,8,0:0:0:0:
247,189,106517,1,0,0:0:0:0:
256,192,106675,1,0,0:0:0:0:
243,180,106833,1,8,0:0:0:0:
245,184,106990,1,0,0:0:0:0:
245,184,107148,1,0,0:0:0:0:
246,184,107464,1,8,0:0:0:0:
256,192,107622,1,0,0:0:0:0:
256,192,107938,1,0,0:0:0:0:
247,189,108096,1,8,0:0:0:0:
247,189,108254,1,0,0:0:0:0:
256,192,108569,1,0,0:0:0:0:
256,192,108727,1,8,0:0:0:0:
256,192,109043,1,0,0:0:0:0:
256,192,109201,1,0,0:0:0:0:
251,197,109359,5,8,0:0:0:0:
256,192,109675,1,0,0:0:0:0:
247,189,109990,1,8,0:0:0:0:
256,192,110148,5,8,0:0:0:0:
256,192,110306,1,0,0:0:0:0:
256,192,110622,1,8,0:0:0:0:
256,192,110780,1,0,0:0:0:0:
256,192,111096,1,0,0:0:0:0:
256,192,111254,5,8,0:0:0:0:
224,192,111412,1,0,0:0:0:0:
256,192,111569,5,4,0:0:0:0:
256,192,111885,1,8,0:0:0:0:
256,192,112201,1,8,0:0:0:0:
256,192,112517,1,0,0:0:0:0:
256,192,112833,1,0,0:0:0:0:
256,192,113306,1,0,0:0:0:0:
256,192,113464,1,8,0:0:0:0:
256,192,113780,1,0,0:0:0:0:
256,192,114096,1,0,0:0:0:0:
256,192,114727,1,8,0:0:0:0:
256,192,115043,1,0,0:0:0:0:
256,192,115359,1,0,0:0:0:0:
256,192,115833,1,0,0:0:0:0:
256,192,115990,1,8,0:0:0:0:
256,192,116306,1,0,0:0:0:0:
256,192,116622,1,12,0:0:0:0:
256,192,116780,1,0,0:0:0:0:
256,192,116938,1,8,0:0:0:0:
256,192,117096,1,0,0:0:0:0:
256,192,117412,1,0,0:0:0:0:
256,192,117569,1,8,0:0:0:0:
256,192,117727,1,0,0:0:0:0:
256,192,118043,1,0,0:0:0:0:
256,192,118201,1,8,0:0:0:0:
256,192,118359,1,0,0:0:0:0:
256,192,118517,5,8,0:0:0:0:
256,192,118833,1,8,0:0:0:0:
256,192,118990,5,0,0:0:0:0:
256,192,119148,5,0,0:0:0:0:
256,192,119464,1,8,0:0:0:0:
256,192,119622,1,0,0:0:0:0:
256,192,119780,1,8,0:0:0:0:
256,192,119938,1,8,0:0:0:0:
256,192,120096,1,8,0:0:0:0:
256,192,120412,1,0,0:0:0:0:
256,192,120569,1,0,0:0:0:0:
256,192,120648,1,0,0:0:0:0:
256,192,120727,1,0,0:0:0:0:
256,192,120885,1,0,0:0:0:0:
256,192,121043,5,8,0:0:0:0:
256,192,121675,1,4,0:0:0:0:
256,192,122148,1,0,0:0:0:0:
256,192,122622,1,8,0:0:0:0:
256,192,122938,1,0,0:0:0:0:
256,192,123412,1,0,0:0:0:0:
256,192,123885,1,8,0:0:0:0:
256,192,124201,1,0,0:0:0:0:
256,192,124517,1,0,0:0:0:0:
256,192,124675,1,0,0:0:0:0:
256,192,124990,1,0,0:0:0:0:
256,192,125148,1,8,0:0:0:0:
256,192,125464,1,0,0:0:0:0:
256,192,125780,1,8,0:0:0:0:
256,192,126096,1,0,0:0:0:0:
256,192,126412,1,0,0:0:0:0:
256,192,126727,1,0,0:0:0:0:
256,192,127201,1,0,0:0:0:0:
256,192,127675,1,8,0:0:0:0:
256,192,127990,1,0,0:0:0:0:
256,192,128464,1,0,0:0:0:0:
256,192,128938,1,8,0:0:0:0:
256,192,129254,1,0,0:0:0:0:
256,192,129569,1,0,0:0:0:0:
256,192,129727,1,0,0:0:0:0:
256,192,130043,1,0,0:0:0:0:
256,192,130201,1,8,0:0:0:0:
256,192,130517,1,0,0:0:0:0:
256,192,130833,1,0,0:0:0:0:
256,192,131148,1,0,0:0:0:0:
256,192,131464,5,12,0:0:0:0:
256,192,131780,1,4,0:0:0:0:
256,192,132096,1,8,0:0:0:0:
256,192,132254,1,8,0:0:0:0:
256,192,132727,1,8,0:0:0:0:
256,192,133043,1,0,0:0:0:0:
256,192,133359,1,8,0:0:0:0:
256,192,133675,1,0,0:0:0:0:
256,192,133990,1,8,0:0:0:0:
256,192,134306,1,4,0:0:0:0:
256,192,134622,1,8,0:0:0:0:
256,192,134780,1,8,0:0:0:0:
256,192,135254,1,8,0:0:0:0:
256,192,135569,1,0,0:0:0:0:
256,192,135885,1,8,0:0:0:0:
256,192,136201,1,0,0:0:0:0:
256,192,136359,1,12,0:0:0:0:
256,192,136517,1,12,0:0:0:0:
256,192,136833,1,4,0:0:0:0:
256,192,137148,1,8,0:0:0:0:
256,192,137306,1,8,0:0:0:0:
256,192,137464,1,0,0:0:0:0:
256,192,137780,1,8,0:0:0:0:
256,192,138096,1,0,0:0:0:0:
256,192,138412,1,8,0:0:0:0:
256,192,138569,1,8,0:0:0:0:
256,192,138727,1,0,0:0:0:0:
256,192,139043,1,8,0:0:0:0:
256,192,139359,5,4,0:0:0:0:
256,192,139517,1,0,0:0:0:0:
256,192,139675,1,8,0:0:0:0:
256,192,139833,1,8,0:0:0:0:
256,192,139990,1,0,0:0:0:0:
256,192,140306,1,8,0:0:0:0:
256,192,140622,1,0,0:0:0:0:
256,192,140701,1,0,0:0:0:0:
256,192,140780,1,0,0:0:0:0:
256,192,140938,1,8,0:0:0:0:
256,192,141096,1,8,0:0:0:0:
256,192,141254,1,0,0:0:0:0:
256,192,141569,5,12,0:0:0:0:
256,192,141885,5,4,0:0:0:0:
256,192,142043,1,0,0:0:0:0:
256,192,142201,1,8,0:0:0:0:
256,192,142359,1,0,0:0:0:0:
256,192,142675,1,0,0:0:0:0:
256,192,142833,1,8,0:0:0:0:
256,192,142990,1,0,0:0:0:0:
256,192,143148,1,0,0:0:0:0:
256,192,143306,1,0,0:0:0:0:
256,192,143464,1,8,0:0:0:0:
256,192,143622,5,0,0:0:0:0:
256,192,143938,1,0,0:0:0:0:
256,192,144096,1,8,0:0:0:0:
256,192,144254,5,8,0:0:0:0:
256,192,144412,1,0,0:0:0:0:
256,192,144727,1,8,0:0:0:0:
256,192,144885,1,0,0:0:0:0:
256,192,145201,1,8,0:0:0:0:
256,192,145280,1,8,0:0:0:0:
256,192,145359,1,8,0:0:0:0:
256,192,145517,1,8,0:0:0:0:
256,192,145675,5,0,0:0:0:0:
256,192,145990,1,8,0:0:0:0:
256,192,146148,1,8,0:0:0:0:
256,192,146306,1,0,0:0:0:0:
256,192,146464,1,0,0:0:0:0:
256,192,146622,1,8,0:0:0:0:
256,192,146938,5,4,0:0:0:0:
256,192,147096,1,0,0:0:0:0:
256,192,147254,1,8,0:0:0:0:
256,192,147412,1,0,0:0:0:0:
256,192,147727,1,0,0:0:0:0:
256,192,147885,1,8,0:0:0:0:
256,192,148043,1,0,0:0:0:0:
256,192,148201,1,0,0:0:0:0:
256,192,148359,1,0,0:0:0:0:
256,192,148517,1,8,0:0:0:0:
256,192,148675,1,0,0:0:0:0:
256,192,148990,1,0,0:0:0:0:
256,192,149148,1,8,0:0:0:0:
256,192,149306,1,8,0:0:0:0:
256,192,149464,1,0,0:0:0:0:
256,192,149780,1,8,0:0:0:0:
256,192,149938,1,0,0:0:0:0:
256,192,150254,1,8,0:0:0:0:
256,192,150333,1,8,0:0:0:0:
256,192,150412,1,8,0:0:0:0:
256,192,150569,1,8,0:0:0:0:
256,192,150727,1,0,0:0:0:0:
256,192,151043,1,8,0:0:0:0:
256,192,151201,1,8,0:0:0:0:
256,192,151359,1,0,0:0:0:0:
256,192,151517,1,0,0:0:0:0:
256,192,151675,1,12,0:0:0:0:
256,192,151990,1,4,0:0:0:0:
256,192,152306,1,8,0:0:0:0:
256,192,152464,1,8,0:0:0:0:
256,192,152622,1,0,0:0:0:0:
256,192,152780,1,0,0:0:0:0:
256,192,152938,1,8,0:0:0:0:
256,192,153096,1,0,0:0:0:0:
256,192,153412,1,0,0:0:0:0:
256,192,153569,1,8,0:0:0:0:
256,192,153727,1,8,0:0:0:0:
256,192,153885,1,0,0:0:0:0:
256,192,154043,1,0,0:0:0:0:
256,192,154201,1,8,0:0:0:0:
256,192,154517,1,4,0:0:0:0:
256,192,154833,1,8,0:0:0:0:
256,192,154990,1,8,0:0:0:0:
256,192,155148,1,0,0:0:0:0:
256,192,155464,1,8,0:0:0:0:
256,192,155622,1,0,0:0:0:0:
256,192,155938,1,0,0:0:0:0:
256,192,156096,1,8,0:0:0:0:
256,192,156254,1,8,0:0:0:0:
256,192,156412,1,0,0:0:0:0:
256,192,156569,1,12,0:0:0:0:
256,192,156727,1,12,0:0:0:0:
256,192,157043,1,4,0:0:0:0:
256,192,157359,1,8,0:0:0:0:
256,192,157517,1,8,0:0:0:0:
256,192,157675,1,0,0:0:0:0:
256,192,157833,1,0,0:0:0:0:
256,192,157990,1,8,0:0:0:0:
256,192,158148,1,0,0:0:0:0:
256,192,158464,1,0,0:0:0:0:
256,192,158622,1,8,0:0:0:0:
256,192,158780,1,8,0:0:0:0:
256,192,158938,1,0,0:0:0:0:
256,192,159096,1,0,0:0:0:0:
256,192,159254,1,8,0:0:0:0:
256,192,159569,1,4,0:0:0:0:
256,192,159885,1,8,0:0:0:0:
256,192,160043,1,8,0:0:0:0:
256,192,160201,1,0,0:0:0:0:
256,192,160280,5,0,0:0:0:0:
256,192,160359,1,0,0:0:0:0:
256,192,160517,1,8,0:0:0:0:
256,192,160675,1,0,0:0:0:0:
256,192,160990,1,0,0:0:0:0:
256,192,161148,1,8,0:0:0:0:
256,192,161306,1,8,0:0:0:0:
256,192,161464,1,0,0:0:0:0:
256,192,161780,1,8,0:0:0:0:
256,192,162096,1,4,0:0:0:0:
