osu file format v14

[General]
AudioFilename: audio.mp3
AudioLeadIn: 0
PreviewTime: 60754
Countdown: 0
SampleSet: Normal
StackLeniency: 0.7
Mode: 0
LetterboxInBreaks: 0
WidescreenStoryboard: 1

[Editor]
Bookmarks: 155175
DistanceSpacing: 1
BeatDivisor: 4
GridSize: 8
TimelineZoom: 1.3

[Metadata]
Title:Reversible Campaign
TitleUnicode:リバーシブル・キャンペーン
Artist:DECO*27
ArtistUnicode:DECO*27
Creator:Hou Rearu
Version:Normal.
Source:
Tags:Naoki Itai おぐち yuma saito album GHOST novelty Hatsune Miku 初音ミク Vocaloid kanor
BeatmapID:1270942
BeatmapSetID:513751

[Difficulty]
HPDrainRate:3
CircleSize:3.5
OverallDifficulty:4
ApproachRate:5
SliderMultiplier:1.1
SliderTickRate:1

[Events]
//Background and Video events
0,0,"21.jpg",0,0
//Break Periods
2,91427,100291
2,121270,130011
//Storyboard Layer 0 (Background)
//Storyboard Layer 1 (Fail)
//Storyboard Layer 2 (Pass)
//Storyboard Layer 3 (Foreground)
//Storyboard Sound Samples

[TimingPoints]
439,315.789473684211,4,1,0,100,1,0
10544,-100,4,1,0,60,0,0
20649,-100,4,1,0,40,0,0
30754,-100,4,1,0,60,0,0
35807,-100,4,1,0,60,0,0
40860,-100,4,1,0,70,0,0
50965,-111.111111111111,4,1,0,50,0,0
56017,-100,4,1,0,60,0,0
61070,-100,4,1,0,80,0,1
81281,-100,4,1,0,60,0,0
91386,-125,4,1,0,30,0,0
101491,-100,4,1,0,65,0,0
111596,-111.111111111111,4,1,0,40,0,0
116649,-100,4,1,0,60,0,0
121702,-100,4,1,0,100,0,0
131807,-100,4,1,0,70,0,0
136860,-100,4,1,0,70,0,0
139386,-100,4,1,0,80,0,0
141281,-100,4,1,0,60,0,0
141912,-100,4,1,0,85,0,1
162123,-100,4,1,0,50,0,0

[Colours]
Combo1 : 192,192,192
Combo2 : 37,185,239
Combo3 : 23,209,116

[HitObjects]
42,44,10544,6,0,B|104:31|104:31|164:43,1,110
255,69,11175,2,0,P|319:80|377:49,2,110
166,134,12123,1,0,0:0:0:0:
68,83,12439,2,0,L|71:141,1,55
90,189,12754,2,0,L|82:243,1,55
61,294,13070,6,0,L|183:275,1,110
276,248,13702,2,0,P|273:316|244:358,2,110
341,159,14649,1,0,0:0:0:0:
446,126,14965,2,0,L|443:186,1,55
417,230,15281,2,0,L|419:284,1,55
448,331,15596,22,0,L|326:316,1,110
231,343,16228,2,0,P|231:288|257:241,2,110
124,370,17175,1,0,0:0:0:0:
16,347,17491,2,0,L|12:287,1,55
48,249,17807,2,0,L|52:189,1,55
90,154,18123,6,0,B|155:162|155:162|214:153,1,110
306,133,18754,2,0,P|364:140|419:187,2,110
222,61,19702,1,0,0:0:0:0:
114,39,20017,2,0,L|117:93,1,55
83,137,20333,2,0,L|79:191,1,55
52,240,20649,6,0,P|60:296|50:357,1,110
162,336,21281,2,0,P|175:365|178:392,2,55
272,337,21912,1,0,0:0:0:0:
377,306,22228,1,0,0:0:0:0:
487,318,22544,2,0,L|480:380,2,55
464,210,23175,6,0,P|451:163|459:92,1,110
378,24,23807,2,0,L|438:14,2,55
271,52,24439,1,0,0:0:0:0:
161,40,24754,1,0,0:0:0:0:
59,81,25070,2,0,L|2:71,2,55
153,137,25702,6,0,B|162:207|162:207|151:255,1,110
67,315,26333,2,0,P|50:335|38:362,2,55
70,204,26965,1,0,0:0:0:0:
27,102,27281,1,0,0:0:0:0:
117,39,27596,2,0,L|63:24,2,55
227,37,28228,5,0,0:0:0:0:
328,78,28544,1,0,0:0:0:0:
433,46,28860,2,0,L|491:33,2,55
410,154,29491,2,0,L|398:278,1,110
295,298,30123,2,0,P|271:325|247:339,2,55
300,188,30754,6,0,P|281:83|123:175,1,330
77,244,32017,2,0,B|188:238|188:238|282:292,1,220
461,164,33281,2,0,B|415:154|378:171|378:171|330:153|330:153|287:170|250:160|250:160|311:207|299:279,1,330
193,233,34544,2,0,P|161:161|207:78,1,165
245,65,35175,2,0,L|315:58,1,55
347,85,35491,2,0,L|406:90,1,55
455,74,35807,6,0,B|468:136|468:136|456:196,1,110
407,279,36438,2,0,P|472:292|526:270,2,110
308,229,37386,1,0,0:0:0:0:
235,311,37702,2,0,L|228:253,1,55
197,211,38017,2,0,L|202:156,1,55
222,104,38333,6,0,B|347:92,1,110
406,174,38965,2,0,P|463:196|516:191,2,110
297,189,39912,1,0,0:0:0:0:
208,254,40228,2,0,L|213:198,1,55
171,161,40544,2,0,L|166:102,1,55
153,53,40860,6,0,P|94:46|33:71,2,110
244,114,41807,1,0,0:0:0:0:
337,55,42123,2,0,B|339:131|339:131|319:182|319:182|329:275,1,220
393,359,43070,1,0,0:0:0:0:
465,275,43386,2,0,P|485:323|481:386,2,110
428,171,44333,1,0,0:0:0:0:
489,79,44649,2,0,B|451:65|411:80|411:80|382:75|359:56|359:56|315:71|266:54,1,220
190,124,45596,1,0,0:0:0:0:
99,61,45912,6,0,B|84:108|84:108|87:193,1,110
178,233,46544,2,0,L|192:105,1,110
264,42,47175,2,0,B|281:113|281:113|275:187|275:187|295:263,1,220
267,364,48123,1,0,0:0:0:0:
368,320,48439,2,0,P|422:338|457:387,2,110
283,249,49386,1,0,0:0:0:0:
202,173,49702,2,0,L|138:181,1,55
113,223,50017,2,0,L|58:216,1,55
14,237,50333,1,0,0:0:0:0:
154,97,50965,6,0,B|283:68|283:68|356:87,1,197.99999395752
232,246,52228,2,0,P|238:175|286:249,1,197.99999395752
256,322,53175,1,0,0:0:0:0:
163,286,53491,2,0,P|139:207|195:110,1,197.99999395752
355,224,54754,2,0,B|247:212,1,98.9999969787599
172,159,55386,2,0,L|67:171,1,98.9999969787599
43,64,56017,6,0,B|105:51|105:51|165:63,1,110
256,89,56649,2,0,P|320:100|378:69,1,110
459,33,57281,1,0,0:0:0:0:
496,136,57596,1,0,0:0:0:0:
434,227,57912,2,0,P|418:288|427:349,1,110
256,192,58544,12,0,60439,0:0:0:0:
35,71,61070,6,0,P|80:37|138:32,2,110
120,140,62017,1,0,0:0:0:0:
222,92,62333,2,0,P|278:87|342:121,2,110
259,195,63281,1,0,0:0:0:0:
158,155,63596,2,0,B|144:227|144:227|171:316,2,165
145,45,64860,2,0,B|191:41|228:68|228:68|265:67|294:52|294:52|329:68|379:62,1,220
465,63,65807,1,0,0:0:0:0:
461,172,66123,6,0,P|428:218|368:245,2,110
357,136,67070,1,0,0:0:0:0:
249,114,67386,2,0,P|269:68|337:27,2,110
273,220,68333,1,0,0:0:0:0:
168,184,68649,2,0,B|157:250|157:250|173:348,2,165
24,110,69912,2,0,B|113:96|113:96|171:107|171:107|251:99,1,220
329,32,70860,1,0,0:0:0:0:
438,29,71175,6,0,B|424:83|424:83|430:140,1,110
455,245,71807,2,0,B|460:301|460:301|445:357,1,110
337,331,72439,2,0,L|266:335,1,55
231,356,72754,2,0,L|174:351,1,55
128,323,73070,1,0,0:0:0:0:
19,343,73386,1,0,0:0:0:0:
57,240,73702,6,0,L|49:124,1,110
107,37,74333,2,0,B|173:24|173:24|281:43,2,165
49,130,75596,2,0,L|106:126,1,55
149,156,75912,2,0,L|203:159,1,55
258,148,76228,6,0,P|324:132|385:154,1,110
439,61,76860,2,0,P|471:120|466:185,1,110
412,253,77491,2,0,L|342:249,1,55
308,276,77807,2,0,L|229:281,1,55
213,241,78123,2,0,B|103:251,1,110
39,340,78754,6,0,P|85:357|160:343,1,110
249,315,79386,2,0,B|323:298|323:298|422:323,2,165
50,50,81281,6,0,B|112:37|112:37|172:49,1,110
263,75,81912,2,0,P|327:86|385:55,2,110
174,140,82860,1,0,0:0:0:0:
76,89,83176,2,0,L|79:147,1,55
98,195,83491,2,0,L|90:249,1,55
69,300,83807,6,0,L|191:281,1,110
284,254,84439,2,0,P|281:322|252:364,2,110
349,165,85386,1,0,0:0:0:0:
454,132,85702,2,0,L|451:192,1,55
425,236,86018,2,0,L|427:290,1,55
456,337,86333,22,0,L|334:322,1,110
239,349,86965,2,0,P|239:294|265:247,2,110
132,376,87912,1,0,0:0:0:0:
24,353,88228,2,0,L|20:293,1,55
56,255,88544,2,0,L|60:195,1,55
98,160,88860,6,0,B|163:168|163:168|222:159,1,110
314,139,89491,2,0,P|372:146|427:193,2,110
230,67,90439,1,0,0:0:0:0:
122,45,90754,2,0,L|125:99,1,55
91,143,91070,2,0,L|87:197,1,55
410,64,101491,6,0,P|469:58|526:95,2,110
306,103,102439,1,0,0:0:0:0:
229,24,102754,2,0,B|214:98|214:98|223:159|223:159|211:245,1,220
266,337,103702,1,0,0:0:0:0:
158,314,104017,2,0,L|47:332,2,110
215,219,104965,1,0,0:0:0:0:
312,270,105281,2,0,B|333:220|315:176|315:176|336:135|336:135|318:94|330:45,1,220
425,9,106228,1,0,0:0:0:0:
475,106,106544,6,0,L|463:218,1,110
491,321,107175,2,0,P|437:306|382:322,1,110
278,345,107807,2,0,B|232:334|194:353|194:353|169:338|144:333|144:333|107:360|49:354,1,220
70,246,108754,1,0,0:0:0:0:
31,142,109070,2,0,L|46:32,2,110
133,181,110017,1,0,0:0:0:0:
240,205,110333,1,0,0:0:0:0:
336,152,110649,1,0,0:0:0:0:
426,214,110965,2,0,L|306:237,1,110
247,305,111596,6,0,B|313:327|313:327|444:301,1,197.99999395752
287,174,112859,2,0,P|333:238|354:161,1,197.99999395752
306,74,113806,1,0,0:0:0:0:
221,125,114122,2,0,P|197:204|253:301,1,197.99999395752
445,340,115386,2,0,B|339:351,1,98.9999969787599
248,333,116017,1,0,0:0:0:0:
155,368,116333,1,0,0:0:0:0:
48,339,116649,6,0,L|56:221,1,110
150,284,117281,2,0,L|143:175,1,110
79,83,117912,1,0,0:0:0:0:
176,30,118228,1,0,0:0:0:0:
263,97,118544,2,0,L|372:103,1,110
256,192,119175,12,0,121070,0:0:0:0:
237,74,131807,6,0,P|183:58|131:64,1,110
35,121,132439,1,0,0:0:0:0:
59,227,132754,1,0,0:0:0:0:
20,330,133070,2,0,L|129:321,1,110
236,346,133702,1,0,0:0:0:0:
341,314,134017,1,0,0:0:0:0:
441,359,134333,6,0,L|436:249,1,110
357,171,134965,2,0,P|426:138|508:160,2,165
314,272,136228,1,0,0:0:0:0:
315,382,136544,1,0,0:0:0:0:
220,325,136860,6,0,L|231:208,1,110
137,156,137491,2,0,L|143:269,1,110
50,326,138123,2,0,L|55:216,1,110
40,107,138754,1,0,0:0:0:0:
137,156,139070,1,0,0:0:0:0:
233,102,139386,6,0,L|222:222,1,110
269,311,140017,1,0,0:0:0:0:
163,278,140333,1,0,0:0:0:0:
53,291,140649,2,0,L|62:224,2,55
125,373,141281,1,0,0:0:0:0:
228,335,141596,1,0,0:0:0:0:
337,349,141912,6,0,L|454:366,2,110
280,254,142860,1,0,0:0:0:0:
352,171,143176,2,0,P|381:219|378:291,2,110
241,167,144124,1,0,0:0:0:0:
310,82,144439,2,0,B|381:72|381:72|483:99,2,165
199,76,145703,2,0,B|196:122|224:158|224:158|225:195|211:224|211:224|228:259|224:309,1,220
147,364,146650,1,0,0:0:0:0:
79,277,146965,6,0,L|56:384,2,110
45,172,147912,1,0,0:0:0:0:
112,84,148228,2,0,P|65:63|3:69,2,110
213,42,149175,1,0,0:0:0:0:
323,44,149491,2,0,B|418:28|418:28|505:45,2,165
213,42,150754,2,0,B|201:79|218:120|218:120|202:147|202:182|202:182|219:217|206:267,1,220
173,360,151702,1,0,0:0:0:0:
274,318,152017,6,0,L|388:328,1,110
487,365,152649,2,0,L|465:252,1,110
454,147,153281,2,0,L|383:151,1,55
348,172,153596,2,0,L|291:167,1,55
242,145,153912,1,0,0:0:0:0:
139,184,154228,1,0,0:0:0:0:
66,101,154544,6,0,L|181:84,1,110
284,70,155175,2,0,B|388:56|388:56|457:76,2,165
205,148,156439,2,0,L|201:220,1,55
239,244,156755,2,0,L|240:308,1,55
207,344,157071,6,0,P|273:328|334:350,1,110
421,355,157703,2,0,P|416:300|387:254,1,110
390,144,158334,2,0,L|320:140,1,55
286,167,158650,2,0,L|207:172,1,55
191,132,158966,2,0,B|81:142,1,110
20,233,159597,6,0,P|66:250|141:236,1,110
215,179,160229,2,0,B|231:245|231:245|209:350,2,165
167,79,161491,1,0,0:0:0:0:
273,106,161807,1,0,0:0:0:0:
376,67,162123,1,0,0:0:0:0:
