osu file format v14

[General]
AudioFilename: audio.mp3
AudioLeadIn: 0
PreviewTime: 40655
Countdown: 0
SampleSet: Soft
StackLeniency: 0.3
Mode: 0
LetterboxInBreaks: 0
WidescreenStoryboard: 0

[Editor]
Bookmarks: 14383,40221,59123,142717,154336
DistanceSpacing: 1
BeatDivisor: 4
GridSize: 16
TimelineZoom: 2.5

[Metadata]
Title:Rabbit Hole feat. Hatsune Miku
TitleUnicode:ラビットホール feat. 初音ミク
Artist:DECO*27
ArtistUnicode:DECO*27
Creator:eringiRa
Version:purepure
Source:
Tags:2023 vocaloid original Love it KARENT japanese j pop rock j-pop j-rock jpop jrock Alvearia
BeatmapID:4541206
BeatmapSetID:2154651

[Difficulty]
HPDrainRate:4
CircleSize:3.5
OverallDifficulty:9.5
ApproachRate:9.7
SliderMultiplier:2.2
SliderTickRate:1

[Events]
//Background and Video events
0,0,"bg.jpg",0,0
Video,0,"DECO27_-_feat._eSW2LVbPThw2.avi"
//Break Periods
2,100951,105806
//Storyboard Layer 0 (Background)
//Storyboard Layer 1 (Fail)
//Storyboard Layer 2 (Pass)
//Storyboard Layer 3 (Foreground)
//Storyboard Layer 4 (Overlay)
//Storyboard Sound Samples

[TimingPoints]
-519,346.820809248555,4,2,1,70,1,0
405,-166.666666666667,4,2,1,70,0,0
463,-166.666666666667,4,2,1,5,0,0
522,-40,4,2,1,70,0,0
579,-40,4,2,1,5,0,0
637,-40,4,2,1,70,0,0
694,-40,4,2,1,5,0,0
752,-40,4,2,1,70,0,0
810,-40,4,2,1,5,0,0
868,-40,4,2,1,70,0,0
926,-40,4,2,1,5,0,0
983,-40,4,2,1,70,0,0
1041,-40,4,2,1,5,0,0
1099,-40,4,2,1,70,0,0
1157,-40,4,2,1,5,0,0
1215,-40,4,2,2,70,0,0
3296,-55.5555555555556,4,2,2,70,0,0
3643,-133.333333333333,4,2,1,70,0,0
3989,-44.4444444444445,4,2,1,70,0,0
4336,-39.2156862745098,4,2,1,70,0,0
4510,-95.2380952380952,4,2,1,70,0,0
4683,-37.7358490566038,4,2,1,70,0,0
4856,-64.5161290322581,4,2,1,70,0,0
5203,-51.2820512820513,4,2,1,70,0,0
5377,-39.2156862745098,4,2,1,70,0,0
5550,-181.818181818182,4,2,1,70,0,0
5810,-48.780487804878,4,2,1,70,0,0
6417,-400,4,2,1,70,0,0
6764,-40.8163265306122,4,2,1,70,0,0
7284,-105.263157894737,4,2,1,70,0,0
7458,-40.8163265306122,4,2,1,70,0,0
7631,-100,4,2,1,70,0,0
7804,-64.5161290322581,4,2,1,70,0,0
7978,-51.2820512820513,4,2,1,70,0,0
8151,-39.2156862745098,4,2,1,70,0,0
9192,-133.333333333333,4,2,1,70,0,0
9538,-39.2156862745098,4,2,1,70,0,0
10059,-74.0740740740741,4,2,1,70,0,0
10232,-39.2156862745098,4,2,1,70,0,0
10406,-64.5161290322581,4,2,1,70,0,0
10579,-64.5161290322581,4,2,1,70,0,0
10752,-51.2820512820513,4,2,1,70,0,0
10926,-39.2156862745098,4,2,1,70,0,0
11099,-285.714285714286,4,2,1,70,0,0
11446,-64.5161290322581,4,2,1,70,0,0
11966,-181.818181818182,4,2,1,70,0,0
12313,-39.2156862745098,4,2,1,70,0,0
13353,-64.5161290322581,4,2,1,70,0,0
13527,-51.2820512820513,4,2,1,70,0,0
13700,-39.2156862745098,4,2,1,70,0,0
13874,-285.714285714286,4,2,1,70,0,0
14221,-40.8163265306122,4,2,1,70,0,0
14741,-1000,4,2,1,70,0,0
15608,-142.857142857143,4,2,1,70,0,0
17169,-76.9230769230769,4,2,1,70,0,0
17689,-142.857142857143,4,2,1,70,0,0
19943,-500,4,2,1,70,0,0
20290,-90.9090909090909,4,2,1,70,0,0
25145,-50,4,2,1,70,0,0
25319,-66.6666666666667,4,2,1,70,0,0
25492,-100,4,2,1,70,0,0
25666,-200,4,2,1,70,0,0
26012,-24.390243902439,4,2,1,70,0,0
26706,-200,4,2,1,70,0,0
26879,-50,4,2,1,70,0,0
27226,-333.333333333333,4,2,1,70,0,0
27573,-66.6666666666667,4,2,1,70,0,0
28787,-333.333333333333,4,2,1,70,0,0
28960,-66.6666666666667,4,2,1,70,0,0
29134,-333.333333333333,4,2,1,70,0,0
29307,-47.6190476190476,4,2,1,70,0,0
30001,-66.6666666666667,4,2,1,70,0,0
31388,-55.5555555555556,4,2,1,70,0,0
31562,-250,4,2,1,70,0,0
31735,-55.5555555555556,4,2,1,70,0,0
31865,-250,4,2,1,70,0,0
32255,-500,4,2,1,70,0,0
32775,-52.6315789473684,4,2,1,70,0,0
32949,-142.857142857143,4,2,1,70,0,0
33122,-52.6315789473684,4,2,1,70,0,0
33296,-250,4,2,1,70,0,0
33469,-66.6666666666667,4,2,1,70,0,0
33643,-166.666666666667,4,2,1,70,0,0
33989,-66.6666666666667,4,2,1,70,0,0
35377,-100,4,2,1,70,0,0
36244,-52.6315789473684,4,2,1,70,0,0
37111,-142.857142857143,4,2,1,70,0,0
37284,-47.6190476190476,4,2,1,70,0,0
37631,-66.6666666666667,4,2,1,70,0,0
38151,-333.333333333333,4,2,1,70,0,0
38325,-62.5,4,2,1,70,0,0
39365,-50,4,2,1,70,0,0
39712,-62.5,4,2,2,70,0,0
40406,-76.9230769230769,4,2,2,70,0,0
40752,-500,4,2,2,70,0,0
41099,-62.5,4,2,1,70,0,1
42486,-250,4,2,1,70,0,1
42833,-62.5,4,2,1,70,0,1
43874,-100,4,2,1,70,0,1
44221,-66.6666666666667,4,2,1,70,0,1
45261,-100,4,2,1,70,0,1
45608,-66.6666666666667,4,2,1,70,0,1
51677,-166.666666666667,4,2,1,70,0,1
52197,-66.6666666666667,4,2,1,70,0,1
53932,-55.5555555555556,4,2,1,70,0,1
56359,-111.111111111111,4,2,1,70,0,1
56706,-66.6666666666667,4,2,1,70,0,1
61735,-83.3333333333333,4,2,1,70,0,1
63122,-133.333333333333,4,2,1,70,0,1
63296,-666.666666666658,4,2,1,70,0,0
64336,-58.8235294117647,4,2,1,70,0,0
64683,-500,4,2,1,70,0,0
65030,-71.4285714285714,4,2,1,70,0,0
65723,-90.9090909090909,4,2,1,70,0,0
66070,-50,4,2,1,70,0,0
66590,-500,4,2,1,70,0,0
66937,-58.8235294117647,4,2,1,70,0,0
67111,-50,4,2,1,70,0,0
67457,-200,4,2,1,70,0,0
67804,-55.5555555555556,4,2,1,70,0,0
70926,-41.6666666666667,4,2,1,70,0,0
71272,-500,4,2,1,70,0,0
71619,-33.3333333333333,4,2,1,70,0,0
71966,-45.4545454545455,4,2,1,70,0,0
72486,-250,4,2,1,70,0,0
72660,-50,4,2,1,70,0,0
73007,-142.857142857143,4,2,1,70,0,0
73353,-62.5,4,2,1,70,0,0
73700,-45.4545454545455,4,2,1,70,0,0
75781,-50,4,2,1,70,0,0
76301,-71.4285714285714,4,2,1,70,0,0
76475,-50,4,2,1,70,0,0
76648,-333.333333333333,4,2,1,70,0,0
77515,-55.5555555555556,4,2,1,70,0,0
77862,-50,4,2,1,70,0,0
78035,-58.8235294117647,4,2,1,70,0,0
78556,-50,4,2,1,70,0,0
78729,-71.4285714285714,4,2,1,70,0,0
79076,-125,4,2,1,70,0,0
79249,-50,4,2,1,70,0,0
79423,-250,4,2,1,70,0,0
79943,-43.4782608695652,4,2,1,70,0,0
80637,-38.4615384615385,4,2,1,70,0,0
80983,-1000,4,2,1,70,0,0
81330,-34.4827586206897,4,2,1,70,0,0
82024,-50,4,2,1,70,0,0
82197,-200,4,2,1,70,0,0
83064,-50,4,2,1,70,0,0
83585,-500,4,2,1,70,0,0
84452,-133.333333333333,4,2,1,70,0,0
86186,-37.7358490566038,4,2,1,70,0,0
86879,-625,4,2,1,70,0,0
87920,-31.6455696202532,4,2,1,70,0,0
88960,-52.6315789473684,4,2,1,70,0,0
89134,-58.8235294117647,4,2,1,70,0,0
89481,-100,4,2,1,70,0,0
89654,-50,4,2,1,70,0,0
89827,-71.4285714285714,4,2,1,70,0,0
90174,-125,4,2,1,70,0,0
90348,-50,4,2,1,70,0,0
90521,-250,4,2,1,70,0,0
91041,-47.6190476190476,4,2,1,70,0,0
91735,-35.7142857142857,4,2,1,70,0,0
92082,-1000,4,2,1,70,0,0
92428,-35.7142857142857,4,2,1,70,0,0
93122,-52.6315789473684,4,2,1,70,0,0
93296,-200,4,2,1,70,0,0
94509,-50,4,2,1,70,0,0
94683,-66.6666666666667,4,2,1,70,0,0
95203,-55.5555555555556,4,2,1,70,0,0
97284,-40,4,2,1,70,0,0
97631,-50,4,2,1,70,0,0
97978,-500,4,2,1,70,0,0
99018,-52.6315789473684,4,2,1,70,0,0
99365,-50,4,2,2,70,0,0
99538,-153.846153846154,4,2,2,70,0,0
99885,-50,4,2,2,70,0,0
100405,-1000,4,2,1,70,0,0
106301,-90.9090909090909,4,2,3,70,0,0
108902,-333.333333333333,4,2,3,70,0,0
109076,-83.3333333333333,4,2,3,70,0,0
111157,-500,4,2,3,70,0,0
111850,-76.9230769230769,4,2,1,70,0,1
112197,-66.6666666666667,4,2,1,70,0,1
113238,-100,4,2,1,70,0,1
113585,-66.6666666666667,4,2,1,70,0,1
114625,-111.111111111111,4,2,1,70,0,1
115319,-66.6666666666667,4,2,1,70,0,1
116012,-111.111111111111,4,2,1,70,0,1
116359,-66.6666666666667,4,2,1,70,0,1
122428,-500,4,2,1,70,0,1
122602,-100,4,2,1,70,0,1
122949,-66.6666666666667,4,2,1,70,0,1
124336,-76.9230769230769,4,2,1,70,0,1
124683,-66.6666666666667,4,2,1,70,0,1
125723,-133.333333333333,4,2,1,70,0,1
126070,-66.6666666666667,4,2,1,70,0,1
128151,-55.5555555555556,4,2,1,70,0,1
129018,-71.4285714285714,4,2,1,70,0,1
131793,-66.6666666666667,4,2,1,70,0,1
132313,-333.333333333333,4,2,1,70,0,1
132486,-62.5,4,2,1,70,0,1
133874,-142.857142857143,4,2,1,70,0,1
134047,-1000,4,2,1,70,0,1
135087,-58.8235294117647,4,2,1,70,0,0
135434,-200,4,2,1,70,0,0
136822,-66.6666666666667,4,2,1,70,0,0
137689,-30.3030303030303,4,2,1,70,0,0
138209,-200,4,2,1,70,0,0
139596,-66.6666666666667,4,2,1,70,0,0
140463,-30.3030303030303,4,2,1,70,0,0
140983,-200,4,2,1,70,0,0
142371,-66.6666666666667,4,2,1,70,0,0
143238,-133.333333333333,4,2,1,70,0,0
143411,-76.9230769230769,4,2,1,70,0,0
144105,-1000,4,2,1,70,0,0
144452,-58.8235294117647,4,2,1,70,0,0
144798,-1000,4,2,1,70,0,0
145145,-76.9230769230769,4,2,1,70,0,0
145839,-333.333333333333,4,2,1,70,0,0
146012,-30.3030303030303,4,2,1,70,0,0
146533,-66.6666666666667,4,2,2,70,0,0
156937,-166.666666666667,4,2,2,70,0,0
157111,-55.5555555555556,4,2,2,70,0,0

[Colours]
Combo1 : 173,173,222
Combo2 : 61,85,203
Combo3 : 188,100,196

[HitObjects]
252,170,405,6,0,L|263:198,1,21.9999993286133,0|0,3:2|0:0,0:0:0:0:
336,218,522,6,0,B|350:203|350:203|322:128,1,91.6666666666667,14|0,0:0|0:0,0:0:0:0:
179,134,638,6,0,B|161:162|161:162|188:237,1,91.6666666666667,2|0,3:2|0:0,0:0:0:0:
365,117,753,6,0,B|353:91|353:91|269:58,1,91.6666666666667,2|0,3:2|0:0,0:0:0:0:
142,235,869,6,0,B|154:261|154:261|238:294,1,91.6666666666667,10|0,0:0|0:0,0:0:0:0:
246,44,984,6,0,B|221:37|221:37|144:100,1,91.6666666666667,2|0,3:2|0:0,0:0:0:0:
256,308,1100,6,0,B|281:315|281:315|358:252,1,91.6666666666667,2|0,3:2|0:0,0:0:0:0:
493,15,1215,5,2,3:2:0:0:
491,24,1302,1,0,3:2:0:0:
489,33,1389,1,0,3:2:0:0:
487,42,1475,1,0,3:2:0:0:
485,50,1562,1,8,0:0:0:0:
483,59,1649,1,8,0:0:0:0:
481,68,1735,1,8,0:0:0:0:
479,77,1822,1,8,0:0:0:0:
478,86,1909,1,0,3:2:0:0:
478,86,3297,6,0,B|517:92|515:27|410:7|310:73|303:198|426:251,1,296.99999093628,8|0,3:3|0:0,0:0:0:0:
407,340,3643,6,0,L|441:233,1,82.5000031471254,6|0,3:2|0:0,0:0:0:0:
422,363,3903,1,2,0:0:0:0:
502,298,3989,2,0,B|489:313|489:313|296:385,1,185.625007081032,10|0,0:0|0:0,0:0:0:0:
231,362,4163,2,0,B|209:343|209:343|232:301,1,61.875002360344,2|0,0:0|0:0,0:0:0:0:
228,295,4249,2,0,B|240:274|240:274|266:270|296:260,1,61.875002360344,2|0,0:0|0:0,0:0:0:0:
357,277,4336,6,0,P|315:215|147:226,1,210.374997191191,2|0,3:2|0:0,0:0:0:0:
46,230,4510,2,0,B|50:264|75:276|75:276|59:264|56:239,1,86.6249973564149,2|0,0:0|0:0,0:0:0:0:
38,371,4683,2,0,L|120:104,1,218.62500917387,10|0,0:0|0:0,0:0:0:0:
52,88,4856,2,0,P|27:58|62:85,1,127.875000975609,2|0,0:0|0:0,0:0:0:0:
188,197,5030,6,0,B|176:193|170:216|210:211|230:187|217:152|205:112,1,85.2500006504059,2|0,3:2|0:0,0:0:0:0:
308,155,5203,6,0,B|295:159|305:182|335:152|336:119|302:98|267:73,1,107.250000409126,2|0,0:0|0:0,0:0:0:0:
421,56,5377,6,0,B|411:71|441:87|448:29|421:-6|367:0|307:2,1,140.249998127461,10|0,0:0|0:0,0:0:0:0:
453,326,5550,6,0,B|458:337|458:337|530:370,1,90.7500027694703,2|0,0:0|0:0,0:0:0:0:
512,319,5897,2,0,L|389:374,1,112.750001720429,2|0,0:0|0:0,0:0:0:0:
257,283,6070,6,0,P|174:242|266:277,1,338.250005161286,10|0,0:0|0:0,0:0:0:0:
495,46,6417,6,0,L|506:15,1,27.5,2|0,3:2|0:0,0:0:0:0:
503,130,6677,1,2,0:0:0:0:
366,8,6764,2,0,B|373:40|373:40|467:32|510:149,1,202.125001927614,10|0,0:0|0:0,0:0:0:0:
393,213,6937,2,0,P|357:200|378:152,1,67.3750006425381,2|0,0:0|0:0,0:0:0:0:
352,151,7024,2,0,P|387:163|366:211,1,67.3750006425381,2|0,0:0|0:0,0:0:0:0:
509,212,7111,6,0,B|513:227|491:232|491:232|432:205|356:260|343:321,1,202.125001927614,2|0,3:2|0:0,0:0:0:0:
444,361,7284,2,0,P|461:341|441:352,1,52.2499986047745,2|0,0:0|0:0,0:0:0:0:
319,121,7458,2,0,B|330:131|313:147|313:147|249:154|212:240|232:299,1,202.125001927614,10|0,0:0|0:0,0:0:0:0:
279,376,7631,2,0,P|285:386|281:369,1,55,2|0,0:0|0:0,0:0:0:0:
47,152,7804,6,0,B|35:156|29:133|69:138|89:162|76:197|64:237,1,85.2500006504059,2|0,3:2|0:0,0:0:0:0:
169,211,7978,6,0,B|156:207|166:184|196:214|197:247|163:268|128:293,1,107.250000409126,2|0,0:0|0:0,0:0:0:0:
295,315,8151,6,0,B|285:300|315:284|322:342|295:377|241:371|181:369,1,140.249998127461,10|0,0:0|0:0,0:0:0:0:
136,123,8325,5,2,0:0:0:0:
171,47,8411,5,2,0:0:0:0:
247,83,8498,5,2,3:2:0:0:
323,119,8585,5,2,0:0:0:0:
356,42,8671,5,2,0:0:0:0:
434,73,8758,5,2,0:0:0:0:
401,150,8846,5,10,0:0:0:0:
367,228,8932,5,2,0:0:0:0:
290,195,9018,5,2,0:0:0:0:
101,328,9192,6,0,P|76:297|28:299,1,82.5000031471254,2|0,3:2|0:0,0:0:0:0:
127,328,9452,1,2,0:0:0:0:
29,379,9538,2,0,P|84:312|228:286,1,210.374997191191,10|0,0:0|0:0,0:0:0:0:
390,355,9712,2,0,B|373:366|373:366|312:341,1,70.1249990637303,2|0,0:0|0:0,0:0:0:0:
292,279,9799,2,0,B|316:286|316:286|338:367,1,70.1249990637303,2|0,0:0|0:0,0:0:0:0:
305,384,9885,6,0,L|366:172,1,210.374997191191,2|0,3:2|0:0,0:0:0:0:
408,50,10059,2,0,B|432:41|432:41|423:12|423:12|395:22|395:22|406:51,1,111.375000424862,2|0,0:0|0:0,0:0:0:0:
469,110,10232,2,0,B|439:121|439:121|306:78|306:78|258:118,1,210.374997191191,10|0,0:0|0:0,0:0:0:0:
198,167,10406,2,0,B|193:195|193:195|158:205|158:205|159:175|159:175|200:162,1,127.875000975609,2|0,0:0|0:0,0:0:0:0:
56,266,10579,6,0,B|47:224|47:224|105:277,1,85.2500006504059,2|0,3:2|0:0,0:0:0:0:
53,106,10752,6,0,B|91:68|91:68|77:146,1,107.250000409126,2|0,0:0|0:0,0:0:0:0:
199,375,10926,6,0,B|152:324|152:324|255:363,1,140.249998127461,10|0,0:0|0:0,0:0:0:0:
457,198,11099,6,0,L|511:179,1,57.7499982376099,2|0,0:0|0:0,0:0:0:0:
481,260,11446,6,0,B|469:242|469:242|501:136,1,127.875000975609,2|0,0:0|0:0,0:0:0:0:
419,81,11619,2,0,P|350:28|427:66,1,255.750001951218,10|2,0:0|0:0,0:0:0:0:
59,203,11966,6,0,L|0:182,1,60.5000018463135,2|0,3:2|0:0,0:0:0:0:
71,213,12226,1,2,0:0:0:0:
56,92,12313,2,0,B|69:106|69:106|110:315,1,210.374997191191,10|0,0:0|0:0,0:0:0:0:
64,370,12486,2,0,P|30:342|35:302,1,70.1249990637303,2|0,0:0|0:0,0:0:0:0:
149,224,12573,2,0,P|183:252|178:292,1,70.1249990637303,2|0,0:0|0:0,0:0:0:0:
84,384,12660,6,0,B|99:372|99:372|161:92,2,280.499996254921,2|2|10,3:2|0:0|0:0,0:0:0:0:
168,94,13180,2,0,B|192:84|192:84|191:61|191:61|148:35|148:35|128:43|128:43|149:112,1,140.249998127461,2|0,0:0|0:0,0:0:0:0:
212,383,13353,6,0,B|200:379|194:402|234:397|254:373|241:338|229:298,1,85.2500006504059,2|0,3:2|0:0,0:0:0:0:
352,298,13527,6,0,B|339:302|349:325|379:295|380:262|346:241|311:216,1,107.250000409126,2|0,0:0|0:0,0:0:0:0:
450,132,13700,6,0,B|440:147|470:163|477:105|450:70|396:76|336:78,1,140.249998127461,10|0,0:0|0:0,0:0:0:0:
90,281,13874,6,0,L|107:325,1,38.4999988250733,2|0,0:0|3:2,0:0:0:0:
174,172,14134,1,0,3:2:0:0:
37,204,14221,2,0,B|42:219|42:219|193:275,1,134.750001285076,0|0,3:2|3:2,0:0:0:0:
458,32,14394,2,0,B|456:47|456:47|321:136,1,134.750001285076,8|0,0:0|0:0,0:0:0:0:
298,384,14567,2,0,B|302:367|302:367|264:224,1,134.750001285076,8|0,0:0|0:0,0:0:0:0:
262,159,14741,6,0,L|259:173,3,11,2|2|2|2,0:0|0:0|0:0|0:0,0:0:0:0:
271,253,15434,1,2,0:0:0:0:
46,85,15608,2,0,L|63:31,1,38.4999988250733,2|0,0:0|0:0,0:0:0:0:
57,48,15955,2,0,L|40:102,1,38.4999988250733,2|0,0:0|0:0,0:0:0:0:
102,172,16128,1,2,0:0:0:0:
242,26,16301,2,0,L|210:121,1,76.9999976501466,2|2,0:0|0:0,0:0:0:0:
70,256,16648,1,2,0:0:0:0:
375,172,16822,2,0,L|390:124,1,38.4999988250733,2|0,0:0|0:0,0:0:0:0:
343,213,17169,2,0,P|325:165|347:216,1,285.99998690796,2|0,0:0|0:0,0:0:0:0:
471,288,17689,6,0,L|443:197,2,76.9999976501466,2|2|2,0:0|0:0|0:0,0:0:0:0:
274,289,18209,1,2,0:0:0:0:
391,378,18382,2,0,L|361:278,1,76.9999976501466,2|0,0:0|0:0,0:0:0:0:
209,222,18729,1,2,0:0:0:0:
274,289,18903,1,2,0:0:0:0:
145,159,19076,1,2,0:0:0:0:
209,222,19249,1,2,0:0:0:0:
79,100,19423,1,2,0:0:0:0:
368,304,19596,2,0,B|375:295|375:295|383:258,1,38.4999988250733,2|0,0:0|0:0,0:0:0:0:
57,319,19770,5,2,2:3:0:0:
57,319,19856,1,2,2:3:0:0:
57,319,19943,2,0,L|46:352,1,33,2|0,2:3|0:0,0:0:0:0:
20,340,20290,6,0,B|46:362|46:362|141:315,1,121.000003692627,6|0,3:2|0:0,0:0:0:0:
110,381,20637,2,0,B|148:337|148:337|102:251,1,121.000003692627,2|0,3:2|0:0,0:0:0:0:
8,275,20984,2,0,B|-2:292|-2:292|21:346,1,60.5000018463135,2|0,3:2|0:0,0:0:0:0:
195,257,21157,2,0,B|181:224|181:224|77:183,1,121.000003692627,2|0,0:0|3:2,0:0:0:0:
30,62,21504,5,2,0:0:0:0:
85,39,21590,1,2,0:0:0:0:
142,18,21677,1,2,3:2:0:0:
11,9,21851,1,2,0:0:0:0:
44,119,22024,1,2,3:2:0:0:
165,72,22197,1,2,0:0:0:0:
227,237,22371,1,2,3:2:0:0:
418,151,22544,1,2,0:0:0:0:
508,258,22718,1,2,3:2:0:0:
305,179,22891,1,2,0:0:0:0:
103,98,23064,1,2,3:2:0:0:
103,98,23411,6,0,P|62:70|110:95,1,181.500005538941,2|0,3:2|0:0,0:0:0:0:
206,136,23758,2,0,P|157:81|-15:37,1,242.000007385254,2|0,3:2|3:2,0:0:0:0:
227,138,24278,2,0,P|161:180|131:237,1,121.000003692627,2|0,0:0|3:2,0:0:0:0:
313,197,24625,1,2,3:2:0:0:
313,197,24712,1,2,3:2:0:0:
313,197,24799,2,0,P|293:139|211:155,1,121.000003692627,2|2,3:2|3:2,0:0:0:0:
489,160,25059,1,2,3:2:0:0:
489,160,25145,6,0,B|479:177|479:177|390:218,1,110,2|0,3:2|0:0,0:0:0:0:
319,324,25319,2,0,B|312:311|312:311|226:278,1,82.5000031471254,2|0,3:2|0:0,0:0:0:0:
184,188,25492,2,0,B|176:200|176:200|114:224,1,55,2|0,3:2|0:0,0:0:0:0:
46,261,25666,2,0,B|42:251|42:251|16:240,1,27.5,2|0,3:2|0:0,0:0:0:0:
376,61,25839,6,0,L|387:22,1,27.5,2|0,3:2|0:0,0:0:0:0:
60,348,26186,6,0,B|85:338|85:338|75:307|75:307|46:318|46:318|57:349,4,112.750001720429,2|0|0|0|0,0:0|0:0|0:0|0:0|0:0,0:0:0:0:
448,190,26533,6,0,B|422:180|422:180|432:149|432:149|461:160|461:160|450:191,3,112.750001720429,2|0|0|0,0:0|0:0|0:0|0:0,0:0:0:0:
453,200,26706,2,0,L|444:167,1,27.5,0|0,3:2|0:0,0:0:0:0:
234,20,26879,6,0,P|210:35|243:18,1,330,2|0,0:0|0:0,0:0:0:0:
273,367,27226,6,0,L|261:334,1,32.99999899292,4|2,3:2|0:0,0:0:0:0:
263,378,27486,1,2,0:0:0:0:
287,254,27573,2,0,P|265:319|167:308,1,165.000006294251,10|2,0:0|0:0,0:0:0:0:
302,240,27833,1,2,0:0:0:0:
356,351,27920,6,0,P|324:327|278:323,1,82.5000031471254,2|0,3:2|0:0,0:0:0:0:
200,198,28093,2,0,P|171:229|128:233,1,82.5000031471254,2|2,0:0|0:0,0:0:0:0:
31,167,28267,1,10,0:0:0:0:
110,134,28353,1,2,0:0:0:0:
0,89,28441,1,2,0:0:0:0:
79,56,28528,1,2,0:0:0:0:
29,255,28614,6,0,B|44:273|44:273|10:398,1,123.750004720688,2|0,3:2|0:0,0:0:0:0:
43,380,28787,2,0,L|62:373,1,16.49999949646,2|0,0:0|0:0,0:0:0:0:
239,245,28960,6,0,B|254:227|254:227|220:102,1,123.750004720688,10|0,0:0|0:0,0:0:0:0:
253,120,29134,2,0,L|272:127,1,16.49999949646,2|0,0:0|0:0,0:0:0:0:
214,328,29307,1,0,3:2:0:0:
450,89,29481,2,0,B|462:76|491:87|491:87|489:23|399:2|399:2|333:25|386:61,2,230.99999295044,2|10|2,0:0|0:0|0:0,0:0:0:0:
92,174,30001,6,0,P|34:147|56:58,1,165.000006294251,2|2,3:2|0:0,0:0:0:0:
110,189,30261,1,2,0:0:0:0:
184,119,30348,2,0,B|177:128|177:128|84:165,1,82.5000031471254,10|2,0:0|0:0,0:0:0:0:
143,33,30521,1,2,0:0:0:0:
135,50,30608,1,2,0:0:0:0:
257,65,30695,6,0,B|249:73|249:73|196:226,1,165.000006294251,2|2,3:2|0:0,0:0:0:0:
271,172,30955,1,2,0:0:0:0:
185,236,31041,2,0,B|143:258|176:266|108:291,1,82.5000031471254,10|0,0:0|0:0,0:0:0:0:
248,371,31215,1,2,0:0:0:0:
254,357,31301,1,2,0:0:0:0:
332,271,31388,6,0,B|412:283|357:321|481:346,1,148.49999546814,2|0,3:2|0:0,0:0:0:0:
473,329,31562,2,0,P|482:316|482:305,1,22,2|0,0:0|0:0,0:0:0:0:
164,138,31735,6,0,B|84:150|139:188|15:213,1,148.49999546814,10|0,0:0|0:0,0:0:0:0:
23,196,31909,2,0,P|13:183|14:172,1,22,2|0,0:0|0:0,0:0:0:0:
273,15,32082,5,0,3:2:0:0:
273,15,32255,2,0,L|269:37,2,22,2|10|2,0:0|0:0|0:0,0:0:0:0:
389,268,32775,6,0,P|457:266|497:165,1,156.749995814324,2|0,3:2|0:0,0:0:0:0:
469,125,32949,2,0,P|440:142|434:164,1,38.4999988250733
252,198,33122,2,0,P|313:195|383:295,1,156.749995814324,10|0,0:0|0:0,0:0:0:0:
352,338,33296,2,0,P|349:348|349:367,1,22
326,157,33469,2,0,B|339:115|359:140|379:69,1,82.5000031471254,2|0,3:2|0:0,0:0:0:0:
452,9,33643,2,0,B|459:32|482:37|482:37|467:27|461:10,1,65.9999979858399,2|8,0:0|0:0,0:0:0:0:
252,198,33989,6,0,B|205:181|240:168|175:149,1,82.5000031471254,2|0,0:0|0:0,0:0:0:0:
20,95,34163,2,0,P|98:66|205:10,2,165.000006294251,2|2|10,3:2|0:0|0:0,0:0:0:0:
182,22,34683,2,0,B|215:22|219:52|219:52|209:27|177:30,1,82.5000031471254,2|0,0:0|0:0,0:0:0:0:
61,176,34856,6,0,B|88:274|121:196|154:338,1,165.000006294251,2|2,3:2|0:0,0:0:0:0:
160,228,35116,1,0,0:0:0:0:
61,322,35203,2,0,B|24:338|49:347|-2:375,1,82.5000031471254,10|0,0:0|0:0,0:0:0:0:
76,166,35377,2,0,B|82:142|91:155|108:104,1,55,2|0,0:0|0:0,0:0:0:0:
19,15,35550,6,0,B|25:22|25:22|41:72,1,55,2|0,3:2|0:0,0:0:0:0:
0,1,35897,2,0,B|7:19|7:19|106:48,1,110,10|0,0:0|0:0,0:0:0:0:
24,79,36157,1,0,0:0:0:0:
174,4,36244,6,0,P|181:62|319:85,2,208.999994419098,2|2|10,3:2|0:0|0:0,0:0:0:0:
413,59,36764,2,0,B|447:54|438:22|438:22|422:51|367:66,1,104.499997209549,2|0,0:0|0:0,0:0:0:0:
278,12,36937,6,0,B|285:19|298:23|298:23|366:193,1,156.749995814324,0|0,3:2|0:0,0:0:0:0:
419,187,37111,2,0,P|441:172|436:149,1,38.4999988250733,2|0,0:0|0:0,0:0:0:0:
480,254,37284,2,0,P|422:223|409:342,1,230.99999295044,10|2,0:0|0:0,0:0:0:0:
418,347,37544,1,0,0:0:0:0:
346,243,37631,6,0,B|298:255|333:274|254:297,1,82.5000031471254,2|0,3:2|0:0,0:0:0:0:
84,109,37804,1,2,0:0:0:0:
88,126,37891,1,2,0:0:0:0:
49,200,37978,2,0,B|64:201|64:201|169:157,1,123.750004720688,10|0,0:0|0:0,0:0:0:0:
249,78,38151,2,0,L|255:62,1,16.49999949646,2|0,0:0|0:0,0:0:0:0:
28,330,38325,6,0,L|44:378,1,44,2|0,0:0|0:0,0:0:0:0:
252,220,38671,6,0,L|268:268,1,44,2|0,0:0|0:0,0:0:0:0:
468,112,39018,6,0,L|484:160,1,44,2|0,0:0|0:0,0:0:0:0:
235,18,39365,6,0,P|211:33|244:16,1,330,8|0,3:3|0:0,0:0:0:0:
252,220,39712,6,0,L|233:333,1,88,6|0,3:2|0:0,0:0:0:0:
421,374,39885,5,8,0:0:0:0:
490,305,39972,1,8,0:0:0:0:
423,234,40059,2,0,B|371:247|410:268|331:287,1,88,10|8,0:0|0:0,0:0:0:0:
75,32,40232,5,8,0:0:0:0:
6,101,40319,1,8,0:0:0:0:
73,172,40406,2,0,B|210:150|112:89|265:74,1,214.49999018097,10|0,0:0|0:0,0:0:0:0:
75,32,40752,2,0,P|85:52|90:70,1,33,4|0,3:3|0:0,0:0:0:0:
362,97,41099,6,0,B|375:45|415:4|415:4|342:40|296:26,1,176,6|2,3:2|0:0,0:0:0:0:
373,111,41359,1,2,0:0:0:0:
459,83,41446,2,0,P|365:109|302:193,1,176,10|2,0:0|0:0,0:0:0:0:
431,184,41706,1,2,0:0:0:0:
348,255,41793,2,0,P|291:182|190:177,1,176,2|2,3:2|0:0,0:0:0:0:
355,269,42053,1,2,0:0:0:0:
445,312,42140,2,0,B|479:301|475:264|475:264|466:296|436:303,1,88,10|0,0:0|0:0,0:0:0:0:
283,337,42313,2,0,B|234:354|269:369|186:393,1,88,2|0,0:0|0:0,0:0:0:0:
61,208,42486,6,0,B|53:192|53:192|76:155,1,44,2|2,3:2|0:0,0:0:0:0:
70,216,42747,1,2,0:0:0:0:
44,109,42833,2,0,B|59:121|59:121|108:309,1,176,10|2,0:0|0:0,0:0:0:0:
30,104,43093,1,2,0:0:0:0:
97,41,43180,2,0,B|122:25|122:25|219:72,1,88,2|0,3:2|0:0,0:0:0:0:
225,152,43353,1,2,0:0:0:0:
125,211,43440,1,2,0:0:0:0:
234,153,43527,2,0,B|248:174|248:174|342:208,1,88,10|0,0:0|0:0,0:0:0:0:
268,43,43700,2,0,B|282:29|282:29|274:6|274:6|256:21|256:21|267:69,1,88,2|0,0:0|0:0,0:0:0:0:
452,168,43874,6,0,P|433:103|369:117,1,110,2|2,3:2|0:0,0:0:0:0:
466,177,44134,1,2,0:0:0:0:
380,238,44221,2,0,P|310:244|271:352,1,165.000006294251,10|2,0:0|0:0,0:0:0:0:
307,195,44481,1,2,0:0:0:0:
356,318,44567,2,0,B|464:327|396:372|517:381,1,165.000006294251,2|2,3:2|0:0,0:0:0:0:
444,294,44827,1,2,0:0:0:0:
508,200,44914,2,0,B|495:148|471:179|466:106,1,82.5000031471254,10|0,0:0|0:0,0:0:0:0:
358,23,45088,2,0,B|362:53|326:58|326:58|341:46|367:7,1,82.5000031471254,2|0,0:0|0:0,0:0:0:0:
64,19,45261,6,0,B|67:35|67:35|198:96,1,110,2|2,3:2|0:0,0:0:0:0:
50,12,45521,1,2,0:0:0:0:
213,16,45608,2,0,B|189:21|189:21|123:183,1,165.000006294251,10|2,0:0|0:0,0:0:0:0:
232,21,45868,1,2,0:0:0:0:
312,88,45955,2,0,B|306:99|306:99|223:135,1,82.5000031471254,2|0,3:2|0:0,0:0:0:0:
42,149,46128,1,2,0:0:0:0:
71,230,46215,1,2,0:0:0:0:
43,136,46301,2,0,B|68:125|68:125|164:168,1,82.5000031471254,10|0,0:0|0:0,0:0:0:0:
254,291,46475,2,0,B|283:300|283:300|362:250,1,82.5000031471254,2|0,0:0|0:0,0:0:0:0:
492,41,46648,5,2,3:2:0:0:
418,10,46736,1,2,0:0:0:0:
344,40,46823,1,2,0:0:0:0:
317,116,46909,1,2,0:0:0:0:
352,188,46996,1,10,0:0:0:0:
130,70,47169,2,0,B|110:61|110:61|100:40|100:40|38:15,1,82.5000031471254,2|2,0:0|0:0,0:0:0:0:
492,41,47343,1,2,3:2:0:0:
418,10,47429,1,2,0:0:0:0:
344,40,47516,1,2,0:0:0:0:
317,116,47603,1,2,0:0:0:0:
352,188,47690,1,10,0:0:0:0:
130,70,47862,2,0,B|126:64|110:61|110:61|100:40|100:40|74:41|38:15,1,82.5000031471254,2|0,0:0|0:0,0:0:0:0:
492,41,48036,1,2,3:2:0:0:
418,10,48123,1,2,0:0:0:0:
344,40,48210,1,2,0:0:0:0:
317,116,48297,1,2,0:0:0:0:
352,188,48383,1,10,0:0:0:0:
130,70,48556,2,0,B|116:72|110:61|110:61|100:40|100:40|86:14|43:38,1,82.5000031471254,2|0,0:0|0:0,0:0:0:0:
135,277,48730,5,2,3:2:0:0:
180,246,48817,1,2,0:0:0:0:
233,259,48903,1,2,0:0:0:0:
259,307,48990,1,2,0:0:0:0:
244,360,49077,1,10,0:0:0:0:
39,240,49249,2,0,B|42:197|72:218|82:144,1,82.5000031471254,2|0,0:0|0:0,0:0:0:0:
228,23,49423,5,2,3:2:0:0:
258,108,49510,1,2,0:0:0:0:
353,104,49596,1,2,0:0:0:0:
323,19,49683,1,2,0:0:0:0:
423,40,49770,2,0,L|467:159,1,82.5000031471254,10|2,0:0|0:0,0:0:0:0:
424,276,49943,5,2,0:0:0:0:
382,194,50030,1,2,0:0:0:0:
310,248,50116,1,2,3:2:0:0:
352,330,50203,1,2,0:0:0:0:
279,384,50290,1,2,0:0:0:0:
237,302,50377,1,2,0:0:0:0:
168,359,50463,2,0,B|149:372|149:372|61:339,1,82.5000031471254,10|0,0:0|0:0,0:0:0:0:
6,190,50637,2,0,B|28:198|28:198|58:302,1,82.5000031471254,2|0,0:0|0:0,0:0:0:0:
122,25,50810,5,2,3:2:0:0:
207,56,50897,1,2,0:0:0:0:
160,134,50984,1,2,0:0:0:0:
75,103,51071,1,2,0:0:0:0:
231,20,51157,5,10,0:0:0:0:
316,51,51244,1,2,0:0:0:0:
269,129,51331,1,2,0:0:0:0:
184,98,51418,1,2,0:0:0:0:
390,2,51504,2,0,B|405:14|405:14|435:108,1,82.5000031471254,2|0,3:2|0:0,0:0:0:0:
408,291,51677,2,0,L|423:248,1,32.99999899292,2|0,3:2|0:0,0:0:0:0:
471,184,51851,5,10,0:0:0:0:
380,154,51937,5,0,0:0:0:0:
337,239,52024,5,10,0:0:0:0:
302,328,52111,5,10,0:0:0:0:
212,296,52197,6,0,B|196:246|167:213|167:213|216:263|251:263,1,165.000006294251,6|2,3:2|0:0,0:0:0:0:
200,307,52458,1,2,0:0:0:0:
233,166,52544,2,0,P|170:242|76:247,1,165.000006294251,10|2,0:0|0:0,0:0:0:0:
251,159,52804,1,2,0:0:0:0:
337,239,52891,2,0,B|444:260|349:303|491:338,1,165.000006294251,2|2,3:2|0:0,0:0:0:0:
421,233,53151,1,2,0:0:0:0:
481,163,53238,2,0,B|506:182|508:210|508:210|501:186|467:166,1,82.5000031471254,10|0,0:0|0:0,0:0:0:0:
358,110,53411,2,0,B|366:78|385:98|404:11,1,82.5000031471254,2|0,0:0|0:0,0:0:0:0:
208,16,53585,6,0,B|194:47|194:47|105:88|105:88|92:136,1,165.000006294251,2|2,3:2|0:0,0:0:0:0:
228,22,53845,1,2,0:0:0:0:
90,9,53932,2,0,B|122:26|122:26|198:197,1,197.99999395752,10|2,0:0|0:0,0:0:0:0:
207,96,54192,1,2,0:0:0:0:
104,202,54278,2,0,B|79:212|79:212|11:181,1,98.9999969787599,2|0,3:2|0:0,0:0:0:0:
185,362,54452,1,2,0:0:0:0:
228,257,54539,1,2,0:0:0:0:
177,375,54625,2,0,B|141:384|141:384|54:340,1,98.9999969787599,10|0,0:0|0:0,0:0:0:0:
274,174,54799,2,0,B|298:180|298:180|322:265,1,98.9999969787599,2|0,0:0|0:0,0:0:0:0:
459,17,54972,6,0,B|468:92|383:112|383:112|421:88|394:12,1,197.99999395752,2|2,3:2|0:0,0:0:0:0:
453,95,55232,1,2,0:0:0:0:
325,66,55319,2,0,P|432:146|471:273,1,197.99999395752,10|2,0:0|0:0,0:0:0:0:
315,48,55579,1,2,0:0:0:0:
274,174,55666,2,0,B|407:137|315:131|475:90,1,197.99999395752,2|2,3:2|0:0,0:0:0:0:
366,192,55926,1,2,0:0:0:0:
245,272,56012,2,0,B|210:255|212:225|212:225|228:256|286:278,1,98.9999969787599,10|0,0:0|0:0,0:0:0:0:
377,358,56186,2,0,B|416:336|383:324|417:291|490:301,1,98.9999969787599,2|0,0:0|0:0,0:0:0:0:
125,364,56359,6,0,B|139:344|139:344|103:239,1,98.9999969787599,2|2,3:2|0:0,0:0:0:0:
139,373,56619,1,2,0:0:0:0:
38,277,56706,2,0,B|61:288|61:288|163:253|114:151,1,165.000006294251,10|2,0:0|0:0,0:0:0:0:
21,268,56966,1,0,0:0:0:0:
11,143,57053,2,0,B|44:159|44:159|75:80|213:100,1,165.000006294251,2|2,3:2|0:0,0:0:0:0:
306,21,57313,1,2,0:0:0:0:
218,8,57400,2,0,P|219:38|259:110,1,82.5000031471254,10|0,0:0|0:0,0:0:0:0:
409,172,57573,2,0,B|402:154|402:154|325:125,1,82.5000031471254,2|0,0:0|0:0,0:0:0:0:
52,208,57747,5,6,3:2:0:0:
25,283,57833,1,2,0:0:0:0:
59,356,57920,1,2,0:0:0:0:
134,384,58007,1,2,0:0:0:0:
207,350,58093,1,10,0:0:0:0:
409,172,58267,2,0,B|421:229|445:187|471:300,1,82.5000031471254,2|2,0:0|0:0,0:0:0:0:
207,350,58441,1,2,3:2:0:0:
134,384,58528,1,2,0:0:0:0:
59,356,58614,1,2,0:0:0:0:
25,283,58701,1,2,0:0:0:0:
52,208,58788,1,10,0:0:0:0:
409,172,58960,2,0,B|416:195|416:195|443:217|443:217|464:274,1,82.5000031471254,2|0,0:0|0:0,0:0:0:0:
207,350,59135,1,2,3:2:0:0:
134,384,59221,1,2,0:0:0:0:
59,356,59308,1,2,0:0:0:0:
25,283,59395,1,2,0:0:0:0:
52,208,59482,1,10,0:0:0:0:
409,172,59654,2,0,B|434:192|434:192|432:234|432:234|473:292,1,82.5000031471254,2|0,0:0|0:0,0:0:0:0:
46,114,59828,5,2,3:2:0:0:
97,101,59915,1,2,0:0:0:0:
144,124,60002,1,2,0:0:0:0:
165,172,60088,1,2,0:0:0:0:
150,223,60175,1,10,0:0:0:0:
409,172,60348,2,0,B|417:158|432:148|432:148|407:80,1,82.5000031471254,2|0,0:0|0:0,0:0:0:0:
262,6,60521,5,2,3:2:0:0:
233,92,60608,1,2,0:0:0:0:
307,144,60695,1,2,0:0:0:0:
336,58,60782,1,2,0:0:0:0:
262,6,60868,2,0,L|156:34,1,82.5000031471254,10|2,0:0|0:0,0:0:0:0:
70,179,61041,1,2,0:0:0:0:
32,97,61128,1,2,0:0:0:0:
122,103,61215,5,2,3:2:0:0:
160,185,61302,1,2,0:0:0:0:
108,261,61388,1,2,0:0:0:0:
70,179,61475,1,2,0:0:0:0:
202,271,61562,2,0,B|306:299|239:344|378:374,1,165.000006294251,10|2,0:0|0:0,0:0:0:0:
477,285,61822,1,0,0:0:0:0:
480,368,61909,5,2,3:2:0:0:
418,350,61996,1,2,0:0:0:0:
391,292,62083,1,2,0:0:0:0:
416,233,62169,1,2,0:0:0:0:
334,222,62256,5,10,0:0:0:0:
328,142,62343,5,2,0:0:0:0:
384,73,62429,5,2,0:0:0:0:
477,81,62516,5,2,0:0:0:0:
512,181,62603,5,2,3:2:0:0:
258,110,62775,1,2,3:2:0:0:
2,41,62949,1,10,0:0:0:0:
512,181,63122,6,0,L|470:195,1,41.2500015735627,2|0,0:0|0:0,0:0:0:0:
334,222,63297,6,0,L|355:216,1,16.49999949646,2|0,0:0|0:0,0:0:0:0:
251,141,64336,6,0,P|210:200|263:141,1,280.500005350113,4|0,3:3|0:0,0:0:0:0:
33,42,64683,6,0,L|25:19,1,22,6|0,3:2|0:0,0:0:0:0:
25,54,64943,1,2,0:0:0:0:
137,19,65030,2,0,B|141:33|141:33|80:193,1,153.999995300293,10|2,0:0|0:0,0:0:0:0:
156,106,65290,1,2,0:0:0:0:
11,197,65376,2,0,B|33:187|33:187|201:255,1,153.999995300293,2|2,3:2|0:0,0:0:0:0:
1,207,65637,1,0,0:0:0:0:
77,309,65723,2,0,B|89:292|89:292|64:235,1,60.5000018463135,10|0,0:0|0:0,0:0:0:0:
259,139,65897,2,0,B|253:151|253:151|182:181,1,60.5000018463135,2|0,0:0|0:0,0:0:0:0:
407,380,66070,6,0,B|379:346|379:346|449:153,2,220,2|2|10,3:2|0:0|0:0,0:0:0:0:
487,299,66590,2,0,L|451:315,1,33,2|0,0:0|0:0,0:0:0:0:
505,332,66937,2,0,B|493:332|493:332|392:287,1,93.500001783371,2|0,0:0|0:0,0:0:0:0:
259,139,67111,6,0,B|147:110|157:-1|214:-33|269:-8|307:59|281:163|203:207,1,330,10|0,0:0|0:0,0:0:0:0:
74,328,67457,6,0,P|43:363|14:364,1,55,2|0,3:2|0:0,0:0:0:0:
91,323,67717,1,2,0:0:0:0:
21,229,67804,2,0,P|144:311|263:317,1,197.99999395752,10|2,0:0|0:0,0:0:0:0:
106,236,68064,1,2,0:0:0:0:
141,130,68151,2,0,P|154:233|197:331,1,197.99999395752,2|2,3:2|0:0,0:0:0:0:
194,196,68411,1,0,0:0:0:0:
206,74,68498,6,0,B|179:59|138:93|138:153,1,98.9999969787599,10|0,0:0|0:0,0:0:0:0:
359,292,68671,6,0,B|386:307|427:273|427:213,1,98.9999969787599,2|0,0:0|0:0,0:0:0:0:
476,23,68845,6,0,B|465:44|465:44|277:122,2,197.99999395752,2|2|10,3:2|0:0|0:0,0:0:0:0:
52,376,69365,5,2,0:0:0:0:
15,294,69452,1,2,0:0:0:0:
96,259,69538,1,2,3:2:0:0:
176,219,69625,1,2,0:0:0:0:
139,137,69712,1,2,0:0:0:0:
56,168,69798,1,2,0:0:0:0:
24,84,69885,5,10,0:0:0:0:
107,53,69971,5,2,0:0:0:0:
192,23,70059,5,2,0:0:0:0:
227,104,70145,5,2,0:0:0:0:
261,186,70232,5,2,3:2:0:0:
261,186,70926,6,0,P|202:185|266:189,1,395.999987915039,2|0,3:2|0:0,0:0:0:0:
364,153,71272,6,0,P|359:172|355:179,1,22,2|0,3:2|3:2,0:0:0:0:
241,332,71533,5,0,3:2:0:0:
141,367,71619,2,0,P|194:332|319:85,1,330.000012588501,6|2,3:2|0:0,0:0:0:0:
123,363,71879,1,0,0:0:0:0:
84,255,71966,2,0,P|107:112|61:23,2,242.000007385254,10|2|2,0:0|0:0|3:2,0:0:0:0:
256,16,72486,6,0,L|249:46,1,22,2|0,0:0|0:0,0:0:0:0:
249,246,72660,6,0,B|361:275|351:386|294:418|239:393|201:326|227:222|305:178,1,330,10|2,0:0|0:0,0:0:0:0:
477,16,73007,6,0,B|474:27|474:27|390:74,1,76.9999976501466,2|0,3:2|0:0,0:0:0:0:
488,1,73267,1,2,0:0:0:0:
340,155,73353,6,0,B|371:137|371:137|395:-24,1,176,10|2,0:0|0:0,0:0:0:0:
326,151,73613,1,2,0:0:0:0:
460,168,73700,6,0,B|445:129|445:129|247:40,2,242.000007385254,2|2|10,3:2|0:0|0:0,0:0:0:0:
262,46,74220,6,0,B|250:78|250:78|207:95|207:95|246:185,1,121.000003692627,2|0,0:0|0:0,0:0:0:0:
460,168,74394,6,0,B|445:207|445:207|252:300,2,242.000007385254,2|2|10,3:2|0:0|0:0,0:0:0:0:
224,369,74914,6,0,B|196:349|170:345|170:345|187:320|163:255,1,121.000003692627,2|0,0:0|0:0,0:0:0:0:
369,54,75087,6,0,B|387:59|387:59|496:10,1,121.000003692627,0|0,3:2|3:2,0:0:0:0:
72,285,75261,6,0,B|66:266|66:266|102:136,1,121.000003692627,0|0,3:2|3:2,0:0:0:0:
436,357,75434,6,0,B|427:341|427:341|303:264,1,121.000003692627,8|0,0:0|0:0,0:0:0:0:
195,108,75608,1,8,0:0:0:0:
129,10,75694,1,0,0:0:0:0:
197,131,75781,6,0,B|81:188|60:409|170:441|244:367|278:207|204:131,1,550,6|0,3:2|0:0,0:0:0:0:
72,285,76301,2,0,B|28:272|58:255|-18:232,1,76.9999976501466,2|0,3:2|0:0,0:0:0:0:
480,17,76475,6,0,B|486:33|486:33|454:137,1,110,10|0,0:0|0:0,0:0:0:0:
363,107,76648,2,0,L|387:32,2,65.9999979858399,2|2|2,0:0|0:0|0:0,0:0:0:0:
368,288,77515,6,0,B|464:286|436:403|446:406|477:397|569:381|476:326|398:381|403:213,1,296.99999093628,0|0,3:2|0:0,0:0:0:0:
499,278,77862,2,0,P|447:324|386:400,1,110,10|0,0:0|0:0,0:0:0:0:
219,372,78035,6,0,B|104:312|37:303|37:303|91:301|175:337,1,280.500005350113,2|0,0:0|0:0,0:0:0:0:
230,380,78382,2,0,B|238:368|250:365|250:365|272:349|262:294,2,62.3333345222473,2|0|0,0:0|0:0|0:0,0:0:0:0:
81,204,78556,6,0,B|67:132|32:199|11:71,1,110,2|0,3:2|0:0,0:0:0:0:
181,8,78729,2,0,B|123:12|106:92|106:92|71:34|145:-8,1,230.99999295044,2|0,3:2|0:0,0:0:0:0:
51,34,79076,2,0,B|43:36|43:36|25:22|-9:15,1,44,2|0,0:0|0:0,0:0:0:0:
321,212,79249,6,0,B|340:198|340:198|370:72,1,110,10|0,0:0|0:0,0:0:0:0:
263,76,79423,2,0,L|249:129,2,44,2|0|2,0:0|0:0|0:0,0:0:0:0:
370,368,79943,2,0,L|469:311,1,84.3333349418641,2|0,0:0|0:0,0:0:0:0:
419,280,80059,2,0,L|534:327,1,84.3333349418641,2|0,0:0|0:0,0:0:0:0:
340,297,80174,2,0,L|466:323,1,84.3333349418641,2|0,0:0|0:0,0:0:0:0:
268,220,80290,2,0,L|381:293,1,84.3333349418641,0|0,3:2|0:0,0:0:0:0:
310,371,80405,2,0,L|279:287,1,84.3333349418641,2|0,0:0|0:0,0:0:0:0:
225,313,80521,2,0,L|304:270,1,84.3333349418641,2|0,0:0|0:0,0:0:0:0:
399,39,80637,6,0,B|449:22|449:22|463:31|463:31|459:164|459:164|441:170|441:170|280:104|280:104|242:41,1,428.999980361939,10|0,0:0|0:0,0:0:0:0:
178,11,80983,6,0,L|183:30,1,16.5,2|0,3:1|0:0,0:0:0:0:
313,243,81330,22,1,B|187:278|-108:306|-141:213|35:126|212:67|448:62|544:141|422:203|259:220,1,957.000029205323,6|2,3:2|3:2,0:0:0:0:
392,97,82024,6,0,B|419:27|443:95|474:-3,1,110,10|0,0:0|0:0,0:0:0:0:
105,286,82197,6,0,B|78:356|54:288|23:386,2,110,2|2|2,0:0|0:0|0:0,0:0:0:0:
217,39,83064,6,0,L|302:388,1,330,0|0,3:2|0:0,0:0:0:0:
307,185,83411,6,0,B|295:194|295:194|172:158,1,110,10|0,0:0|0:0,0:0:0:0:
19,21,83585,6,0,L|14:4,1,11,2|0,0:0|0:0,0:0:0:0:
85,203,83758,5,2,0:0:0:0:
90,188,83845,1,0,0:0:0:0:
95,174,83931,1,0,0:0:0:0:
100,159,84018,1,0,0:0:0:0:
217,39,84105,6,0,L|194:31,1,14.6666666666667,0|2,3:2|0:0,0:0:0:0:
289,93,84336,1,2,0:0:0:0:
419,21,84452,6,0,L|444:102,1,55.0000020980836,2|2,0:0|0:0,0:0:0:0:
331,15,84683,1,2,0:0:0:0:
500,207,84798,5,8,0:0:0:0:
373,155,84914,1,2,0:0:0:0:
312,258,85030,1,2,0:0:0:0:
444,147,85145,5,2,3:2:0:0:
371,205,85261,1,2,0:0:0:0:
379,292,85376,1,2,0:0:0:0:
373,155,85492,5,2,0:0:0:0:
390,244,85607,1,2,0:0:0:0:
472,292,85723,1,2,0:0:0:0:
443,200,85839,5,2,3:2:0:0:
322,313,85954,1,2,0:0:0:0:
495,236,86070,1,2,0:0:0:0:
155,379,86186,6,0,B|129:299|60:225|-28:234|-33:290|-19:343|44:369|66:317|103:283|126:256|151:190|65:111,1,437.250018347741,10|0,0:0|0:0,0:0:0:0:
102,61,86533,6,0,B|106:38|106:38|89:20|89:20|84:45|84:45|125:86,1,97.1666707439424,2|0,3:2|0:0,0:0:0:0:
230,263,86648,6,0,B|234:286|234:286|217:304|217:304|212:279|212:279|253:238,1,97.1666707439424,0|0,3:2|0:0,0:0:0:0:
348,103,86764,6,0,B|352:80|352:80|335:62|335:62|330:87|330:87|371:128,1,97.1666707439424,0|0,3:2|0:0,0:0:0:0:
440,329,86879,6,0,B|444:353|444:353|427:371|427:371|422:346|422:346|442:326,1,96.8,2|0,3:2|0:0,0:0:0:0:
506,195,87920,6,0,B|467:224|467:224|257:184|257:184|249:171|249:171|57:137|57:137|-36:201,1,521.400012729493,4|0,3:2|0:0,0:0:0:0:
249,129,88267,5,0,0:0:0:0:
256,92,88324,1,0,0:0:0:0:
288,73,88382,1,0,0:0:0:0:
323,84,88440,1,2,0:0:0:0:
358,95,88498,1,0,0:0:0:0:
390,76,88556,1,0,0:0:0:0:
398,40,88613,5,0,0:0:0:0:
381,22,88700,1,0,0:0:0:0:
361,29,88787,1,2,0:0:0:0:
359,42,88874,1,0,0:0:0:0:
466,120,88960,6,0,P|483:112|469:27,1,104.499997209549,10|0,0:0|0:0,0:0:0:0:
207,231,89134,6,0,P|64:267|88:401,1,280.500005350113,2|0,3:2|0:0,0:0:0:0:
217,224,89481,6,0,B|204:187|198:216|182:163,1,55,2|0,0:0|0:0,0:0:0:0:
509,302,89654,6,0,B|448:319|512:356|384:373,1,110,2|0,3:2|0:0,0:0:0:0:
265,151,89827,2,0,P|322:146|383:305,1,230.99999295044,2|0,0:0|0:0,0:0:0:0:
280,369,90174,6,0,P|288:335|311:304,1,44,2|0,3:2|0:0,0:0:0:0:
489,78,90348,6,0,P|454:135|390:104,1,110,10|0,0:0|0:0,0:0:0:0:
382,52,90521,2,0,P|403:29|427:29,2,44,2|0|2,3:2|0:0|3:2,0:0:0:0:
59,92,91041,6,0,L|141:152,1,76.9999976501466,2|0,0:0|0:0,0:0:0:0:
142,100,91157,2,0,L|157:199,1,76.9999976501466,2|0,0:0|0:0,0:0:0:0:
116,23,91272,2,0,L|105:110,1,76.9999976501466,2|0,0:0|0:0,0:0:0:0:
90,147,91388,2,0,L|1:197,1,76.9999976501466,2|0,3:2|0:0,0:0:0:0:
207,166,91504,2,0,L|127:153,1,76.9999976501466,2|0,0:0|0:0,0:0:0:0:
132,227,91619,2,0,L|99:140,1,76.9999976501466,2|0,0:0|0:0,0:0:0:0:
358,352,91735,6,0,B|360:324|329:303|301:334|300:350|325:389|383:399|452:403|569:322|526:135|359:140,1,461.999985900879,10|0,0:0|0:0,0:0:0:0:
380,228,92082,2,0,P|392:238|393:240,1,16.5,2|0,3:1|0:0,0:0:0:0:
147,99,92428,22,1,B|204:209|289:480|209:529|92:382|2:228|-49:8|5:-96|87:4|143:151,1,923.999971801759,2|2,3:2|3:2,0:0:0:0:
105,330,93122,6,0,B|41:345|87:375|16:385,1,104.499997209549,10|0,0:0|0:0,0:0:0:0:
244,77,93296,6,0,B|308:62|262:32|333:22,2,110,2|2|2,0:0|0:0|3:2,0:0:0:0:
404,230,94163,5,0,3:2:0:0:
400,216,94249,1,0,0:0:0:0:
396,202,94336,1,2,0:0:0:0:
392,188,94423,1,0,0:0:0:0:
497,178,94509,6,0,B|492:192|492:192|325:235,1,110,8|0,0:0|0:0,0:0:0:0:
122,34,94683,6,0,B|131:37|131:37|167:123,1,82.5000031471254,2|0,0:0|0:0,0:0:0:0:
234,384,94856,5,2,3:2:0:0:
235,373,94943,1,0,0:0:0:0:
237,363,95030,1,0,0:0:0:0:
238,352,95116,1,0,0:0:0:0:
256,192,95203,5,2,3:2:0:0:
117,235,95319,1,2,0:0:0:0:
118,373,95434,1,2,0:0:0:0:
193,146,95550,5,2,3:2:0:0:
130,263,95665,1,2,0:0:0:0:
192,372,95781,1,2,0:0:0:0:
133,177,95897,5,2,3:2:0:0:
140,289,96012,1,2,0:0:0:0:
238,352,96128,1,2,0:0:0:0:
256,192,96244,5,2,3:2:0:0:
129,256,96359,1,2,0:0:0:0:
41,142,96475,1,2,0:0:0:0:
180,63,96590,5,2,3:2:0:0:
312,5,96705,1,2,0:0:0:0:
386,133,96821,1,2,0:0:0:0:
332,247,96937,5,2,3:2:0:0:
492,171,97053,1,2,0:0:0:0:
413,17,97168,1,2,0:0:0:0:
454,311,97284,6,0,B|431:313|431:313|81:212|81:212|-38:255,1,412.5,2|0,3:2|0:0,0:0:0:0:
240,5,97631,5,2,0:2:0:0:
248,36,97717,1,0,0:0:0:0:
256,68,97804,1,0,0:0:0:0:
264,100,97891,1,0,0:0:0:0:
287,174,97978,6,0,L|294:193,1,11,2|0,0:2|0:0,0:0:0:0:
263,240,99018,6,0,P|226:173|269:241,1,313.499991628647
277,361,99365,6,0,P|237:365|172:324,1,110,8|0,3:2|0:0,0:0:0:0:
256,29,99538,2,0,P|296:25|361:66,1,107.249995090485,8|0,3:2|0:0,0:0:0:0:
102,213,99885,6,0,P|98:158|135:100,1,110,8|0,3:2|0:0,0:0:0:0:
445,169,100059,2,0,P|449:224|412:282,1,110,8|0,3:2|0:0,0:0:0:0:
275,191,100232,5,0,0:0:0:0:
275,191,100319,1,0,0:0:0:0:
275,191,100405,2,0,L|280:167,1,22,2|4,2:3|2:0,0:0:0:0:
149,37,106301,6,0,P|113:99|2:105,1,181.500005538941,6|2,3:2|0:0,0:0:0:0:
153,80,106648,2,0,P|85:96|53:196,1,181.500005538941,10|2,3:2|0:0,0:0:0:0:
174,94,106995,6,0,P|87:61|59:15,1,121.000003692627,10|2,3:2|0:0,0:0:0:0:
229,175,107255,1,2,0:0:0:0:
229,175,107342,2,0,P|184:195|176:243,1,60.5000018463135,10|0,3:2|0:0,0:0:0:0:
229,286,107515,2,0,P|258:279|278:258,1,60.5000018463135,2|0,0:0|0:0,0:0:0:0:
479,37,107689,6,0,B|478:54|478:54|436:221,1,181.500005538941,10|2,3:2|0:0,0:0:0:0:
454,5,108035,2,0,B|447:26|447:26|499:185,1,181.500005538941,10|0,3:2|0:0,0:0:0:0:
496,40,108382,6,0,B|481:59|481:59|362:105,1,121.000003692627,10|2,3:2|0:0,0:0:0:0:
293,62,108642,1,2,0:0:0:0:
293,62,108729,2,0,B|279:47|279:47|320:-29,1,60.5000018463135,10|0,3:2|0:0,0:0:0:0:
434,227,108902,6,0,L|443:251,1,16.49999949646,2|0,0:0|0:0,0:0:0:0:
297,362,109076,5,0,3:2:0:0:
323,279,109163,1,0,0:0:0:0:
184,277,109249,1,0,3:2:0:0:
210,360,109336,1,0,0:0:0:0:
255,228,109423,1,8,0:0:0:0:
256,214,109509,1,0,0:0:0:0:
257,200,109596,1,8,0:0:0:0:
258,186,109683,1,0,0:0:0:0:
197,90,109770,1,0,3:2:0:0:
165,175,109856,1,0,3:2:0:0:
94,114,109943,1,0,3:2:0:0:
126,29,110029,1,0,3:2:0:0:
35,49,110116,1,0,3:2:0:0:
30,61,110203,1,0,3:2:0:0:
25,73,110290,1,0,3:2:0:0:
21,85,110376,1,0,3:2:0:0:
46,210,110463,5,8,3:2:0:0:
54,294,110549,1,0,3:2:0:0:
123,345,110636,1,0,3:2:0:0:
207,327,110723,1,0,3:2:0:0:
365,106,110810,5,8,3:2:0:0:
248,119,110896,5,0,3:2:0:0:
181,214,110983,5,0,3:2:0:0:
207,327,111070,5,0,3:2:0:0:
278,376,111157,6,0,L|295:368,1,11
248,9,111504,6,0,L|210:22,1,33,4|0,3:3|0:0,0:0:0:0:
248,9,111850,6,0,L|205:177,1,142.99999345398,6|2,3:2|0:0,0:0:0:0:
262,17,112111,1,2,0:0:0:0:
143,101,112197,2,0,B|183:84|183:84|340:172,1,165.000006294251,10|2,0:0|0:0,0:0:0:0:
129,92,112457,1,2,0:0:0:0:
205,226,112544,2,0,B|219:198|219:198|368:143,1,165.000006294251,2|2,3:2|0:0,0:0:0:0:
466,228,112804,1,2,0:0:0:0:
361,304,112891,2,0,B|341:273|341:273|373:215,1,82.5000031471254,10|0,0:0|0:0,0:0:0:0:
498,72,113064,2,0,B|454:88|500:112|409:128,1,82.5000031471254,2|0,0:0|0:0,0:0:0:0:
221,304,113238,6,0,P|201:253|134:263,1,110,2|2,3:2|0:0,0:0:0:0:
233,312,113498,1,2,0:0:0:0:
145,359,113585,2,0,B|132:258|82:324|66:158,1,165.000006294251,10|2,0:0|0:0,0:0:0:0:
53,300,113845,1,2,0:0:0:0:
106,141,113931,2,0,P|74:210|-5:199,1,165.000006294251,2|2,3:2|0:0,0:0:0:0:
124,140,114191,1,2,0:0:0:0:
39,79,114278,2,0,B|13:70|11:36|11:36|25:63|53:76,1,82.5000031471254,10|0,0:0|0:0,0:0:0:0:
211,203,114452,2,0,B|267:221|214:237|322:261,1,82.5000031471254,2|0,0:0|0:0,0:0:0:0:
424,136,114625,6,0,B|410:120|410:120|447:26,1,98.9999969787599,2|2,3:2|0:0,0:0:0:0:
441,147,114885,1,2,0:0:0:0:
344,59,114972,1,10,0:0:0:0:
325,65,115059,1,0,0:0:0:0:
306,71,115145,1,2,0:0:0:0:
287,77,115232,1,2,0:0:0:0:
351,164,115319,2,0,B|450:191|384:231|501:255,1,165.000006294251,2|2,3:2|0:0,0:0:0:0:
429,189,115579,1,2,0:0:0:0:
365,289,115665,2,0,B|316:306|366:323|268:348,1,82.5000031471254,10|0,0:0|0:0,0:0:0:0:
148,356,115839,2,0,B|126:336|126:336|159:231,1,82.5000031471254,2|0,0:0|0:0,0:0:0:0:
24,113,116012,6,0,P|25:119|108:158,1,98.9999969787599,2|2,3:2|0:0,0:0:0:0:
33,98,116272,1,2,0:0:0:0:
140,12,116359,2,0,P|148:65|172:117,1,82.5000031471254,10|2,0:0|0:0,0:0:0:0:
299,198,116533,2,0,B|321:187|313:158|313:158|309:180|284:198,1,82.5000031471254,2|2,0:0|0:0,0:0:0:0:
142,286,116706,2,0,B|44:318|121:349|12:382,1,165.000006294251,2|2,3:2|0:0,0:0:0:0:
54,284,116966,1,2,0:0:0:0:
168,382,117053,2,0,B|188:388|188:388|288:349,1,82.5000031471254,10|0,0:0|0:0,0:0:0:0:
183,202,117226,2,0,B|180:178|180:178|193:165|193:165|199:183|199:183|177:214,1,82.5000031471254,2|0,0:0|0:0,0:0:0:0:
325,349,117400,5,2,3:2:0:0:
399,380,117488,1,2,0:0:0:0:
473,350,117575,1,2,0:0:0:0:
500,274,117661,1,2,0:0:0:0:
465,202,117748,1,10,0:0:0:0:
238,30,117920,2,0,B|248:81|267:46|284:136,1,82.5000031471254,2|2,0:0|0:0,0:0:0:0:
325,349,118093,1,2,3:2:0:0:
399,380,118181,1,2,0:0:0:0:
473,350,118268,1,2,0:0:0:0:
500,274,118354,1,2,0:0:0:0:
465,202,118441,1,10,0:0:0:0:
238,30,118613,2,0,B|249:59|249:59|269:76|269:76|284:136,1,82.5000031471254,2|0,0:0|0:0,0:0:0:0:
325,349,118787,1,2,3:2:0:0:
399,380,118875,1,2,0:0:0:0:
473,350,118962,1,2,0:0:0:0:
500,274,119048,1,2,0:0:0:0:
465,202,119135,1,10,0:0:0:0:
238,30,119307,2,0,B|249:51|249:59|249:59|269:76|269:76|266:101|284:136,1,82.5000031471254,2|0,0:0|0:0,0:0:0:0:
168,277,119481,5,2,3:2:0:0:
114,253,119567,1,2,0:0:0:0:
59,235,119654,1,2,0:0:0:0:
33,287,119741,1,2,0:0:0:0:
12,340,119827,1,10,0:0:0:0:
14,145,120001,2,0,B|-4:129|-4:129|-1:110|-1:110|14:121|14:121|14:146,1,82.5000031471254,2|0,0:0|0:0,0:0:0:0:
195,384,120174,5,2,3:2:0:0:
279,350,120261,1,2,0:0:0:0:
251,263,120348,1,2,0:0:0:0:
216,179,120434,1,2,0:0:0:0:
302,150,120521,2,0,B|315:165|315:165|403:200,1,82.5000031471254,10|2,0:0|0:0,0:0:0:0:
177,7,120694,5,2,0:0:0:0:
143,91,120781,1,2,0:0:0:0:
53,107,120868,1,2,3:2:0:0:
87,23,120955,1,2,0:0:0:0:
143,91,121041,1,2,0:0:0:0:
112,176,121128,1,2,0:0:0:0:
53,107,121215,2,0,B|29:114|29:114|-3:186,1,82.5000031471254,10|0,0:0|0:0,0:0:0:0:
92,281,121388,2,0,B|115:292|115:292|198:254,1,82.5000031471254,2|0,0:0|0:0,0:0:0:0:
361,366,121561,5,2,3:2:0:0:
442,325,121648,1,2,0:0:0:0:
450,228,121735,1,2,0:0:0:0:
369,269,121822,1,2,0:0:0:0:
288,229,121908,5,10,0:0:0:0:
207,188,121995,1,2,0:0:0:0:
199,91,122082,1,2,0:0:0:0:
280,132,122169,1,2,0:0:0:0:
360,91,122255,6,0,B|377:70|377:70|351:6,1,82.5000031471254,2|0,3:2|0:0,0:0:0:0:
226,334,122428,6,0,L|223:350,1,11,2|0,3:2|0:0,0:0:0:0:
40,373,122602,5,10,0:0:0:0:
12,278,122688,5,0,0:0:0:0:
103,247,122775,5,10,0:0:0:0:
196,225,122862,5,10,0:0:0:0:
166,126,122949,6,0,B|138:141|138:141|71:110|71:110|149:32,1,165.000006294251,6|2,3:2|0:0,0:0:0:0:
186,127,123209,1,2,0:0:0:0:
259,23,123296,2,0,B|312:45|312:45|326:103|326:103|387:127,1,165.000006294251,10|2,0:0|0:0,0:0:0:0:
360,39,123556,1,2,0:0:0:0:
469,131,123642,2,0,P|388:139|439:217,1,165.000006294251,2|2,3:2|0:0,0:0:0:0:
479,143,123902,1,2,0:0:0:0:
509,237,123989,2,0,B|492:286|463:257|452:319,1,82.5000031471254,10|0,0:0|0:0,0:0:0:0:
318,366,124163,2,0,B|307:333|281:331|281:331|300:340|311:368,1,82.5000031471254,2|0,0:0|0:0,0:0:0:0:
107,168,124336,6,0,B|104:206|80:241|80:241|102:210|186:213,1,142.99999345398,2|2,3:2|0:0,0:0:0:0:
105,151,124596,1,2,0:0:0:0:
0,230,124683,2,0,B|111:257|17:307|180:330,1,165.000006294251,10|2,0:0|0:0,0:0:0:0:
0,205,124943,1,2,0:0:0:0:
52,83,125030,2,0,B|104:39|156:76|156:76|174:131|206:142,1,165.000006294251,2|2,3:2|0:0,0:0:0:0:
344,83,125290,1,2,0:0:0:0:
283,11,125376,2,0,P|267:28|248:92,1,82.5000031471254,10|0,0:0|0:0,0:0:0:0:
415,145,125550,2,0,P|431:128|450:64,1,82.5000031471254,2|0,0:0|0:0,0:0:0:0:
246,302,125723,6,0,B|240:319|240:319|268:381,1,82.5000031471254,2|2,3:2|0:0,0:0:0:0:
261,296,125983,1,2,0:0:0:0:
352,363,126070,2,0,B|343:373|343:373|183:333,1,165.000006294251,10|2,0:0|0:0,0:0:0:0:
366,342,126330,1,2,0:0:0:0:
463,372,126417,2,0,B|398:326|398:326|436:216,1,165.000006294251,2|2,3:2|0:0,0:0:0:0:
497,290,126677,1,2,0:0:0:0:
410,221,126764,2,0,B|389:172|371:198|359:128,1,82.5000031471254,10|0,0:0|0:0,0:0:0:0:
473,25,126937,2,0,B|500:20|511:56|511:56|496:30|421:7,1,82.5000031471254,2|0,0:0|0:0,0:0:0:0:
183,169,127111,6,0,B|225:32|225:32|241:16,1,165.000006294251,2|2,3:2|0:0,0:0:0:0:
259,109,127371,1,2,0:0:0:0:
144,19,127457,2,0,B|133:30|133:30|45:66,1,82.5000031471254,10|2,0:0|0:0,0:0:0:0:
66,232,127631,2,0,B|6:212|26:147|26:147|30:192|78:213,1,165.000006294251,2|2,0:0|3:2,0:0:0:0:
79,219,127891,1,0,0:0:0:0:
141,298,127978,2,0,B|110:315|140:328|53:363,1,82.5000031471254,2|2,0:0|0:0,0:0:0:0:
364,153,128151,2,0,B|376:70|450:67|450:67|493:104|531:94,1,197.99999395752,10|2,0:0|0:0,0:0:0:0:
492,179,128411,2,0,P|465:170|443:155,1,49.4999984893799
227,17,128498,5,6,3:2:0:0:
203,103,128585,1,2,0:0:0:0:
179,188,128671,1,2,0:0:0:0:
92,163,128758,1,2,0:0:0:0:
8,130,128845,1,10,0:0:0:0:
275,368,129018,6,0,B|311:364|311:364|325:280,1,76.9999976501466,2|2,0:0|0:0,0:0:0:0:
227,17,129191,5,2,3:2:0:0:
203,103,129278,1,2,0:0:0:0:
179,188,129364,1,2,0:0:0:0:
92,163,129451,1,2,0:0:0:0:
8,130,129538,1,10,0:0:0:0:
275,368,129712,6,0,B|311:364|311:364|325:280,1,76.9999976501466,2|0,0:0|0:0,0:0:0:0:
227,17,129885,5,2,3:2:0:0:
203,103,129972,1,2,0:0:0:0:
179,188,130058,1,2,0:0:0:0:
92,163,130145,1,2,0:0:0:0:
8,130,130232,1,10,0:0:0:0:
275,368,130405,6,0,B|311:364|311:364|325:280,1,76.9999976501466,2|0,0:0|0:0,0:0:0:0:
473,105,130579,5,2,3:2:0:0:
422,85,130666,1,2,0:0:0:0:
370,70,130753,1,2,0:0:0:0:
355,121,130839,1,2,0:0:0:0:
341,174,130926,1,10,0:0:0:0:
275,368,131099,2,0,B|258:351|258:351|187:333,1,76.9999976501466,2|0,0:0|0:0,0:0:0:0:
92,163,131272,5,2,3:2:0:0:
121,249,131359,1,2,0:0:0:0:
48,303,131446,1,2,0:0:0:0:
19,217,131533,1,2,0:0:0:0:
92,163,131619,2,0,L|198:191,1,76.9999976501466,10|2,0:0|0:0,0:0:0:0:
397,373,131793,5,2,0:0:0:0:
427,288,131879,1,2,0:0:0:0:
361,224,131966,1,2,3:2:0:0:
331,309,132052,1,2,0:0:0:0:
256,256,132139,1,2,0:0:0:0:
286,171,132225,1,2,0:0:0:0:
361,224,132313,2,0,L|388:210,1,16.49999949646,10|0,0:0|0:0,0:0:0:0:
478,72,132486,2,0,B|463:83|463:83|373:53,1,88,2|0,0:0|0:0,0:0:0:0:
73,10,132660,5,2,3:2:0:0:
54,75,132746,1,2,0:0:0:0:
94,130,132833,1,2,0:0:0:0:
163,134,132920,1,2,0:0:0:0:
183,216,133007,5,10,0:0:0:0:
258,188,133093,5,2,0:0:0:0:
295,109,133180,5,2,0:0:0:0:
260,21,133267,5,2,0:0:0:0:
166,5,133353,5,2,3:2:0:0:
258,188,133527,1,2,3:2:0:0:
351,370,133700,1,10,0:0:0:0:
163,134,133874,6,0,L|181:84,1,38.4999988250733,2|0,0:0|0:0,0:0:0:0:
258,188,134047,2,0,L|253:202,1,11,2|0,0:0|0:0,0:0:0:0:
251,141,135087,6,0,P|210:200|263:141,1,280.500005350113,0|0,3:2|0:0,0:0:0:0:
257,187,135434,6,0,L|283:288,1,82.5,6|0,3:2|0:0,0:0:0:0:
363,122,135781,6,0,L|389:223,1,82.5,10|0,0:0|0:0,0:0:0:0:
173,258,136128,6,0,L|199:359,1,82.5,2|0,3:2|0:0,0:0:0:0:
457,63,136475,6,0,L|483:164,1,82.5,10|0,0:0|0:0,0:0:0:0:
379,297,136822,6,0,L|348:411,1,82.5000031471254,2|0,3:2|0:0,0:0:0:0:
254,27,136995,6,0,L|223:141,1,82.5000031471254,2|0,0:0|0:0,0:0:0:0:
96,238,137168,6,0,L|65:352,1,82.5000031471254,10|0,0:0|0:0,0:0:0:0:
37,44,137342,6,0,L|6:158,1,82.5000031471254,2|0,0:0|0:0,0:0:0:0:
270,236,137515,6,0,L|239:350,1,82.5000031471254,2|0,3:2|0:0,0:0:0:0:
96,238,137689,6,0,B|119:240|119:240|425:160|425:160|555:225,2,363.000003461838,2|10|2,0:0|0:0|0:0,0:0:0:0:
411,42,138209,6,0,L|325:17,1,82.5,2|0,3:2|0:0,0:0:0:0:
270,236,138556,6,0,L|184:211,1,82.5,10|0,0:0|0:0,0:0:0:0:
326,138,138902,6,0,L|240:113,1,82.5,2|0,3:2|0:0,0:0:0:0:
202,335,139249,6,0,L|116:310,1,82.5,10|0,0:0|0:0,0:0:0:0:
491,115,139596,6,0,L|404:144,1,82.5000031471254,2|0,3:2|0:0,0:0:0:0:
369,256,139770,6,0,L|282:285,1,82.5000031471254,2|0,0:0|0:0,0:0:0:0:
236,21,139943,6,0,L|149:50,1,82.5000031471254,10|0,0:0|0:0,0:0:0:0:
108,185,140116,6,0,L|21:214,1,82.5000031471254,2|0,0:0|0:0,0:0:0:0:
414,350,140290,6,0,L|492:322,1,82.5000031471254,2|0,3:2|0:0,0:0:0:0:
236,21,140463,6,0,B|232:44|232:44|291:355|291:355|217:480,2,363.000003461838,2|10|2,0:0|0:0|0:0,0:0:0:0:
107,378,140983,6,0,L|142:280,1,82.5,2|0,3:2|0:0,0:0:0:0:
343,248,141330,6,0,L|378:150,1,82.5,10|0,0:0|0:0,0:0:0:0:
225,302,141677,6,0,L|260:204,1,82.5,2|0,3:2|0:0,0:0:0:0:
462,199,142024,6,0,L|497:101,1,82.5,10|0,0:0|0:0,0:0:0:0:
272,22,142371,6,0,L|299:119,1,82.5000031471254,2|0,3:2|0:0,0:0:0:0:
414,271,142544,6,0,L|441:368,1,82.5000031471254,2|0,0:0|0:0,0:0:0:0:
90,88,142717,6,0,L|117:185,1,82.5000031471254,10|0,0:0|0:0,0:0:0:0:
225,302,142891,6,0,L|252:399,1,82.5000031471254,2|0,0:0|0:0,0:0:0:0:
490,121,143064,6,0,L|467:41,1,82.5000031471254,2|0,3:2|0:0,0:0:0:0:
239,185,143238,6,0,L|254:231,1,41.2500015735627
68,368,143411,6,0,P|26:294|114:312,1,214.49999018097,10|0,0:0|0:0,0:0:0:0:
175,384,143758,6,0,P|297:311|418:294,1,214.49999018097,2|0,3:2|0:0,0:0:0:0:
484,313,144105,2,0,P|477:310|467:308,1,16.5,8|0,0:0|0:0,0:0:0:0:
269,122,144452,6,0,P|221:170|272:122,1,280.500005350113,2|0,3:2|0:0,0:0:0:0:
291,15,144798,2,0,L|288:35,1,16.5,10|0,0:0|0:0,0:0:0:0:
140,243,145145,6,0,P|109:209|124:166,1,71.4999967269899,2|0,3:2|0:0,0:0:0:0:
28,188,145319,2,0,P|26:141|67:121,1,71.4999967269899,2|0,0:0|0:0,0:0:0:0:
383,80,145492,6,0,P|418:112|403:155,1,71.4999967269899,10|0,0:0|0:0,0:0:0:0:
497,145,145666,2,0,P|499:192|458:212,1,71.4999967269899,2|0,0:0|0:0,0:0:0:0:
252,377,145839,6,0,L|259:349,1,16.49999949646,2|0,3:2|0:0,0:0:0:0:
89,177,146012,6,0,B|112:173|112:173|424:226|424:226|547:150,2,363.000003461838,2|10|2,0:0|0:0|0:0,0:0:0:0:
441,365,146533,2,0,P|369:315|400:241,1,165.000006294251,6|0,3:2|0:0,0:0:0:0:
458,368,146793,1,0,3:2:0:0:
338,310,146879,2,0,B|236:320|316:372|187:384,2,165.000006294251,10|0|2,0:0|3:2|3:2,0:0:0:0:
118,328,147400,2,0,B|88:314|90:284|90:284|102:310|143:322,1,82.5000031471254,0|0,0:0|3:2,0:0:0:0:
254,227,147573,2,0,P|300:191|233:220,1,247.500009441376,10|0,0:0|3:2,0:0:0:0:
36,22,147920,6,0,P|31:70|146:102,1,165.000006294251,2|2,3:2|0:0,0:0:0:0:
47,144,148180,1,0,3:2:0:0:
181,30,148267,2,0,P|249:78|376:103,2,165.000006294251,10|2|2,0:0|3:2|3:2,0:0:0:0:
494,28,148787,2,0,P|465:29|446:88,1,82.5000031471254,2|0,3:2|0:0,0:0:0:0:
444,278,148960,2,0,P|481:220|408:271,1,247.500009441376,10|0,0:0|3:2,0:0:0:0:
266,375,149307,6,0,P|246:368|226:242,1,165.000006294251,2|0,3:2|0:0,0:0:0:0:
283,367,149567,1,0,3:2:0:0:
161,303,149654,2,0,P|88:322|14:389,2,165.000006294251,10|0|2,0:0|3:2|3:2,0:0:0:0:
33,147,150174,1,0,0:0:0:0:
70,238,150261,1,0,3:2:0:0:
26,135,150348,2,0,P|28:95|83:63,1,82.5000031471254,10|0,0:0|0:0,0:0:0:0:
171,112,150521,2,0,P|169:152|114:184,1,82.5000031471254,0|0,3:2|3:2,0:0:0:0:
297,12,150694,6,0,P|356:75|458:96,1,165.000006294251,2|2,3:2|0:0,0:0:0:0:
336,105,150954,1,0,3:2:0:0:
504,56,151041,2,0,P|427:161|406:241,2,165.000006294251,10|2|2,0:0|3:2|3:2,0:0:0:0:
234,373,151561,2,0,P|186:327|199:291,1,82.5000031471254,2|0,3:2|0:0,0:0:0:0:
339,227,151735,2,0,P|328:293|337:225,1,247.500009441376,10|0,0:0|3:2,0:0:0:0:
152,231,152082,6,0,B|48:251|123:345|0:340,1,165.000006294251,2|0,3:2|0:0,0:0:0:0:
172,231,152342,1,0,3:2:0:0:
74,170,152428,2,0,B|44:147|56:122|56:122|67:145|97:170,1,82.5000031471254,10|0,0:0|0:0,0:0:0:0:
230,27,152602,2,0,P|168:45|141:84,1,82.5000031471254,0|0,3:2|3:2,0:0:0:0:
325,217,152775,2,0,P|393:156|343:66,1,165.000006294251,2|0,3:2|0:0,0:0:0:0:
368,83,153035,1,0,3:2:0:0:
428,185,153122,2,0,B|443:235|456:201|492:277,1,82.5000031471254,10|0,0:0|0:0,0:0:0:0:
349,363,153296,2,0,P|366:318|422:307,1,82.5000031471254,0|0,3:2|3:2,0:0:0:0:
189,364,153469,6,0,B|164:308|116:310|116:310|101:338|51:350,1,165.000006294251,2|2,3:2|0:0,0:0:0:0:
153,272,153729,1,0,3:2:0:0:
55,241,153816,2,0,B|32:236|27:206|27:206|42:231|98:233,1,82.5000031471254,10|0,0:0|0:0,0:0:0:0:
163,103,153989,2,0,P|141:150|122:209,1,82.5000031471254,2|0,3:2|3:2,0:0:0:0:
421,49,154163,2,0,P|405:27|337:34,1,82.5000031471254,2|0,3:2|0:0,0:0:0:0:
320,112,154336,2,0,P|336:134|404:127,1,82.5000031471254,2|0,3:2|0:0,0:0:0:0:
41,112,154509,2,0,P|-6:78|46:111,1,247.500009441376,10|0,0:0|3:2,0:0:0:0:
130,178,154856,6,0,B|237:202|168:251|303:274,1,165.000006294251,2|0,3:2|3:2,0:0:0:0:
426,321,155116,1,0,3:2:0:0:
358,373,155203,2,0,P|341:309|343:265,1,82.5000031471254,10|0,0:0|0:0,0:0:0:0:
455,200,155376,2,0,P|471:201|464:268,1,82.5000031471254,0|0,3:2|3:2,0:0:0:0:
286,181,155550,2,0,B|383:135|298:104|456:59,1,165.000006294251,2|0,3:2|3:2,0:0:0:0:
373,154,155810,1,0,3:2:0:0:
264,90,155897,2,0,P|181:34|71:33,1,165.000006294251,10|0,0:0|3:2,0:0:0:0:
29,195,156157,5,0,3:2:0:0:
147,211,156244,2,0,P|124:146|73:124,1,82.5000031471254,2|0,3:2|0:0,0:0:0:0:
13,276,156417,5,2,0:0:0:0:
37,360,156503,1,0,3:2:0:0:
124,373,156590,2,0,P|175:353|228:340,1,82.5000031471254,10|0,0:0|0:0,0:0:0:0:
473,145,156764,2,0,P|400:171|359:192,1,82.5000031471254,2|0,3:2|3:2,0:0:0:0:
259,249,156937,6,0,L|274:202,1,32.99999899292,2|0,3:2|0:0,0:0:0:0:
221,108,157111,6,0,P|176:57|257:103,1,296.99999093628,2|0,3:2|0:0,0:0:0:0:
318,333,157457,6,0,P|317:371|295:341,1,98.9999969787599,10|0,3:2|0:0,0:0:0:0:
