osu file format v14

[General]
AudioFilename: audio.mp3
AudioLeadIn: 0
PreviewTime: 40655
Countdown: 0
SampleSet: Soft
StackLeniency: 0
Mode: 0
LetterboxInBreaks: 0
WidescreenStoryboard: 1

[Editor]
Bookmarks: 14741,27226,41099,63296,75781,100752,111850,135434
DistanceSpacing: 1.6
BeatDivisor: 4
GridSize: 32
TimelineZoom: 2.5

[Metadata]
Title:Rabbit Hole feat. Hatsune Miku
TitleUnicode:ラビットホール feat. 初音ミク
Artist:DECO*27
ArtistUnicode:DECO*27
Creator:eringiRa
Version:hs
Source:
Tags:2023 vocaloid original Love it KARENT japanese j pop rock j-pop j-rock jpop jrock Alvearia
BeatmapID:4541933
BeatmapSetID:2154651

[Difficulty]
HPDrainRate:4
CircleSize:3.5
OverallDifficulty:9
ApproachRate:9.6
SliderMultiplier:2.2
SliderTickRate:1

[Events]
//Background and Video events
0,0,"bg.jpg",0,0
Video,0,"DECO27_-_feat._eSW2LVbPThw2.avi"
//Break Periods
//Storyboard Layer 0 (Background)
//Storyboard Layer 1 (Fail)
//Storyboard Layer 2 (Pass)
//Storyboard Layer 3 (Foreground)
//Storyboard Layer 4 (Overlay)
//Storyboard Sound Samples

[TimingPoints]
-519,346.820809248555,4,2,1,70,1,0
1215,-100,4,2,2,70,0,0
3642,-100,4,2,1,70,0,0
39712,-100,4,2,2,70,0,0
41099,-100,4,2,1,70,0,0
99365,-100,4,2,2,70,0,0
100405,-100,4,2,1,70,0,0
106301,-100,4,2,3,70,0,0
109076,-100,4,2,3,70,0,0
111850,-100,4,2,1,70,0,0
146533,-100,4,2,2,70,0,0
157457,-100,4,2,2,70,0,0

[Colours]
Combo1 : 173,173,222
Combo2 : 61,85,203
Combo3 : 188,100,196

[HitObjects]
256,192,405,5,0,3:2:0:0:
256,192,521,5,14,0:0:0:0:
256,192,637,5,2,3:2:0:0:
256,192,752,5,2,3:2:0:0:
256,192,868,5,10,0:0:0:0:
256,192,983,5,2,3:2:0:0:
256,192,1098,5,2,3:2:0:0:
256,192,1215,5,2,3:2:0:0:
256,192,1301,5,0,3:2:0:0:
256,192,1388,5,0,3:2:0:0:
256,192,1475,5,0,3:2:0:0:
256,192,1561,5,8,0:0:0:0:
256,192,1648,5,8,0:0:0:0:
256,192,1735,5,8,0:0:0:0:
256,192,1822,5,8,0:0:0:0:
256,192,1908,5,0,3:2:0:0:
256,192,3296,5,8,3:3:0:0:
256,192,3642,5,6,3:2:0:0:
256,192,3902,5,2,0:0:0:0:
256,192,3989,5,10,0:0:0:0:
256,192,4163,5,2,0:0:0:0:
256,192,4249,5,2,0:0:0:0:
256,192,4336,5,2,3:2:0:0:
256,192,4509,5,2,0:0:0:0:
256,192,4683,5,10,0:0:0:0:
256,192,4856,5,2,0:0:0:0:
256,192,5030,5,2,3:2:0:0:
256,192,5203,5,2,0:0:0:0:
256,192,5377,5,10,0:0:0:0:
256,192,5550,5,2,0:0:0:0:
256,192,5723,5,2,3:2:0:0:
256,192,5897,5,2,0:0:0:0:
256,192,6070,5,10,0:0:0:0:
256,192,6417,5,2,3:2:0:0:
256,192,6677,5,2,0:0:0:0:
256,192,6764,5,10,0:0:0:0:
256,192,6937,5,2,0:0:0:0:
256,192,7024,5,2,0:0:0:0:
256,192,7111,5,2,3:2:0:0:
256,192,7284,5,2,0:0:0:0:
256,192,7458,5,10,0:0:0:0:
256,192,7631,5,2,0:0:0:0:
256,192,7804,5,2,3:2:0:0:
256,192,7978,5,2,0:0:0:0:
256,192,8151,5,10,0:0:0:0:
256,192,8324,5,2,0:0:0:0:
256,192,8411,5,2,0:0:0:0:
256,192,8498,5,2,3:2:0:0:
256,192,8585,5,2,0:0:0:0:
256,192,8671,5,2,0:0:0:0:
256,192,8758,5,2,0:0:0:0:
256,192,8845,5,10,0:0:0:0:
256,192,8931,5,2,0:0:0:0:
256,192,9018,5,2,0:0:0:0:
256,192,9105,5,2,0:0:0:0:
256,192,9191,5,2,3:2:0:0:
256,192,9452,5,2,0:0:0:0:
256,192,9538,5,10,0:0:0:0:
256,192,9712,5,2,0:0:0:0:
256,192,9798,5,2,0:0:0:0:
256,192,9885,5,2,3:2:0:0:
256,192,10059,5,2,0:0:0:0:
256,192,10232,5,10,0:0:0:0:
256,192,10405,5,2,0:0:0:0:
256,192,10579,5,2,3:2:0:0:
256,192,10752,5,2,0:0:0:0:
256,192,10926,5,10,0:0:0:0:
256,192,11099,5,2,0:0:0:0:
256,192,11272,5,2,3:2:0:0:
256,192,11446,5,2,0:0:0:0:
256,192,11619,5,10,0:0:0:0:
256,192,11793,5,2,0:0:0:0:
256,192,11879,5,2,0:0:0:0:
256,192,11966,5,2,3:2:0:0:
256,192,12226,5,2,0:0:0:0:
256,192,12313,5,10,0:0:0:0:
256,192,12486,5,2,0:0:0:0:
256,192,12573,5,2,0:0:0:0:
256,192,12660,5,2,3:2:0:0:
256,192,12833,5,2,0:0:0:0:
256,192,13007,5,10,0:0:0:0:
256,192,13180,5,2,0:0:0:0:
256,192,13353,5,2,3:2:0:0:
256,192,13527,5,2,0:0:0:0:
256,192,13701,5,10,0:0:0:0:
256,192,13874,5,2,0:0:0:0:
256,192,14047,5,0,3:2:0:0:
256,192,14134,5,0,3:2:0:0:
256,192,14220,5,0,3:2:0:0:
256,192,14307,5,0,3:2:0:0:
256,192,14394,5,8,0:0:0:0:
256,192,14567,5,8,0:0:0:0:
256,192,14741,5,2,0:0:0:0:
256,192,14914,5,2,0:0:0:0:
256,192,15087,5,2,0:0:0:0:
256,192,15261,5,2,0:0:0:0:
256,192,15434,5,2,0:0:0:0:
256,192,15608,5,2,0:0:0:0:
256,192,15954,5,2,0:0:0:0:
256,192,16128,5,2,0:0:0:0:
256,192,16301,5,2,0:0:0:0:
256,192,16475,5,2,0:0:0:0:
256,192,16648,5,2,0:0:0:0:
256,192,16822,5,2,0:0:0:0:
256,192,17168,5,2,0:0:0:0:
256,192,17689,5,2,0:0:0:0:
256,192,17862,5,2,0:0:0:0:
256,192,18035,5,2,0:0:0:0:
256,192,18209,5,2,0:0:0:0:
256,192,18382,5,2,0:0:0:0:
256,192,18729,5,2,0:0:0:0:
256,192,18902,5,2,0:0:0:0:
256,192,19076,5,2,0:0:0:0:
256,192,19249,5,2,0:0:0:0:
256,192,19423,5,2,0:0:0:0:
256,192,19596,5,2,0:0:0:0:
256,192,19770,5,2,2:3:0:0:
256,192,19856,5,2,2:3:0:0:
256,192,19943,5,2,2:3:0:0:
256,192,20290,5,6,3:2:0:0:
256,192,20637,5,2,3:2:0:0:
256,192,20983,5,2,3:2:0:0:
256,192,21157,5,2,0:0:0:0:
256,192,21330,5,0,3:2:0:0:
256,192,21504,5,2,0:0:0:0:
256,192,21590,5,2,0:0:0:0:
256,192,21677,5,2,3:2:0:0:
256,192,21850,5,2,0:0:0:0:
256,192,22024,5,2,3:2:0:0:
256,192,22197,5,2,0:0:0:0:
256,192,22371,5,2,3:2:0:0:
256,192,22544,5,2,0:0:0:0:
256,192,22717,5,2,3:2:0:0:
256,192,22891,5,2,0:0:0:0:
256,192,23064,5,2,3:2:0:0:
256,192,23411,5,2,3:2:0:0:
256,192,23757,5,2,3:2:0:0:
256,192,24104,5,0,3:2:0:0:
256,192,24278,5,2,0:0:0:0:
256,192,24452,5,0,3:2:0:0:
256,192,24625,5,2,3:2:0:0:
256,192,24712,5,2,3:2:0:0:
256,192,24798,5,2,3:2:0:0:
256,192,24972,5,2,3:2:0:0:
256,192,25059,5,2,3:2:0:0:
256,192,25145,5,2,3:2:0:0:
256,192,25319,5,2,3:2:0:0:
256,192,25492,5,2,3:2:0:0:
256,192,25665,5,2,3:2:0:0:
256,192,25839,5,2,3:2:0:0:
256,192,26186,5,2,0:0:0:0:
256,192,26533,5,2,0:0:0:0:
256,192,26706,5,0,3:2:0:0:
256,192,26879,5,2,0:0:0:0:
256,192,27226,5,4,3:2:0:0:
256,192,27400,5,2,0:0:0:0:
256,192,27486,5,2,0:0:0:0:
256,192,27573,5,10,0:0:0:0:
256,192,27746,5,2,0:0:0:0:
256,192,27833,5,2,0:0:0:0:
256,192,27920,5,2,3:2:0:0:
256,192,28093,5,2,0:0:0:0:
256,192,28180,5,2,0:0:0:0:
256,192,28267,5,10,0:0:0:0:
256,192,28353,5,2,0:0:0:0:
256,192,28440,5,2,0:0:0:0:
256,192,28527,5,2,0:0:0:0:
256,192,28613,5,2,3:2:0:0:
256,192,28787,5,2,0:0:0:0:
256,192,28960,5,10,0:0:0:0:
256,192,29134,5,2,0:0:0:0:
256,192,29307,5,0,3:2:0:0:
256,192,29481,5,2,0:0:0:0:
256,192,29654,5,10,0:0:0:0:
256,192,29827,5,2,0:0:0:0:
256,192,30001,5,2,3:2:0:0:
256,192,30174,5,2,0:0:0:0:
256,192,30261,5,2,0:0:0:0:
256,192,30348,5,10,0:0:0:0:
256,192,30434,5,2,0:0:0:0:
256,192,30521,5,2,0:0:0:0:
256,192,30608,5,2,0:0:0:0:
256,192,30694,5,2,3:2:0:0:
256,192,30868,5,2,0:0:0:0:
256,192,30954,5,2,0:0:0:0:
256,192,31041,5,10,0:0:0:0:
256,192,31215,5,2,0:0:0:0:
256,192,31301,5,2,0:0:0:0:
256,192,31388,5,2,3:2:0:0:
256,192,31561,5,2,0:0:0:0:
256,192,31735,5,10,0:0:0:0:
256,192,31908,5,2,0:0:0:0:
256,192,32082,5,0,3:2:0:0:
256,192,32255,5,2,0:0:0:0:
256,192,32429,5,10,0:0:0:0:
256,192,32602,5,2,0:0:0:0:
256,192,32775,5,2,3:2:0:0:
256,192,33122,5,10,0:0:0:0:
256,192,33469,5,2,3:2:0:0:
256,192,33642,5,2,0:0:0:0:
256,192,33816,5,8,0:0:0:0:
256,192,33989,5,2,0:0:0:0:
256,192,34163,5,2,3:2:0:0:
256,192,34336,5,2,0:0:0:0:
256,192,34510,5,10,0:0:0:0:
256,192,34683,5,2,0:0:0:0:
256,192,34856,5,2,3:2:0:0:
256,192,35030,5,2,0:0:0:0:
256,192,35203,5,10,0:0:0:0:
256,192,35376,5,2,0:0:0:0:
256,192,35550,5,2,3:2:0:0:
256,192,35897,5,10,0:0:0:0:
256,192,36244,5,2,3:2:0:0:
256,192,36417,5,2,0:0:0:0:
256,192,36591,5,10,0:0:0:0:
256,192,36764,5,2,0:0:0:0:
256,192,36937,5,0,3:2:0:0:
256,192,37111,5,2,0:0:0:0:
256,192,37284,5,10,0:0:0:0:
256,192,37457,5,2,0:0:0:0:
256,192,37631,5,2,3:2:0:0:
256,192,37804,5,2,0:0:0:0:
256,192,37891,5,2,0:0:0:0:
256,192,37978,5,10,0:0:0:0:
256,192,38151,5,2,0:0:0:0:
256,192,38324,5,2,0:0:0:0:
256,192,38671,5,2,0:0:0:0:
256,192,39018,5,2,0:0:0:0:
256,192,39365,5,8,3:3:0:0:
256,192,39712,5,6,3:2:0:0:
256,192,39885,5,8,0:0:0:0:
256,192,39972,5,8,0:0:0:0:
256,192,40059,5,10,0:0:0:0:
256,192,40145,5,8,0:0:0:0:
256,192,40232,5,8,0:0:0:0:
256,192,40319,5,8,0:0:0:0:
256,192,40405,5,10,0:0:0:0:
256,192,40752,5,4,3:3:0:0:
256,192,41099,5,6,3:2:0:0:
256,192,41272,5,2,0:0:0:0:
256,192,41359,5,2,0:0:0:0:
256,192,41446,5,10,0:0:0:0:
256,192,41619,5,2,0:0:0:0:
256,192,41706,5,2,0:0:0:0:
256,192,41793,5,2,3:2:0:0:
256,192,41966,5,2,0:0:0:0:
256,192,42053,5,2,0:0:0:0:
256,192,42140,5,10,0:0:0:0:
256,192,42313,5,2,0:0:0:0:
256,192,42486,5,2,3:2:0:0:
256,192,42660,5,2,0:0:0:0:
256,192,42746,5,2,0:0:0:0:
256,192,42833,5,10,0:0:0:0:
256,192,43007,5,2,0:0:0:0:
256,192,43093,5,2,0:0:0:0:
256,192,43180,5,2,3:2:0:0:
256,192,43353,5,2,0:0:0:0:
256,192,43440,5,2,0:0:0:0:
256,192,43527,5,10,0:0:0:0:
256,192,43700,5,2,0:0:0:0:
256,192,43874,5,2,3:2:0:0:
256,192,44047,5,2,0:0:0:0:
256,192,44134,5,2,0:0:0:0:
256,192,44221,5,10,0:0:0:0:
256,192,44394,5,2,0:0:0:0:
256,192,44481,5,2,0:0:0:0:
256,192,44568,5,2,3:2:0:0:
256,192,44741,5,2,0:0:0:0:
256,192,44827,5,2,0:0:0:0:
256,192,44915,5,10,0:0:0:0:
256,192,45087,5,2,0:0:0:0:
256,192,45261,5,2,3:2:0:0:
256,192,45434,5,2,0:0:0:0:
256,192,45521,5,2,0:0:0:0:
256,192,45608,5,10,0:0:0:0:
256,192,45694,5,2,0:0:0:0:
256,192,45781,5,2,0:0:0:0:
256,192,45868,5,2,0:0:0:0:
256,192,45955,5,2,3:2:0:0:
256,192,46128,5,2,0:0:0:0:
256,192,46215,5,2,0:0:0:0:
256,192,46302,5,10,0:0:0:0:
256,192,46475,5,2,0:0:0:0:
256,192,46648,5,2,3:2:0:0:
256,192,46735,5,2,0:0:0:0:
256,192,46822,5,2,0:0:0:0:
256,192,46908,5,2,0:0:0:0:
256,192,46995,5,10,0:0:0:0:
256,192,47168,5,2,0:0:0:0:
256,192,47255,5,2,0:0:0:0:
256,192,47342,5,2,3:2:0:0:
256,192,47428,5,2,0:0:0:0:
256,192,47515,5,2,0:0:0:0:
256,192,47602,5,2,0:0:0:0:
256,192,47689,5,10,0:0:0:0:
256,192,47862,5,2,0:0:0:0:
256,192,48035,5,2,3:2:0:0:
256,192,48122,5,2,0:0:0:0:
256,192,48209,5,2,0:0:0:0:
256,192,48296,5,2,0:0:0:0:
256,192,48382,5,10,0:0:0:0:
256,192,48556,5,2,0:0:0:0:
256,192,48729,5,2,3:2:0:0:
256,192,48816,5,2,0:0:0:0:
256,192,48902,5,2,0:0:0:0:
256,192,48989,5,2,0:0:0:0:
256,192,49076,5,10,0:0:0:0:
256,192,49249,5,2,0:0:0:0:
256,192,49423,5,2,3:2:0:0:
256,192,49509,5,2,0:0:0:0:
256,192,49596,5,2,0:0:0:0:
256,192,49683,5,2,0:0:0:0:
256,192,49770,5,10,0:0:0:0:
256,192,49856,5,2,0:0:0:0:
256,192,49943,5,2,0:0:0:0:
256,192,50030,5,2,0:0:0:0:
256,192,50117,5,2,3:2:0:0:
256,192,50203,5,2,0:0:0:0:
256,192,50290,5,2,0:0:0:0:
256,192,50376,5,2,0:0:0:0:
256,192,50464,5,10,0:0:0:0:
256,192,50637,5,2,0:0:0:0:
256,192,50810,5,2,3:2:0:0:
256,192,50897,5,2,0:0:0:0:
256,192,50983,5,2,0:0:0:0:
256,192,51070,5,2,0:0:0:0:
256,192,51157,5,10,0:0:0:0:
256,192,51244,5,2,0:0:0:0:
256,192,51330,5,2,0:0:0:0:
256,192,51417,5,2,0:0:0:0:
256,192,51504,5,2,3:2:0:0:
256,192,51677,5,2,3:2:0:0:
256,192,51851,5,10,0:0:0:0:
256,192,52024,5,10,0:0:0:0:
256,192,52111,5,10,0:0:0:0:
256,192,52197,5,6,3:2:0:0:
256,192,52370,5,2,0:0:0:0:
256,192,52457,5,2,0:0:0:0:
256,192,52544,5,10,0:0:0:0:
256,192,52717,5,2,0:0:0:0:
256,192,52804,5,2,0:0:0:0:
256,192,52891,5,2,3:2:0:0:
256,192,53064,5,2,0:0:0:0:
256,192,53151,5,2,0:0:0:0:
256,192,53238,5,10,0:0:0:0:
256,192,53411,5,2,0:0:0:0:
256,192,53584,5,2,3:2:0:0:
256,192,53758,5,2,0:0:0:0:
256,192,53844,5,2,0:0:0:0:
256,192,53931,5,10,0:0:0:0:
256,192,54105,5,2,0:0:0:0:
256,192,54191,5,2,0:0:0:0:
256,192,54278,5,2,3:2:0:0:
256,192,54451,5,2,0:0:0:0:
256,192,54538,5,2,0:0:0:0:
256,192,54625,5,10,0:0:0:0:
256,192,54798,5,2,0:0:0:0:
256,192,54972,5,2,3:2:0:0:
256,192,55145,5,2,0:0:0:0:
256,192,55232,5,2,0:0:0:0:
256,192,55319,5,10,0:0:0:0:
251,187,55405,5,2,0:0:0:0:
256,192,55492,5,2,0:0:0:0:
256,192,55579,5,2,0:0:0:0:
256,192,55666,5,2,3:2:0:0:
256,192,55839,5,2,0:0:0:0:
256,192,55925,5,2,0:0:0:0:
256,192,56013,5,10,0:0:0:0:
256,192,56185,5,2,0:0:0:0:
256,192,56359,5,2,3:2:0:0:
256,192,56532,5,2,0:0:0:0:
256,192,56619,5,2,0:0:0:0:
256,192,56706,5,10,0:0:0:0:
256,192,56792,5,2,0:0:0:0:
256,192,56879,5,2,0:0:0:0:
256,192,57053,5,2,3:2:0:0:
256,192,57226,5,2,0:0:0:0:
256,192,57313,5,2,0:0:0:0:
256,192,57400,5,10,0:0:0:0:
256,192,57573,5,2,0:0:0:0:
256,192,57746,5,6,3:2:0:0:
256,192,57833,5,2,0:0:0:0:
256,192,57920,5,2,0:0:0:0:
256,192,58006,5,2,0:0:0:0:
256,192,58093,5,10,0:0:0:0:
256,192,58266,5,2,0:0:0:0:
256,192,58353,5,2,0:0:0:0:
256,192,58440,5,2,3:2:0:0:
256,192,58526,5,2,0:0:0:0:
256,192,58613,5,2,0:0:0:0:
256,192,58700,5,2,0:0:0:0:
256,192,58787,5,10,0:0:0:0:
256,192,58960,5,2,0:0:0:0:
256,192,59133,5,2,3:2:0:0:
256,192,59220,5,2,0:0:0:0:
256,192,59307,5,2,0:0:0:0:
256,192,59394,5,2,0:0:0:0:
256,192,59480,5,10,0:0:0:0:
256,192,59654,5,2,0:0:0:0:
256,192,59827,5,2,3:2:0:0:
256,192,59914,5,2,0:0:0:0:
256,192,60000,5,2,0:0:0:0:
256,192,60087,5,2,0:0:0:0:
256,192,60174,5,10,0:0:0:0:
256,192,60347,5,2,0:0:0:0:
256,192,60521,5,2,3:2:0:0:
256,192,60607,5,2,0:0:0:0:
256,192,60694,5,2,0:0:0:0:
256,192,60781,5,2,0:0:0:0:
256,192,60868,5,10,0:0:0:0:
256,192,60954,5,2,0:0:0:0:
256,192,61041,5,2,0:0:0:0:
256,192,61128,5,2,0:0:0:0:
256,192,61215,5,2,3:2:0:0:
256,192,61301,5,2,0:0:0:0:
256,192,61388,5,2,0:0:0:0:
256,192,61474,5,2,0:0:0:0:
256,192,61562,5,10,0:0:0:0:
256,192,61735,5,2,0:0:0:0:
256,192,61908,5,2,3:2:0:0:
256,192,61995,5,2,0:0:0:0:
256,192,62081,5,2,0:0:0:0:
256,192,62168,5,2,0:0:0:0:
256,192,62255,5,10,0:0:0:0:
256,192,62342,5,2,0:0:0:0:
256,192,62428,5,2,0:0:0:0:
256,192,62515,5,2,0:0:0:0:
256,192,62602,5,2,3:2:0:0:
256,192,62775,5,2,3:2:0:0:
256,192,62949,5,10,0:0:0:0:
256,192,63122,5,2,0:0:0:0:
256,192,63296,5,2,0:0:0:0:
256,192,64336,5,4,3:3:0:0:
256,192,64683,5,6,3:2:0:0:
256,192,64943,5,2,0:0:0:0:
256,192,65030,5,10,0:0:0:0:
256,192,65204,5,2,0:0:0:0:
256,192,65290,5,2,0:0:0:0:
256,192,65377,5,2,3:2:0:0:
256,192,65550,5,2,0:0:0:0:
256,192,65724,5,10,0:0:0:0:
256,192,65897,5,2,0:0:0:0:
256,192,66071,5,2,3:2:0:0:
256,192,66244,5,2,0:0:0:0:
256,192,66418,5,10,0:0:0:0:
256,192,66591,5,2,0:0:0:0:
256,192,66764,5,2,3:2:0:0:
256,192,66938,5,2,0:0:0:0:
256,192,67111,5,10,0:0:0:0:
256,192,67458,5,2,3:2:0:0:
256,192,67718,5,2,0:0:0:0:
256,192,67805,5,10,0:0:0:0:
256,192,67978,5,2,0:0:0:0:
256,192,68065,5,2,0:0:0:0:
256,192,68152,5,2,3:2:0:0:
256,192,68325,5,2,0:0:0:0:
256,192,68499,5,10,0:0:0:0:
256,192,68672,5,2,0:0:0:0:
256,192,68845,5,2,3:2:0:0:
256,192,69019,5,2,0:0:0:0:
256,192,69192,5,10,0:0:0:0:
256,192,69365,5,2,0:0:0:0:
256,192,69452,5,2,0:0:0:0:
256,192,69539,5,2,3:2:0:0:
256,192,69626,5,2,0:0:0:0:
256,192,69712,5,2,0:0:0:0:
256,192,69799,5,2,0:0:0:0:
256,192,69886,5,10,0:0:0:0:
256,192,69972,5,2,0:0:0:0:
256,192,70059,5,2,0:0:0:0:
256,192,70146,5,2,0:0:0:0:
256,192,70232,5,2,3:2:0:0:
256,192,70579,5,2,0:0:0:0:
256,192,70926,5,2,3:2:0:0:
256,192,71099,5,0,0:0:0:0:
256,192,71272,5,2,3:2:0:0:
256,192,71446,5,0,3:2:0:0:
256,192,71533,5,0,3:2:0:0:
256,192,71619,5,6,3:2:0:0:
256,192,71793,5,2,0:0:0:0:
256,192,71967,5,10,0:0:0:0:
256,192,72140,5,2,0:0:0:0:
256,192,72313,5,2,3:2:0:0:
256,192,72487,5,2,0:0:0:0:
256,192,72660,5,10,0:0:0:0:
256,192,72834,5,2,0:0:0:0:
256,192,72920,5,2,0:0:0:0:
256,192,73007,5,2,3:2:0:0:
256,192,73267,5,2,0:0:0:0:
256,192,73354,5,10,0:0:0:0:
256,192,73527,5,2,0:0:0:0:
256,192,73614,5,2,0:0:0:0:
256,192,73701,5,2,3:2:0:0:
256,192,73874,5,2,0:0:0:0:
256,192,74048,5,10,0:0:0:0:
256,192,74221,5,2,0:0:0:0:
256,192,74394,5,2,3:2:0:0:
256,192,74568,5,2,0:0:0:0:
256,192,74742,5,10,0:0:0:0:
256,192,74915,5,2,0:0:0:0:
256,192,75088,5,0,3:2:0:0:
256,192,75174,5,0,3:2:0:0:
256,192,75261,5,0,3:2:0:0:
256,192,75348,5,0,3:2:0:0:
256,192,75435,5,8,0:0:0:0:
256,192,75608,5,8,0:0:0:0:
256,192,75781,5,6,3:2:0:0:
256,192,76301,5,2,3:2:0:0:
256,192,76475,5,10,0:0:0:0:
256,192,76648,5,2,0:0:0:0:
256,192,76995,5,2,0:0:0:0:
256,192,77342,5,2,0:0:0:0:
256,192,77515,5,0,3:2:0:0:
256,192,77689,5,2,0:0:0:0:
256,192,77862,5,10,0:0:0:0:
256,192,78035,5,2,0:0:0:0:
256,192,78382,5,2,0:0:0:0:
256,192,78556,5,2,3:2:0:0:
256,192,78729,5,2,3:2:0:0:
256,192,79076,5,2,0:0:0:0:
256,192,79249,5,10,0:0:0:0:
256,192,79423,5,2,0:0:0:0:
256,192,79770,5,2,0:0:0:0:
256,192,79943,5,2,0:0:0:0:
256,192,80059,5,2,0:0:0:0:
256,192,80174,5,2,0:0:0:0:
256,192,80290,5,0,3:2:0:0:
256,192,80405,5,2,0:0:0:0:
256,192,80521,5,2,0:0:0:0:
256,192,80637,5,10,0:0:0:0:
256,192,80983,5,2,3:1:0:0:
256,192,81330,5,6,3:2:0:0:
256,192,81850,5,2,3:2:0:0:
256,192,82024,5,10,0:0:0:0:
256,192,82197,5,2,0:0:0:0:
256,192,82544,5,2,0:0:0:0:
256,192,82891,5,2,0:0:0:0:
256,192,83064,5,0,3:2:0:0:
256,192,83238,5,2,0:0:0:0:
256,192,83411,5,10,0:0:0:0:
256,192,83585,5,2,0:0:0:0:
256,192,83758,5,2,0:0:0:0:
256,192,84105,5,0,3:2:0:0:
256,192,84220,5,2,0:0:0:0:
256,192,84336,5,2,0:0:0:0:
256,192,84452,5,2,0:0:0:0:
256,192,84567,5,2,0:0:0:0:
256,192,84625,5,0,3:2:0:0:
256,192,84683,5,2,0:0:0:0:
256,192,84798,5,8,0:0:0:0:
256,192,84914,5,2,0:0:0:0:
256,192,85030,5,2,0:0:0:0:
256,192,85145,5,2,3:2:0:0:
256,192,85261,5,2,0:0:0:0:
256,192,85376,5,2,0:0:0:0:
256,192,85492,5,2,0:0:0:0:
256,192,85608,5,2,0:0:0:0:
256,192,85723,5,2,0:0:0:0:
256,192,85839,5,2,3:2:0:0:
256,192,85954,5,2,0:0:0:0:
256,192,86070,5,2,0:0:0:0:
256,192,86186,5,10,0:0:0:0:
256,192,86533,5,2,3:2:0:0:
256,192,86648,5,0,3:2:0:0:
256,192,86764,5,0,3:2:0:0:
256,192,86879,5,2,3:2:0:0:
256,192,87400,5,2,0:0:0:0:
256,192,87573,5,2,2:3:0:0:
256,192,87660,5,2,2:3:0:0:
256,192,87746,5,2,2:3:0:0:
256,192,87920,5,4,3:2:0:0:
256,192,88093,5,2,0:0:0:0:
256,192,88440,5,2,0:0:0:0:
256,192,88787,5,2,0:0:0:0:
256,192,88960,5,10,0:0:0:0:
256,192,89134,5,2,3:2:0:0:
256,192,89481,5,2,0:0:0:0:
256,192,89654,5,2,3:2:0:0:
256,192,89827,5,2,0:0:0:0:
256,192,90174,5,2,3:2:0:0:
256,192,90348,5,10,0:0:0:0:
256,192,90521,5,2,3:2:0:0:
256,192,90868,5,2,3:2:0:0:
256,192,91041,5,2,0:0:0:0:
256,192,91157,5,2,0:0:0:0:
256,192,91272,5,2,0:0:0:0:
256,192,91388,5,2,3:2:0:0:
256,192,91504,5,2,0:0:0:0:
256,192,91619,5,2,0:0:0:0:
256,192,91735,5,10,0:0:0:0:
256,192,92082,5,2,3:1:0:0:
256,192,92428,5,2,3:2:0:0:
256,192,92949,5,2,3:2:0:0:
256,192,93122,5,10,0:0:0:0:
256,192,93296,5,2,0:0:0:0:
256,192,93642,5,2,0:0:0:0:
256,192,93989,5,2,3:2:0:0:
256,192,94163,5,0,3:2:0:0:
256,192,94336,5,2,0:0:0:0:
256,192,94509,5,8,0:0:0:0:
256,192,94683,5,2,0:0:0:0:
256,192,94856,5,2,3:2:0:0:
256,192,95203,5,2,3:2:0:0:
256,192,95319,5,2,0:0:0:0:
256,192,95434,5,2,0:0:0:0:
256,192,95550,5,2,3:2:0:0:
256,192,95665,5,2,0:0:0:0:
256,192,95781,5,2,0:0:0:0:
256,192,95897,5,2,3:2:0:0:
256,192,96012,5,2,0:0:0:0:
256,192,96128,5,2,0:0:0:0:
256,192,96244,5,2,3:2:0:0:
256,192,96359,5,2,0:0:0:0:
256,192,96475,5,2,0:0:0:0:
256,192,96590,5,2,3:2:0:0:
256,192,96706,5,2,0:0:0:0:
256,192,96822,5,2,0:0:0:0:
256,192,96937,5,2,3:2:0:0:
256,192,97053,5,2,0:0:0:0:
256,192,97168,5,2,0:0:0:0:
256,192,97284,5,2,3:2:0:0:
256,192,97631,5,2,0:2:0:0:
256,192,97978,5,2,0:2:0:0:
256,192,99365,5,8,3:2:0:0:
256,192,99538,5,8,3:2:0:0:
256,192,99885,5,8,3:2:0:0:
256,192,100058,5,8,3:2:0:0:
256,192,100405,5,2,2:3:0:0:
256,192,100752,5,4,2:0:0:0:
256,192,101099,5,0,3:2:0:0:
256,192,101446,5,0,3:2:0:0:
256,192,101793,5,0,3:2:0:0:
256,192,102140,5,0,3:2:0:0:
256,192,102486,5,0,3:2:0:0:
256,192,102833,5,0,3:2:0:0:
256,192,103180,5,0,3:2:0:0:
256,192,103527,5,0,3:2:0:0:
256,192,103874,5,0,3:2:0:0:
256,192,104221,5,0,3:2:0:0:
256,192,104567,5,0,3:2:0:0:
256,192,104914,5,0,3:2:0:0:
256,192,105261,5,0,3:2:0:0:
256,192,105608,5,0,3:2:0:0:
256,192,105954,5,4,3:3:0:0:
256,192,106301,5,6,3:2:0:0:
256,192,106388,5,2,0:0:0:0:
256,192,106475,5,2,0:0:0:0:
256,192,106561,5,2,0:0:0:0:
256,192,106648,5,10,3:2:0:0:
256,192,106822,5,2,0:0:0:0:
256,192,106908,5,2,0:0:0:0:
256,192,106995,5,10,3:2:0:0:
256,192,107082,5,2,0:0:0:0:
256,192,107168,5,2,0:0:0:0:
256,192,107255,5,2,0:0:0:0:
256,192,107342,5,10,3:2:0:0:
256,192,107515,5,2,0:0:0:0:
256,192,107689,5,10,3:2:0:0:
256,192,107775,5,2,0:0:0:0:
256,192,107862,5,2,0:0:0:0:
256,192,107949,5,2,0:0:0:0:
256,192,108035,5,10,3:2:0:0:
256,192,108209,5,2,0:0:0:0:
256,192,108382,5,10,3:2:0:0:
256,192,108469,5,2,0:0:0:0:
256,192,108556,5,2,0:0:0:0:
256,192,108642,5,2,0:0:0:0:
256,192,108729,5,10,3:2:0:0:
256,192,108902,5,2,0:0:0:0:
256,192,109076,5,0,3:2:0:0:
256,192,109249,5,0,3:2:0:0:
256,192,109423,5,8,0:0:0:0:
256,192,109596,5,8,0:0:0:0:
256,192,109770,5,0,3:2:0:0:
256,192,109856,5,0,3:2:0:0:
256,192,109943,5,0,3:2:0:0:
256,192,110030,5,0,3:2:0:0:
256,192,110116,5,0,3:2:0:0:
256,192,110203,5,0,3:2:0:0:
256,192,110290,5,0,3:2:0:0:
256,192,110376,5,0,3:2:0:0:
256,192,110463,5,8,3:2:0:0:
256,192,110550,5,0,3:2:0:0:
256,192,110637,5,0,3:2:0:0:
256,192,110723,5,0,3:2:0:0:
256,192,110810,5,8,3:2:0:0:
256,192,110897,5,0,3:2:0:0:
256,192,110984,5,0,3:2:0:0:
256,192,111070,5,0,3:2:0:0:
256,192,111504,5,4,3:3:0:0:
256,192,111850,5,6,3:2:0:0:
256,192,112023,5,2,0:0:0:0:
256,192,112110,5,2,0:0:0:0:
256,192,112197,5,10,0:0:0:0:
256,192,112370,5,2,0:0:0:0:
256,192,112457,5,2,0:0:0:0:
256,192,112544,5,2,3:2:0:0:
256,192,112717,5,2,0:0:0:0:
256,192,112804,5,2,0:0:0:0:
256,192,112891,5,10,0:0:0:0:
256,192,113064,5,2,0:0:0:0:
256,192,113237,5,2,3:2:0:0:
256,192,113411,5,2,0:0:0:0:
256,192,113497,5,2,0:0:0:0:
256,192,113584,5,10,0:0:0:0:
256,192,113758,5,2,0:0:0:0:
256,192,113844,5,2,0:0:0:0:
256,192,113931,5,2,3:2:0:0:
256,192,114104,5,2,0:0:0:0:
256,192,114191,5,2,0:0:0:0:
256,192,114278,5,10,0:0:0:0:
256,192,114451,5,2,0:0:0:0:
256,192,114625,5,2,3:2:0:0:
256,192,114798,5,2,0:0:0:0:
256,192,114885,5,2,0:0:0:0:
256,192,114972,5,10,0:0:0:0:
256,192,115145,5,2,0:0:0:0:
256,192,115232,5,2,0:0:0:0:
256,192,115319,5,2,3:2:0:0:
256,192,115492,5,2,0:0:0:0:
256,192,115578,5,2,0:0:0:0:
256,192,115666,5,10,0:0:0:0:
256,192,115838,5,2,0:0:0:0:
256,192,116012,5,2,3:2:0:0:
256,192,116185,5,2,0:0:0:0:
256,192,116272,5,2,0:0:0:0:
256,192,116359,5,10,0:0:0:0:
256,192,116445,5,2,0:0:0:0:
256,192,116532,5,2,0:0:0:0:
256,192,116619,5,2,0:0:0:0:
256,192,116706,5,2,3:2:0:0:
256,192,116879,5,2,0:0:0:0:
256,192,116966,5,2,0:0:0:0:
256,192,117053,5,10,0:0:0:0:
256,192,117226,5,2,0:0:0:0:
256,192,117399,5,2,3:2:0:0:
256,192,117486,5,2,0:0:0:0:
256,192,117573,5,2,0:0:0:0:
256,192,117659,5,2,0:0:0:0:
256,192,117746,5,10,0:0:0:0:
256,192,117919,5,2,0:0:0:0:
256,192,118006,5,2,0:0:0:0:
256,192,118093,5,2,3:2:0:0:
256,192,118179,5,2,0:0:0:0:
256,192,118266,5,2,0:0:0:0:
256,192,118353,5,2,0:0:0:0:
256,192,118440,5,10,0:0:0:0:
256,192,118613,5,2,0:0:0:0:
256,192,118786,5,2,3:2:0:0:
256,192,118873,5,2,0:0:0:0:
256,192,118960,5,2,0:0:0:0:
256,192,119047,5,2,0:0:0:0:
256,192,119133,5,10,0:0:0:0:
256,192,119307,5,2,0:0:0:0:
256,192,119480,5,2,3:2:0:0:
256,192,119567,5,2,0:0:0:0:
256,192,119653,5,2,0:0:0:0:
256,192,119740,5,2,0:0:0:0:
256,192,119827,5,10,0:0:0:0:
256,192,120000,5,2,0:0:0:0:
256,192,120174,5,2,3:2:0:0:
256,192,120260,5,2,0:0:0:0:
256,192,120347,5,2,0:0:0:0:
256,192,120434,5,2,0:0:0:0:
256,192,120521,5,10,0:0:0:0:
256,192,120607,5,2,0:0:0:0:
256,192,120694,5,2,0:0:0:0:
256,192,120781,5,2,0:0:0:0:
256,192,120868,5,2,3:2:0:0:
256,192,120954,5,2,0:0:0:0:
256,192,121041,5,2,0:0:0:0:
256,192,121127,5,2,0:0:0:0:
256,192,121215,5,10,0:0:0:0:
256,192,121388,5,2,0:0:0:0:
256,192,121561,5,2,3:2:0:0:
256,192,121648,5,2,0:0:0:0:
256,192,121734,5,2,0:0:0:0:
256,192,121821,5,2,0:0:0:0:
256,192,121908,5,10,0:0:0:0:
256,192,121995,5,2,0:0:0:0:
256,192,122081,5,2,0:0:0:0:
256,192,122168,5,2,0:0:0:0:
256,192,122255,5,2,3:2:0:0:
256,192,122428,5,2,3:2:0:0:
256,192,122602,5,10,0:0:0:0:
256,192,122775,5,10,0:0:0:0:
256,192,122862,5,10,0:0:0:0:
256,192,122948,5,6,3:2:0:0:
256,192,123121,5,2,0:0:0:0:
256,192,123208,5,2,0:0:0:0:
256,192,123295,5,10,0:0:0:0:
256,192,123468,5,2,0:0:0:0:
256,192,123555,5,2,0:0:0:0:
256,192,123642,5,2,3:2:0:0:
256,192,123815,5,2,0:0:0:0:
256,192,123902,5,2,0:0:0:0:
256,192,123989,5,10,0:0:0:0:
256,192,124162,5,2,0:0:0:0:
256,192,124335,5,2,3:2:0:0:
256,192,124509,5,2,0:0:0:0:
256,192,124595,5,2,0:0:0:0:
256,192,124682,5,10,0:0:0:0:
256,192,124856,5,2,0:0:0:0:
256,192,124942,5,2,0:0:0:0:
256,192,125029,5,2,3:2:0:0:
256,192,125202,5,2,0:0:0:0:
256,192,125289,5,2,0:0:0:0:
256,192,125376,5,10,0:0:0:0:
256,192,125549,5,2,0:0:0:0:
256,192,125723,5,2,3:2:0:0:
256,192,125896,5,2,0:0:0:0:
256,192,125983,5,2,0:0:0:0:
256,192,126070,5,10,0:0:0:0:
251,187,126156,5,2,0:0:0:0:
256,192,126243,5,2,0:0:0:0:
256,192,126330,5,2,0:0:0:0:
256,192,126417,5,2,3:2:0:0:
256,192,126590,5,2,0:0:0:0:
256,192,126676,5,2,0:0:0:0:
256,192,126764,5,10,0:0:0:0:
256,192,126936,5,2,0:0:0:0:
256,192,127110,5,2,3:2:0:0:
256,192,127283,5,2,0:0:0:0:
256,192,127370,5,2,0:0:0:0:
256,192,127457,5,10,0:0:0:0:
256,192,127543,5,2,0:0:0:0:
256,192,127630,5,2,0:0:0:0:
256,192,127804,5,2,3:2:0:0:
256,192,127977,5,2,0:0:0:0:
256,192,128064,5,2,0:0:0:0:
256,192,128151,5,10,0:0:0:0:
256,192,128324,5,2,0:0:0:0:
256,192,128497,5,6,3:2:0:0:
256,192,128584,5,2,0:0:0:0:
256,192,128671,5,2,0:0:0:0:
256,192,128757,5,2,0:0:0:0:
256,192,128844,5,10,0:0:0:0:
256,192,129017,5,2,0:0:0:0:
256,192,129104,5,2,0:0:0:0:
256,192,129191,5,2,3:2:0:0:
256,192,129277,5,2,0:0:0:0:
256,192,129364,5,2,0:0:0:0:
256,192,129451,5,2,0:0:0:0:
256,192,129538,5,10,0:0:0:0:
256,192,129711,5,2,0:0:0:0:
256,192,129884,5,2,3:2:0:0:
256,192,129971,5,2,0:0:0:0:
256,192,130058,5,2,0:0:0:0:
256,192,130145,5,2,0:0:0:0:
256,192,130231,5,10,0:0:0:0:
256,192,130405,5,2,0:0:0:0:
256,192,130578,5,2,3:2:0:0:
256,192,130665,5,2,0:0:0:0:
256,192,130751,5,2,0:0:0:0:
256,192,130838,5,2,0:0:0:0:
256,192,130925,5,10,0:0:0:0:
256,192,131098,5,2,0:0:0:0:
256,192,131272,5,2,3:2:0:0:
256,192,131358,5,2,0:0:0:0:
256,192,131445,5,2,0:0:0:0:
256,192,131532,5,2,0:0:0:0:
256,192,131619,5,10,0:0:0:0:
256,192,131705,5,2,0:0:0:0:
256,192,131792,5,2,0:0:0:0:
256,192,131879,5,2,0:0:0:0:
256,192,131966,5,2,3:2:0:0:
256,192,132052,5,2,0:0:0:0:
256,192,132139,5,2,0:0:0:0:
256,192,132225,5,2,0:0:0:0:
256,192,132313,5,10,0:0:0:0:
256,192,132486,5,2,0:0:0:0:
256,192,132659,5,2,3:2:0:0:
256,192,132746,5,2,0:0:0:0:
256,192,132832,5,2,0:0:0:0:
256,192,132919,5,2,0:0:0:0:
256,192,133006,5,10,0:0:0:0:
256,192,133093,5,2,0:0:0:0:
256,192,133179,5,2,0:0:0:0:
256,192,133266,5,2,0:0:0:0:
256,192,133353,5,2,3:2:0:0:
256,192,133526,5,2,3:2:0:0:
256,192,133700,5,10,0:0:0:0:
256,192,133873,5,2,0:0:0:0:
256,192,134047,5,2,0:0:0:0:
256,192,135087,5,0,3:2:0:0:
256,192,135434,5,6,3:2:0:0:
256,192,135781,5,10,0:0:0:0:
256,192,136128,5,2,3:2:0:0:
256,192,136475,5,10,0:0:0:0:
256,192,136822,5,2,3:2:0:0:
256,192,136995,1,2,0:0:0:0:
256,192,137169,5,10,0:0:0:0:
256,192,137342,1,2,0:0:0:0:
256,192,137516,5,2,3:2:0:0:
256,192,137689,1,2,0:0:0:0:
256,192,137863,5,10,0:0:0:0:
256,192,138035,1,2,0:0:0:0:
256,192,138209,5,2,3:2:0:0:
256,192,138556,5,10,0:0:0:0:
256,192,138903,5,2,3:2:0:0:
256,192,139250,5,10,0:0:0:0:
256,192,139596,5,2,3:2:0:0:
256,192,139770,1,2,0:0:0:0:
256,192,139943,5,10,0:0:0:0:
256,192,140116,1,2,0:0:0:0:
256,192,140290,5,2,3:2:0:0:
256,192,140463,1,2,0:0:0:0:
256,192,140637,5,10,0:0:0:0:
256,192,140810,1,2,0:0:0:0:
256,192,140983,5,2,3:2:0:0:
256,192,141330,5,10,0:0:0:0:
256,192,141677,5,2,3:2:0:0:
256,192,142024,5,10,0:0:0:0:
256,192,142371,5,2,3:2:0:0:
256,192,142544,1,2,0:0:0:0:
256,192,142718,5,10,0:0:0:0:
256,192,142891,1,2,0:0:0:0:
256,192,143065,5,2,3:2:0:0:
256,192,143412,5,10,0:0:0:0:
256,192,143758,5,2,3:2:0:0:
256,192,144105,5,8,0:0:0:0:
256,192,144278,1,2,0:0:0:0:
256,192,144452,5,2,3:2:0:0:
256,192,144625,1,2,0:0:0:0:
256,192,144799,5,10,0:0:0:0:
256,192,144972,1,2,0:0:0:0:
256,192,145145,5,2,3:2:0:0:
256,192,145319,1,2,0:0:0:0:
256,192,145492,5,10,0:0:0:0:
256,192,145665,1,2,0:0:0:0:
256,192,145839,5,2,3:2:0:0:
256,192,146012,1,2,0:0:0:0:
256,192,146186,5,10,0:0:0:0:
256,192,146359,1,2,0:0:0:0:
256,192,146533,5,6,3:2:0:0:
256,192,146793,5,0,3:2:0:0:
256,192,146880,5,10,0:0:0:0:
256,192,147053,5,0,3:2:0:0:
256,192,147139,5,0,3:2:0:0:
256,192,147227,5,2,3:2:0:0:
256,192,147486,5,0,3:2:0:0:
256,192,147574,5,10,0:0:0:0:
256,192,147746,5,0,3:2:0:0:
256,192,147833,5,0,3:2:0:0:
256,192,147920,5,2,3:2:0:0:
256,192,148093,1,2,0:0:0:0:
256,192,148180,5,0,3:2:0:0:
256,192,148267,5,10,0:0:0:0:
256,192,148440,5,2,3:2:0:0:
256,192,148527,5,0,3:2:0:0:
256,192,148613,5,2,3:2:0:0:
256,192,148787,5,2,3:2:0:0:
256,192,148961,5,10,0:0:0:0:
256,192,149134,5,2,3:2:0:0:
256,192,149220,5,0,3:2:0:0:
256,192,149307,5,2,3:2:0:0:
256,192,149567,5,0,3:2:0:0:
256,192,149654,5,10,0:0:0:0:
256,192,149827,5,0,3:2:0:0:
256,192,149913,5,0,3:2:0:0:
256,192,150001,5,2,3:2:0:0:
256,192,150260,5,0,3:2:0:0:
256,192,150348,5,10,0:0:0:0:
256,192,150520,5,0,3:2:0:0:
256,192,150607,5,0,3:2:0:0:
256,192,150694,5,2,3:2:0:0:
256,192,150867,1,2,0:0:0:0:
256,192,150954,5,0,3:2:0:0:
256,192,151041,5,10,0:0:0:0:
256,192,151214,5,2,3:2:0:0:
256,192,151301,5,0,3:2:0:0:
256,192,151387,5,2,3:2:0:0:
256,192,151561,5,2,3:2:0:0:
256,192,151735,5,10,0:0:0:0:
256,192,151908,5,2,3:2:0:0:
256,192,151994,5,0,3:2:0:0:
256,192,152082,5,2,3:2:0:0:
256,192,152342,5,0,3:2:0:0:
256,192,152429,5,10,0:0:0:0:
256,192,152602,5,0,3:2:0:0:
256,192,152688,5,0,3:2:0:0:
256,192,152776,5,2,3:2:0:0:
256,192,153035,5,0,3:2:0:0:
256,192,153123,5,10,0:0:0:0:
256,192,153295,5,0,3:2:0:0:
256,192,153382,5,0,3:2:0:0:
256,192,153469,5,2,3:2:0:0:
256,192,153642,1,2,0:0:0:0:
256,192,153729,5,0,3:2:0:0:
256,192,153816,5,10,0:0:0:0:
256,192,153989,5,2,3:2:0:0:
256,192,154076,5,0,3:2:0:0:
256,192,154162,5,2,3:2:0:0:
256,192,154336,5,2,3:2:0:0:
256,192,154510,5,10,0:0:0:0:
256,192,154683,5,2,3:2:0:0:
256,192,154769,5,0,3:2:0:0:
256,192,154856,5,2,3:2:0:0:
256,192,155030,5,0,3:2:0:0:
256,192,155116,5,0,3:2:0:0:
256,192,155203,5,10,0:0:0:0:
256,192,155376,5,0,3:2:0:0:
256,192,155462,5,0,3:2:0:0:
256,192,155550,5,2,3:2:0:0:
256,192,155723,5,0,3:2:0:0:
256,192,155809,5,0,3:2:0:0:
256,192,155897,5,10,0:0:0:0:
256,192,156069,5,0,3:2:0:0:
256,192,156156,5,0,3:2:0:0:
256,192,156243,5,2,3:2:0:0:
256,192,156416,1,2,0:0:0:0:
256,192,156503,5,0,3:2:0:0:
256,192,156590,5,10,0:0:0:0:
256,192,156763,5,2,3:2:0:0:
256,192,156850,5,0,3:2:0:0:
256,192,156936,5,2,3:2:0:0:
256,192,157110,5,2,3:2:0:0:
256,192,157457,1,10,3:2:0:0:
