osu file format v14

[General]
AudioFilename: audio.mp3
AudioLeadIn: 0
PreviewTime: 40655
Countdown: 0
SampleSet: None
StackLeniency: 0.3
Mode: 0
LetterboxInBreaks: 0
WidescreenStoryboard: 1

[Editor]
Bookmarks: 3642,14383,20290,25319,27226,40221,52197,64683,75781,88267,100752,106301,111850,135434,146533,157631
DistanceSpacing: 1
BeatDivisor: 4
GridSize: 16
TimelineZoom: 2.5

[Metadata]
Title:Rabbit Hole feat. Hatsune Miku
TitleUnicode:ラビットホール feat. 初音ミク
Artist:DECO*27
ArtistUnicode:DECO*27
Creator:eringiRa
Version:Alvearia's Extra
Source:
Tags:2023 vocaloid original Love it KARENT japanese j pop rock j-pop j-rock jpop jrock Alvearia
BeatmapID:4584156
BeatmapSetID:2154651

[Difficulty]
HPDrainRate:4
CircleSize:4
OverallDifficulty:8.5
ApproachRate:9.3
SliderMultiplier:2
SliderTickRate:1

[Events]
//Background and Video events
0,0,"bg.jpg",0,0
Video,0,"DECO27_-_feat._eSW2LVbPThw2.avi"
//Break Periods
//Storyboard Layer 0 (Background)
//Storyboard Layer 1 (Fail)
//Storyboard Layer 2 (Pass)
//Storyboard Layer 3 (Foreground)
//Storyboard Layer 4 (Overlay)
//Storyboard Sound Samples

[TimingPoints]
-519,346.820809248555,4,2,1,70,1,0
1215,-100,4,2,2,70,0,0
2255,-133.333333333333,4,2,2,70,0,0
3296,-50,4,2,2,70,0,0
3642,-50,4,2,1,70,0,0
3989,-100,4,2,1,70,0,0
6070,-66.6666666666667,4,2,1,70,0,0
6417,-50,4,2,1,70,0,0
6764,-100,4,2,1,70,0,0
9191,-50,4,2,1,70,0,0
9538,-100,4,2,1,70,0,0
11619,-66.6666666666667,4,2,1,70,0,0
11966,-50,4,2,1,70,0,0
12313,-100,4,2,1,70,0,0
19943,-133.333333333333,4,2,1,70,0,0
26879,-66.6666666666667,4,2,1,70,0,0
27226,-83.3333333333333,4,2,1,70,0,0
39712,-83.3333333333333,4,2,2,70,0,0
41099,-66.6666666666667,4,2,1,70,0,0
63122,-133.333333333333,4,2,1,70,0,0
64683,-50,4,2,1,70,0,0
65030,-100,4,2,1,70,0,0
67111,-66.6666666666667,4,2,1,70,0,0
67457,-50,4,2,1,70,0,0
67804,-100,4,2,1,70,0,0
70232,-100,4,2,1,70,0,0
73007,-50,4,2,1,70,0,0
73353,-100,4,2,1,70,0,0
75781,-100,4,2,1,70,0,0
80983,-50,4,2,1,70,0,0
81330,-100,4,2,1,70,0,0
84625,-66.6666666666667,4,2,1,70,0,0
86879,-133.333333333333,4,2,1,70,0,0
87920,-66.6666666666667,4,2,1,70,0,0
88267,-100,4,2,1,70,0,0
88960,-66.6666666666667,4,2,1,70,0,0
89134,-133.333333333333,4,2,1,70,0,0
89654,-66.6666666666667,4,2,1,70,0,0
90348,-100,4,2,1,70,0,0
92082,-50,4,2,1,70,0,0
92428,-100,4,2,1,70,0,0
95723,-66.6666666666667,4,2,1,70,0,0
99365,-50,4,2,2,70,0,0
100405,-133.333333333333,4,2,1,70,0,0
106301,-133.333333333333,4,2,3,70,0,0
109076,-100,4,2,3,70,0,0
110463,-66.6666666666667,4,2,3,70,0,0
111850,-66.6666666666667,4,2,1,70,0,0
122949,-66.6666666666667,4,2,1,70,0,0
133874,-133.333333333333,4,2,1,70,0,0
135434,-66.6666666666667,4,2,1,70,0,0
146533,-66.6666666666667,4,2,2,70,0,0

[Colours]
Combo1 : 173,173,222
Combo2 : 61,85,203
Combo3 : 188,100,196

[HitObjects]
188,255,348,6,0,L|195:202,1,50
39,86,521,5,14,0:0:0:0:
101,47,637,5,2,3:2:0:0:
137,109,752,5,2,3:2:0:0:
19,175,868,6,0,P|65:157|96:151,1,66.6666666666667,10|2,0:0|3:2,0:0:0:0:
195,168,1099,5,2,3:2:0:0:
244,110,1215,5,2,3:2:0:0:
256,192,1330,12,0,1908,3:2:0:0:
256,384,2255,6,0,L|256:336,1,37.5000014305115
256,320,2428,1,0,0:0:0:0:
220,281,2515,1,0,0:0:0:0:
256,244,2602,5,0,0:0:0:0:
256,176,2775,1,0,0:0:0:0:
256,0,2949,5,0,0:0:0:0:
256,80,3122,5,0,0:0:0:0:
134,325,3296,6,0,L|38:353,1,100,8|0,3:3|0:0,0:0:0:0:
81,104,3642,6,0,P|176:112|264:190,1,200,6|0,3:2|0:0,0:0:0:0:
220,281,3902,1,2,0:0:0:0:
220,281,3989,2,0,L|213:228,1,50,10|0,0:0|0:0,0:0:0:0:
305,295,4163,2,0,L|298:242,1,50,2|2,0:0|0:0,0:0:0:0:
377,127,4336,5,2,3:2:0:0:
417,171,4423,1,0,0:0:0:0:
475,158,4509,2,0,P|499:140|509:116,1,50,2|0,0:0|0:0,0:0:0:0:
395,34,4683,5,10,0:0:0:0:
356,25,4769,1,0,0:0:0:0:
323,47,4856,2,0,P|299:65|289:89,1,50,2|0,0:0|0:0,0:0:0:0:
213,231,5030,6,0,L|105:218,1,100,2|2,3:2|0:0,0:0:0:0:
49,266,5290,1,0,0:0:0:0:
49,266,5376,2,0,L|33:209,1,50,10|0,0:0|0:0,0:0:0:0:
98,147,5550,5,2,0:0:0:0:
87,108,5637,1,0,0:0:0:0:
74,69,5723,2,0,L|58:12,1,50,2|0,3:2|0:0,0:0:0:0:
224,122,5897,2,0,P|232:144|255:154,1,50,2|0,0:0|0:0,0:0:0:0:
0,129,6070,2,0,P|123:102|160:103,1,150.000005722046,10|0,0:0|0:0,0:0:0:0:
238,26,6330,1,0,0:0:0:0:
238,26,6417,6,0,P|305:43|349:173,1,200,2|0,3:2|0:0,0:0:0:0:
322,238,6677,1,2,0:0:0:0:
322,238,6764,2,0,L|385:227,1,50,10|0,0:0|0:0,0:0:0:0:
333,316,6937,2,0,L|396:305,1,50,2|2,0:0|0:0,0:0:0:0:
179,352,7111,5,2,3:2:0:0:
119,339,7197,1,0,0:0:0:0:
60,327,7284,2,0,L|49:271,1,50,2|0,0:0|0:0,0:0:0:0:
129,179,7457,5,10,0:0:0:0:
167,169,7543,1,0,0:0:0:0:
206,161,7630,2,0,L|217:105,1,50,2|0,0:0|0:0,0:0:0:0:
290,28,7804,6,0,P|353:48|403:52,1,100,2|2,3:2|0:0,0:0:0:0:
507,2,8064,1,0,0:0:0:0:
507,2,8151,2,0,P|482:24|468:44,1,50,10|0,0:0|0:0,0:0:0:0:
462,211,8324,5,2,0:0:0:0:
487,156,8411,1,2,0:0:0:0:
448,109,8498,1,2,3:2:0:0:
413,147,8585,1,2,0:0:0:0:
365,159,8671,1,2,0:0:0:0:
317,140,8758,1,2,0:0:0:0:
306,90,8845,6,0,L|244:96,1,50,10|2,0:0|0:0,0:0:0:0:
92,186,9018,2,0,P|82:150|65:129,1,50,2|2,0:0|0:0,0:0:0:0:
184,3,9191,6,0,B|217:36|217:36|143:79|169:182,1,200,2|0,3:2|0:0,0:0:0:0:
211,255,9452,1,2,0:0:0:0:
211,255,9538,2,0,L|143:241,1,50,10|0,0:0|0:0,0:0:0:0:
196,332,9712,2,0,L|128:318,1,50,2|2,0:0|0:0,0:0:0:0:
322,375,9885,5,2,3:2:0:0:
379,359,9972,1,0,0:0:0:0:
391,301,10059,2,0,P|391:279|382:250,1,50,2|0,0:0|0:0,0:0:0:0:
488,247,10232,5,10,0:0:0:0:
496,207,10319,1,0,0:0:0:0:
473,173,10406,2,0,P|453:162|424:155,1,50,2|0,0:0|0:0,0:0:0:0:
211,255,10579,6,0,P|266:221|286:179,1,100,2|2,3:2|0:0,0:0:0:0:
272,66,10839,1,0,0:0:0:0:
272,66,10926,2,0,P|269:95|280:121,1,50,10|0,0:0|0:0,0:0:0:0:
396,190,11099,5,2,0:0:0:0:
435,181,11186,1,0,0:0:0:0:
473,173,11272,2,0,L|481:113,1,50,2|0,3:2|0:0,0:0:0:0:
347,55,11446,2,0,L|355:115,1,50,2|0,0:0|0:0,0:0:0:0:
432,354,11619,5,10,0:0:0:0:
489,335,11706,1,0,0:0:0:0:
489,275,11793,1,2,0:0:0:0:
432,256,11879,1,2,0:0:0:0:
396,305,11966,6,0,P|299:340|183:349,1,200,2|0,3:2|0:0,0:0:0:0:
115,298,12226,1,2,0:0:0:0:
115,298,12313,2,0,L|124:357,1,50,10|0,0:0|0:0,0:0:0:0:
33,311,12486,2,0,L|42:370,1,50,2|2,0:0|0:0,0:0:0:0:
33,211,12660,5,2,3:2:0:0:
49,154,12747,1,0,0:0:0:0:
107,142,12834,2,0,P|129:142|158:151,1,50,2|0,0:0|0:0,0:0:0:0:
350,88,13007,5,10,0:0:0:0:
317,64,13094,1,0,0:0:0:0:
276,70,13181,2,0,P|257:83|238:106,1,50,2|0,0:0|0:0,0:0:0:0:
274,301,13353,6,0,P|264:274|249:247,1,50,2|0,3:2|0:0,0:0:0:0:
396,305,13527,6,0,P|370:293|340:284,1,50,2|0,0:0|0:0,0:0:0:0:
480,210,13700,6,0,P|453:219|426:235,1,50,10|0,0:0|0:0,0:0:0:0:
445,103,13874,6,0,P|433:128|424:158,1,50,2|0,0:0|0:0,0:0:0:0:
317,64,14047,5,0,3:2:0:0:
257,72,14134,1,0,3:2:0:0:
197,80,14220,1,0,3:2:0:0:
137,88,14307,1,0,3:2:0:0:
77,95,14394,1,8,0:0:0:0:
227,184,14567,2,0,L|212:291,1,100,8|2,0:0|0:0,0:0:0:0:
62,263,19770,5,2,2:3:0:0:
65,272,19856,1,2,2:3:0:0:
57,299,19943,2,0,B|119:290|103:337|174:325,1,112.500004291535,2|0,2:3|0:0,0:0:0:0:
245,366,20290,6,0,L|235:287,1,75.0000028610231,6|0,3:2|0:0,0:0:0:0:
235,280,20550,1,0,0:0:0:0:
235,280,20637,1,2,3:2:0:0:
319,308,20810,1,0,0:0:0:0:
148,238,20983,5,2,3:2:0:0:
282,186,21157,2,0,L|272:107,1,75.0000028610231,2|0,0:0|3:2,0:0:0:0:
69,21,21504,5,2,0:0:0:0:
31,37,21590,1,2,0:0:0:0:
27,78,21677,1,2,3:2:0:0:
86,134,21850,1,2,0:0:0:0:
167,116,22024,1,2,3:2:0:0:
198,40,22197,1,2,0:0:0:0:
496,96,22371,5,2,3:2:0:0:
437,40,22544,1,2,0:0:0:0:
396,31,22631,1,0,0:0:0:0:
363,56,22717,1,2,3:2:0:0:
333,133,22891,1,2,0:0:0:0:
436,281,23064,5,2,3:2:0:0:
76,281,23411,5,2,3:2:0:0:
121,151,23758,6,0,L|217:159,1,75.0000028610231,2|0,3:2|0:0,0:0:0:0:
315,219,24105,1,0,3:2:0:0:
315,219,24191,1,0,0:0:0:0:
315,219,24278,2,0,L|389:225,1,75.0000028610231,2|0,0:0|3:2,0:0:0:0:
488,317,24625,1,2,3:2:0:0:
479,333,24712,1,2,3:2:0:0:
473,350,24798,6,0,P|452:352|420:361,1,37.5000014305115,2|0,3:2|0:0,0:0:0:0:
317,364,24972,1,2,3:2:0:0:
298,368,25059,1,2,3:2:0:0:
279,369,25145,6,0,P|258:367|226:358,1,37.5000014305115,2|0,3:2|0:0,0:0:0:0:
143,368,25319,6,0,P|129:351|113:322,1,37.5000014305115,2|0,3:2|0:0,0:0:0:0:
62,230,25492,6,0,P|64:217|66:205,2,18.7500007152558,2|0|0,3:2|0:0|0:0,0:0:0:0:
61,115,25666,6,0,P|69:108|83:102,2,18.7500007152558,2|0|0,3:2|0:0|0:0,0:0:0:0:
138,33,25839,5,2,3:2:0:0:
138,33,26186,6,0,P|146:39|160:46,2,18.7500007152558,2|0|0,0:0|0:0|0:0,0:0:0:0:
163,129,26533,6,0,P|154:122|141:116,2,18.7500007152558,2|0|0,0:0|0:0|0:0,0:0:0:0:
203,201,26706,1,0,3:2:0:0:
399,16,26879,6,0,P|484:41|449:162,1,225.000008583069,2|0,0:0|0:0,0:0:0:0:
398,203,27226,6,0,L|275:185,1,119.999996337891,4|2,3:2|0:0,0:0:0:0:
203,201,27486,1,2,0:0:0:0:
203,201,27573,2,0,L|214:280,1,59.9999981689454,10|0,0:0|0:0,0:0:0:0:
220,384,27746,5,2,0:0:0:0:
161,370,27833,1,2,0:0:0:0:
156,310,27920,1,2,3:2:0:0:
52,167,28093,5,2,0:0:0:0:
109,148,28180,1,2,0:0:0:0:
132,92,28267,1,10,0:0:0:0:
116,34,28353,1,2,0:0:0:0:
60,11,28440,1,2,0:0:0:0:
19,55,28527,1,2,0:0:0:0:
64,93,28613,6,0,P|107:83|181:75,1,89.9999972534181,2|0,3:2|0:0,0:0:0:0:
218,111,28787,6,0,P|261:101|335:93,1,89.9999972534181,2|0,0:0|0:0,0:0:0:0:
380,110,28960,6,0,B|412:97|442:102|442:102|461:90|501:92,2,119.999996337891,10|2|0,0:0|0:0|3:2,0:0:0:0:
337,332,29481,5,2,0:0:0:0:
331,355,29567,1,0,0:0:0:0:
329,379,29654,2,0,P|315:347|311:304,1,59.9999981689454,10|0,0:0|0:0,0:0:0:0:
177,291,29827,2,0,P|182:261|195:234,1,59.9999981689454,2|0,0:0|0:0,0:0:0:0:
258,16,30001,6,0,B|218:35|218:35|256:52|263:114,1,119.999996337891,2|2,3:2|0:0,0:0:0:0:
266,175,30261,1,2,0:0:0:0:
266,175,30348,1,10,0:0:0:0:
154,138,30521,5,2,0:0:0:0:
100,110,30608,1,2,0:0:0:0:
60,154,30694,1,2,3:2:0:0:
358,246,30868,5,2,0:0:0:0:
412,274,30955,1,2,0:0:0:0:
452,230,31041,1,10,0:0:0:0:
457,84,31215,5,2,0:0:0:0:
450,60,31301,1,2,0:0:0:0:
453,33,31388,6,0,P|423:79|379:91,1,89.9999972534181,2|0,3:2|0:0,0:0:0:0:
383,175,31561,6,0,P|328:172|295:139,1,89.9999972534181,2|0,0:0|0:0,0:0:0:0:
226,201,31735,6,0,P|188:135|199:90,2,119.999996337891,10|2|0,0:0|0:0|3:2,0:0:0:0:
88,148,32255,6,0,P|105:175|108:204,1,59.9999981689454,2|0,0:0|0:0,0:0:0:0:
0,363,32428,2,0,P|14:334|38:317,1,59.9999981689454,10|0,0:0|0:0,0:0:0:0:
229,330,32602,2,0,P|197:331|170:319,1,59.9999981689454,2|0,0:0|0:0,0:0:0:0:
0,219,32775,6,0,L|133:239,1,119.999996337891,2|0,3:2|0:0,0:0:0:0:
215,256,33035,1,0,0:0:0:0:
215,256,33122,2,0,P|198:229|195:200,1,59.9999981689454,10|0,0:0|0:0,0:0:0:0:
293,227,33296,2,0,P|289:197|272:172,1,59.9999981689454
155,11,33469,6,0,P|144:86|97:93,1,119.999996337891,2|2,3:2|0:0,0:0:0:0:
33,77,33729,1,0,0:0:0:0:
33,77,33816,1,8,0:0:0:0:
241,41,33989,1,2,0:0:0:0:
264,37,34076,1,0,0:0:0:0:
286,34,34163,6,0,L|385:47,1,89.9999972534181,2|0,3:2|0:0,0:0:0:0:
445,19,34336,6,0,L|456:108,1,89.9999972534181,2|0,0:0|0:0,0:0:0:0:
387,147,34509,6,0,L|254:164,2,119.999996337891,10|2|2,0:0|0:0|3:2,0:0:0:0:
460,213,35030,1,2,0:0:0:0:
174,348,35203,2,0,L|235:335,1,59.9999981689454,10|0,0:0|0:0,0:0:0:0:
328,358,35376,1,2,0:0:0:0:
338,363,35463,1,0,0:0:0:0:
349,365,35550,6,0,L|369:227,1,119.999996337891,2|0,3:2|0:0,0:0:0:0:
267,162,35810,1,0,0:0:0:0:
267,162,35897,2,0,P|210:160|199:221,1,119.999996337891,10|0,0:0|0:0,0:0:0:0:
128,288,36157,1,0,0:0:0:0:
128,288,36244,6,0,P|96:290|62:233,1,89.9999972534181,2|0,3:2|0:0,0:0:0:0:
21,186,36417,6,0,P|19:154|76:120,1,89.9999972534181,2|0,0:0|0:0,0:0:0:0:
87,49,36590,6,0,P|119:47|151:122,2,119.999996337891,10|2|0,0:0|0:0|3:2,0:0:0:0:
201,13,37111,1,2,0:0:0:0:
99,180,37284,6,0,P|133:158|166:160,1,59.9999981689454,10|0,0:0|0:0,0:0:0:0:
295,245,37457,2,0,P|265:240|242:221,1,59.9999981689454,2|0,0:0|0:0,0:0:0:0:
289,30,37631,2,0,L|300:175,1,119.999996337891,2|2,3:2|0:0,0:0:0:0:
317,384,37978,5,10,0:0:0:0:
440,275,38151,1,2,0:0:0:0:
225,146,38324,5,2,0:0:0:0:
225,146,38671,5,2,0:0:0:0:
225,146,39018,5,2,0:0:0:0:
225,146,39365,6,0,L|241:348,1,179.999994506836,8|0,3:3|0:0,0:0:0:0:
162,355,39712,6,0,L|89:340,1,59.9999981689454,6|0,3:2|0:0,0:0:0:0:
326,195,39885,1,8,0:0:0:0:
335,216,39972,1,8,0:0:0:0:
344,238,40059,2,0,L|417:223,1,59.9999981689454,10|8,0:0|0:0,0:0:0:0:
147,144,40232,1,8,0:0:0:0:
138,165,40319,1,8,0:0:0:0:
129,187,40406,2,0,B|39:166|39:166|20:119,1,119.999996337891,10|0,0:0|0:0,0:0:0:0:
7,55,40665,1,0,0:0:0:0:
7,55,40752,2,0,P|65:14|67:109,1,179.999994506836,4|0,3:3|0:0,0:0:0:0:
129,187,41099,6,0,L|216:172,1,75.0000028610231,6|0,3:2|0:0,0:0:0:0:
457,127,41272,2,0,L|296:98,2,150.000005722046,2|10|2,0:0|0:0|0:0,0:0:0:0:
438,200,41706,1,2,0:0:0:0:
511,184,41793,1,2,3:2:0:0:
414,315,41966,1,2,0:0:0:0:
340,298,42053,1,2,0:0:0:0:
307,364,42139,1,10,0:0:0:0:
308,229,42313,1,2,0:0:0:0:
182,33,42486,6,0,P|209:70|200:107,1,75.0000028610231,2|0,3:2|0:0,0:0:0:0:
123,253,42660,5,2,0:0:0:0:
78,248,42746,1,2,0:0:0:0:
33,243,42833,2,0,L|122:234,1,75.0000028610231,10|0,0:0|0:0,0:0:0:0:
21,166,43007,2,0,L|110:157,1,75.0000028610231,2|2,0:0|0:0,0:0:0:0:
192,344,43180,6,0,P|219:307|210:270,1,75.0000028610231,2|0,3:2|0:0,0:0:0:0:
123,253,43353,2,0,P|96:290|105:327,1,75.0000028610231,2|2,0:0|0:0,0:0:0:0:
292,378,43527,6,0,L|419:329,1,112.500004291535,10|0,0:0|0:0,0:0:0:0:
465,345,43700,2,0,L|493:200,1,112.500004291535,2|0,0:0|0:0,0:0:0:0:
501,157,43874,5,2,3:2:0:0:
218,203,44047,1,2,0:0:0:0:
284,238,44134,1,2,0:0:0:0:
329,179,44220,1,10,0:0:0:0:
151,70,44394,1,2,0:0:0:0:
106,11,44480,1,2,0:0:0:0:
40,46,44567,2,0,L|55:128,1,75.0000028610231,2|0,3:2|0:0,0:0:0:0:
187,254,44741,5,2,0:0:0:0:
179,298,44828,1,2,0:0:0:0:
170,342,44914,2,0,L|155:260,1,75.0000028610231,10|0,0:0|0:0,0:0:0:0:
73,365,45087,2,0,L|58:283,1,75.0000028610231,2|0,0:0|0:0,0:0:0:0:
256,72,45261,5,2,3:2:0:0:
218,203,45434,1,2,0:0:0:0:
173,144,45520,1,2,0:0:0:0:
107,179,45607,1,10,0:0:0:0:
299,318,45781,1,2,0:0:0:0:
344,377,45867,1,2,0:0:0:0:
410,342,45954,1,2,3:2:0:0:
498,201,46128,5,2,0:0:0:0:
453,142,46214,1,2,0:0:0:0:
387,177,46301,2,0,P|356:206|313:198,1,75.0000028610231,10|0,0:0|0:0,0:0:0:0:
211,307,46475,2,0,P|170:294|155:253,1,75.0000028610231,2|0,0:0|0:0,0:0:0:0:
54,72,46648,5,2,3:2:0:0:
105,60,46735,1,2,0:0:0:0:
143,96,46822,1,2,0:0:0:0:
189,72,46908,1,2,0:0:0:0:
230,104,46995,1,10,0:0:0:0:
230,104,47168,1,2,0:0:0:0:
460,204,47342,5,2,3:2:0:0:
409,192,47429,1,2,0:0:0:0:
371,228,47516,1,2,0:0:0:0:
325,204,47602,1,2,0:0:0:0:
284,236,47689,1,10,0:0:0:0:
284,236,47862,1,2,0:0:0:0:
38,68,48035,5,2,3:2:0:0:
98,53,48122,1,2,0:0:0:0:
143,96,48209,1,2,0:0:0:0:
199,68,48295,1,2,0:0:0:0:
248,106,48382,1,10,0:0:0:0:
248,106,48556,1,2,0:0:0:0:
476,200,48729,5,2,3:2:0:0:
416,185,48816,1,2,0:0:0:0:
371,228,48903,1,2,0:0:0:0:
315,200,48989,1,2,0:0:0:0:
266,238,49076,1,10,0:0:0:0:
266,238,49250,1,2,0:0:0:0:
346,47,49423,6,0,P|375:80|362:118,1,75.0000028610231,2|2,3:2|0:0,0:0:0:0:
166,156,49596,2,0,P|137:123|150:85,1,75.0000028610231,2|2,0:0|0:0,0:0:0:0:
256,96,49770,1,10,0:0:0:0:
132,295,49943,5,2,0:0:0:0:
30,315,50030,1,2,0:0:0:0:
94,365,50116,1,2,3:2:0:0:
144,309,50203,1,2,0:0:0:0:
214,281,50290,1,2,0:0:0:0:
288,281,50376,1,2,0:0:0:0:
360,302,50463,1,10,0:0:0:0:
360,302,50637,2,0,L|373:210,1,75.0000028610231,2|0,0:0|0:0,0:0:0:0:
399,15,50810,5,2,3:2:0:0:
321,138,50983,1,2,0:0:0:0:
393,118,51070,1,2,0:0:0:0:
465,98,51157,1,10,0:0:0:0:
187,174,51330,1,2,0:0:0:0:
399,15,51504,5,2,3:2:0:0:
478,297,51677,1,2,3:2:0:0:
325,371,51850,1,10,0:0:0:0:
249,128,52024,1,10,0:0:0:0:
259,202,52111,1,10,0:0:0:0:
269,275,52197,6,0,P|228:275|179:293,1,75.0000028610231,6|0,3:2|0:0,0:0:0:0:
47,336,52371,2,0,B|135:321|103:379|197:373,2,150.000005722046,2|10|2,0:0|0:0|0:0,0:0:0:0:
9,270,52804,1,2,0:0:0:0:
53,209,52891,1,2,3:2:0:0:
200,9,53064,1,2,0:0:0:0:
221,81,53151,1,2,0:0:0:0:
149,103,53238,1,10,0:0:0:0:
296,103,53411,1,2,0:0:0:0:
330,351,53585,6,0,P|303:314|312:277,1,75.0000028610231,2|0,3:2|0:0,0:0:0:0:
389,131,53759,5,2,0:0:0:0:
434,136,53845,1,2,0:0:0:0:
479,141,53932,2,0,L|390:150,1,75.0000028610231,10|0,0:0|0:0,0:0:0:0:
491,218,54106,2,0,L|402:227,1,75.0000028610231,2|2,0:0|0:0,0:0:0:0:
320,40,54279,6,0,P|293:77|302:114,1,75.0000028610231,2|0,3:2|0:0,0:0:0:0:
389,131,54452,2,0,P|416:94|407:57,1,75.0000028610231,2|2,0:0|0:0,0:0:0:0:
220,6,54626,6,0,L|93:55,1,112.500004291535,10|0,0:0|0:0,0:0:0:0:
47,39,54799,2,0,L|19:184,1,112.500004291535,2|0,0:0|0:0,0:0:0:0:
11,227,54973,5,2,3:2:0:0:
294,181,55146,1,2,0:0:0:0:
228,146,55233,1,2,0:0:0:0:
183,205,55319,1,10,0:0:0:0:
249,238,55405,1,2,0:0:0:0:
320,263,55493,1,2,0:0:0:0:
264,312,55579,1,2,0:0:0:0:
190,295,55666,6,0,L|114:266,1,75.0000028610231,2|0,3:2|0:0,0:0:0:0:
90,58,55839,1,2,0:0:0:0:
51,34,55926,1,2,0:0:0:0:
11,55,56012,2,0,L|104:39,1,75.0000028610231,10|0,0:0|0:0,0:0:0:0:
25,139,56186,2,0,L|118:123,1,75.0000028610231,2|0,0:0|0:0,0:0:0:0:
256,192,56360,5,2,3:2:0:0:
307,0,56533,1,2,0:0:0:0:
366,45,56619,1,2,0:0:0:0:
331,111,56706,1,10,0:0:0:0:
256,192,56879,1,2,0:0:0:0:
181,273,57053,1,2,3:2:0:0:
256,384,57226,5,2,0:0:0:0:
311,333,57313,1,2,0:0:0:0:
380,360,57400,2,0,P|419:345|432:304,1,75.0000028610231,10|0,0:0|0:0,0:0:0:0:
504,234,57573,2,0,P|510:192|481:160,1,75.0000028610231,2|0,0:0|0:0,0:0:0:0:
474,64,57747,5,6,3:2:0:0:
442,22,57833,1,2,0:0:0:0:
390,33,57920,1,2,0:0:0:0:
338,45,58007,1,2,0:0:0:0:
332,96,58093,1,10,0:0:0:0:
332,96,58267,1,2,0:0:0:0:
44,179,58440,5,2,3:2:0:0:
76,137,58526,1,2,0:0:0:0:
128,148,58613,1,2,0:0:0:0:
180,160,58700,1,2,0:0:0:0:
186,211,58786,1,10,0:0:0:0:
186,211,58960,1,2,0:0:0:0:
491,71,59134,5,2,3:2:0:0:
452,20,59220,1,2,0:0:0:0:
390,33,59307,1,2,0:0:0:0:
327,48,59394,1,2,0:0:0:0:
320,109,59480,1,10,0:0:0:0:
320,109,59654,1,2,0:0:0:0:
27,186,59827,5,2,3:2:0:0:
66,135,59913,1,2,0:0:0:0:
128,148,60000,1,2,0:0:0:0:
191,163,60087,1,2,0:0:0:0:
198,224,60173,1,10,0:0:0:0:
198,224,60347,1,2,0:0:0:0:
421,372,60521,6,0,L|344:357,1,75.0000028610231,2|2,3:2|0:0,0:0:0:0:
96,364,60694,2,0,L|173:379,1,75.0000028610231,2|2,0:0|0:0,0:0:0:0:
256,324,60868,1,10,0:0:0:0:
378,140,61041,5,2,0:0:0:0:
392,213,61128,1,2,0:0:0:0:
406,286,61215,1,2,3:2:0:0:
111,197,61388,5,2,0:0:0:0:
125,124,61475,1,2,0:0:0:0:
139,51,61562,1,10,0:0:0:0:
139,51,61735,2,0,L|231:38,1,75.0000028610231,2|0,0:0|0:0,0:0:0:0:
431,147,61908,5,2,3:2:0:0:
359,123,61995,1,2,0:0:0:0:
359,48,62082,1,2,0:0:0:0:
431,25,62168,1,2,0:0:0:0:
475,86,62255,6,0,L|465:169,1,75.0000028610231,10|2,0:0|0:0,0:0:0:0:
277,358,62428,2,0,L|268:283,1,75.0000028610231,2|2,0:0|0:0,0:0:0:0:
467,249,62602,6,0,L|392:238,1,75.0000028610231,2|0,3:2|0:0,0:0:0:0:
163,159,62775,1,2,3:2:0:0:
103,150,62862,1,0,0:0:0:0:
43,141,62949,1,10,0:0:0:0:
13,70,63122,6,0,B|18:37|58:41|59:-8,1,75.0000028610231,2|2,0:0|0:0,0:0:0:0:
117,350,64336,6,0,L|250:334,1,112.500004291535,4|0,3:3|0:0,0:0:0:0:
431,280,64683,6,0,P|336:272|248:194,1,200,6|0,3:2|0:0,0:0:0:0:
292,103,64943,1,2,0:0:0:0:
292,103,65030,2,0,L|299:156,1,50,10|0,0:0|0:0,0:0:0:0:
207,89,65204,2,0,L|214:142,1,50,2|2,0:0|0:0,0:0:0:0:
135,257,65377,5,2,3:2:0:0:
95,213,65464,1,0,0:0:0:0:
37,226,65550,2,0,P|13:244|3:268,1,50,2|0,0:0|0:0,0:0:0:0:
117,350,65724,5,10,0:0:0:0:
156,359,65810,1,0,0:0:0:0:
189,337,65897,2,0,P|213:319|223:295,1,50,2|0,0:0|0:0,0:0:0:0:
299,153,66071,6,0,L|407:166,1,100,2|2,3:2|0:0,0:0:0:0:
463,118,66331,1,0,0:0:0:0:
463,118,66417,2,0,L|479:175,1,50,10|0,0:0|0:0,0:0:0:0:
414,237,66591,5,2,0:0:0:0:
425,276,66678,1,0,0:0:0:0:
438,315,66764,2,0,L|454:372,1,50,2|0,3:2|0:0,0:0:0:0:
288,262,66938,2,0,P|280:240|257:230,1,50,2|0,0:0|0:0,0:0:0:0:
512,255,67111,2,0,P|389:282|352:281,1,150.000005722046,10|0,0:0|0:0,0:0:0:0:
274,358,67371,1,0,0:0:0:0:
274,358,67458,6,0,P|207:341|163:211,1,200,2|0,3:2|0:0,0:0:0:0:
190,146,67718,1,2,0:0:0:0:
190,146,67805,2,0,L|127:157,1,50,10|0,0:0|0:0,0:0:0:0:
179,68,67978,2,0,L|116:79,1,50,2|2,0:0|0:0,0:0:0:0:
333,32,68152,5,2,3:2:0:0:
393,45,68238,1,0,0:0:0:0:
452,57,68325,2,0,L|463:113,1,50,2|0,0:0|0:0,0:0:0:0:
383,205,68498,5,10,0:0:0:0:
345,215,68584,1,0,0:0:0:0:
306,223,68671,2,0,L|295:279,1,50,2|0,0:0|0:0,0:0:0:0:
222,356,68845,6,0,P|159:336|109:332,1,100,2|2,3:2|0:0,0:0:0:0:
5,382,69105,1,0,0:0:0:0:
5,382,69192,2,0,P|30:360|44:340,1,50,10|0,0:0|0:0,0:0:0:0:
50,173,69365,5,2,0:0:0:0:
25,228,69452,1,2,0:0:0:0:
65,274,69539,1,2,3:2:0:0:
99,237,69626,1,2,0:0:0:0:
148,225,69712,1,2,0:0:0:0:
195,244,69799,1,2,0:0:0:0:
206,294,69886,6,0,L|268:288,1,50,10|2,0:0|0:0,0:0:0:0:
306,216,70059,2,0,L|368:210,1,50,2|2,0:0|0:0,0:0:0:0:
440,328,70232,6,0,L|455:217,2,100,2|0|2,3:2|0:0|0:0,0:0:0:0:
440,328,70926,1,2,3:2:0:0:
495,156,71272,1,2,3:2:0:0:
308,51,71446,1,0,3:2:0:0:
301,90,71533,1,0,3:2:0:0:
296,129,71620,6,0,P|241:163|221:205,1,100,6|2,3:2|0:0,0:0:0:0:
240,318,71880,1,0,0:0:0:0:
240,318,71967,2,0,P|243:289|232:263,1,50,10|0,0:0|0:0,0:0:0:0:
116,194,72140,5,2,0:0:0:0:
77,203,72227,1,0,0:0:0:0:
39,211,72313,2,0,L|31:271,1,50,2|0,3:2|0:0,0:0:0:0:
165,329,72487,2,0,L|157:269,1,50,2|0,0:0|0:0,0:0:0:0:
80,30,72660,5,10,0:0:0:0:
23,49,72747,1,0,0:0:0:0:
23,109,72834,1,2,0:0:0:0:
80,128,72920,1,2,0:0:0:0:
116,79,73007,6,0,P|213:44|329:35,1,200,2|0,3:2|0:0,0:0:0:0:
397,86,73267,1,2,0:0:0:0:
397,86,73354,2,0,L|388:27,1,50,10|0,0:0|0:0,0:0:0:0:
479,73,73527,2,0,L|470:14,1,50,2|2,0:0|0:0,0:0:0:0:
479,173,73701,5,2,3:2:0:0:
463,230,73788,1,0,0:0:0:0:
405,242,73875,2,0,P|383:242|354:233,1,50,2|0,0:0|0:0,0:0:0:0:
162,296,74048,5,10,0:0:0:0:
195,320,74135,1,0,0:0:0:0:
236,314,74220,2,0,P|255:301|274:278,1,50,2|0,0:0|0:0,0:0:0:0:
238,83,74394,6,0,P|248:110|263:137,1,50,2|0,3:2|0:0,0:0:0:0:
116,79,74568,6,0,P|142:91|172:100,1,50,2|0,0:0|0:0,0:0:0:0:
32,174,74741,6,0,P|59:165|86:149,1,50,10|0,0:0|0:0,0:0:0:0:
67,281,74915,6,0,P|79:256|88:226,1,50,2|0,0:0|0:0,0:0:0:0:
195,320,75087,6,0,P|186:293|170:266,1,50,0|0,3:2|3:2,0:0:0:0:
326,169,75261,2,0,P|335:142|351:115,1,50,0|0,3:2|3:2,0:0:0:0:
201,22,75434,1,8,0:0:0:0:
282,6,75608,1,8,0:0:0:0:
512,164,75781,6,0,B|506:195|506:195|384:232,1,150,6|0,3:2|0:0,0:0:0:0:
254,192,76128,2,0,B|297:194|313:236|313:236|309:195|354:161,1,150
417,95,76475,2,0,L|408:158,1,50,10|0,0:0|0:0,0:0:0:0:
466,363,76648,2,0,P|469:308|391:313,1,150,2|0,0:0|0:0,0:0:0:0:
359,384,76995,6,0,B|300:346|348:342|287:301,1,100,2|0,0:0|0:0,0:0:0:0:
241,375,77342,2,0,B|182:337|230:333|169:292,1,100,2|0,0:0|3:2,0:0:0:0:
119,63,77689,1,2,0:0:0:0:
32,184,77862,2,0,P|51:159|124:166,1,100,10|2,0:0|0:0,0:0:0:0:
265,87,78209,5,0,0:0:0:0:
261,127,78296,1,0,0:0:0:0:
257,167,78382,2,0,L|252:203,2,25,2|0|0,0:0|0:0|0:0,0:0:0:0:
219,272,78556,6,0,P|200:278|174:312,1,50,2|0,3:2|0:0,0:0:0:0:
0,376,78729,2,0,B|32:345|32:345|195:319,1,200,2|2,3:2|0:0,0:0:0:0:
324,221,79249,6,0,P|343:215|369:181,1,50,10|0,0:0|0:0,0:0:0:0:
352,14,79423,2,0,L|365:121,1,100,2|0,0:0|0:0,0:0:0:0:
443,73,79770,1,2,0:0:0:0:
252,24,79943,5,2,0:0:0:0:
199,11,80059,1,2,0:0:0:0:
177,59,80174,1,2,0:0:0:0:
130,129,80290,5,0,3:2:0:0:
108,177,80405,1,2,0:0:0:0:
55,164,80521,1,2,0:0:0:0:
0,37,80637,6,0,P|55:86|61:155,1,133.333333333333,10|0,0:0|0:0,0:0:0:0:
38,328,80983,6,0,B|4:353|27:350|6:381|6:381|115:314|249:313,1,300,2|0,3:1|0:0,0:0:0:0:
323,357,81330,6,0,P|379:378|426:300,1,150,6|0,3:2|0:0,0:0:0:0:
415,231,81677,2,0,B|372:233|356:275|356:275|360:234|315:200,1,150
257,243,82024,2,0,P|253:207|242:181,1,50,10|0,0:0|0:0,0:0:0:0:
388,148,82197,2,0,P|395:113|416:51,1,100,2|0,0:0|0:0,0:0:0:0:
240,6,82544,6,0,P|181:-2|155:28,1,100,2|0,0:0|0:0,0:0:0:0:
176,107,82891,2,0,P|235:115|261:85,1,100,2|0,0:0|3:2,0:0:0:0:
46,271,83238,1,2,0:0:0:0:
142,311,83411,2,0,L|126:194,1,100,10|2,0:0|0:0,0:0:0:0:
2,15,83758,5,2,0:0:0:0:
41,13,83844,1,0,0:0:0:0:
75,33,83931,1,0,0:0:0:0:
92,67,84018,1,0,0:0:0:0:
77,114,84105,6,0,P|48:144|42:186,2,66.6666666666667,0|2|2,3:2|0:0|0:0,0:0:0:0:
191,26,84452,5,2,0:0:0:0:
199,14,84538,1,0,0:0:0:0:
207,2,84625,2,0,L|248:10,2,37.5000014305115,0|0|0,3:2|0:0|0:0,0:0:0:0:
259,88,84798,2,0,L|421:116,1,150.000005722046,8|0,0:0|0:0,0:0:0:0:
470,26,85059,1,0,0:0:0:0:
470,26,85145,6,0,L|494:125,2,100.000003814697,2|2|2,3:2|0:0|0:0,0:0:0:0:
406,113,85492,2,0,L|382:212,2,100.000003814697,2|2|2,0:0|0:0|0:0,0:0:0:0:
461,261,85839,5,2,3:2:0:0:
411,323,85954,1,2,0:0:0:0:
338,289,86070,1,2,0:0:0:0:
276,373,86186,6,0,P|176:332|51:302,1,200.000007629395,10|0,0:0|0:0,0:0:0:0:
28,369,86533,5,2,3:2:0:0:
77,282,86648,5,0,3:2:0:0:
133,199,86764,5,0,3:2:0:0:
195,121,86879,6,0,P|206:84|204:132,1,150.000005722046,2|0,3:2|0:0,0:0:0:0:
105,118,87400,1,2,0:0:0:0:
289,20,87573,1,2,2:3:0:0:
289,20,87660,1,2,2:3:0:0:
289,20,87746,1,2,2:3:0:0:
0,11,87920,6,0,P|101:51|320:232,1,375.000014305115,4|0,3:2|0:0,0:0:0:0:
298,327,88440,2,0,B|317:294|317:294|358:296|384:251,1,100,2|0,0:0|0:0,0:0:0:0:
448,357,88787,1,2,0:0:0:0:
326,205,88960,6,0,L|315:129,1,75.0000028610231,10|0,0:0|0:0,0:0:0:0:
427,112,89134,2,0,L|437:186,1,75.0000028610231,2|0,3:2|0:0,0:0:0:0:
437,186,89481,1,2,0:0:0:0:
190,372,89654,6,0,P|158:346|157:297,1,75.0000028610231,2|0,3:2|0:0,0:0:0:0:
448,357,89827,2,0,P|358:327|217:305,1,225.000008583069,2|0,0:0|0:0,0:0:0:0:
152,314,90174,1,2,3:2:0:0:
106,176,90348,6,0,P|87:182|61:216,1,50,10|0,0:0|0:0,0:0:0:0:
45,377,90522,2,0,P|80:339|67:288,1,100,2|0,3:2|0:0,0:0:0:0:
0,245,90868,1,2,3:2:0:0:
87,99,91041,5,2,0:0:0:0:
137,80,91157,1,2,0:0:0:0:
164,125,91272,1,2,0:0:0:0:
189,201,91388,5,2,3:2:0:0:
239,220,91504,1,2,0:0:0:0:
266,175,91619,1,2,0:0:0:0:
330,127,91735,6,0,B|350:135|350:135|401:217|401:217|429:232,1,133.333333333333,10|0,0:0|0:0,0:0:0:0:
450,362,92082,6,0,B|427:332|400:327|400:327|457:69,1,300,2|0,3:1|0:0,0:0:0:0:
398,25,92428,6,0,B|432:-15|496:-1|496:-1|458:15|495:16|440:32,1,150,2|0,3:2|0:0,0:0:0:0:
452,96,92775,2,0,P|406:73|278:53,1,150
208,43,93122,2,0,L|223:105,1,50,10|0,0:0|0:0,0:0:0:0:
305,224,93296,2,0,L|329:127,1,100,2|0,0:0|0:0,0:0:0:0:
46,326,93642,6,0,L|158:310,1,100,2|0,0:0|0:0,0:0:0:0:
128,211,93989,2,0,L|29:225,1,100,2|0,3:2|3:2,0:0:0:0:
219,91,94336,1,2,0:0:0:0:
308,64,94509,2,0,P|291:121|297:172,1,100,8|2,0:0|0:0,0:0:0:0:
357,379,94856,5,2,3:2:0:0:
396,381,94942,1,0,0:0:0:0:
430,361,95029,1,0,0:0:0:0:
447,327,95116,1,0,0:0:0:0:
428,280,95203,6,0,L|436:209,2,66.6666666666667,2|2|2,3:2|0:0|0:0,0:0:0:0:
329,197,95550,5,2,3:2:0:0:
341,189,95636,1,0,0:0:0:0:
354,180,95723,2,0,L|350:138,2,37.5000014305115
433,84,95897,6,0,P|399:34|317:37,1,150.000005722046,2|0,3:2|0:0,0:0:0:0:
266,141,96157,1,0,0:0:0:0:
266,141,96243,6,0,B|246:88|236:117|212:57,2,100.000003814697,2|2|2,3:2|0:0|0:0,0:0:0:0:
170,181,96590,2,0,B|145:240|135:211|116:264,2,100.000003814697,2|2|2,3:2|0:0|0:0,0:0:0:0:
191,308,96937,5,2,3:2:0:0:
141,370,97052,1,2,0:0:0:0:
68,336,97168,1,2,0:0:0:0:
219,383,97284,6,0,B|359:356|359:356|431:376,1,200.000007629395,2|0,3:2|0:0,0:0:0:0:
490,380,97631,5,2,0:2:0:0:
474,322,97717,1,0,0:0:0:0:
458,263,97804,1,0,0:0:0:0:
442,204,97891,1,0,0:0:0:0:
449,176,97978,1,2,0:2:0:0:
95,109,99365,6,0,P|134:78|191:90,1,100,8|0,3:2|0:0,0:0:0:0:
9,128,99538,2,0,P|115:142|287:232,1,300,8|0,3:2|0:0,0:0:0:0:
302,319,99885,6,0,B|333:329|351:312|351:312|357:280|381:264,1,100,8|0,3:2|0:0,0:0:0:0:
489,308,100059,2,0,L|186:353,1,300,8|0,3:2|0:0,0:0:0:0:
96,358,100405,6,0,B|91:344|96:311|134:301|134:301|115:318|117:340,1,112.500004291535,2|0,2:3|0:0,0:0:0:0:
192,352,100752,5,4,2:0:0:0:
302,319,101099,1,0,3:2:0:0:
258,245,101272,2,0,L|264:200,2,37.5000014305115,0|0|0,0:0|0:0|3:2,0:0:0:0:
134,303,101619,1,0,0:0:0:0:
134,303,101706,1,0,0:0:0:0:
134,303,101793,2,0,P|113:275|113:229,1,75.0000028610231,0|0,3:2|0:0,0:0:0:0:
147,24,102139,5,0,3:2:0:0:
82,117,102313,2,0,L|95:168,2,37.5000014305115,0|0|0,0:0|0:0|3:2,0:0:0:0:
193,142,102660,2,0,P|178:118|179:146,1,75.0000028610231,0|0,0:0|3:2,0:0:0:0:
279,113,103007,1,0,0:0:0:0:
279,113,103093,1,0,0:0:0:0:
279,113,103180,2,0,L|369:131,1,75.0000028610231,0|0,3:2|0:0,0:0:0:0:
507,3,103527,5,0,3:2:0:0:
432,68,103700,1,0,0:0:0:0:
399,49,103787,1,0,0:0:0:0:
386,13,103874,1,0,3:2:0:0:
352,127,104047,2,0,L|347:165,1,37.5000014305115
330,250,104220,5,0,3:2:0:0:
386,366,104394,1,0,0:0:0:0:
419,347,104481,1,0,0:0:0:0:
432,311,104567,2,0,P|436:294|427:264,1,37.5000014305115,0|0,3:2|0:0,0:0:0:0:
330,250,104741,2,0,P|320:235|293:220,1,37.5000014305115
189,319,104914,5,0,3:2:0:0:
189,319,105087,5,0,0:0:0:0:
215,273,105174,1,0,0:0:0:0:
260,298,105261,1,0,3:2:0:0:
378,173,105434,5,0,0:0:0:0:
352,127,105521,1,0,0:0:0:0:
307,152,105608,1,0,3:2:0:0:
95,71,105781,5,0,0:0:0:0:
121,25,105868,1,0,0:0:0:0:
166,50,105954,2,0,L|173:95,1,37.5000014305115,4|0,3:3|0:0,0:0:0:0:
43,126,106128,2,0,L|50:171,1,37.5000014305115
161,359,106301,5,6,3:2:0:0:
189,349,106388,1,2,0:0:0:0:
189,319,106475,1,2,0:0:0:0:
161,310,106561,1,2,0:0:0:0:
143,334,106648,1,10,3:2:0:0:
143,334,106822,1,2,0:0:0:0:
363,340,106995,5,10,3:2:0:0:
335,330,107082,1,2,0:0:0:0:
335,300,107169,1,2,0:0:0:0:
363,291,107255,1,2,0:0:0:0:
381,315,107342,1,10,3:2:0:0:
381,315,107516,1,2,0:0:0:0:
190,194,107689,5,10,3:2:0:0:
170,211,107775,1,2,0:0:0:0:
147,223,107862,1,2,0:0:0:0:
121,228,107949,1,2,0:0:0:0:
95,226,108035,1,10,3:2:0:0:
95,226,108209,1,2,0:0:0:0:
333,110,108382,5,10,3:2:0:0:
352,127,108468,1,2,0:0:0:0:
375,139,108555,1,2,0:0:0:0:
401,144,108642,1,2,0:0:0:0:
427,142,108728,1,10,3:2:0:0:
427,142,108902,1,2,0:0:0:0:
492,369,109076,6,0,L|472:316,1,50,0|0,3:2|0:0,0:0:0:0:
385,346,109249,2,0,L|321:357,1,50,0|0,3:2|0:0,0:0:0:0:
354,263,109423,2,0,L|334:210,1,50,8|0,0:0|0:0,0:0:0:0:
239,293,109596,1,8,0:0:0:0:
214,286,109683,1,0,0:0:0:0:
193,300,109770,1,0,3:2:0:0:
151,272,109856,1,0,3:2:0:0:
101,262,109943,1,0,3:2:0:0:
93,212,110030,1,0,3:2:0:0:
54,180,110116,5,0,3:2:0:0:
112,141,110203,1,0,3:2:0:0:
136,74,110290,1,0,3:2:0:0:
205,68,110376,1,0,3:2:0:0:
250,14,110463,6,0,L|261:102,1,75.0000028610231,8|0,3:2|3:2,0:0:0:0:
417,216,110637,1,0,3:2:0:0:
417,216,110723,1,0,3:2:0:0:
417,216,110810,2,0,L|426:141,1,75.0000028610231,8|0,3:2|3:2,0:0:0:0:
93,212,110983,1,0,3:2:0:0:
102,286,111069,1,0,3:2:0:0:
111,360,111156,5,0,0:0:0:0:
185,375,111330,5,0,0:0:0:0:
10,384,111504,6,0,B|33:361|33:361|237:338,1,225.000008583069,4|0,3:3|0:0,0:0:0:0:
490,228,111850,6,0,L|403:213,1,75.0000028610231,6|0,3:2|0:0,0:0:0:0:
362,44,112024,2,0,B|324:154|324:154|335:185,2,150.000005722046,2|10|2,0:0|0:0|0:0,0:0:0:0:
419,0,112457,1,2,0:0:0:0:
435,73,112544,1,2,3:2:0:0:
254,230,112717,1,2,0:0:0:0:
287,296,112803,1,2,0:0:0:0:
361,279,112890,1,10,0:0:0:0:
335,185,113064,1,2,0:0:0:0:
111,360,113237,6,0,L|102:281,1,75.0000028610231,2|0,3:2|0:0,0:0:0:0:
44,106,113411,5,2,0:0:0:0:
39,61,113497,1,2,0:0:0:0:
34,16,113584,2,0,L|25:105,1,75.0000028610231,10|0,0:0|0:0,0:0:0:0:
134,30,113758,2,0,L|125:119,1,75.0000028610231,2|2,0:0|0:0,0:0:0:0:
25,234,113931,6,0,P|46:207|91:189,1,75.0000028610231,2|0,3:2|0:0,0:0:0:0:
373,274,114105,1,2,0:0:0:0:
333,295,114191,1,2,0:0:0:0:
287,296,114278,2,0,P|252:292|214:262,1,75.0000028610231,10|0,0:0|0:0,0:0:0:0:
209,28,114452,2,0,P|222:59|215:107,1,75.0000028610231,2|0,0:0|0:0,0:0:0:0:
174,194,114625,5,2,3:2:0:0:
309,38,114798,1,2,0:0:0:0:
382,52,114885,1,2,0:0:0:0:
455,67,114972,1,10,0:0:0:0:
474,139,115059,1,0,0:0:0:0:
494,210,115145,1,2,0:0:0:0:
456,275,115232,1,2,0:0:0:0:
410,334,115319,2,0,L|328:319,1,75.0000028610231,2|0,3:2|0:0,0:0:0:0:
109,192,115492,5,2,0:0:0:0:
117,148,115579,1,2,0:0:0:0:
126,104,115665,2,0,L|141:186,1,75.0000028610231,10|0,0:0|0:0,0:0:0:0:
382,174,115839,2,0,L|367:256,1,75.0000028610231,2|0,0:0|0:0,0:0:0:0:
256,380,116012,5,2,3:2:0:0:
309,38,116186,1,2,0:0:0:0:
296,112,116273,1,2,0:0:0:0:
282,186,116359,1,10,0:0:0:0:
455,67,116533,1,2,0:0:0:0:
163,21,116706,1,2,3:2:0:0:
166,325,116879,1,2,0:0:0:0:
152,251,116965,1,2,0:0:0:0:
139,177,117053,6,0,P|120:137|85:121,1,75.0000028610231,10|0,0:0|0:0,0:0:0:0:
336,320,117226,2,0,P|355:280|390:264,1,75.0000028610231,2|0,0:0|0:0,0:0:0:0:
426,35,117400,5,2,3:2:0:0:
375,28,117486,1,2,0:0:0:0:
332,56,117573,1,2,0:0:0:0:
317,105,117660,1,2,0:0:0:0:
339,152,117746,1,10,0:0:0:0:
339,152,117919,1,2,0:0:0:0:
86,349,118093,5,2,3:2:0:0:
136,355,118179,1,2,0:0:0:0:
179,327,118266,1,2,0:0:0:0:
194,278,118353,1,2,0:0:0:0:
172,231,118439,1,10,0:0:0:0:
173,232,118612,1,2,0:0:0:0:
432,30,118787,5,2,3:2:0:0:
375,22,118873,1,2,0:0:0:0:
328,53,118960,1,2,0:0:0:0:
312,108,119047,1,2,0:0:0:0:
336,159,119133,1,10,0:0:0:0:
336,159,119307,1,2,0:0:0:0:
79,353,119481,5,2,3:2:0:0:
136,361,119567,1,2,0:0:0:0:
183,330,119654,1,2,0:0:0:0:
199,275,119741,1,2,0:0:0:0:
175,224,119827,1,10,0:0:0:0:
175,224,120001,1,2,0:0:0:0:
412,240,120174,6,0,P|381:267|342:268,1,75.0000028610231,2|2,3:2|0:0,0:0:0:0:
100,144,120348,2,0,P|131:117|170:116,1,75.0000028610231,2|2,0:0|0:0,0:0:0:0:
256,192,120521,1,10,0:0:0:0:
429,54,120694,5,2,0:0:0:0:
357,29,120781,1,2,0:0:0:0:
488,11,120868,1,2,3:2:0:0:
436,65,120954,1,2,0:0:0:0:
394,127,121041,1,2,0:0:0:0:
365,196,121128,1,2,0:0:0:0:
348,269,121214,1,10,0:0:0:0:
348,269,121388,2,0,P|365:307|360:354,1,75.0000028610231,2|0,0:0|0:0,0:0:0:0:
108,361,121561,5,2,3:2:0:0:
41,332,121647,1,2,0:0:0:0:
20,263,121734,1,2,0:0:0:0:
62,203,121821,1,2,0:0:0:0:
134,198,121907,1,10,0:0:0:0:
92,135,121995,1,2,0:0:0:0:
72,66,122082,1,2,0:0:0:0:
113,6,122169,1,2,0:0:0:0:
186,6,122255,5,2,3:2:0:0:
6,138,122428,1,2,3:2:0:0:
191,280,122601,1,10,0:0:0:0:
72,66,122775,1,10,0:0:0:0:
146,76,122862,1,10,0:0:0:0:
219,86,122948,6,0,B|242:90|242:90|308:66,1,75.0000028610231,6|0,3:2|0:0,0:0:0:0:
420,113,123122,2,0,B|310:150|310:150|300:190,2,150.000005722046,2|10|2,0:0|0:0|0:0,0:0:0:0:
493,127,123555,1,2,0:0:0:0:
480,201,123642,1,2,3:2:0:0:
212,359,123815,1,2,0:0:0:0:
247,292,123902,1,2,0:0:0:0:
314,326,123989,1,10,0:0:0:0:
211,189,124162,1,2,0:0:0:0:
379,384,124336,6,0,P|406:347|397:310,1,75.0000028610231,2|0,3:2|0:0,0:0:0:0:
115,271,124510,5,2,0:0:0:0:
74,288,124596,1,2,0:0:0:0:
32,305,124683,2,0,B|29:343|29:343|58:377,1,75.0000028610231,10|0,0:0|0:0,0:0:0:0:
137,199,124856,2,0,B|140:161|140:161|111:127,1,75.0000028610231,2|2,0:0|0:0,0:0:0:0:
2,0,125030,6,0,P|7:43|45:60,1,75.0000028610231,2|0,3:2|0:0,0:0:0:0:
116,132,125203,2,0,P|155:149|189:124,1,75.0000028610231,2|2,0:0|0:0,0:0:0:0:
292,6,125377,6,0,B|326:14|326:14|360:89,1,112.500004291535,10|0,0:0|0:0,0:0:0:0:
409,139,125550,2,0,L|387:249,1,112.500004291535,2|0,0:0|0:0,0:0:0:0:
369,320,125724,5,2,3:2:0:0:
181,135,125897,1,2,0:0:0:0:
247,100,125984,1,2,0:0:0:0:
292,159,126070,1,10,0:0:0:0:
219,311,126244,1,2,0:0:0:0:
163,360,126330,1,2,0:0:0:0:
89,343,126417,6,0,L|74:257,1,75.0000028610231,2|0,3:2|0:0,0:0:0:0:
369,320,126590,1,2,0:0:0:0:
408,344,126677,1,2,0:0:0:0:
448,323,126763,2,0,L|355:339,1,75.0000028610231,10|0,0:0|0:0,0:0:0:0:
482,151,126937,2,0,L|389:135,1,75.0000028610231,2|0,0:0|0:0,0:0:0:0:
336,12,127111,5,2,3:2:0:0:
207,123,127284,1,2,0:0:0:0:
138,93,127370,1,2,0:0:0:0:
127,18,127457,1,10,0:0:0:0:
328,243,127631,1,2,0:0:0:0:
397,213,127717,1,0,0:0:0:0:
408,138,127804,1,2,3:2:0:0:
155,372,127978,1,2,0:0:0:0:
86,342,128064,1,2,0:0:0:0:
75,267,128151,6,0,P|115:254|145:221,1,75.0000028610231,10|0,0:0|0:0,0:0:0:0:
408,138,128324,2,0,P|367:125|338:92,1,75.0000028610231,2|0,0:0|0:0,0:0:0:0:
110,130,128498,5,6,3:2:0:0:
159,113,128585,1,2,0:0:0:0:
159,61,128671,1,2,0:0:0:0:
110,45,128758,1,2,0:0:0:0:
79,87,128845,1,10,0:0:0:0:
79,87,129018,1,2,0:0:0:0:
407,335,129191,5,2,3:2:0:0:
358,318,129278,1,2,0:0:0:0:
358,266,129364,1,2,0:0:0:0:
407,250,129451,1,2,0:0:0:0:
438,292,129538,1,10,0:0:0:0:
438,292,129711,1,2,0:0:0:0:
108,134,129885,5,2,3:2:0:0:
162,115,129972,1,2,0:0:0:0:
162,58,130058,1,2,0:0:0:0:
108,40,130145,1,2,0:0:0:0:
74,86,130232,1,10,0:0:0:0:
74,86,130405,1,2,0:0:0:0:
408,339,130579,5,2,3:2:0:0:
354,320,130666,1,2,0:0:0:0:
354,263,130752,1,2,0:0:0:0:
408,245,130839,1,2,0:0:0:0:
442,291,130926,1,10,0:0:0:0:
442,291,131099,1,2,0:0:0:0:
64,246,131272,6,0,L|141:231,1,75.0000028610231,2|2,3:2|0:0,0:0:0:0:
448,138,131446,2,0,L|371:153,1,75.0000028610231,2|2,0:0|0:0,0:0:0:0:
256,192,131619,1,10,0:0:0:0:
208,72,131793,5,2,0:0:0:0:
177,39,131879,1,2,0:0:0:0:
217,18,131966,1,2,3:2:0:0:
256,4,132053,1,2,0:0:0:0:
295,18,132139,1,2,0:0:0:0:
335,39,132226,1,2,0:0:0:0:
304,72,132312,1,10,0:0:0:0:
304,72,132486,2,0,B|287:101|287:101|309:150,1,75.0000028610231,2|0,0:0|0:0,0:0:0:0:
419,384,132659,5,2,3:2:0:0:
491,360,132746,1,2,0:0:0:0:
491,285,132833,1,2,0:0:0:0:
419,262,132919,1,2,0:0:0:0:
375,323,133006,6,0,P|350:347|308:356,1,75.0000028610231,10|2,0:0|0:0,0:0:0:0:
224,379,133180,6,0,P|190:369|161:337,1,75.0000028610231,2|2,0:0|0:0,0:0:0:0:
32,144,133353,6,0,P|57:168|99:177,1,75.0000028610231,2|0,3:2|0:0,0:0:0:0:
162,232,133527,6,0,P|195:222|224:190,1,75.0000028610231,2|0,3:2|0:0,0:0:0:0:
354,198,133700,6,0,P|362:164|349:123,1,75.0000028610231,10|0,0:0|0:0,0:0:0:0:
244,6,133874,6,0,B|236:38|281:55|269:92,1,75.0000028610231,2|2,0:0|0:0,0:0:0:0:
434,91,135087,6,0,P|449:53|418:82,1,112.500004291535,0|0,3:2|0:0,0:0:0:0:
441,188,135434,6,0,P|361:166|313:29,1,225.000008583069,6|0,3:2|0:0,0:0:0:0:
207,166,135781,2,0,P|258:180|288:267,1,150.000005722046,10|0,0:0|0:0,0:0:0:0:
251,336,136041,1,0,0:0:0:0:
251,336,136128,2,0,L|160:320,1,75.0000028610231,2|0,3:2|0:0,0:0:0:0:
205,255,136301,2,0,L|114:239,1,75.0000028610231
29,108,136475,6,0,B|55:125|55:125|99:319,1,225.000008583069,10|0,0:0|0:0,0:0:0:0:
38,376,136822,6,0,P|12:362|3:310,1,75.0000028610231,2|0,3:2|0:0,0:0:0:0:
205,255,136995,2,0,P|228:225|272:213,1,75.0000028610231,2|0,0:0|0:0,0:0:0:0:
133,107,137168,2,0,P|102:49|20:11,1,150.000005722046,10|2,0:0|0:0,0:0:0:0:
234,97,137515,5,2,3:2:0:0:
251,336,137689,1,2,0:0:0:0:
147,193,137862,1,10,0:0:0:0:
324,50,138035,1,2,0:0:0:0:
28,11,138209,6,0,P|100:48|221:139,1,225.000008583069,2|0,3:2|0:0,0:0:0:0:
147,193,138556,2,0,P|88:146|22:110,1,150.000005722046,10|0,0:0|0:0,0:0:0:0:
136,45,138816,1,0,0:0:0:0:
136,45,138902,2,0,P|172:44|207:22,1,75.0000028610231,2|0,3:2|0:0,0:0:0:0:
215,133,139076,2,0,P|251:132|286:110,1,75.0000028610231
252,327,139249,6,0,B|271:399|146:398|145:303|225:235,1,225.000008583069,10|0,0:0|0:0,0:0:0:0:
300,189,139596,6,0,B|331:198|331:198|458:167,2,150.000005722046,2|2|10,3:2|0:0|0:0,0:0:0:0:
300,189,140116,1,2,0:0:0:0:
285,15,140290,5,2,3:2:0:0:
444,170,140463,2,0,P|414:190|410:226,1,75.0000028610231,2|0,0:0|0:0,0:0:0:0:
68,254,140637,2,0,P|98:274|102:310,1,75.0000028610231,10|0,0:0|0:0,0:0:0:0:
258,378,140810,2,0,P|254:349|243:373,1,75.0000028610231,2|0,0:0|0:0,0:0:0:0:
15,331,140983,6,0,B|46:319|46:319|258:361,1,225.000008583069,2|0,3:2|0:0,0:0:0:0:
323,287,141330,2,0,B|309:264|289:258|289:258|314:151,1,150.000005722046,10|0,0:0|0:0,0:0:0:0:
329,83,141590,1,0,0:0:0:0:
329,83,141677,2,0,P|292:79|260:104,1,75.0000028610231,2|0,3:2|0:0,0:0:0:0:
205,199,141850,2,0,P|174:220|138:215,1,75.0000028610231
94,110,142024,6,0,P|227:127|356:177,1,225.000008583069,10|0,0:0|0:0,0:0:0:0:
417,184,142371,6,0,P|445:169|458:124,1,75.0000028610231,2|0,3:2|0:0,0:0:0:0:
323,287,142544,2,0,P|308:259|263:246,1,75.0000028610231,2|0,0:0|0:0,0:0:0:0:
476,56,142717,2,0,L|315:85,1,150.000005722046,10|2,0:0|0:0,0:0:0:0:
197,287,143064,5,2,3:2:0:0:
316,172,143238,1,0,0:0:0:0:
283,11,143411,2,0,B|243:31|243:31|216:158,1,150.000005722046,10|0,0:0|0:0,0:0:0:0:
446,324,143758,6,0,B|487:329|500:380|500:380|415:336|252:326,1,300.000011444092,2|8,3:2|0:0,0:0:0:0:
183,358,144278,1,2,0:0:0:0:
403,183,144452,1,2,3:2:0:0:
373,260,144625,1,2,0:0:0:0:
139,260,144798,1,10,0:0:0:0:
109,183,144971,1,2,0:0:0:0:
93,25,145145,6,0,L|176:43,1,75.0000028610231,2|0,3:2|0:0,0:0:0:0:
345,40,145319,2,0,L|419:25,1,75.0000028610231,2|0,0:0|0:0,0:0:0:0:
410,103,145492,2,0,L|337:119,1,75.0000028610231,10|0,0:0|0:0,0:0:0:0:
175,119,145665,2,0,L|101:103,1,75.0000028610231,2|0,0:0|0:0,0:0:0:0:
256,0,145839,5,2,3:2:0:0:
213,283,146012,1,2,0:0:0:0:
302,223,146186,1,10,0:0:0:0:
52,370,146359,1,2,0:0:0:0:
3,312,146446,1,0,0:0:0:0:
33,243,146533,6,0,P|77:209|74:106,1,150.000005722046,6|0,3:2|0:0,0:0:0:0:
0,8,146793,1,0,3:2:0:0:
0,8,146879,2,0,B|34:11|34:11|57:54,1,75.0000028610231,10|0,0:0|0:0,0:0:0:0:
101,103,147053,2,0,L|175:119,1,75.0000028610231,0|0,3:2|3:2,0:0:0:0:
380,28,147226,6,0,P|342:32|311:131,1,150.000005722046,2|0,3:2|0:0,0:0:0:0:
454,169,147486,1,0,3:2:0:0:
454,169,147573,2,0,B|387:151|387:151|372:157|372:157|298:135,1,150.000005722046,10|0,0:0|3:2,0:0:0:0:
192,352,147920,6,0,P|257:384|322:352,1,150.000005722046,2|2,3:2|0:0,0:0:0:0:
277,229,148180,1,0,3:2:0:0:
277,229,148267,2,0,P|257:254|259:303,1,75.0000028610231,10|0,0:0|0:0,0:0:0:0:
441,363,148440,2,0,P|461:338|459:289,1,75.0000028610231,2|0,3:2|3:2,0:0:0:0:
358,288,148613,5,2,3:2:0:0:
111,195,148787,1,2,3:2:0:0:
401,147,148960,1,10,0:0:0:0:
105,6,149134,1,2,3:2:0:0:
170,41,149220,1,0,3:2:0:0:
234,79,149307,6,0,B|348:43|348:43|394:63,1,150.000005722046,2|0,3:2|0:0,0:0:0:0:
503,17,149567,1,0,3:2:0:0:
503,17,149654,2,0,L|460:85,1,75.0000028610231,10|0,0:0|0:0,0:0:0:0:
401,147,149827,2,0,L|316:176,1,75.0000028610231,0|0,3:2|3:2,0:0:0:0:
461,380,150001,6,0,B|493:363|493:363|420:254,1,150.000005722046,2|0,3:2|0:0,0:0:0:0:
344,251,150261,1,0,3:2:0:0:
344,251,150348,2,0,P|331:348|396:364,1,150.000005722046,10|0,0:0|3:2,0:0:0:0:
175,372,150694,6,0,L|96:349,1,75.0000028610231,2|0,3:2|0:0,0:0:0:0:
65,264,150868,1,2,0:0:0:0:
106,247,150954,1,0,3:2:0:0:
149,234,151041,2,0,L|172:155,1,75.0000028610231,10|0,0:0|0:0,0:0:0:0:
66,176,151215,2,0,L|89:97,1,75.0000028610231,2|0,3:2|3:2,0:0:0:0:
162,39,151388,5,2,3:2:0:0:
399,151,151561,1,2,3:2:0:0:
149,234,151735,1,10,0:0:0:0:
356,31,151908,1,2,3:2:0:0:
242,363,152082,6,0,B|264:369|288:382|288:382|342:353|400:342,1,150.000005722046,2|0,3:2|0:0,0:0:0:0:
459,367,152342,1,0,3:2:0:0:
459,367,152428,2,0,P|503:336|474:239,1,150.000005722046,10|0,0:0|3:2,0:0:0:0:
411,228,152689,1,0,3:2:0:0:
411,228,152775,6,0,L|429:138,1,75.0000028610231,2|0,3:2|0:0,0:0:0:0:
356,31,152949,1,0,0:0:0:0:
356,31,153035,1,0,3:2:0:0:
356,31,153122,2,0,L|326:178,1,150.000005722046,10|0,0:0|3:2,0:0:0:0:
138,351,153469,6,0,L|47:337,1,75.0000028610231,2|0,3:2|0:0,0:0:0:0:
206,102,153642,1,2,0:0:0:0:
234,136,153729,1,0,3:2:0:0:
228,180,153816,2,0,P|198:206|157:206,1,75.0000028610231,10|0,0:0|0:0,0:0:0:0:
0,287,153989,2,0,P|30:261|71:261,1,75.0000028610231,2|0,3:2|3:2,0:0:0:0:
184,284,154163,2,0,L|367:309,1,150.000005722046,2|2,3:2|3:2,0:0:0:0:
470,157,154509,2,0,B|490:105|460:83|426:80|426:80|447:98|443:123,1,150.000005722046,10|2,0:0|3:2,0:0:0:0:
361,133,154770,1,0,3:2:0:0:
361,133,154856,6,0,B|253:112|253:112|222:75,1,150.000005722046,2|0,3:2|3:2,0:0:0:0:
189,20,155116,1,0,3:2:0:0:
114,8,155203,1,10,0:0:0:0:
307,39,155376,1,0,3:2:0:0:
96,94,155550,6,0,P|135:111|140:150,1,75.0000028610231,2|0,3:2|0:0,0:0:0:0:
133,347,155723,1,0,3:2:0:0:
105,277,155810,1,0,3:2:0:0:
77,207,155897,2,0,L|89:107,1,75.0000028610231,10|0,0:0|0:0,0:0:0:0:
382,285,156070,2,0,L|370:185,1,75.0000028610231,0|0,3:2|3:2,0:0:0:0:
506,7,156244,6,0,P|475:10|446:51,1,75.0000028610231,2|0,3:2|0:0,0:0:0:0:
501,163,156417,6,0,P|478:192|442:197,1,75.0000028610231,2|0,0:0|3:2,0:0:0:0:
284,117,156590,6,0,P|253:120|224:161,1,75.0000028610231,10|0,0:0|0:0,0:0:0:0:
231,287,156763,6,0,P|208:316|172:321,1,75.0000028610231,2|0,3:2|3:2,0:0:0:0:
58,335,156937,6,0,P|27:338|-2:379,1,75.0000028610231,2|0,3:2|0:0,0:0:0:0:
256,192,157111,5,2,3:2:0:0:
256,192,157457,1,10,3:2:0:0:
