osu file format v14

[General]
AudioFilename: audio.ogg
AudioLeadIn: 0
PreviewTime: 40741
Countdown: 0
SampleSet: Soft
StackLeniency: 1
Mode: 0
LetterboxInBreaks: 0
WidescreenStoryboard: 0

[Editor]
Bookmarks: 17514,20289,25838,27225,63285,75780,92428,97977,106300,111850,122948,132659,134046,146618,157110,157283,157630
DistanceSpacing: 0.2
BeatDivisor: 4
GridSize: 4
TimelineZoom: 1.56

[Metadata]
Title:Rabbit Hole feat. Hatsune Miku
TitleUnicode:ラビットホール feat. 初音ミク
Artist:DECO*27
ArtistUnicode:DECO*27
Creator:dakiwii
Version:Lust
Source:
Tags:japanese vocaloid hatsune miku rock jrock j-rock j-pop jpop pop deco27 original KARENT 2023 tepe kemu Horie Shouta 堀江晶太 Omutatsu おむたつ 辰巳 Tatsumi Omu tiktok tik-tok
BeatmapID:4542585
BeatmapSetID:2154609

[Difficulty]
HPDrainRate:6
CircleSize:4
OverallDifficulty:9
ApproachRate:9.3
SliderMultiplier:1.9
SliderTickRate:1

[Events]
//Background and Video events
0,0,"rabbithole.jpg",0,0
Video,-32,"rabbithole.avi"
//Break Periods
2,14762,19210
//Storyboard Layer 0 (Background)
//Storyboard Layer 1 (Fail)
//Storyboard Layer 2 (Pass)
//Storyboard Layer 3 (Foreground)
//Storyboard Layer 4 (Overlay)
//Storyboard Sound Samples

[TimingPoints]
516,346.820809248555,4,2,1,78,1,0
3637,346.820809248555,4,2,1,65,1,0
3637,-66.6666666666667,4,2,1,65,0,0
5284,-66.6666666666667,4,2,1,5,0,0
5371,-66.6666666666667,4,2,1,65,0,0
5631,-66.6666666666667,4,2,1,5,0,0
5717,-66.6666666666667,4,2,1,65,0,0
5978,-66.6666666666667,4,2,1,5,0,0
6064,-66.6666666666667,4,2,1,65,0,0
8058,-66.6666666666667,4,2,1,5,0,0
8145,-66.6666666666667,4,2,1,65,0,0
10573,-100,4,2,1,65,0,0
11960,-66.6666666666667,4,2,1,65,0,0
13608,-66.6666666666667,4,2,1,5,0,0
13694,-66.6666666666667,4,2,1,65,0,0
13954,-66.6666666666667,4,2,1,5,0,0
14041,-66.6666666666667,4,2,1,65,0,0
14735,-133.333333333333,4,2,1,65,0,0
19764,-133.333333333333,4,2,1,45,0,0
20197,-133.333333333333,4,2,1,5,0,0
20284,-133.333333333333,4,2,1,50,0,0
24012,-133.333333333333,4,2,1,5,0,0
24099,-133.333333333333,4,2,1,50,0,0
25833,-90.9090909090909,4,2,1,60,0,0
27220,-100,4,2,1,60,0,0
29388,-100,4,2,1,5,0,0
29475,-100,4,2,1,60,0,0
32336,-100,4,2,1,5,0,0
32423,-100,4,2,1,60,0,0
32509,-100,4,2,1,5,0,0
32596,-100,4,2,1,60,0,0
32683,-100,4,2,1,5,0,0
32769,-100,4,2,1,60,0,0
36498,-100,4,2,1,5,0,0
36584,-100,4,2,1,70,0,0
39619,-100,4,2,1,5,0,0
39706,-100,4,2,1,60,0,0
41093,-90.9090909090909,4,2,1,70,0,0
63116,-90.9090909090909,4,2,1,38,0,0
64330,-250,4,2,1,65,0,0
64590,-250,4,2,1,5,0,0
64677,-66.6666666666667,4,2,1,65,0,0
66324,-66.6666666666667,4,2,1,5,0,0
66411,-66.6666666666667,4,2,1,65,0,0
66671,-66.6666666666667,4,2,1,5,0,0
66758,-66.6666666666667,4,2,1,65,0,0
67018,-66.6666666666667,4,2,1,5,0,0
67105,-66.6666666666667,4,2,1,65,0,0
69099,-66.6666666666667,4,2,1,5,0,0
69186,-66.6666666666667,4,2,1,65,0,0
70226,-133.333333333333,4,2,1,45,0,0
70920,-133.333333333333,4,2,1,65,0,0
71613,-100,4,2,1,75,0,0
73001,-66.6666666666667,4,2,1,75,0,0
74648,-66.6666666666667,4,2,1,5,0,0
74735,-66.6666666666667,4,2,1,75,0,0
74995,-66.6666666666667,4,2,1,5,0,0
75082,-66.6666666666667,4,2,1,75,0,0
75775,-100,4,2,2,75,0,0
76295,-100,4,2,2,55,0,0
80978,-71.4285714285714,4,2,2,55,0,0
81238,-71.4285714285714,4,2,2,5,0,0
81324,-100,4,2,2,55,0,0
84099,-100,4,2,2,65,0,0
86787,-100,4,2,2,5,0,0
86873,-100,4,2,2,45,0,0
87914,-100,4,2,2,75,0,0
88781,-100,4,2,2,55,0,0
95197,-100,4,2,2,65,0,0
97538,-100,4,2,2,5,0,0
97625,-100,4,2,1,75,0,0
97885,-100,4,2,2,5,0,0
97972,-100,4,2,1,45,0,0
99012,-133.333333333333,4,2,1,35,0,0
99272,-133.333333333333,4,2,1,5,0,0
99359,-66.6666666666667,4,2,1,75,0,0
100746,-133.333333333333,4,2,1,35,0,0
106295,-133.333333333333,4,2,1,50,0,0
109070,-100,4,2,1,55,0,0
110457,-100,4,2,1,65,0,0
111845,-90.9090909090909,4,2,1,70,0,0
133868,-90.9090909090909,4,2,1,38,0,0
135082,-333.333333333333,4,2,1,75,0,0
135342,-333.333333333333,4,2,1,5,0,0
135428,-66.6666666666667,4,2,1,75,0,0
135689,-66.6666666666667,4,2,1,5,0,0
135775,-66.6666666666667,4,2,1,75,0,0
136035,-66.6666666666667,4,2,1,5,0,0
136122,-66.6666666666667,4,2,1,75,0,0
136382,-66.6666666666667,4,2,1,5,0,0
136469,-66.6666666666667,4,2,1,75,0,0
136729,-66.6666666666667,4,2,1,5,0,0
136816,-66.6666666666667,4,2,1,75,0,0
138463,-66.6666666666667,4,2,1,5,0,0
138550,-66.6666666666667,4,2,1,75,0,0
138810,-66.6666666666667,4,2,1,5,0,0
138897,-66.6666666666667,4,2,1,75,0,0
139157,-66.6666666666667,4,2,1,5,0,0
139243,-66.6666666666667,4,2,1,75,0,0
139504,-66.6666666666667,4,2,1,5,0,0
139590,-66.6666666666667,4,2,1,75,0,0
141238,-66.6666666666667,4,2,1,5,0,0
141324,-66.6666666666667,4,2,1,75,0,0
141584,-66.6666666666667,4,2,1,5,0,0
141671,-66.6666666666667,4,2,1,75,0,0
141931,-66.6666666666667,4,2,1,5,0,0
142018,-66.6666666666667,4,2,1,75,0,0
142278,-66.6666666666667,4,2,1,5,0,0
142365,-66.6666666666667,4,2,1,75,0,0
148781,-90.9090909090909,4,2,1,75,0,0
148868,-90.9090909090909,4,2,1,5,0,0
148954,-90.9090909090909,4,2,1,75,0,0
149041,-90.9090909090909,4,2,1,5,0,0
149215,-90.9090909090909,4,2,1,75,0,0
149301,-66.6666666666667,4,2,1,75,0,0
151556,-90.9090909090909,4,2,1,75,0,0
151642,-90.9090909090909,4,2,1,5,0,0
151729,-90.9090909090909,4,2,1,75,0,0
151816,-90.9090909090909,4,2,1,5,0,0
151902,-90.9090909090909,4,2,1,75,0,0
151989,-90.9090909090909,4,2,1,5,0,0
152076,-66.6666666666667,4,2,1,75,0,0
154330,-90.9090909090909,4,2,1,75,0,0
154417,-90.9090909090909,4,2,1,5,0,0
154504,-90.9090909090909,4,2,1,75,0,0
154590,-90.9090909090909,4,2,1,5,0,0
154850,-66.6666666666667,4,2,1,75,0,0

[Colours]
Combo1 : 17,254,176
Combo2 : 173,255,95
Combo3 : 255,88,100
Combo4 : 255,94,55

[HitObjects]
413,0,400,5,0,1:0:0:0:
413,0,516,5,12,2:2:0:0:
374,36,631,1,0,3:3:0:0:
374,89,747,1,0,3:3:0:0:
290,108,862,5,8,2:2:0:0:
310,155,978,1,0,0:0:0:0:
360,171,1094,1,0,0:0:0:0:
440,144,1209,6,0,P|257:223|267:342,1,332.5,0|0,1:1|3:3,0:0:0:0:
260,330,1903,5,0,1:1:0:0:
255,0,3290,5,8,2:2:0:0:
431,205,3637,6,0,P|502:175|494:93,1,142.500005435944,4|0,1:2|0:0,0:0:0:0:
457,0,3897,1,2,0:0:0:0:
399,100,3984,2,0,P|385:60|388:19,1,71.2500027179719,10|0,2:2|0:0,0:0:0:0:
457,0,4157,1,0,1:0:0:0:
336,156,4331,6,0,P|301:148|245:136,1,71.2500027179719,2|0,1:2|0:0,0:0:0:0:
131,0,4504,2,0,P|140:40|145:78,1,71.2500027179719,0|0,1:1|0:0,0:0:0:0:
115,262,4677,2,0,P|176:232|166:139,1,142.500005435944,10|0,2:2|0:0,0:0:0:0:
59,87,4938,1,0,1:0:0:0:
59,87,5024,6,0,L|276:143,1,213.750008153916,2|0,1:2|0:0,0:0:0:0:
13,115,5371,6,0,L|236:87,1,213.750008153916,10|0,2:2|0:0,0:0:0:0:
1,101,5718,6,0,L|221:25,1,213.750008153916,2|0,1:2|0:0,0:0:0:0:
31,0,6065,5,10,2:2:0:0:
31,0,6412,6,0,P|86:54|158:88,1,142.500005435944,2|0,1:2|0:0,0:0:0:0:
281,28,6672,1,2,0:0:0:0:
225,88,6759,2,0,P|223:131|243:179,1,71.2500027179719,10|0,2:2|0:0,0:0:0:0:
340,108,6931,1,0,1:0:0:0:
232,251,7106,6,0,P|197:243|141:231,1,71.2500027179719,2|0,1:2|0:0,0:0:0:0:
122,158,7279,2,0,P|81:163|43:170,1,71.2500027179719,0|0,1:1|0:0,0:0:0:0:
0,347,7452,2,0,P|71:335|160:313,1,142.500005435944,10|0,2:2|0:0,0:0:0:0:
209,369,7713,1,0,1:0:0:0:
209,369,7799,2,0,P|308:350|306:236,1,213.750008153916,2|0,1:2|0:0,0:0:0:0:
368,136,8146,6,0,P|377:166|387:215,1,71.2500027179719,10|0,2:2|0:0,0:0:0:0:
480,213,8319,1,2,0:0:0:0:
445,260,8406,1,2,0:0:0:0:
393,281,8493,1,2,1:2:0:0:
353,280,8580,1,2,0:0:0:0:
317,251,8666,1,0,1:1:0:0:
288,219,8753,1,2,0:0:0:0:
236,212,8840,1,10,2:2:0:0:
190,246,8926,1,2,0:0:0:0:
185,311,9012,1,2,0:0:0:0:
185,311,9186,6,0,P|195:244|203:151,1,142.500005435944,2|0,1:2|0:0,0:0:0:0:
103,49,9446,1,2,0:0:0:0:
172,90,9532,2,0,P|208:98|249:104,1,71.2500027179719,10|0,2:2|0:0,0:0:0:0:
377,29,9706,1,0,1:0:0:0:
491,218,9880,6,0,P|498:180|503:126,1,71.2500027179719,2|0,1:2|0:0,0:0:0:0:
377,29,10053,2,0,P|367:73|362:116,1,71.2500027179719,0|0,1:1|0:0,0:0:0:0:
413,324,10226,2,0,P|404:247|403:170,1,142.500005435944,10|0,2:2|0:0,0:0:0:0:
451,77,10487,1,0,1:0:0:0:
501,147,10573,6,0,L|492:213,1,47.5,2|0,1:2|0:0,0:0:0:0:
402,182,10747,2,0,L|411:244,1,47.5,0|0,1:0|0:0,0:0:0:0:
324,249,10920,2,0,L|316:300,1,47.5,10|0,0:2|0:0,0:0:0:0:
233,312,11093,2,0,L|248:388,1,47.5,0|0,1:0|0:0,0:0:0:0:
353,384,11267,5,2,3:2:0:0:
405,371,11354,1,2,3:2:0:0:
459,357,11440,1,2,3:2:0:0:
512,346,11527,1,2,3:2:0:0:
493,374,11614,1,10,3:2:0:0:
480,314,11701,1,2,0:0:0:0:
468,254,11787,1,2,0:0:0:0:
458,194,11874,1,2,0:0:0:0:
475,165,11961,6,0,P|405:184|330:203,1,142.500005435944,2|0,1:2|0:0,0:0:0:0:
248,77,12221,1,2,0:0:0:0:
323,9,12308,2,0,P|333:45|335:84,1,71.2500027179719,10|0,2:2|0:0,0:0:0:0:
271,161,12481,1,2,1:2:0:0:
512,16,12655,6,0,P|471:7|428:-4,1,71.2500027179719,2|0,1:2|0:0,0:0:0:0:
404,64,12828,2,0,P|363:72|329:80,1,71.2500027179719,0|0,1:1|0:0,0:0:0:0:
222,0,13001,2,0,P|180:12|128:26,1,71.2500027179719,10|0,2:2|0:0,0:0:0:0:
139,103,13175,2,0,P|97:95|44:86,1,71.2500027179719,0|0,1:0|0:0,0:0:0:0:
271,161,13348,6,0,P|247:261|222:374,1,213.750008153916,2|0,1:2|0:0,0:0:0:0:
247,112,13695,6,0,P|255:197|263:343,1,213.750008153916,10|0,2:2|0:0,0:0:0:0:
289,60,14042,6,0,P|272:118|250:218,1,142.500005435944,2|0,1:2|1:1,0:0:0:0:
262,325,14389,1,10,2:2:0:0:
262,325,14562,1,0,1:0:0:0:
426,13,19764,5,2,2:2:0:0:
426,13,19850,1,2,2:2:0:0:
426,13,19937,2,0,P|439:57|446:139,1,106.875004076958,2|0,2:2|0:0,0:0:0:0:
394,178,20284,5,4,1:2:0:0:
314,143,20631,1,2,1:2:0:0:
227,194,20978,1,2,1:2:0:0:
335,68,21151,2,0,P|351:28|352:-24,1,71.2500027179719,2|0,2:2|1:1,0:0:0:0:
227,194,21498,5,2,2:2:0:0:
227,194,21584,1,2,2:2:0:0:
227,194,21671,2,0,P|225:228|233:294,1,71.2500027179719,2|2,1:2|2:2,0:0:0:0:
315,342,22018,1,2,1:2:0:0:
315,342,22191,1,2,2:2:0:0:
223,371,22365,1,2,1:2:0:0:
152,343,22538,1,2,2:2:0:0:
66,372,22712,1,2,1:2:0:0:
0,303,22885,1,2,2:2:0:0:
87,209,23058,5,2,1:2:0:0:
376,285,23405,1,2,1:2:0:0:
254,125,23752,2,0,P|247:71|238:3,1,106.875004076958,0|0,1:0|0:0,0:0:0:0:
240,19,24099,1,0,1:0:0:0:
269,202,24272,1,2,2:2:0:0:
269,202,24619,5,2,2:2:0:0:
257,230,24706,1,2,2:2:0:0:
244,263,24793,1,2,1:2:0:0:
301,353,24966,1,2,2:2:0:0:
343,366,25053,1,2,1:2:0:0:
385,377,25139,1,2,1:2:0:0:
466,328,25313,1,2,1:2:0:0:
400,215,25486,1,2,1:2:0:0:
407,164,25573,1,0,1:1:0:0:
414,113,25660,1,2,1:2:0:0:
420,57,25746,1,0,1:1:0:0:
427,2,25833,5,2,2:2:0:0:
346,33,26180,6,0,L|307:20,4,26.1250007972718,2|0|0|0|0,3:2|3:0|3:0|3:0|3:0,3:0:0:0:
281,94,26527,6,0,L|240:100,2,26.1250007972718,2|0|0,3:2|3:0|3:0,3:0:0:0:
341,144,26700,1,0,1:1:0:0:
512,8,26873,5,10,2:2:0:0:
263,384,27220,5,4,1:2:0:0:
385,358,27394,1,2,2:2:0:0:
370,331,27480,1,2,2:2:0:0:
355,303,27567,2,0,L|370:203,1,95,10|2,2:2|2:2,0:0:0:0:
387,185,27827,1,2,2:2:0:0:
406,161,27914,1,2,1:2:0:0:
346,68,28087,1,2,2:2:0:0:
345,79,28174,1,2,2:2:0:0:
343,90,28261,5,10,2:2:0:0:
307,80,28347,1,2,2:2:0:0:
265,66,28434,1,2,2:2:0:0:
225,50,28521,1,2,2:2:0:0:
181,34,28608,5,2,1:2:0:0:
263,138,28781,1,2,2:2:0:0:
49,39,28954,1,10,2:2:0:0:
123,249,29128,2,0,P|146:181|134:100,1,142.5,2|0,2:2|0:0,0:0:0:0:
138,111,29475,5,2,2:2:0:0:
59,167,29648,1,10,2:2:0:0:
236,247,29821,1,2,2:2:0:0:
0,384,29995,5,2,1:2:0:0:
53,305,30168,1,2,2:2:0:0:
94,315,30255,1,2,2:2:0:0:
134,324,30342,1,10,2:2:0:0:
176,332,30428,1,2,2:2:0:0:
218,339,30515,1,2,2:2:0:0:
262,347,30602,1,2,2:2:0:0:
284,365,30689,5,2,1:2:0:0:
342,347,30775,1,0,0:0:0:0:
399,331,30862,2,0,P|423:338|448:343,1,47.5,2|2,2:2|2:2,0:0:0:0:
512,261,31035,1,10,2:2:0:0:
512,261,31209,2,0,P|509:227|505:203,1,47.5,2|2,2:2|2:2,0:0:0:0:
344,17,31382,5,2,1:2:0:0:
316,90,31556,1,2,2:2:0:0:
481,58,31729,1,10,2:2:0:0:
512,136,31902,1,2,2:2:0:0:
512,136,32249,6,0,L|442:148,1,47.5,2|0,1:2|0:0,0:0:0:0:
347,163,32423,2,0,L|265:176,1,47.5,10|0,2:2|0:0,0:0:0:0:
181,186,32596,2,0,L|108:197,1,47.5,2|0,2:2|0:0,0:0:0:0:
0,0,32769,5,2,1:2:0:0:
78,31,33116,1,10,2:2:0:0:
1,124,33290,1,2,0:0:0:0:
1,124,33376,1,2,0:0:0:0:
1,124,33463,2,0,P|-6:169|1:219,1,95,2|2,1:2|2:2,0:0:0:0:
112,350,33810,1,8,2:2:0:0:
21,320,33983,5,2,2:2:0:0:
92,265,34157,1,2,1:2:0:0:
172,291,34330,1,2,2:2:0:0:
246,265,34504,1,10,2:2:0:0:
260,354,34677,1,2,2:2:0:0:
316,225,34850,1,2,1:2:0:0:
361,300,35024,1,0,1:0:0:0:
446,238,35197,1,10,2:2:0:0:
504,322,35371,1,2,2:2:0:0:
370,160,35544,5,2,1:2:0:0:
370,160,35891,2,0,P|373:113|382:58,1,95,10|0,2:2|0:0,0:0:0:0:
446,238,36238,2,0,P|455:305|449:416,1,142.5,2|0,1:2|0:0,0:0:0:0:
453,379,36584,1,8,1:2:0:0:
340,294,36758,1,2,2:2:0:0:
340,294,37105,5,2,2:2:0:0:
367,217,37278,1,10,2:2:0:0:
295,158,37452,1,2,2:2:0:0:
466,109,37625,1,2,1:2:0:0:
464,10,37798,1,0,1:0:0:0:
402,61,37972,1,10,2:2:0:0:
274,15,38145,1,2,1:2:0:0:
218,66,38319,5,2,2:2:0:0:
218,66,38665,5,2,0:0:0:0:
218,66,39012,5,2,0:0:0:0:
218,66,39359,6,0,P|151:85|78:102,1,142.5,2|0,2:2|0:0,0:0:0:0:
19,64,39706,5,4,1:2:0:0:
115,175,39879,1,8,2:2:0:0:
154,194,39966,1,0,1:0:0:0:
199,191,40053,1,8,2:2:0:0:
236,220,40139,1,8,2:2:0:0:
283,218,40226,1,8,2:2:0:0:
329,247,40313,1,8,2:2:0:0:
378,244,40400,1,0,1:1:0:0:
251,0,40746,5,10,2:2:0:0:
162,384,41093,5,4,1:2:0:0:
235,291,41267,1,2,2:2:0:0:
235,291,41440,1,10,2:2:0:0:
235,291,41613,5,2,2:2:0:0:
265,322,41699,1,2,2:2:0:0:
311,333,41786,1,0,1:1:0:0:
311,333,41960,5,2,2:2:0:0:
357,313,42047,1,2,2:2:0:0:
406,321,42133,1,8,2:2:0:0:
457,380,42307,1,2,2:2:0:0:
512,249,42480,5,2,1:2:0:0:
512,249,42654,1,2,2:2:0:0:
477,221,42741,1,2,2:2:0:0:
431,215,42827,1,8,2:2:0:0:
386,225,42914,1,0,0:0:0:0:
346,200,43001,1,2,2:2:0:0:
332,151,43087,1,2,2:2:0:0:
352,112,43174,1,0,1:1:0:0:
390,86,43347,5,2,2:2:0:0:
398,42,43434,1,2,2:2:0:0:
370,0,43521,1,8,2:2:0:0:
302,52,43694,1,2,2:2:0:0:
512,0,43868,5,2,1:2:0:0:
512,0,44041,1,2,2:2:0:0:
470,37,44128,1,2,2:2:0:0:
471,95,44215,1,8,2:2:0:0:
471,95,44388,5,2,2:2:0:0:
447,145,44475,1,2,2:2:0:0:
396,160,44561,1,0,1:1:0:0:
396,160,44735,5,2,2:2:0:0:
345,194,44821,1,2,2:2:0:0:
336,251,44908,1,8,2:2:0:0:
420,359,45082,1,2,2:2:0:0:
508,384,45255,5,2,1:2:0:0:
357,308,45428,1,2,2:2:0:0:
296,306,45515,1,2,2:2:0:0:
245,332,45602,1,8,2:2:0:0:
209,380,45775,5,2,2:2:0:0:
152,362,45862,1,2,2:2:0:0:
127,308,45949,1,0,1:1:0:0:
148,251,46122,5,2,2:2:0:0:
195,197,46209,1,2,2:2:0:0:
186,126,46295,1,8,2:2:0:0:
82,174,46469,1,10,2:2:0:0:
239,43,46642,5,4,1:2:0:0:
288,63,46729,1,2,2:2:0:0:
308,110,46816,1,2,2:2:0:0:
348,143,46902,1,2,2:2:0:0:
404,133,46989,1,10,2:2:0:0:
446,60,47163,1,2,2:2:0:0:
192,98,47336,5,2,1:2:0:0:
242,93,47423,1,2,2:2:0:0:
293,89,47509,1,2,2:2:0:0:
344,84,47596,1,2,2:2:0:0:
397,76,47683,1,10,2:2:0:0:
336,2,47856,1,2,2:2:0:0:
193,108,48030,5,2,1:2:0:0:
246,102,48117,1,2,2:2:0:0:
300,98,48203,1,2,2:2:0:0:
354,93,48290,1,2,2:2:0:0:
408,86,48377,1,10,2:2:0:0:
340,8,48550,1,2,2:2:0:0:
188,121,48723,5,2,1:2:0:0:
247,114,48810,1,2,2:2:0:0:
307,110,48896,1,2,2:2:0:0:
366,104,48983,1,2,2:2:0:0:
426,96,49070,1,10,2:2:0:0:
345,14,49243,1,2,2:2:0:0:
497,51,49417,6,0,L|507:0,1,52.2500015945435,2|0,1:2|0:0,0:0:0:0:
507,0,49590,2,0,L|497:51,1,52.2500015945435,2|0,2:2|0:0,0:0:0:0:
496,51,49764,1,10,2:2:0:0:
428,223,49937,5,2,2:2:0:0:
416,167,50024,1,2,2:2:0:0:
404,113,50110,1,2,1:2:0:0:
391,57,50197,1,2,2:2:0:0:
404,113,50284,1,2,2:2:0:0:
416,167,50371,1,2,2:2:0:0:
428,223,50457,1,10,2:2:0:0:
327,171,50631,1,2,2:2:0:0:
506,180,50804,5,2,1:2:0:0:
505,243,50891,1,0,0:0:0:0:
473,293,50978,1,2,2:2:0:0:
414,302,51064,1,2,2:2:0:0:
361,278,51151,1,12,2:2:0:0:
303,274,51238,1,0,0:0:0:0:
266,321,51324,1,2,2:2:0:0:
268,384,51411,1,0,0:0:0:0:
268,384,51498,5,2,1:2:0:0:
414,302,51671,1,2,1:2:0:0:
159,347,51845,1,10,2:2:0:0:
159,347,52018,2,0,P|162:316|167:290,1,52.2500015945435,8|8,2:2|2:2,0:0:0:0:
269,204,52191,5,4,1:2:0:0:
269,204,52365,2,0,P|261:176|259:139,1,52.2500015945435,2|0,2:2|0:0,0:0:0:0:
310,49,52538,1,10,2:2:0:0:
310,49,52712,1,2,2:2:0:0:
265,16,52798,1,2,2:2:0:0:
215,10,52885,1,2,2:2:0:0:
215,10,53058,2,0,P|205:42|203:78,1,52.2500015945435,2|2,1:2|2:2,0:0:0:0:
202,60,53232,1,8,2:2:0:0:
202,60,53405,1,2,2:2:0:0:
19,132,53579,5,2,1:2:0:0:
19,132,53752,2,0,P|45:137|68:148,1,52.2500015945435,2|2,2:2|2:2,0:0:0:0:
130,214,53926,1,8,2:2:0:0:
130,214,54099,2,0,P|159:213|198:201,1,52.2500015945435,2|2,2:2|2:2,0:0:0:0:
258,163,54272,1,2,2:2:0:0:
258,163,54446,1,2,1:2:0:0:
307,184,54532,1,2,2:2:0:0:
324,238,54619,1,8,2:2:0:0:
284,319,54793,1,2,2:2:0:0:
14,375,54966,5,2,1:2:0:0:
93,285,55139,1,2,2:2:0:0:
147,301,55226,1,2,2:2:0:0:
172,347,55313,1,8,2:2:0:0:
221,374,55400,1,2,2:2:0:0:
275,355,55486,1,2,2:2:0:0:
307,309,55573,1,2,2:2:0:0:
293,255,55660,1,2,2:2:0:0:
251,221,55833,5,2,1:2:0:0:
225,174,55920,1,2,2:2:0:0:
233,122,56006,2,0,L|243:70,1,52.2500015945435,8|0,2:2|0:0,0:0:0:0:
294,8,56180,1,2,2:2:0:0:
504,60,56353,5,2,1:2:0:0:
504,60,56527,1,2,2:2:0:0:
453,80,56613,1,2,2:2:0:0:
426,122,56700,2,0,P|428:154|436:188,1,52.2500015945435,8|0,2:2|0:0,0:0:0:0:
490,255,56873,1,2,1:2:0:0:
361,309,57047,1,2,2:2:0:0:
361,309,57220,1,2,1:2:0:0:
304,286,57307,1,2,2:2:0:0:
277,235,57394,1,8,2:2:0:0:
310,152,57567,1,10,2:2:0:0:
470,373,57741,5,4,1:2:0:0:
416,365,57827,1,2,2:2:0:0:
357,359,57914,1,2,2:2:0:0:
303,357,58001,1,2,2:2:0:0:
247,362,58087,1,10,2:2:0:0:
174,325,58261,1,2,2:2:0:0:
287,266,58434,5,2,2:2:0:0:
306,216,58521,1,2,2:2:0:0:
315,167,58608,1,2,1:2:0:0:
311,116,58694,1,2,2:2:0:0:
300,65,58781,1,10,2:2:0:0:
199,153,58954,1,2,2:2:0:0:
289,273,59128,1,2,1:2:0:0:
307,221,59215,1,2,2:2:0:0:
317,167,59302,1,2,2:2:0:0:
312,110,59388,1,2,2:2:0:0:
301,53,59475,1,10,2:2:0:0:
189,151,59648,1,2,2:2:0:0:
289,286,59821,1,2,2:2:0:0:
310,228,59908,1,2,2:2:0:0:
321,167,59995,1,2,1:2:0:0:
315,104,60081,1,2,2:2:0:0:
303,40,60168,1,10,2:2:0:0:
177,150,60341,1,2,2:2:0:0:
219,1,60515,6,0,L|223:54,1,52.2500015945435,2|0,1:2|0:0,0:0:0:0:
222,53,60689,2,0,L|215:-11,1,52.2500015945435,2|0,2:2|0:0,0:0:0:0:
216,1,60862,1,10,2:2:0:0:
135,60,61035,1,2,2:2:0:0:
88,48,61122,1,2,2:2:0:0:
55,0,61209,1,2,2:2:0:0:
88,48,61295,1,0,0:0:0:0:
78,95,61382,1,2,1:2:0:0:
56,143,61469,1,2,2:2:0:0:
8,162,61556,1,8,2:2:0:0:
0,78,61729,1,2,2:2:0:0:
120,188,61902,5,4,1:2:0:0:
189,167,61989,1,2,2:2:0:0:
259,145,62076,1,2,2:2:0:0:
327,123,62163,1,2,2:2:0:0:
290,184,62249,1,10,2:2:0:0:
247,240,62336,1,2,2:2:0:0:
202,295,62423,1,4,1:2:0:0:
148,246,62509,1,2,2:2:0:0:
97,195,62596,1,2,2:2:0:0:
258,345,62769,1,10,2:2:0:0:
12,378,62943,1,10,2:2:0:0:
44,307,63116,5,2,2:2:0:0:
44,307,63290,1,2,2:2:0:0:
257,384,64330,6,0,P|260:352|259:322,1,57,8|0,2:2|0:0,0:0:0:0:
259,327,64677,6,0,P|327:317|403:284,1,142.500005435944,4|0,1:2|0:0,0:0:0:0:
479,168,64937,1,2,0:0:0:0:
404,199,65024,2,0,P|394:163|393:118,1,71.2500027179719,10|0,2:2|0:0,0:0:0:0:
508,9,65197,1,0,1:0:0:0:
392,129,65371,6,0,P|357:121|301:109,1,71.2500027179719,2|0,1:2|0:0,0:0:0:0:
101,80,65544,2,0,P|138:72|175:61,1,71.2500027179719,0|0,1:1|0:0,0:0:0:0:
261,0,65717,2,0,P|256:54|233:154,1,142.500005435944,10|0,2:2|0:0,0:0:0:0:
145,165,65978,1,0,1:0:0:0:
145,165,66064,6,0,P|216:180|358:240,1,213.750008153916,2|0,1:2|0:0,0:0:0:0:
130,147,66411,6,0,P|221:190|326:285,1,213.750008153916,10|0,2:2|0:0,0:0:0:0:
124,127,66758,6,0,P|184:221|215:319,1,213.750008153916,2|0,1:2|0:0,0:0:0:0:
114,105,67105,5,10,2:2:0:0:
114,105,67452,6,0,P|182:95|258:62,1,142.500005435944,2|0,1:2|0:0,0:0:0:0:
405,0,67712,1,2,0:0:0:0:
340,71,67799,2,0,P|380:80|428:95,1,71.2500027179719,10|0,2:2|0:0,0:0:0:0:
448,225,67972,1,2,1:2:0:0:
448,225,68146,6,0,P|413:217|357:205,1,71.2500027179719,2|0,1:2|0:0,0:0:0:0:
293,293,68319,2,0,P|254:284|219:274,1,71.2500027179719,0|0,1:1|0:0,0:0:0:0:
139,123,68492,2,0,P|134:177|111:277,1,142.500005435944,10|0,2:2|0:0,0:0:0:0:
149,380,68753,1,0,1:0:0:0:
149,380,68839,2,0,P|244:356|357:334,1,213.750008153916,2|0,1:2|0:0,0:0:0:0:
357,333,69186,6,0,L|376:254,1,71.2500027179719,10|0,2:2|0:0,0:0:0:0:
465,249,69359,1,2,0:0:0:0:
442,205,69446,1,2,0:0:0:0:
396,184,69533,1,2,1:2:0:0:
338,184,69620,1,2,0:0:0:0:
299,202,69706,1,0,1:1:0:0:
274,235,69793,1,2,0:0:0:0:
240,244,69880,1,10,2:2:0:0:
191,227,69966,1,2,0:0:0:0:
172,175,70053,1,2,0:0:0:0:
172,175,70226,6,0,P|254:137|294:79,1,142.500005435944,2|0,1:2|0:0,0:0:0:0:
285,97,70920,5,8,2:2:0:0:
368,62,71267,1,8,2:2:0:0:
502,117,71440,5,8,2:2:0:0:
502,117,71527,1,8,2:2:0:0:
502,117,71613,2,0,L|493:183,1,47.5,6|0,1:2|0:0,0:0:0:0:
416,185,71787,2,0,L|425:247,1,47.5,0|0,1:0|0:0,0:0:0:0:
512,249,71960,2,0,L|504:300,1,47.5,10|0,2:2|0:0,0:0:0:0:
382,296,72134,2,0,L|397:372,1,47.5,0|0,1:0|0:0,0:0:0:0:
474,379,72307,5,2,3:2:0:0:
422,366,72394,1,2,3:2:0:0:
368,352,72480,1,2,3:2:0:0:
315,341,72567,1,2,3:2:0:0:
278,359,72654,1,10,3:2:0:0:
284,305,72741,1,2,0:0:0:0:
295,247,72827,1,2,0:0:0:0:
306,190,72914,1,2,0:0:0:0:
273,160,73001,6,0,P|343:152|418:133,1,142.500005435944,2|0,1:2|0:0,0:0:0:0:
510,22,73261,1,2,0:0:0:0:
427,51,73348,2,0,P|389:43|354:29,1,71.2500027179719,10|0,2:2|0:0,0:0:0:0:
510,22,73521,1,2,1:2:0:0:
412,134,73695,6,0,P|405:172|405:215,1,71.2500027179719,2|0,1:2|0:0,0:0:0:0:
498,359,73868,2,0,P|507:320|509:276,1,71.2500027179719,0|0,1:1|0:0,0:0:0:0:
313,224,74041,2,0,P|318:277|338:321,1,71.2500027179719,10|0,2:2|0:0,0:0:0:0:
394,384,74215,2,0,P|406:348|408:315,1,71.2500027179719,0|0,1:0|0:0,0:0:0:0:
251,69,74388,6,0,P|232:172|202:282,1,213.750008153916,2|0,1:2|0:0,0:0:0:0:
272,38,74735,6,0,P|239:159|200:260,1,213.750008153916,10|0,2:2|0:0,0:0:0:0:
294,9,75082,6,0,P|261:104|238:162,1,142.500005435944,2|0,1:2|1:1,0:0:0:0:
207,241,75429,1,10,2:2:0:0:
134,211,75602,1,0,1:0:0:0:
50,23,75775,5,4,1:2:0:0:
50,23,76295,1,2,2:2:0:0:
50,23,76469,2,0,P|97:40|176:52,1,95,10|2,2:2|2:2,0:0:0:0:
141,49,76989,5,2,0:0:0:0:
78,123,77336,1,2,0:0:0:0:
272,208,77683,1,2,2:2:0:0:
144,273,77856,2,0,P|134:213|149:152,1,95,10|2,2:2|2:2,0:0:0:0:
138,179,78376,5,2,2:2:0:0:
63,284,78550,2,0,P|57:329|67:387,1,95,2|2,1:2|1:2,0:0:0:0:
64,377,79070,5,2,2:2:0:0:
0,198,79243,2,0,P|-5:149|3:88,1,95,10|2,2:2|2:2,0:0:0:0:
0,103,79764,1,2,0:0:0:0:
0,103,79937,5,2,1:2:0:0:
57,122,80053,1,2,2:2:0:0:
107,144,80168,1,2,2:2:0:0:
174,177,80284,5,2,1:2:0:0:
222,164,80400,1,2,2:2:0:0:
273,154,80515,1,2,2:2:0:0:
333,86,80631,5,10,2:2:0:0:
333,86,80978,6,0,P|315:152|291:285,1,199.499993911743,2|0,1:2|0:0,0:0:0:0:
205,348,81324,5,2,1:2:0:0:
205,348,81844,1,2,2:2:0:0:
205,348,82018,2,0,P|252:365|331:377,1,95,10|2,2:2|2:2,0:0:0:0:
512,224,82538,5,2,0:0:0:0:
434,123,82885,1,2,2:2:0:0:
325,307,83232,1,2,2:2:0:0:
399,364,83405,2,0,P|409:304|394:243,1,95,10|2,2:2|2:2,0:0:0:0:
255,224,83752,2,0,P|325:211|406:185,1,142.5,2|0,2:2|0:0,0:0:0:0:
393,189,84099,5,2,1:2:0:0:
406,137,84215,1,0,0:0:0:0:
417,82,84330,1,2,2:2:0:0:
420,161,84446,5,2,1:2:0:0:
409,128,84561,1,2,2:2:0:0:
398,98,84677,1,2,2:2:0:0:
297,46,84793,5,10,1:2:0:0:
342,26,84908,1,2,2:2:0:0:
385,8,85024,1,2,2:2:0:0:
309,24,85139,5,2,1:2:0:0:
334,31,85255,1,2,0:0:0:0:
367,42,85371,1,2,0:0:0:0:
420,161,85486,5,2,1:2:0:0:
413,200,85602,1,0,1:0:0:0:
406,241,85717,1,2,1:2:0:0:
346,303,85833,5,2,1:2:0:0:
326,296,85949,1,0,1:0:0:0:
307,288,86064,1,2,1:2:0:0:
243,229,86180,6,0,P|215:298|230:367,1,126.666666666667,10|0,2:2|0:0,0:0:0:0:
221,348,86527,6,0,L|202:163,1,142.5,2|0,1:2|0:0,0:0:0:0:
252,144,86873,5,2,2:2:0:0:
252,144,87567,5,2,2:2:0:0:
0,8,87914,5,4,1:2:0:0:
68,139,88087,2,0,L|269:81,2,190,0|2|2,1:0|2:2|2:2,0:0:0:0:
17,193,88954,1,10,2:2:0:0:
37,269,89128,1,2,1:2:0:0:
37,269,89475,1,2,2:2:0:0:
111,279,89648,1,2,1:2:0:0:
170,334,89821,1,2,2:2:0:0:
170,334,90168,1,2,1:2:0:0:
242,359,90342,1,10,2:2:0:0:
316,338,90515,1,2,2:2:0:0:
316,338,90862,1,2,1:2:0:0:
392,383,91035,5,2,1:2:0:0:
443,359,91151,1,2,2:2:0:0:
485,322,91267,1,2,2:2:0:0:
392,383,91382,5,2,1:2:0:0:
443,359,91498,1,2,2:2:0:0:
485,322,91613,1,2,2:2:0:0:
491,242,91729,5,10,2:2:0:0:
13,141,92076,1,6,1:2:0:0:
256,0,92423,5,2,1:2:0:0:
256,0,92943,1,2,1:2:0:0:
102,112,93116,2,0,L|-28:85,1,95,10|2,2:2|2:2,0:0:0:0:
9,93,93637,2,0,L|213:60,2,190,0|2|2,1:0|1:2|2:2,0:0:0:0:
9,93,94504,1,10,2:2:0:0:
9,93,94677,1,2,2:2:0:0:
80,161,94850,2,0,P|77:215|34:297,1,142.5,2|0,1:2|0:0,0:0:0:0:
37,292,95197,5,4,1:2:0:0:
94,285,95313,1,2,2:2:0:0:
149,276,95428,1,2,2:2:0:0:
172,201,95544,5,2,1:2:0:0:
217,213,95660,1,2,2:2:0:0:
258,224,95775,1,2,2:2:0:0:
286,304,95891,5,10,2:2:0:0:
327,293,96006,1,2,2:2:0:0:
361,283,96122,1,2,2:2:0:0:
376,359,96238,5,2,1:2:0:0:
399,366,96353,1,2,2:2:0:0:
427,371,96469,1,2,2:2:0:0:
512,274,96584,6,0,L|450:287,1,63.3333333333333,4|0,1:2|0:0,0:0:0:0:
260,377,96816,6,0,L|199:362,1,63.3333333333333,0|0,1:1|0:0,0:0:0:0:
61,252,97047,6,0,L|-1:266,1,63.3333333333333,0|0,1:1|0:0,0:0:0:0:
128,193,97278,6,0,P|150:139|129:53,1,142.5,0|0,1:1|0:0,0:0:0:0:
57,0,97625,6,0,P|24:51|38:140,1,142.5,2|0,1:2|3:3,0:0:0:0:
31,129,97972,5,2,2:2:0:0:
31,129,99012,6,0,P|88:122|163:86,1,106.875004076958,2|0,0:0|0:0,0:0:0:0:
252,0,99359,5,12,2:2:0:0:
252,0,99532,1,8,2:2:0:0:
255,384,99879,1,8,2:2:0:0:
255,384,100053,1,8,2:2:0:0:
255,190,100400,1,2,2:2:0:0:
255,190,100746,5,4,1:2:0:0:
255,190,100920,1,2,0:0:0:0:
255,190,101093,1,2,0:0:0:0:
325,221,101267,1,2,0:0:0:0:
331,220,101353,1,2,0:0:0:0:
337,219,101440,1,2,0:0:0:0:
396,172,101613,1,2,0:0:0:0:
401,174,101699,1,2,0:0:0:0:
406,176,101786,1,2,0:0:0:0:
459,233,101960,1,2,0:0:0:0:
509,322,102134,5,2,0:0:0:0:
447,366,102307,1,2,0:0:0:0:
442,364,102393,1,2,0:0:0:0:
437,362,102480,1,2,0:0:0:0:
383,313,102654,1,2,0:0:0:0:
383,313,102827,1,2,0:0:0:0:
421,247,103001,1,2,0:0:0:0:
422,241,103087,1,2,0:0:0:0:
423,235,103174,1,2,0:0:0:0:
378,176,103347,1,2,0:0:0:0:
310,104,103521,5,2,0:0:0:0:
367,49,103694,1,2,0:0:0:0:
368,42,103780,1,2,0:0:0:0:
369,36,103867,1,2,0:0:0:0:
412,48,104041,1,2,0:0:0:0:
413,41,104127,1,2,0:0:0:0:
414,35,104214,1,2,0:0:0:0:
477,85,104388,1,2,0:0:0:0:
476,92,104474,1,2,0:0:0:0:
475,98,104561,1,2,0:0:0:0:
424,156,104735,1,2,0:0:0:0:
294,128,104908,5,2,0:0:0:0:
232,84,105082,1,2,0:0:0:0:
227,86,105168,1,2,0:0:0:0:
223,89,105255,1,2,0:0:0:0:
158,123,105428,1,2,0:0:0:0:
154,128,105514,1,2,0:0:0:0:
150,133,105601,1,2,0:0:0:0:
121,57,105775,1,0,3:0:0:0:
123,49,105861,1,0,3:0:0:0:
125,40,105948,1,0,3:0:0:0:
191,0,106122,1,2,0:0:0:0:
45,106,106295,5,4,1:2:0:0:
46,141,106382,1,2,2:2:0:0:
49,174,106469,1,2,2:2:0:0:
52,208,106556,1,2,2:2:0:0:
54,240,106642,1,2,1:2:0:0:
133,204,106816,1,2,2:2:0:0:
276,286,106989,5,2,1:2:0:0:
240,295,107076,1,2,2:2:0:0:
203,308,107163,1,2,2:2:0:0:
166,322,107249,1,2,1:2:0:0:
130,340,107336,1,2,2:2:0:0:
46,328,107509,1,2,1:2:0:0:
274,297,107683,5,2,1:2:0:0:
236,307,107770,1,2,2:2:0:0:
196,321,107857,1,2,2:2:0:0:
156,336,107943,1,2,2:2:0:0:
117,355,108030,1,2,1:2:0:0:
27,342,108203,1,2,2:2:0:0:
264,313,108376,5,2,1:2:0:0:
225,322,108463,1,2,2:2:0:0:
185,336,108550,1,2,2:2:0:0:
144,351,108636,1,2,1:2:0:0:
106,371,108723,1,2,2:2:0:0:
15,358,108896,1,0,1:1:0:0:
77,279,109070,5,2,1:2:0:0:
79,273,109157,1,0,0:0:0:0:
79,265,109243,1,2,1:2:0:0:
82,259,109330,1,0,0:0:0:0:
84,253,109417,1,2,1:2:0:0:
87,246,109504,1,0,0:0:0:0:
87,238,109590,1,2,1:2:0:0:
92,232,109677,1,2,2:2:0:0:
119,237,109764,5,2,1:2:0:0:
113,223,109850,1,2,2:2:0:0:
118,212,109937,1,2,1:2:0:0:
116,200,110024,1,2,2:2:0:0:
116,188,110110,1,2,1:2:0:0:
106,178,110197,1,0,0:0:0:0:
108,166,110284,1,2,1:2:0:0:
103,155,110371,1,0,0:0:0:0:
107,142,110457,5,0,1:1:0:0:
145,100,110544,1,0,1:1:0:0:
204,97,110631,1,0,1:1:0:0:
245,131,110717,1,0,1:1:0:0:
284,171,110804,1,0,1:1:0:0:
342,162,110891,1,0,1:1:0:0:
372,127,110978,1,0,1:1:0:0:
371,72,111064,1,0,1:1:0:0:
348,40,111151,5,2,2:2:0:0:
348,40,111324,1,2,2:2:0:0:
348,40,111498,1,10,2:2:0:0:
348,40,111845,5,4,1:2:0:0:
266,67,112019,1,2,2:2:0:0:
188,99,112192,1,10,2:2:0:0:
188,99,112365,5,2,2:2:0:0:
135,104,112451,1,2,2:2:0:0:
98,78,112538,1,0,1:1:0:0:
98,78,112712,5,2,2:2:0:0:
51,50,112799,1,2,2:2:0:0:
0,56,112885,1,8,2:2:0:0:
35,130,113059,1,2,2:2:0:0:
0,214,113232,5,2,1:2:0:0:
113,167,113406,1,2,2:2:0:0:
124,221,113493,1,2,2:2:0:0:
97,267,113579,1,8,2:2:0:0:
97,267,113753,5,2,2:2:0:0:
125,320,113839,1,2,2:2:0:0:
187,332,113926,1,0,1:1:0:0:
187,332,114099,5,2,2:2:0:0:
246,313,114186,1,2,2:2:0:0:
302,334,114273,1,8,2:2:0:0:
370,384,114446,1,2,2:2:0:0:
419,293,114620,5,2,1:2:0:0:
419,293,114793,1,2,2:2:0:0:
392,251,114880,1,2,2:2:0:0:
395,200,114967,1,8,2:2:0:0:
426,160,115053,1,2,2:2:0:0:
443,112,115140,1,2,2:2:0:0:
431,63,115227,1,2,2:2:0:0:
394,25,115313,1,0,1:1:0:0:
394,25,115487,5,2,2:2:0:0:
332,46,115573,1,2,2:2:0:0:
318,105,115660,1,8,2:2:0:0:
395,200,115834,1,2,2:2:0:0:
512,10,116007,5,2,1:2:0:0:
443,112,116180,1,2,2:2:0:0:
393,127,116267,1,2,2:2:0:0:
344,120,116354,1,8,2:2:0:0:
294,91,116440,1,0,0:0:0:0:
274,49,116527,1,2,2:2:0:0:
274,49,116701,1,0,1:1:0:0:
344,120,116874,5,2,2:2:0:0:
372,185,116961,1,2,2:2:0:0:
357,255,117047,1,8,2:2:0:0:
268,191,117221,1,10,2:2:0:0:
493,266,117394,5,4,1:2:0:0:
446,286,117481,1,2,2:2:0:0:
426,333,117568,1,2,2:2:0:0:
380,364,117654,1,2,2:2:0:0:
329,351,117741,1,10,2:2:0:0:
251,379,117915,1,2,2:2:0:0:
365,262,118088,5,2,1:2:0:0:
369,212,118175,1,2,2:2:0:0:
374,162,118261,1,2,2:2:0:0:
379,110,118348,1,2,2:2:0:0:
385,58,118435,1,10,2:2:0:0:
270,162,118608,1,2,2:2:0:0:
368,271,118781,5,2,1:2:0:0:
373,217,118868,1,2,2:2:0:0:
378,162,118954,1,2,2:2:0:0:
383,105,119041,1,2,2:2:0:0:
390,49,119128,1,10,2:2:0:0:
486,176,119301,1,2,2:2:0:0:
355,277,119475,5,2,1:2:0:0:
361,217,119562,1,2,2:2:0:0:
367,157,119648,1,2,2:2:0:0:
372,94,119735,1,2,2:2:0:0:
378,33,119822,1,10,2:2:0:0:
255,162,119995,1,2,2:2:0:0:
451,1,120169,6,0,L|501:11,1,52.2500015945435,2|0,1:2|0:0,0:0:0:0:
501,11,120342,2,0,L|450:0,1,52.2500015945435,2|0,2:2|0:0,0:0:0:0:
502,11,120515,1,10,2:2:0:0:
376,104,120689,5,2,2:2:0:0:
320,90,120776,1,2,2:2:0:0:
266,77,120862,1,2,1:2:0:0:
211,64,120949,1,2,2:2:0:0:
266,77,121036,1,2,2:2:0:0:
320,90,121123,1,2,2:2:0:0:
376,104,121209,1,10,2:2:0:0:
264,164,121383,1,2,2:2:0:0:
163,0,121556,5,2,1:2:0:0:
127,43,121643,1,0,1:0:0:0:
125,99,121730,1,2,1:2:0:0:
163,141,121816,1,2,1:2:0:0:
191,190,121902,1,12,1:2:0:0:
191,249,121989,1,0,1:0:0:0:
162,298,122076,1,2,1:2:0:0:
115,318,122163,1,2,1:2:0:0:
115,318,122250,5,2,1:2:0:0:
2,252,122423,1,2,1:2:0:0:
247,331,122597,1,10,2:2:0:0:
247,331,122770,2,0,P|244:362|239:388,1,52.2500015945435,8|8,2:2|2:2,0:0:0:0:
355,201,122943,5,4,1:2:0:0:
355,201,123117,2,0,P|363:229|365:266,1,52.2500015945435,2|0,2:2|0:0,0:0:0:0:
247,331,123290,1,10,2:2:0:0:
247,331,123464,1,2,2:2:0:0:
292,351,123550,1,2,2:2:0:0:
341,342,123637,1,2,2:2:0:0:
341,342,123810,2,0,P|369:346|397:357,1,52.2500015945435,2|2,1:2|2:2,0:0:0:0:
391,354,123984,1,8,2:2:0:0:
391,354,124157,1,2,2:2:0:0:
247,331,124331,5,2,1:2:0:0:
247,331,124504,2,0,P|241:303|241:273,1,52.2500015945435,2|2,2:2|2:2,0:0:0:0:
365,121,124678,1,8,2:2:0:0:
365,121,124851,2,0,P|371:151|371:175,1,52.2500015945435,2|2,2:2|2:2,0:0:0:0:
280,207,125024,1,2,2:2:0:0:
280,207,125198,1,2,1:2:0:0:
231,186,125284,1,2,2:2:0:0:
214,132,125371,1,8,2:2:0:0:
255,43,125545,1,2,2:2:0:0:
498,9,125718,5,6,1:2:0:0:
417,99,125891,1,2,2:2:0:0:
363,83,125978,1,2,2:2:0:0:
338,37,126065,1,8,2:2:0:0:
289,10,126152,1,2,2:2:0:0:
235,29,126238,1,2,2:2:0:0:
203,75,126325,1,2,2:2:0:0:
217,129,126412,1,2,2:2:0:0:
259,163,126585,5,2,1:2:0:0:
285,210,126672,1,2,2:2:0:0:
277,262,126758,2,0,L|267:314,1,52.2500015945435,8|0,2:2|0:0,0:0:0:0:
371,172,126932,1,2,2:2:0:0:
267,313,127105,5,2,1:2:0:0:
267,313,127279,1,2,2:2:0:0:
230,350,127365,1,2,2:2:0:0:
176,341,127452,1,8,2:2:0:0:
143,301,127538,1,0,0:0:0:0:
100,268,127625,1,2,1:2:0:0:
46,268,127712,1,2,2:2:0:0:
2,303,127799,1,2,2:2:0:0:
46,268,127972,5,2,1:2:0:0:
55,211,128059,1,2,2:2:0:0:
32,159,128146,1,12,2:2:0:0:
2,303,128319,1,10,2:2:0:0:
151,152,128493,5,4,1:2:0:0:
199,167,128579,1,2,2:2:0:0:
245,182,128666,1,2,2:2:0:0:
294,197,128753,1,2,2:2:0:0:
337,210,128839,1,10,2:2:0:0:
151,152,129013,1,2,2:2:0:0:
291,108,129186,5,2,2:2:0:0:
343,89,129273,1,2,2:2:0:0:
393,71,129360,1,2,1:2:0:0:
444,53,129446,1,2,2:2:0:0:
496,33,129533,1,10,2:2:0:0:
434,154,129706,1,2,2:2:0:0:
220,76,129879,5,2,1:2:0:0:
168,57,129966,1,2,2:2:0:0:
118,39,130053,1,2,1:2:0:0:
67,21,130139,1,2,2:2:0:0:
15,1,130226,1,10,2:2:0:0:
77,122,130399,1,2,2:2:0:0:
262,163,130573,5,2,2:2:0:0:
240,213,130660,1,2,2:2:0:0:
219,262,130747,1,2,1:2:0:0:
199,312,130833,1,2,2:2:0:0:
176,363,130920,1,10,2:2:0:0:
131,211,131093,1,2,2:2:0:0:
340,337,131267,6,0,L|336:284,1,52.2500015945435,2|0,1:2|0:0,0:0:0:0:
336,284,131440,2,0,L|343:348,1,52.2500015945435,2|0,2:2|0:0,0:0:0:0:
270,384,131614,1,10,2:2:0:0:
419,289,131787,1,2,2:2:0:0:
465,316,131874,1,2,2:2:0:0:
482,361,131961,1,2,2:2:0:0:
465,316,132047,1,2,2:2:0:0:
442,260,132134,1,2,1:2:0:0:
427,211,132221,1,2,2:2:0:0:
414,163,132308,1,8,2:2:0:0:
512,233,132481,1,2,2:2:0:0:
358,95,132654,5,4,1:2:0:0:
322,157,132741,1,2,1:2:0:0:
287,219,132828,1,2,1:2:0:0:
241,276,132915,1,2,1:2:0:0:
201,210,133001,1,0,1:1:0:0:
166,142,133087,1,2,1:2:0:0:
127,79,133175,1,4,1:2:0:0:
195,43,133261,1,2,1:2:0:0:
263,13,133347,1,10,2:2:0:0:
253,113,133521,1,10,2:2:0:0:
22,13,133695,1,10,2:2:0:0:
51,104,133868,5,2,2:2:0:0:
51,104,134042,1,2,2:2:0:0:
109,236,135082,6,0,P|100:211|97:191,1,42.7499986953736,0|0,3:3|0:0,0:0:0:0:
97,195,135428,6,0,P|197:222|308:276,1,213.750008153916,4|0,1:2|0:0,0:0:0:0:
55,135,135775,6,0,P|142:169|245:245,1,213.750008153916,10|0,2:2|0:0,0:0:0:0:
36,62,136122,6,0,P|79:84|199:213,1,213.750008153916,2|0,1:2|0:0,0:0:0:0:
6,0,136469,6,0,P|107:79|161:153,1,213.750008153916,10|0,2:2|0:0,0:0:0:0:
239,239,136816,5,2,1:2:0:0:
183,319,136989,1,2,2:2:0:0:
47,226,137163,1,10,2:2:0:0:
47,226,137336,1,2,2:2:0:0:
183,319,137509,1,2,1:2:0:0:
0,384,137683,5,0,1:0:0:0:
272,283,137856,1,10,2:2:0:0:
41,311,138030,1,2,1:2:0:0:
300,197,138203,6,0,P|352:102|340:-28,1,213.750008153916,2|0,1:2|0:0,0:0:0:0:
284,234,138550,6,0,P|225:132|255:-8,1,213.750008153916,10|0,2:2|0:0,0:0:0:0:
380,285,138897,6,0,P|448:213|418:46,1,213.750008153916,2|0,1:2|0:0,0:0:0:0:
261,325,139244,6,0,P|162:272|169:147,1,213.750008153916,10|0,2:2|0:0,0:0:0:0:
200,101,139591,5,2,1:2:0:0:
333,64,139764,1,2,2:2:0:0:
465,158,139938,1,10,2:2:0:0:
465,158,140111,1,2,2:2:0:0:
250,5,140284,1,2,1:2:0:0:
512,0,140458,5,4,1:2:0:0:
465,158,140631,1,14,1:2:0:0:
414,313,140805,1,2,1:2:0:0:
333,64,140978,6,0,P|242:96|99:126,1,213.750008153916,4|0,1:2|0:0,0:0:0:0:
384,177,141325,6,0,P|278:142|167:122,1,213.750008153916,10|0,2:2|0:0,0:0:0:0:
430,52,141672,6,0,P|323:95|186:113,1,213.750008153916,2|0,1:2|0:0,0:0:0:0:
495,166,142019,6,0,P|385:134|259:130,1,213.750008153916,10|0,2:2|0:0,0:0:0:0:
177,123,142366,5,2,1:2:0:0:
305,17,142539,1,2,2:2:0:0:
229,198,142713,1,10,2:2:0:0:
245,285,142885,1,2,2:2:0:0:
8,111,143059,1,2,1:2:0:0:
499,254,143406,1,10,1:2:0:0:
267,384,143752,6,0,P|255:218|245:89,1,285.000010871888,2|8,1:2|2:2,0:0:0:0:
229,198,144272,1,2,2:2:0:0:
126,132,144446,2,0,P|81:81|102:-45,1,142.500005435944,2|2,1:2|2:2,0:0:0:0:
126,132,144793,1,10,2:2:0:0:
126,132,144966,1,0,0:0:0:0:
206,0,145139,5,6,1:2:0:0:
352,80,145313,1,2,2:2:0:0:
249,279,145486,1,14,2:2:0:0:
192,222,145660,1,2,1:2:0:0:
201,147,145833,1,2,1:2:0:0:
280,28,146006,5,0,1:3:0:0:
337,173,146180,1,0,1:3:0:0:
132,19,146353,1,8,2:2:0:0:
132,19,146440,1,8,2:2:0:0:
132,19,146527,6,0,P|116:84|118:190,1,142.500005435944,4|0,1:2|0:0,0:0:0:0:
199,245,146787,1,8,2:2:0:0:
252,186,146873,2,0,P|265:121|265:41,2,142.500005435944,2|8|2,1:2|2:2|1:2,0:0:0:0:
37,371,147394,1,0,1:0:0:0:
37,371,147480,1,8,2:2:0:0:
37,371,147567,2,0,P|22:295|33:200,1,142.500005435944,2|8,1:2|2:2,0:0:0:0:
89,187,147827,1,0,1:0:0:0:
89,187,147914,5,2,1:2:0:0:
146,342,148087,2,0,P|152:305|146:250,1,71.2500027179719,2|8,2:2|2:2,0:0:0:0:
89,187,148261,1,2,1:2:0:0:
256,372,148434,2,0,P|262:331|252:277,1,71.2500027179719,10|8,2:2|0:0,0:0:0:0:
188,192,148608,1,2,1:2:0:0:
188,192,148781,6,0,L|248:204,1,52.2500015945435,10|0,2:2|0:0,0:0:0:0:
499,34,148954,2,0,L|427:20,1,52.2500015945435,10|0,1:2|0:0,0:0:0:0:
447,24,149215,1,8,2:2:0:0:
393,96,149301,6,0,P|388:171|399:242,1,142.500005435944,4|0,1:2|0:0,0:0:0:0:
474,270,149561,1,8,2:2:0:0:
496,193,149647,2,0,P|509:258|509:338,2,142.500005435944,2|8|2,1:2|2:2|1:2,0:0:0:0:
326,384,150168,1,0,1:0:0:0:
326,384,150254,1,8,2:2:0:0:
326,384,150341,2,0,P|311:308|322:213,1,142.500005435944,2|8,1:2|2:2,0:0:0:0:
364,184,150601,1,0,1:0:0:0:
364,184,150688,5,2,1:2:0:0:
234,4,150861,2,0,P|228:41|234:96,1,71.2500027179719,2|8,2:2|2:2,0:0:0:0:
364,184,151035,1,2,1:2:0:0:
236,226,151209,1,10,2:2:0:0:
150,136,151382,1,2,1:2:0:0:
150,136,151556,6,0,L|68:154,1,52.2500015945435,10|0,2:2|0:0,0:0:0:0:
258,304,151728,2,0,L|328:283,1,52.2500015945435,10|0,1:2|0:0,0:0:0:0:
52,284,151902,2,0,L|-10:299,1,52.2500015945435,2|0,3:2|0:0,0:0:0:0:
158,384,152076,6,0,P|163:309|152:238,1,142.500005435944,4|0,1:2|0:0,0:0:0:0:
41,201,152336,1,8,2:2:0:0:
98,147,152422,2,0,P|111:82|111:2,2,142.500005435944,2|8|2,1:2|2:2|1:2,0:0:0:0:
250,384,152943,1,0,1:0:0:0:
250,384,153029,1,8,2:2:0:0:
250,384,153116,2,0,P|243:308|258:212,1,142.500005435944,2|8,1:2|2:2,0:0:0:0:
319,199,153376,1,0,1:0:0:0:
319,199,153463,5,2,1:2:0:0:
428,89,153636,2,0,P|434:126|428:181,1,71.2500027179719,2|8,2:2|2:2,0:0:0:0:
428,89,153810,1,2,1:2:0:0:
429,230,153984,1,10,2:2:0:0:
436,344,154157,1,2,1:2:0:0:
436,344,154330,6,0,L|498:333,1,52.2500015945435,8|0,2:2|0:0,0:0:0:0:
319,199,154504,2,0,L|257:210,1,52.2500015945435,10|0,1:2|0:0,0:0:0:0:
267,208,154850,6,0,P|391:193|434:89,1,213.750008153916,4|8,1:2|2:2,0:0:0:0:
510,90,155197,2,0,P|424:75|372:5,1,142.500005435944,0|10,1:1|2:2,0:0:0:0:
386,38,155457,1,0,1:0:0:0:
386,38,155544,1,2,1:2:0:0:
292,0,155717,1,2,1:2:0:0:
249,35,155804,1,8,2:2:0:0:
244,90,155891,1,2,1:2:0:0:
244,90,156064,1,8,2:2:0:0:
167,35,156238,5,2,1:2:0:0:
348,110,156411,1,2,2:2:0:0:
137,18,156584,1,2,1:2:0:0:
343,252,156758,1,10,2:2:0:0:
109,2,156931,1,2,1:2:0:0:
284,384,157105,5,14,2:2:0:0:
224,0,157452,1,14,2:2:0:0:
