osu file format v14

[General]
AudioFilename: audio.ogg
AudioLeadIn: 0
PreviewTime: 40741
Countdown: 0
SampleSet: Soft
StackLeniency: 1
Mode: 0
LetterboxInBreaks: 0
WidescreenStoryboard: 1

[Editor]
Bookmarks: 17514,20289,25838,27225,63285,75780,92428,97977,106300,111850,122948,132659,134046,146618,157110,157283,157630
DistanceSpacing: 0.2
BeatDivisor: 4
GridSize: 4
TimelineZoom: 1.86

[Metadata]
Title:Rabbit Hole feat. Hatsune Miku
TitleUnicode:ラビットホール feat. 初音ミク
Artist:DECO*27
ArtistUnicode:DECO*27
Creator:dakiwii
Version:Insane
Source:
Tags:japanese vocaloid hatsune miku rock jrock j-rock j-pop jpop pop deco27 original KARENT 2023 tepe kemu Horie Shouta 堀江晶太 Omutatsu おむたつ 辰巳 Tatsumi Omu tiktok tik-tok
BeatmapID:4543669
BeatmapSetID:2154609

[Difficulty]
HPDrainRate:4
CircleSize:3.8
OverallDifficulty:7.7
ApproachRate:8.6
SliderMultiplier:1.7
SliderTickRate:1

[Events]
//Background and Video events
0,0,"rabbithole.jpg",0,0
Video,-32,"rabbithole.avi"
//Break Periods
2,14762,19019
2,100751,105116
//Storyboard Layer 0 (Background)
//Storyboard Layer 1 (Fail)
//Storyboard Layer 2 (Pass)
//Storyboard Layer 3 (Foreground)
//Storyboard Layer 4 (Overlay)
//Storyboard Sound Samples

[TimingPoints]
516,346.820809248555,4,2,1,78,1,0
3637,346.820809248555,4,2,1,65,1,0
3637,-66.6666666666667,4,2,1,65,0,0
5284,-66.6666666666667,4,2,1,5,0,0
5371,-66.6666666666667,4,2,1,65,0,0
5631,-66.6666666666667,4,2,1,5,0,0
5717,-66.6666666666667,4,2,1,65,0,0
5978,-66.6666666666667,4,2,1,5,0,0
6064,-66.6666666666667,4,2,1,65,0,0
8058,-66.6666666666667,4,2,1,5,0,0
8145,-66.6666666666667,4,2,1,65,0,0
10573,-100,4,2,1,65,0,0
11960,-66.6666666666667,4,2,1,65,0,0
13608,-66.6666666666667,4,2,1,5,0,0
13694,-66.6666666666667,4,2,1,65,0,0
14041,-66.6666666666667,4,2,1,65,0,0
14735,-133.333333333333,4,2,1,65,0,0
19764,-133.333333333333,4,2,1,45,0,0
20197,-133.333333333333,4,2,1,5,0,0
20284,-133.333333333333,4,2,1,50,0,0
24099,-133.333333333333,4,2,1,50,0,0
25833,-90.9090909090909,4,2,1,60,0,0
27220,-100,4,2,1,60,0,0
29388,-100,4,2,1,5,0,0
29475,-100,4,2,1,60,0,0
32336,-100,4,2,1,5,0,0
32423,-100,4,2,1,60,0,0
32509,-100,4,2,1,5,0,0
32596,-100,4,2,1,60,0,0
32683,-100,4,2,1,5,0,0
32769,-100,4,2,1,60,0,0
36498,-100,4,2,1,5,0,0
36584,-100,4,2,1,70,0,0
38319,-133.333333333333,4,2,1,70,0,0
39359,-100,4,2,1,70,0,0
39619,-100,4,2,1,5,0,0
39706,-100,4,2,1,60,0,0
41093,-90.9090909090909,4,2,1,70,0,0
63116,-133.333333333333,4,2,1,38,0,0
64330,-250,4,2,1,65,0,0
64590,-250,4,2,1,5,0,0
64677,-66.6666666666667,4,2,1,65,0,0
66324,-66.6666666666667,4,2,1,5,0,0
66411,-66.6666666666667,4,2,1,65,0,0
66758,-66.6666666666667,4,2,1,65,0,0
67018,-66.6666666666667,4,2,1,5,0,0
67105,-66.6666666666667,4,2,1,65,0,0
69099,-66.6666666666667,4,2,1,5,0,0
69186,-66.6666666666667,4,2,1,65,0,0
70226,-133.333333333333,4,2,1,45,0,0
70920,-133.333333333333,4,2,1,65,0,0
71613,-100,4,2,1,75,0,0
73001,-66.6666666666667,4,2,1,75,0,0
74648,-66.6666666666667,4,2,1,5,0,0
74735,-66.6666666666667,4,2,1,75,0,0
74995,-66.6666666666667,4,2,1,5,0,0
75082,-66.6666666666667,4,2,1,75,0,0
75775,-100,4,2,2,75,0,0
76295,-100,4,2,2,55,0,0
81238,-100,4,2,2,5,0,0
81324,-100,4,2,2,55,0,0
84099,-100,4,2,2,65,0,0
86787,-100,4,2,2,5,0,0
86873,-100,4,2,2,45,0,0
87914,-100,4,2,2,75,0,0
88781,-100,4,2,2,55,0,0
95197,-100,4,2,2,65,0,0
97538,-100,4,2,2,5,0,0
97625,-100,4,2,1,75,0,0
97885,-100,4,2,2,5,0,0
97899,-100,4,2,1,5,0,0
97972,-100,4,2,1,45,0,0
99012,-133.333333333333,4,2,1,35,0,0
99272,-133.333333333333,4,2,1,5,0,0
99359,-66.6666666666667,4,2,1,75,0,0
100746,-133.333333333333,4,2,1,35,0,0
106295,-133.333333333333,4,2,1,50,0,0
109070,-100,4,2,1,55,0,0
110457,-100,4,2,1,65,0,0
111845,-90.9090909090909,4,2,1,70,0,0
133868,-133.333333333333,4,2,1,38,0,0
135082,-333.333333333333,4,2,1,75,0,0
135342,-333.333333333333,4,2,1,5,0,0
135428,-66.6666666666667,4,2,1,75,0,0
135689,-66.6666666666667,4,2,1,5,0,0
135775,-66.6666666666667,4,2,1,75,0,0
136035,-66.6666666666667,4,2,1,5,0,0
136122,-66.6666666666667,4,2,1,75,0,0
136382,-66.6666666666667,4,2,1,5,0,0
136469,-66.6666666666667,4,2,1,75,0,0
136729,-66.6666666666667,4,2,1,5,0,0
136816,-66.6666666666667,4,2,1,75,0,0
138463,-66.6666666666667,4,2,1,5,0,0
138550,-66.6666666666667,4,2,1,75,0,0
138810,-66.6666666666667,4,2,1,5,0,0
138897,-66.6666666666667,4,2,1,75,0,0
139157,-66.6666666666667,4,2,1,5,0,0
139243,-66.6666666666667,4,2,1,75,0,0
139504,-66.6666666666667,4,2,1,5,0,0
139590,-66.6666666666667,4,2,1,75,0,0
141238,-66.6666666666667,4,2,1,5,0,0
141324,-66.6666666666667,4,2,1,75,0,0
141671,-66.6666666666667,4,2,1,75,0,0
142018,-66.6666666666667,4,2,1,75,0,0
142365,-66.6666666666667,4,2,1,75,0,0
143752,-83.3333333333333,4,2,1,75,0,0
148781,-90.9090909090909,4,2,1,75,0,0
148868,-90.9090909090909,4,2,1,5,0,0
148954,-90.9090909090909,4,2,1,75,0,0
149041,-90.9090909090909,4,2,1,5,0,0
149215,-90.9090909090909,4,2,1,75,0,0
149301,-66.6666666666667,4,2,1,75,0,0
151556,-90.9090909090909,4,2,1,75,0,0
151642,-90.9090909090909,4,2,1,5,0,0
151729,-90.9090909090909,4,2,1,75,0,0
151816,-90.9090909090909,4,2,1,5,0,0
151902,-90.9090909090909,4,2,1,75,0,0
151989,-90.9090909090909,4,2,1,5,0,0
152076,-66.6666666666667,4,2,1,75,0,0
154330,-90.9090909090909,4,2,1,75,0,0
154417,-90.9090909090909,4,2,1,5,0,0
154504,-90.9090909090909,4,2,1,75,0,0
154590,-90.9090909090909,4,2,1,5,0,0
154850,-66.6666666666667,4,2,1,75,0,0

[Colours]
Combo1 : 17,254,176
Combo2 : 173,255,95
Combo3 : 255,88,100
Combo4 : 255,94,55

[HitObjects]
235,34,400,5,0,1:0:0:0:
235,34,516,6,0,L|169:20,2,56.6666666666667,12|0|0,2:2|3:3|3:3,0:0:0:0:
309,85,862,6,0,L|364:76,2,56.6666666666667,8|0|0,2:2|0:0|0:0,0:0:0:0:
275,179,1209,6,0,P|113:104|-2:70,1,297.5,0|0,1:1|3:3,0:0:0:0:
0,70,1903,5,0,1:1:0:0:
255,384,3290,5,8,2:2:0:0:
255,384,3637,6,0,L|454:338,1,191.250007295609,4|2,1:2|0:0,0:0:0:0:
441,340,3984,2,0,P|449:302|445:255,1,63.7500024318696,10|0,2:2|0:0,0:0:0:0:
362,201,4157,1,0,1:0:0:0:
411,138,4330,1,2,1:2:0:0:
334,49,4504,1,0,1:1:0:0:
400,2,4677,1,10,2:2:0:0:
400,2,4850,1,0,0:0:0:0:
251,107,5024,6,0,L|-9:48,2,255.000009727478,2|10|2,1:2|2:2|1:2,0:0:0:0:
143,135,5891,1,0,0:0:0:0:
2,50,6065,5,10,2:2:0:0:
2,50,6412,6,0,L|197:16,1,191.250007295609,2|2,1:2|0:0,0:0:0:0:
190,17,6759,2,0,P|201:46|204:79,1,63.7500024318696,10|0,2:2|0:0,0:0:0:0:
143,135,6931,1,0,1:0:0:0:
211,233,7105,1,2,1:2:0:0:
211,233,7278,1,0,1:1:0:0:
44,324,7452,1,10,2:2:0:0:
44,324,7625,1,0,0:0:0:0:
136,384,7798,6,0,P|136:319|125:246,1,127.500004863739,2|0,1:2|0:0,0:0:0:0:
59,185,8145,1,10,2:2:0:0:
153,132,8319,1,2,0:0:0:0:
176,137,8405,1,2,0:0:0:0:
202,142,8493,1,2,1:2:0:0:
226,147,8580,1,2,0:0:0:0:
252,151,8666,1,0,1:1:0:0:
275,153,8753,1,2,0:0:0:0:
300,162,8839,2,0,B|331:157|331:157|365:133,2,63.7500024318696,10|2|2,2:2|0:0|0:0,0:0:0:0:
300,162,9186,6,0,P|218:117|214:27,1,191.250007295609,2|2,1:2|0:0,0:0:0:0:
213,27,9532,2,0,P|249:19|295:13,1,63.7500024318696,10|0,2:2|0:0,0:0:0:0:
380,56,9706,1,0,1:0:0:0:
506,0,9879,1,2,1:2:0:0:
506,0,10053,1,0,1:1:0:0:
468,85,10226,1,10,2:2:0:0:
487,161,10400,1,0,0:0:0:0:
404,146,10573,6,0,L|345:161,1,42.5,2|0,1:2|0:0,0:0:0:0:
408,149,10747,2,0,L|355:161,1,42.5,0|0,1:0|0:0,0:0:0:0:
410,152,10920,2,0,L|352:167,1,42.5,10|0,0:2|0:0,0:0:0:0:
413,155,11093,2,0,L|364:167,1,42.5,0|0,1:0|0:0,0:0:0:0:
290,102,11267,6,0,L|297:43,3,42.5,2|2|2|2,3:2|3:2|3:2|3:2,0:0:0:0:
252,129,11614,1,10,3:2:0:0:
216,116,11701,1,2,0:0:0:0:
183,105,11787,1,2,0:0:0:0:
149,94,11874,1,2,0:0:0:0:
120,85,11961,6,0,P|64:179|139:283,1,191.250007295609,2|2,1:2|0:0,0:0:0:0:
89,249,12308,2,0,L|158:240,1,63.7500024318696,10|0,2:2|0:0,0:0:0:0:
218,283,12481,1,2,1:2:0:0:
153,363,12654,1,2,1:2:0:0:
153,363,12827,1,0,1:1:0:0:
28,303,13001,1,10,2:2:0:0:
28,303,13174,1,0,1:0:0:0:
218,283,13348,6,0,L|482:341,2,255.000009727478,2|10|2,1:2|2:2|1:2,0:0:0:0:
218,283,14215,1,0,1:1:0:0:
347,266,14389,1,10,2:2:0:0:
472,240,14562,1,0,1:0:0:0:
417,369,19764,5,2,2:2:0:0:
417,369,19850,1,2,2:2:0:0:
417,369,19937,2,0,P|427:319|431:268,1,95.6250036478044,2|0,2:2|0:0,0:0:0:0:
364,241,20284,6,0,L|510:213,2,127.500004863739,4|2|2,1:2|1:2|1:2,0:2:0:0:
278,189,21151,2,0,P|268:159|268:120,1,63.7500024318696,2|0,2:2|1:1,0:0:0:0:
416,7,21498,5,2,2:2:0:0:
416,7,21584,1,2,2:2:0:0:
416,7,21671,2,0,L|403:75,1,63.7500024318696,2|2,1:2|2:2,0:0:0:0:
267,127,22018,2,0,P|263:93|258:60,1,63.7500024318696,2|2,1:2|2:2,0:0:0:0:
329,11,22365,1,2,1:2:0:0:
329,11,22538,1,2,2:2:0:0:
185,96,22712,2,0,P|151:89|109:70,1,63.7500024318696,2|2,1:2|2:2,0:0:0:0:
8,3,23058,5,2,1:2:0:0:
8,3,23405,1,2,1:2:0:0:
124,78,23752,2,0,P|119:133|104:231,1,127.500004863739,0|0,1:0|1:0,0:0:0:0:
36,296,24272,1,2,2:2:0:0:
36,296,24619,5,2,2:2:0:0:
36,296,24706,1,2,2:2:0:0:
36,296,24793,1,2,1:2:0:0:
92,347,24966,2,0,L|125:297,2,31.8750012159348,2|2|2,2:2|1:2|1:2,0:0:0:0:
161,384,25313,1,2,1:2:0:0:
228,336,25486,1,2,1:2:0:0:
228,336,25573,1,0,1:1:0:0:
228,336,25660,1,2,1:2:0:0:
228,336,25746,1,0,1:1:0:0:
228,336,25833,5,2,2:2:0:0:
358,201,26180,6,0,L|349:169,4,23.3750007133484,2|0|0|0|0,3:2|3:0|3:0|3:0|3:0,3:0:0:0:
424,245,26527,6,0,L|432:214,2,23.3750007133484,2|0|0,3:2|3:0|3:0,3:0:0:0:
389,312,26700,1,0,1:1:0:0:
464,384,26873,5,10,2:2:0:0:
249,191,27220,5,4,1:2:0:0:
282,122,27394,1,2,2:2:0:0:
282,122,27480,1,2,2:2:0:0:
282,122,27567,2,0,L|368:104,1,85,10|2,2:2|2:2,0:0:0:0:
418,41,27827,1,2,2:2:0:0:
433,50,27914,2,0,P|453:86|463:157,1,85,2|2,1:2|2:2,0:0:0:0:
404,196,28174,1,2,2:2:0:0:
404,196,28261,2,0,L|339:173,3,42.5,10|2|2|2,2:2|2:2|2:2|2:2,0:0:0:0:
432,273,28608,6,0,P|470:259|540:241,2,85,2|2|10,1:2|2:2|2:2,0:0:0:0:
342,369,29128,2,0,P|280:355|208:341,1,127.5,2|0,2:2|0:0,0:0:0:0:
217,342,29475,5,2,2:2:0:0:
204,266,29648,1,10,2:2:0:0:
196,186,29821,1,2,2:2:0:0:
109,277,29995,5,2,1:2:0:0:
31,194,30168,1,2,2:2:0:0:
31,194,30255,1,2,2:2:0:0:
31,194,30342,2,0,L|21:145,3,42.5,10|2|2|2,2:2|2:2|2:2|2:2,0:0:0:0:
107,99,30689,2,0,L|119:151,3,42.5,2|0|2|2,1:2|0:0|2:2|2:2,0:0:0:0:
32,43,31035,1,10,2:2:0:0:
32,43,31209,2,0,L|86:25,1,42.5,2|2,2:2|2:2,0:0:0:0:
167,0,31382,5,2,1:2:0:0:
227,71,31556,1,2,2:2:0:0:
328,13,31729,1,10,2:2:0:0:
402,125,31902,1,2,2:2:0:0:
402,125,32249,6,0,L|408:72,1,42.5,2|0,1:2|0:0,0:0:0:0:
485,147,32423,2,0,L|476:193,1,42.5,10|0,2:2|0:0,0:0:0:0:
393,245,32596,2,0,L|400:188,1,42.5,2|0,2:2|0:0,0:0:0:0:
512,326,32769,5,2,1:2:0:0:
447,365,33116,1,10,2:2:0:0:
359,321,33463,2,0,L|266:352,1,85,2|2,1:2|2:2,0:0:0:0:
278,347,33983,5,2,2:2:0:0:
205,291,34157,1,2,1:2:0:0:
205,291,34330,1,2,2:2:0:0:
289,207,34504,1,10,2:2:0:0:
289,207,34677,1,2,2:2:0:0:
207,179,34850,2,0,P|192:140|185:66,1,85,2|0,1:2|1:0,0:0:0:0:
339,0,35197,2,0,P|338:39|320:99,1,85,10|2,2:2|2:2,0:0:0:0:
205,291,35544,5,2,1:2:0:0:
373,242,35891,2,0,P|369:193|364:148,1,85,10|0,2:2|0:0,0:0:0:0:
205,291,36238,2,0,P|200:222|200:93,1,170,2|8,1:2|1:2,0:0:0:0:
262,38,36758,1,2,2:2:0:0:
262,38,37105,5,2,2:2:0:0:
333,87,37278,1,10,2:2:0:0:
333,87,37452,1,2,2:2:0:0:
453,8,37625,2,0,P|451:51|433:100,1,85,2|0,1:2|1:0,0:0:0:0:
377,171,37972,1,10,2:2:0:0:
399,243,38145,1,2,1:2:0:0:
487,239,38319,6,0,L|513:109,2,127.500004863739,2|2|2,2:2|0:0|0:0,0:0:0:0:
487,239,39359,6,0,P|420:220|359:197,1,127.5,2|0,2:2|0:0,0:0:0:0:
365,199,39706,5,4,1:2:0:0:
297,142,39879,1,8,2:2:0:0:
278,148,39966,1,0,1:0:0:0:
259,152,40053,1,8,2:2:0:0:
243,156,40139,1,8,2:2:0:0:
225,161,40226,1,8,2:2:0:0:
207,166,40313,1,8,2:2:0:0:
189,170,40400,1,0,1:1:0:0:
120,119,40746,5,10,2:2:0:0:
258,1,41093,5,4,1:2:0:0:
212,68,41267,2,0,P|216:112|227:170,1,93.5000028533936,2|10,2:2|2:2,0:0:0:0:
323,263,41613,5,2,2:2:0:0:
323,263,41699,1,2,2:2:0:0:
323,263,41786,1,0,1:1:0:0:
250,315,41960,2,0,L|205:292,2,46.7500014266968,2|2|8,2:2|2:2|2:2,0:0:0:0:
311,369,42307,1,2,2:2:0:0:
208,293,42480,5,2,1:2:0:0:
255,207,42654,1,2,2:2:0:0:
255,207,42741,1,2,2:2:0:0:
255,207,42827,2,0,L|275:159,3,46.7500014266968,8|0|2|2,2:2|0:0|2:2|2:2,0:0:0:0:
226,100,43174,1,0,1:1:0:0:
363,2,43347,6,0,L|413:22,2,46.7500014266968,2|2|8,2:2|2:2|2:2,0:0:0:0:
291,43,43694,1,2,2:2:0:0:
469,81,43868,5,2,1:2:0:0:
400,145,44041,2,0,L|331:127,2,46.7500014266968,2|2|8,2:2|2:2|2:2,0:0:0:0:
468,224,44388,2,0,L|513:210,2,46.7500014266968,2|2|0,2:2|2:2|1:1,0:0:0:0:
393,316,44735,5,2,2:2:0:0:
393,316,44821,1,2,2:2:0:0:
393,316,44908,2,0,P|365:273|367:212,1,93.5000028533936,8|2,2:2|2:2,0:0:0:0:
469,81,45255,5,2,1:2:0:0:
400,30,45428,1,2,2:2:0:0:
400,30,45515,1,2,2:2:0:0:
400,30,45602,1,8,2:2:0:0:
305,71,45775,1,2,2:2:0:0:
305,71,45862,1,2,2:2:0:0:
305,71,45949,1,0,1:1:0:0:
200,21,46122,6,0,L|189:80,1,46.7500014266968,2|2,2:2|2:2,0:0:0:0:
126,162,46295,1,8,2:2:0:0:
92,87,46469,1,10,2:2:0:0:
203,199,46642,6,0,L|246:183,4,46.7500014266968,4|2|2|2|10,1:2|2:2|2:2|2:2|2:2,0:0:0:0:
130,166,47163,1,2,2:2:0:0:
38,306,47336,6,0,L|52:367,1,46.7500014266968,2|2,1:2|2:2,0:0:0:0:
131,367,47509,2,0,L|122:320,1,46.7500014266968,2|2,2:2|2:2,0:0:0:0:
94,247,47683,1,10,2:2:0:0:
94,247,47856,1,2,2:2:0:0:
38,306,48030,6,0,L|52:367,1,46.7500014266968,2|2,1:2|2:2,0:0:0:0:
131,367,48203,2,0,L|122:320,1,46.7500014266968,2|2,2:2|2:2,0:0:0:0:
94,247,48377,1,10,2:2:0:0:
94,247,48550,1,2,2:2:0:0:
38,306,48723,6,0,L|52:367,1,46.7500014266968,2|2,1:2|2:2,0:0:0:0:
131,367,48896,2,0,L|122:320,1,46.7500014266968,2|2,2:2|2:2,0:0:0:0:
94,247,49070,1,10,2:2:0:0:
94,247,49243,1,2,2:2:0:0:
220,285,49417,6,0,L|272:301,3,46.7500014266968,2|0|2|0,1:2|0:0|2:2|0:0,0:0:0:0:
220,285,49764,1,10,2:2:0:0:
306,375,49937,5,2,2:2:0:0:
306,375,50024,1,2,2:2:0:0:
306,375,50110,2,0,L|361:361,1,46.7500014266968,2|2,1:2|2:2,0:0:0:0:
431,302,50284,2,0,L|378:291,1,46.7500014266968,2|2,2:2|2:2,0:0:0:0:
322,214,50457,1,10,2:2:0:0:
322,214,50631,1,2,2:2:0:0:
402,144,50804,5,2,1:2:0:0:
371,133,50891,1,0,0:0:0:0:
342,122,50978,1,2,2:2:0:0:
314,113,51064,1,2,2:2:0:0:
287,103,51151,2,0,L|305:59,1,46.7500014266968,12|0,2:2|0:0,0:0:0:0:
398,3,51324,2,0,L|406:51,1,46.7500014266968,2|0,2:2|0:0,0:0:0:0:
322,214,51498,5,2,1:2:0:0:
245,182,51671,1,2,1:2:0:0:
172,149,51845,1,10,2:2:0:0:
172,149,52018,2,0,L|199:92,1,46.7500014266968,8|8,2:2|2:2,0:0:0:0:
119,0,52191,5,4,1:2:0:0:
119,0,52365,2,0,L|16:19,1,93.5000028533936,2|10,2:2|2:2,0:0:0:0:
0,115,52712,1,2,2:2:0:0:
0,115,52798,1,2,2:2:0:0:
0,115,52885,1,2,2:2:0:0:
67,188,53058,2,0,L|80:136,2,46.7500014266968,2|2|8,1:2|2:2|2:2,0:0:0:0:
6,236,53405,1,2,2:2:0:0:
139,323,53579,5,2,1:2:0:0:
144,326,53752,2,0,L|209:307,2,46.7500014266968,2|2|8,2:2|2:2|2:2,0:0:0:0:
237,251,54099,2,0,L|292:268,2,46.7500014266968,2|2|2,2:2|2:2|2:2,0:0:0:0:
344,326,54446,1,2,1:2:0:0:
344,326,54532,1,2,2:2:0:0:
344,326,54619,1,8,2:2:0:0:
261,384,54793,1,2,2:2:0:0:
437,264,54966,5,2,1:2:0:0:
510,338,55139,1,2,2:2:0:0:
510,338,55226,1,2,2:2:0:0:
510,338,55313,1,8,2:2:0:0:
510,338,55400,1,2,2:2:0:0:
510,338,55486,2,0,L|497:391,2,46.7500014266968,2|2|2,2:2|2:2|2:2,0:0:0:0:
437,264,55833,1,2,1:2:0:0:
437,264,55920,1,2,2:2:0:0:
437,264,56006,1,8,2:2:0:0:
511,185,56180,1,2,2:2:0:0:
388,102,56353,5,2,1:2:0:0:
492,46,56527,2,0,P|494:14|498:-13,4,46.7500014266968,2|2|8|0|2,2:2|2:2|2:2|0:0|1:2,0:0:0:0:
492,46,57047,1,2,2:2:0:0:
388,102,57220,1,2,1:2:0:0:
361,93,57307,1,2,2:2:0:0:
333,84,57394,1,8,2:2:0:0:
288,16,57567,1,10,2:2:0:0:
222,113,57741,6,0,L|204:68,4,46.7500014266968,4|2|2|2|10,1:2|2:2|2:2|2:2|2:2,0:0:0:0:
160,177,58261,1,2,2:2:0:0:
236,230,58434,6,0,L|283:240,1,46.7500014266968,2|2,2:2|2:2,0:0:0:0:
365,202,58608,2,0,L|358:262,1,46.7500014266968,2|2,1:2|2:2,0:0:0:0:
319,330,58781,1,10,2:2:0:0:
319,330,58954,1,2,2:2:0:0:
236,230,59128,6,0,L|283:240,1,46.7500014266968,2|2,1:2|2:2,0:0:0:0:
365,202,59302,2,0,L|358:263,1,46.7500014266968,2|2,2:2|2:2,0:0:0:0:
319,330,59475,1,10,2:2:0:0:
319,330,59648,1,2,2:2:0:0:
236,230,59821,6,0,L|283:240,1,46.7500014266968,2|2,2:2|2:2,0:0:0:0:
365,202,59995,2,0,L|356:260,1,46.7500014266968,2|2,1:2|2:2,0:0:0:0:
319,330,60168,1,10,2:2:0:0:
319,330,60341,1,2,2:2:0:0:
428,372,60515,6,0,L|472:354,3,46.7500014266968,2|0|2|0,1:2|0:0|2:2|0:0,0:0:0:0:
428,372,60862,1,10,2:2:0:0:
319,330,61035,1,2,2:2:0:0:
319,330,61122,1,2,2:2:0:0:
319,330,61209,2,0,L|254:347,1,46.7500014266968,2|0,2:2|0:0,0:0:0:0:
196,384,61382,2,0,L|138:372,1,46.7500014266968,2|2,1:2|2:2,0:0:0:0:
75,287,61556,1,8,2:2:0:0:
75,287,61729,1,2,2:2:0:0:
147,202,61902,6,0,L|140:138,1,46.7500014266968,4|2,1:2|2:2,0:0:0:0:
233,143,62076,2,0,L|229:84,1,46.7500014266968,2|2,2:2|2:2,0:0:0:0:
322,89,62249,2,0,L|318:34,1,46.7500014266968,10|2,2:2|2:2,0:0:0:0:
410,46,62423,2,0,L|405:-15,1,46.7500014266968,4|2,1:2|2:2,0:0:0:0:
385,153,62596,5,2,2:2:0:0:
492,223,62769,1,10,2:2:0:0:
500,92,62943,1,10,2:2:0:0:
404,238,63116,6,0,L|390:306,1,63.7500024318696,2|2,2:2|2:2,0:0:0:0:
391,300,64330,6,0,L|333:285,1,51,8|0,2:2|0:0,0:0:0:0:
284,341,64677,6,0,L|483:295,1,191.250007295609,4|2,1:2|0:0,0:0:0:0:
470,297,65024,2,0,P|478:259|474:219,1,63.7500024318696,10|0,2:2|0:0,0:0:0:0:
445,114,65197,1,0,1:0:0:0:
379,153,65370,1,2,1:2:0:0:
281,86,65544,1,0,1:1:0:0:
208,110,65717,1,10,2:2:0:0:
118,65,65890,1,0,0:0:0:0:
271,158,66064,6,0,L|11:99,2,255.000009727478,2|10|2,1:2|2:2|1:2,0:0:0:0:
134,174,66931,1,0,0:0:0:0:
278,165,67105,5,10,2:2:0:0:
278,165,67452,6,0,L|473:131,1,191.250007295609,2|2,1:2|0:0,0:0:0:0:
466,132,67799,2,0,P|477:161|480:194,1,63.7500024318696,10|0,2:2|0:0,0:0:0:0:
428,277,67971,1,2,1:2:0:0:
316,251,68145,1,2,1:2:0:0:
316,251,68318,1,0,1:1:0:0:
188,360,68492,1,10,2:2:0:0:
188,360,68665,1,0,0:0:0:0:
284,384,68838,6,0,L|422:357,1,127.500004863739,2|0,1:2|0:0,0:0:0:0:
501,278,69185,1,10,2:2:0:0:
440,181,69359,1,2,0:0:0:0:
437,156,69445,1,2,0:0:0:0:
435,132,69533,1,2,1:2:0:0:
432,111,69620,1,2,0:0:0:0:
428,88,69706,1,0,1:1:0:0:
425,68,69793,1,2,0:0:0:0:
424,51,69879,2,0,B|446:31|446:31|488:12,2,63.7500024318696,10|2|2,2:2|0:0|0:0,0:0:0:0:
346,128,70226,6,0,P|283:108|219:94,1,127.500004863739,2|0,1:2|0:0,0:0:0:0:
223,94,70920,1,8,2:2:0:0:
223,94,71267,1,8,2:2:0:0:
126,14,71440,1,8,2:2:0:0:
126,14,71527,1,8,2:2:0:0:
126,14,71613,6,0,L|111:73,1,42.5,6|0,1:2|0:0,0:0:0:0:
130,18,71787,2,0,L|115:70,1,42.5,0|0,1:0|0:0,0:0:0:0:
133,20,71960,2,0,L|119:78,1,42.5,10|0,2:2|0:0,0:0:0:0:
137,24,72133,2,0,L|124:72,1,42.5,0|0,1:0|0:0,0:0:0:0:
52,126,72307,6,0,L|40:69,3,42.5,2|2|2|2,3:2|3:2|3:2|3:2,0:0:0:0:
96,147,72654,1,10,3:2:0:0:
124,155,72741,1,2,0:0:0:0:
150,162,72827,1,2,0:0:0:0:
181,169,72914,1,2,0:0:0:0:
209,179,73001,6,0,P|250:232|218:360,1,191.250007295609,2|2,1:2|0:0,0:0:0:0:
230,347,73348,2,0,L|166:326,1,63.7500024318696,10|0,2:2|0:0,0:0:0:0:
100,274,73521,1,2,1:2:0:0:
26,367,73694,1,2,1:2:0:0:
26,367,73867,1,0,1:1:0:0:
0,222,74041,1,10,2:2:0:0:
0,222,74214,1,0,1:0:0:0:
169,327,74388,6,0,L|223:69,2,255.000009727478,2|10|2,1:2|2:2|1:2,0:0:0:0:
169,327,75255,1,0,1:1:0:0:
305,309,75429,1,10,2:2:0:0:
439,281,75602,1,0,1:0:0:0:
318,157,75775,5,4,1:2:0:0:
468,82,76295,1,2,2:2:0:0:
468,82,76469,2,0,L|498:-37,1,85,10|2,2:2|2:2,0:0:0:0:
488,0,76989,5,2,0:0:0:0:
410,13,77336,1,2,0:0:0:0:
429,164,77683,1,2,2:2:0:0:
429,164,77856,2,0,P|419:224|426:275,1,85,10|2,2:2|2:2,0:0:0:0:
420,247,78376,6,0,P|467:237|528:218,2,85,2|2|2,2:2|1:2|1:2,0:0:0:0:
421,248,79070,2,0,P|374:258|315:279,2,85,2|10|2,2:2|2:2|2:2,0:0:0:0:
421,248,79764,1,2,0:0:0:0:
354,183,79937,6,0,P|341:158|329:104,2,56.6666666666667,2|2|2,1:2|2:2|2:2,0:0:0:0:
490,308,80284,6,0,P|489:338|481:364,2,56.6666666666667,2|2|2,1:2|2:2|2:2,0:0:0:0:
421,248,80631,5,10,2:2:0:0:
512,126,80978,6,0,P|505:61|491:-35,1,127.5,2|0,1:2|0:0,0:0:0:0:
496,0,81324,5,2,1:2:0:0:
360,88,81844,5,2,2:2:0:0:
360,88,82018,2,0,L|258:68,1,85,10|2,2:2|2:2,0:0:0:0:
276,71,82538,5,2,0:0:0:0:
219,21,82885,1,2,2:2:0:0:
110,106,83232,1,2,2:2:0:0:
110,106,83405,2,0,P|100:160|105:227,1,85,10|2,2:2|2:2,0:0:0:0:
188,282,83752,2,0,P|188:218|178:126,1,127.5,2|0,2:2|0:0,0:0:0:0:
182,154,84099,6,0,L|251:166,2,56.6666666666667,2|0|2,1:2|0:0|2:2,0:0:0:0:
99,189,84446,6,0,L|34:179,2,56.6666666666667,2|2|2,1:2|2:2|2:2,0:0:0:0:
188,282,84793,6,0,L|261:271,2,56.6666666666667,10|2|2,1:2|2:2|2:2,0:0:0:0:
100,343,85139,6,0,L|26:324,2,56.6666666666667,2|0|0,1:2|0:0|0:0,0:0:0:0:
226,383,85486,6,0,L|300:369,2,56.6666666666667,2|0|2,1:2|1:0|1:2,0:0:0:0:
197,293,85833,5,2,1:2:0:0:
197,293,85949,1,0,1:0:0:0:
197,293,86064,1,2,1:2:0:0:
197,293,86180,6,0,P|179:228|186:172,1,113.333333333333,10|0,2:2|0:0,0:0:0:0:
298,109,86527,6,0,P|306:177|281:265,1,127.5,2|0,1:2|0:0,0:0:0:0:
294,234,86873,5,2,2:2:0:0:
294,234,87567,5,2,2:2:0:0:
257,0,87914,5,4,1:2:0:0:
257,0,88087,2,0,L|433:48,2,170,0|2|2,1:0|2:2|2:2,0:0:0:0:
257,0,88954,1,10,2:2:0:0:
202,53,89128,1,2,1:2:0:0:
74,163,89475,1,2,2:2:0:0:
30,99,89648,2,0,P|21:57|26:13,1,85,2|2,1:2|2:2,0:0:0:0:
74,163,90168,1,2,1:2:0:0:
30,99,90342,2,0,P|21:52|30:2,1,85,10|2,2:2|2:2,0:0:0:0:
74,163,90862,1,2,1:2:0:0:
150,110,91035,6,0,L|207:92,2,56.6666666666667,2|2|2,1:2|2:2|2:2,0:0:0:0:
150,110,91382,6,0,L|207:92,2,56.6666666666667,2|2|2,1:2|2:2|2:2,0:0:0:0:
74,163,91729,5,10,2:2:0:0:
278,327,92076,1,6,1:2:0:0:
201,382,92423,5,2,1:2:0:0:
201,382,92943,1,2,1:2:0:0:
150,316,93116,2,0,P|147:274|162:200,1,85,10|2,2:2|2:2,0:0:0:0:
255,94,93463,1,0,1:0:0:0:
173,129,93637,2,0,P|97:89|76:-20,2,170,0|2|2,1:0|1:2|2:2,0:0:0:0:
256,96,94504,1,10,2:2:0:0:
256,96,94677,1,2,2:2:0:0:
338,187,94850,2,0,P|357:256|353:329,1,127.5,2|0,1:2|0:0,0:0:0:0:
356,311,95197,6,0,P|386:302|423:285,2,56.6666666666667,4|2|2,1:2|2:2|2:2,0:0:0:0:
237,257,95544,6,0,P|223:231|212:198,2,56.6666666666667,2|2|2,1:2|2:2|2:2,0:0:0:0:
413,141,95891,6,0,P|420:111|417:69,2,56.6666666666667,10|2|2,2:2|2:2|2:2,0:0:0:0:
317,2,96238,5,2,1:2:0:0:
317,2,96353,1,2,2:2:0:0:
317,2,96469,1,2,2:2:0:0:
317,2,96584,6,0,L|308:65,1,56.6666666666667,4|0,1:2|0:0,0:0:0:0:
224,47,96816,6,0,L|232:128,1,56.6666666666667,0|0,1:1|0:0,0:0:0:0:
148,108,97047,6,0,L|171:194,1,56.6666666666667,0|0,1:1|0:0,0:0:0:0:
346,188,97278,6,0,P|415:166|491:145,1,127.5,0|0,1:1|0:0,0:0:0:0:
467,151,97625,6,0,P|511:113|491:16,1,127.5,2|0,1:2|3:3,0:0:0:0:
512,47,97972,5,2,2:2:0:0:
257,0,99012,6,0,L|271:121,1,95.6250036478044,2|0,0:0|0:0,0:0:0:0:
330,147,99359,5,12,2:2:0:0:
330,147,99532,1,8,2:2:0:0:
77,97,99879,1,8,2:2:0:0:
77,97,100053,1,8,2:2:0:0:
251,381,105775,5,0,3:0:0:0:
251,381,105862,1,0,3:0:0:0:
251,381,105949,2,0,P|269:334|263:275,1,95.6250036478044,0|0,3:0|0:0,0:0:0:0:
267,289,106295,6,0,L|278:236,1,31.8750012159348,4|2,1:2|2:2,0:0:0:0:
346,223,106469,2,0,L|340:184,1,31.8750012159348,2|2,2:2|2:2,0:0:0:0:
274,149,106642,1,2,1:2:0:0:
274,149,106816,1,2,2:2:0:0:
406,50,106989,6,0,L|457:65,3,31.8750012159348,2|2|2|2,1:2|2:2|2:2|1:2,0:0:0:0:
343,93,107336,1,2,2:2:0:0:
343,93,107509,1,2,1:2:0:0:
406,50,107683,6,0,L|457:65,3,31.8750012159348,2|2|2|2,1:2|2:2|2:2|2:2,0:0:0:0:
343,93,108030,1,2,1:2:0:0:
343,93,108203,1,2,2:2:0:0:
406,50,108376,6,0,L|457:65,3,31.8750012159348,2|2|2|2,1:2|2:2|2:2|1:2,0:0:0:0:
343,93,108723,1,2,2:2:0:0:
343,93,108896,1,0,1:1:0:0:
408,168,109070,5,2,1:2:0:0:
404,175,109157,1,0,0:0:0:0:
402,181,109243,1,2,1:2:0:0:
401,187,109330,1,0,0:0:0:0:
400,194,109417,1,2,1:2:0:0:
399,201,109504,1,0,0:0:0:0:
395,208,109590,1,2,1:2:0:0:
396,216,109677,1,2,2:2:0:0:
395,223,109764,6,0,P|422:215|452:205,3,42.5,2|2|2|2,1:2|2:2|1:2|2:2,0:0:0:0:
325,279,110110,2,0,P|297:263|279:250,3,42.5,2|0|2|0,1:2|0:0|1:2|0:0,0:0:0:0:
411,335,110457,6,0,L|398:377,1,42.5,0|0,1:1|1:1,0:0:0:0:
325,279,110631,2,0,L|329:338,1,42.5,0|0,1:1|1:1,0:0:0:0:
239,327,110804,2,0,L|248:372,1,42.5,0|0,1:1|1:1,0:0:0:0:
160,275,110978,2,0,L|143:350,1,42.5,0|0,1:1|1:1,0:0:0:0:
72,362,111151,5,2,2:2:0:0:
72,362,111324,1,2,2:2:0:0:
72,362,111498,1,10,2:2:0:0:
151,149,111845,5,4,1:2:0:0:
70,201,112019,2,0,P|63:157|59:99,1,93.5000028533936,2|10,2:2|2:2,0:0:0:0:
135,19,112365,5,2,2:2:0:0:
135,19,112451,1,2,2:2:0:0:
135,19,112538,1,0,1:1:0:0:
205,80,112712,2,0,L|250:60,2,46.7500014266968,2|2|8,2:2|2:2|2:2,0:0:0:0:
151,149,113059,1,2,2:2:0:0:
334,100,113232,5,2,1:2:0:0:
304,187,113405,2,0,L|320:242,2,46.7500014266968,2|2|8,2:2|2:2|2:2,0:0:0:0:
402,243,113752,2,0,L|382:291,2,46.7500014266968,2|2|0,2:2|2:2|1:1,0:0:0:0:
302,316,114099,1,2,2:2:0:0:
302,316,114186,1,2,2:2:0:0:
302,316,114272,1,8,2:2:0:0:
362,372,114446,1,2,2:2:0:0:
210,331,114620,5,2,1:2:0:0:
254,237,114793,1,2,2:2:0:0:
254,237,114880,1,2,2:2:0:0:
254,237,114966,2,0,L|334:212,4,46.7500014266968,8|2|2|2|0,2:2|2:2|2:2|2:2|1:1,0:0:0:0:
154,164,115487,5,2,2:2:0:0:
154,164,115573,1,2,2:2:0:0:
154,164,115660,2,0,P|202:151|248:122,1,93.5000028533936,8|2,2:2|2:2,0:0:0:0:
354,0,116007,5,2,1:2:0:0:
275,62,116180,1,2,2:2:0:0:
275,62,116267,1,2,2:2:0:0:
275,62,116353,2,0,P|316:71|377:93,1,93.5000028533936,8|2,2:2|2:2,0:0:0:0:
508,11,116701,1,0,1:1:0:0:
451,80,116874,5,2,2:2:0:0:
455,106,116961,1,2,2:2:0:0:
458,133,117047,1,8,2:2:0:0:
512,196,117221,1,10,2:2:0:0:
417,301,117394,6,0,L|374:317,4,46.7500014266968,4|2|2|2|10,1:2|2:2|2:2|2:2|2:2,0:0:0:0:
495,344,117915,1,2,2:2:0:0:
437,225,118088,6,0,L|381:215,1,46.7500014266968,2|2,1:2|2:2,0:0:0:0:
314,240,118261,2,0,L|323:179,1,46.7500014266968,2|2,2:2|2:2,0:0:0:0:
377,133,118435,1,10,2:2:0:0:
377,133,118608,1,2,2:2:0:0:
437,225,118781,6,0,L|381:215,1,46.7500014266968,2|2,1:2|2:2,0:0:0:0:
314,240,118954,2,0,L|323:179,1,46.7500014266968,2|2,2:2|2:2,0:0:0:0:
377,133,119128,1,10,2:2:0:0:
377,133,119301,1,2,2:2:0:0:
437,225,119475,6,0,L|381:215,1,46.7500014266968,2|2,1:2|2:2,0:0:0:0:
314,240,119648,2,0,L|323:179,1,46.7500014266968,2|2,2:2|2:2,0:0:0:0:
377,133,119822,1,10,2:2:0:0:
377,133,119995,1,2,2:2:0:0:
282,47,120169,6,0,L|227:61,3,46.7500014266968,2|0|2|0,1:2|0:0|2:2|0:0,0:0:0:0:
282,47,120516,1,10,2:2:0:0:
212,144,120689,5,2,2:2:0:0:
212,144,120776,1,2,2:2:0:0:
212,144,120862,2,0,L|157:130,1,46.7500014266968,2|2,1:2|2:2,0:0:0:0:
112,79,121036,2,0,L|63:91,1,46.7500014266968,2|2,2:2|2:2,0:0:0:0:
15,156,121209,1,10,2:2:0:0:
15,156,121383,1,2,2:2:0:0:
118,219,121556,5,2,1:2:0:0:
116,247,121643,1,0,1:0:0:0:
114,277,121730,1,2,1:2:0:0:
112,307,121816,1,2,1:2:0:0:
108,338,121903,2,0,L|54:330,1,46.7500014266968,12|0,1:2|1:0,0:0:0:0:
184,378,122076,2,0,L|246:387,1,46.7500014266968,2|2,1:2|1:2,0:0:0:0:
118,219,122250,5,2,1:2:0:0:
203,265,122423,1,2,1:2:0:0:
334,199,122597,1,10,2:2:0:0:
334,199,122770,2,0,L|320:259,1,46.7500014266968,8|8,2:2|2:2,0:0:0:0:
409,384,122943,5,4,1:2:0:0:
409,384,123117,2,0,P|432:342|432:283,1,93.5000028533936,2|10,2:2|2:2,0:0:0:0:
512,186,123464,1,2,2:2:0:0:
512,186,123550,1,2,2:2:0:0:
512,186,123637,1,2,2:2:0:0:
432,138,123810,2,0,L|419:190,2,46.7500014266968,2|2|8,1:2|2:2|2:2,0:0:0:0:
512,77,124157,1,2,2:2:0:0:
391,0,124331,5,2,1:2:0:0:
391,0,124504,2,0,L|327:15,2,46.7500014266968,2|2|8,2:2|2:2|2:2,0:0:0:0:
319,88,124851,2,0,L|264:71,2,46.7500014266968,2|2|2,2:2|2:2|2:2,0:0:0:0:
337,175,125198,1,2,1:2:0:0:
337,175,125284,1,2,2:2:0:0:
337,175,125371,1,8,2:2:0:0:
273,234,125545,1,2,2:2:0:0:
164,101,125718,5,6,1:2:0:0:
238,45,125891,1,2,2:2:0:0:
238,45,125978,1,2,2:2:0:0:
238,45,126064,2,0,L|251:-8,4,46.7500014266968,8|2|2|2|2,2:2|2:2|2:2|2:2|2:2,0:0:0:0:
172,108,126585,1,2,1:2:0:0:
172,108,126672,1,2,2:2:0:0:
172,108,126758,1,8,2:2:0:0:
85,49,126932,1,2,2:2:0:0:
118,194,127105,5,2,1:2:0:0:
38,241,127278,1,2,2:2:0:0:
35,257,127365,1,2,2:2:0:0:
31,274,127452,2,0,P|29:306|36:336,4,46.7500014266968,8|0|2|2|2,2:2|0:0|1:2|2:2|2:2,0:0:0:0:
118,194,127972,1,2,1:2:0:0:
150,205,128059,1,2,2:2:0:0:
187,217,128146,1,12,2:2:0:0:
239,314,128319,1,10,2:2:0:0:
323,217,128492,6,0,L|303:147,4,46.7500014266968,4|2|2|2|10,1:2|2:2|2:2|2:2|2:2,0:0:0:0:
410,231,129013,1,2,2:2:0:0:
330,93,129186,6,0,L|283:83,1,46.7500014266968,2|2,2:2|2:2,0:0:0:0:
278,3,129360,2,0,L|343:18,1,46.7500014266968,2|2,1:2|2:2,0:0:0:0:
413,59,129533,1,10,2:2:0:0:
413,59,129706,1,2,2:2:0:0:
330,93,129879,6,0,L|283:83,1,46.7500014266968,2|2,1:2|2:2,0:0:0:0:
278,3,130053,2,0,L|343:18,1,46.7500014266968,2|2,1:2|2:2,0:0:0:0:
413,59,130226,1,10,2:2:0:0:
413,59,130399,1,2,2:2:0:0:
330,93,130573,6,0,L|283:83,1,46.7500014266968,2|2,2:2|2:2,0:0:0:0:
278,3,130747,2,0,L|343:18,1,46.7500014266968,2|2,1:2|2:2,0:0:0:0:
413,59,130920,1,10,2:2:0:0:
413,59,131093,1,2,2:2:0:0:
512,153,131267,6,0,L|508:204,3,46.7500014266968,2|0|2|0,1:2|0:0|2:2|0:0,0:0:0:0:
512,153,131613,1,10,2:2:0:0:
408,214,131787,1,2,2:2:0:0:
408,214,131874,1,2,2:2:0:0:
408,214,131961,2,0,L|415:264,1,46.7500014266968,2|2,2:2|2:2,0:0:0:0:
499,278,132134,2,0,L|487:332,1,46.7500014266968,2|2,1:2|2:2,0:0:0:0:
421,361,132308,1,8,2:2:0:0:
421,361,132481,1,2,2:2:0:0:
334,297,132654,6,0,L|249:314,1,46.7500014266968,4|2,1:2|1:2,0:0:0:0:
166,229,132828,2,0,L|228:217,1,46.7500014266968,2|2,1:2|1:2,0:0:0:0:
338,115,133001,2,0,L|279:124,1,46.7500014266968,0|2,1:1|1:2,0:0:0:0:
115,66,133175,2,0,L|187:55,1,46.7500014266968,4|2,1:2|1:2,0:0:0:0:
373,0,133348,5,10,2:2:0:0:
373,0,133521,1,10,2:2:0:0:
373,0,133695,1,10,2:2:0:0:
293,37,133868,6,0,P|259:31|228:19,1,63.7500024318696,2|2,2:2|2:2,0:0:0:0:
69,68,135082,6,0,P|60:93|53:109,1,38.2499988327027,0|0,3:3|0:0,0:0:0:0:
55,103,135428,6,0,L|316:46,3,255.000009727478,4|10|2|10,1:2|2:2|1:2|2:2,0:0:0:0:
304,48,136816,5,2,1:2:0:0:
304,48,136989,1,2,2:2:0:0:
232,115,137163,2,0,P|237:169|255:240,1,127.500004863739,10|2,2:2|2:2,0:0:0:0:
327,342,137509,1,2,1:2:0:0:
385,269,137683,5,0,1:0:0:0:
370,194,137856,1,10,2:2:0:0:
357,117,138030,1,2,1:2:0:0:
254,239,138203,6,0,L|522:182,3,255.000009727478,2|10|2|10,1:2|2:2|1:2|2:2,0:0:0:0:
503,185,139591,5,2,1:2:0:0:
445,123,139764,1,2,2:2:0:0:
512,43,139937,2,0,P|439:33|347:3,1,127.500004863739,10|2,2:2|2:2,0:0:0:0:
274,97,140284,1,2,1:2:0:0:
325,165,140458,5,4,1:2:0:0:
191,114,140631,1,14,1:2:0:0:
307,22,140805,1,2,1:2:0:0:
174,127,140978,6,0,P|178:209|206:391,3,255.000009727478,4|10|2|10,1:2|2:2|1:2|2:2,0:0:0:0:
203,379,142366,5,2,1:2:0:0:
203,379,142539,1,2,2:2:0:0:
71,335,142713,1,10,2:2:0:0:
71,335,142885,1,2,2:2:0:0:
118,270,143059,1,2,1:2:0:0:
25,107,143406,1,10,1:2:0:0:
237,0,143752,6,0,P|321:24|472:61,1,203.999993774414,2|8,1:2|2:2,0:0:0:0:
447,132,144272,1,2,2:2:0:0:
361,207,144446,2,0,P|363:258|374:322,1,101.999996887207,2|2,1:2|2:2,0:0:0:0:
503,372,144793,2,0,P|510:314|508:265,1,101.999996887207,10|0,2:2|0:0,0:0:0:0:
447,132,145139,5,6,1:2:0:0:
447,132,145313,1,2,2:2:0:0:
321,83,145486,1,14,2:2:0:0:
321,83,145660,1,2,1:2:0:0:
256,145,145833,1,2,1:2:0:0:
256,145,146006,5,0,1:3:0:0:
158,75,146180,1,0,1:3:0:0:
153,174,146353,1,8,2:2:0:0:
153,174,146440,1,8,2:2:0:0:
153,174,146527,6,0,P|154:221|173:347,1,152.999995330811,4|8,1:2|2:2,0:0:0:0:
168,325,146873,2,0,L|288:283,2,101.999996887207,2|8|2,1:2|2:2|1:2,0:0:0:0:
20,384,147480,1,8,2:2:0:0:
20,384,147567,2,0,P|5:331|11:247,1,101.999996887207,2|8,1:2|2:2,0:0:0:0:
72,162,147914,5,2,1:2:0:0:
141,206,148087,1,2,2:2:0:0:
72,162,148261,1,2,1:2:0:0:
141,206,148434,1,10,2:2:0:0:
108,77,148608,1,2,1:2:0:0:
108,77,148781,6,0,L|102:12,1,46.7500014266968,10|0,2:2|0:0,0:0:0:0:
21,0,148954,2,0,L|29:72,1,46.7500014266968,10|0,1:2|0:0,0:0:0:0:
26,46,149301,6,0,L|227:82,1,191.250007295609,4|8,1:2|2:2,0:0:0:0:
214,79,149647,2,0,P|169:93|79:106,2,127.500004863739,2|8|2,1:2|2:2|1:2,0:0:0:0:
317,189,150254,1,8,2:2:0:0:
317,189,150341,2,0,P|403:174|516:156,1,191.250007295609,2|0,1:2|1:0,0:0:0:0:
505,157,150688,5,2,1:2:0:0:
486,238,150862,1,2,2:2:0:0:
505,157,151035,1,2,1:2:0:0:
486,238,151209,1,10,2:2:0:0:
390,127,151382,1,2,1:2:0:0:
390,127,151556,6,0,L|381:195,1,46.7500014266968,10|0,2:2|0:0,0:0:0:0:
311,155,151728,2,0,L|303:201,1,46.7500014266968,10|0,1:2|0:0,0:0:0:0:
229,182,151902,2,0,L|218:232,1,46.7500014266968,2|0,3:2|0:0,0:0:0:0:
316,296,152076,6,0,P|210:267|104:248,1,191.250007295609,4|8,1:2|2:2,0:0:0:0:
130,251,152422,2,0,P|130:317|144:378,2,127.500004863739,2|8|2,1:2|2:2|1:2,0:0:0:0:
242,131,153029,1,8,2:2:0:0:
242,131,153116,2,0,P|253:68|255:-12,1,127.500004863739,2|8,1:2|2:2,0:0:0:0:
255,4,153463,5,2,1:2:0:0:
255,4,153637,1,2,2:2:0:0:
173,49,153810,1,2,1:2:0:0:
173,49,153984,1,10,2:2:0:0:
49,0,154157,1,2,1:2:0:0:
160,161,154504,2,0,L|164:237,1,46.7500014266968,10|0,1:2|0:0,0:0:0:0:
162,207,154850,6,0,P|71:242|76:393,1,255.000009727478,4|0,1:2|1:1,0:0:0:0:
241,289,155371,2,0,P|247:257|248:223,1,63.7500024318696,10|0,2:2|1:0,0:0:0:0:
214,152,155544,1,2,1:2:0:0:
330,108,155717,1,2,1:2:0:0:
330,108,155804,1,8,2:2:0:0:
330,108,155891,2,0,P|389:132|456:146,1,127.500004863739,2|8,1:2|2:2,0:0:0:0:
510,250,156238,5,2,1:2:0:0:
386,294,156411,1,2,2:2:0:0:
510,250,156584,1,2,1:2:0:0:
389,378,156758,1,10,2:2:0:0:
510,250,156931,1,2,1:2:0:0:
312,188,157105,5,14,2:2:0:0:
510,250,157452,1,14,2:2:0:0:
