osu file format v14

[General]
AudioFilename: audio.ogg
AudioLeadIn: 0
PreviewTime: 40741
Countdown: 0
SampleSet: Soft
StackLeniency: 0.4
Mode: 0
LetterboxInBreaks: 0
WidescreenStoryboard: 1

[Editor]
Bookmarks: 17514,20289,25838,27225,63285,75780,92428,97977,106300,111850,122948,132659,134046,146618,157110,157283,157630
DistanceSpacing: 1.1
BeatDivisor: 4
GridSize: 32
TimelineZoom: 1.56

[Metadata]
Title:Rabbit Hole feat. Hatsune Miku
TitleUnicode:ラビットホール feat. 初音ミク
Artist:DECO*27
ArtistUnicode:DECO*27
Creator:dakiwii
Version:Hard
Source:
Tags:japanese vocaloid hatsune miku rock jrock j-rock j-pop jpop pop deco27 original KARENT 2023 tepe kemu Horie Shouta 堀江晶太 Omutatsu おむたつ 辰巳 Tatsumi Omu tiktok tik-tok
BeatmapID:4543715
BeatmapSetID:2154609

[Difficulty]
HPDrainRate:4
CircleSize:3.4
OverallDifficulty:6
ApproachRate:8
SliderMultiplier:1.5
SliderTickRate:1

[Events]
//Background and Video events
0,0,"rabbithole.jpg",0,0
Video,-32,"rabbithole.avi"
//Break Periods
2,14761,19014
2,100751,105545
//Storyboard Layer 0 (Background)
//Storyboard Layer 1 (Fail)
//Storyboard Layer 2 (Pass)
//Storyboard Layer 3 (Foreground)
//Storyboard Layer 4 (Overlay)
//Storyboard Sound Samples

[TimingPoints]
516,346.820809248555,4,2,1,78,1,0
3637,346.820809248555,4,2,1,65,1,0
3637,-100,4,2,1,65,0,0
5284,-100,4,2,1,5,0,0
5371,-100,4,2,1,65,0,0
5631,-100,4,2,1,5,0,0
5717,-100,4,2,1,65,0,0
5978,-100,4,2,1,5,0,0
6064,-100,4,2,1,65,0,0
8058,-100,4,2,1,5,0,0
8145,-100,4,2,1,65,0,0
10573,-100,4,2,1,65,0,0
11960,-100,4,2,1,65,0,0
13608,-100,4,2,1,5,0,0
13694,-100,4,2,1,65,0,0
14041,-100,4,2,1,65,0,0
14735,-100,4,2,1,65,0,0
19764,-100,4,2,1,45,0,0
20197,-100,4,2,1,5,0,0
20284,-100,4,2,1,50,0,0
24099,-100,4,2,1,50,0,0
25833,-100,4,2,1,60,0,0
27220,-100,4,2,1,60,0,0
29388,-100,4,2,1,5,0,0
29475,-100,4,2,1,60,0,0
32336,-100,4,2,1,5,0,0
32423,-100,4,2,1,60,0,0
32509,-100,4,2,1,5,0,0
32596,-100,4,2,1,60,0,0
32683,-100,4,2,1,5,0,0
32769,-100,4,2,1,60,0,0
36151,-100,4,2,1,5,0,0
36238,-100,4,2,1,60,0,0
36498,-100,4,2,1,5,0,0
36584,-100,4,2,1,70,0,0
38319,-133.333333333333,4,2,1,70,0,0
39619,-100,4,2,1,5,0,0
39706,-100,4,2,1,60,0,0
41093,-90.9090909090909,4,2,1,70,0,0
63116,-100,4,2,1,38,0,0
64330,-100,4,2,1,65,0,0
64590,-100,4,2,1,5,0,0
64677,-100,4,2,1,65,0,0
66324,-100,4,2,1,5,0,0
66411,-100,4,2,1,65,0,0
66758,-100,4,2,1,65,0,0
67018,-100,4,2,1,5,0,0
67105,-100,4,2,1,65,0,0
69099,-100,4,2,1,5,0,0
69186,-100,4,2,1,65,0,0
70226,-133.333333333333,4,2,1,45,0,0
70920,-100,4,2,1,65,0,0
71613,-100,4,2,1,75,0,0
73001,-100,4,2,1,75,0,0
74648,-100,4,2,1,5,0,0
74735,-100,4,2,1,75,0,0
74995,-100,4,2,1,5,0,0
75082,-100,4,2,1,75,0,0
75775,-117.647058823529,4,2,2,75,0,0
76295,-117.647058823529,4,2,2,55,0,0
81238,-117.647058823529,4,2,2,5,0,0
81324,-117.647058823529,4,2,2,55,0,0
84099,-117.647058823529,4,2,2,65,0,0
86787,-117.647058823529,4,2,2,5,0,0
86873,-117.647058823529,4,2,2,45,0,0
87914,-111.111111111111,4,2,2,75,0,0
88781,-111.111111111111,4,2,2,55,0,0
95197,-100,4,2,2,65,0,0
97538,-100,4,2,2,5,0,0
97625,-100,4,2,1,75,0,0
97885,-100,4,2,2,5,0,0
97899,-100,4,2,1,5,0,0
97972,-100,4,2,1,45,0,0
99012,-100,4,2,1,35,0,0
99272,-100,4,2,1,5,0,0
99359,-100,4,2,1,75,0,0
100746,-100,4,2,1,35,0,0
106295,-100,4,2,1,50,0,0
109070,-100,4,2,1,55,0,0
110457,-100,4,2,1,65,0,0
111845,-90.9090909090909,4,2,1,70,0,0
133868,-100,4,2,1,30,0,0
135082,-100,4,2,1,75,0,0
135342,-100,4,2,1,5,0,0
135428,-100,4,2,1,75,0,0
135689,-100,4,2,1,5,0,0
135775,-100,4,2,1,75,0,0
136035,-100,4,2,1,5,0,0
136122,-100,4,2,1,75,0,0
136382,-100,4,2,1,5,0,0
136469,-100,4,2,1,75,0,0
136729,-100,4,2,1,5,0,0
136816,-100,4,2,1,75,0,0
138463,-100,4,2,1,5,0,0
138550,-100,4,2,1,75,0,0
138810,-100,4,2,1,5,0,0
138897,-100,4,2,1,75,0,0
139157,-100,4,2,1,5,0,0
139243,-100,4,2,1,75,0,0
139504,-100,4,2,1,5,0,0
139590,-100,4,2,1,75,0,0
141238,-100,4,2,1,5,0,0
141324,-100,4,2,1,75,0,0
141671,-100,4,2,1,75,0,0
142018,-100,4,2,1,75,0,0
142365,-100,4,2,1,75,0,0
146527,-90.9090909090909,4,2,1,75,0,0
148781,-90.9090909090909,4,2,1,75,0,0
148868,-90.9090909090909,4,2,1,5,0,0
148954,-90.9090909090909,4,2,1,75,0,0
149041,-90.9090909090909,4,2,1,5,0,0
149215,-90.9090909090909,4,2,1,75,0,0
149301,-90.9090909090909,4,2,1,75,0,0
151556,-90.9090909090909,4,2,1,75,0,0
151642,-90.9090909090909,4,2,1,5,0,0
151729,-90.9090909090909,4,2,1,75,0,0
151816,-90.9090909090909,4,2,1,5,0,0
151902,-90.9090909090909,4,2,1,75,0,0
151989,-90.9090909090909,4,2,1,5,0,0
152076,-90.9090909090909,4,2,1,75,0,0
154330,-90.9090909090909,4,2,1,75,0,0
154417,-90.9090909090909,4,2,1,5,0,0
154504,-90.9090909090909,4,2,1,75,0,0
154590,-90.9090909090909,4,2,1,5,0,0
154850,-90.9090909090909,4,2,1,75,0,0

[Colours]
Combo1 : 17,254,176
Combo2 : 173,255,95
Combo3 : 255,88,100
Combo4 : 255,94,55

[HitObjects]
256,192,516,12,0,1903,1:1:0:0:
465,71,3290,5,8,2:2:0:0:
465,71,3637,6,0,L|446:151,1,75,4|0,1:2|0:0,0:0:0:0:
380,192,3983,2,0,L|396:289,1,75,10|0,2:2|1:0,0:0:0:0:
455,327,4330,1,2,1:2:0:0:
455,327,4504,1,0,1:1:0:0:
386,373,4677,1,10,2:2:0:0:
386,373,4850,1,0,0:0:0:0:
309,329,5024,6,0,L|153:304,2,150,2|10|2,1:2|2:2|1:2,0:0:0:0:
309,329,6064,1,10,2:2:0:0:
419,206,6411,6,0,L|408:127,1,75,2|0,1:2|0:0,0:0:0:0:
326,126,6757,2,0,L|340:46,1,75,10|0,2:2|1:0,0:0:0:0:
278,4,7104,1,2,1:2:0:0:
278,4,7278,1,0,1:1:0:0:
215,56,7451,1,10,2:2:0:0:
215,56,7624,1,0,0:0:0:0:
138,23,7798,5,2,1:2:0:0:
27,145,8145,1,10,2:2:0:0:
100,203,8319,1,2,0:0:0:0:
100,203,8405,1,2,0:0:0:0:
100,203,8492,2,0,L|149:186,3,37.5,2|2|0|2,1:2|0:0|1:1|0:0,0:0:0:0:
168,166,8839,2,0,L|207:176,2,37.5,10|2|2,2:2|0:0|0:0,0:0:0:0:
244,198,9186,6,0,L|337:181,1,75,2|0,1:2|0:0,0:0:0:0:
380,131,9532,2,0,L|460:151,1,75,10|0,2:2|1:0,0:0:0:0:
510,216,9879,1,2,1:2:0:0:
510,216,10053,1,0,1:1:0:0:
464,285,10226,1,10,2:2:0:0:
464,285,10399,1,0,0:0:0:0:
397,235,10573,6,0,P|361:240|315:257,1,75,2|0,1:2|1:0,0:0:0:0:
273,317,10920,2,0,L|262:364,2,37.5,10|0|0,0:2|0:0|1:0,0:0:0:0:
213,258,11267,2,0,P|203:233|203:158,1,75,2|2,3:2|3:2,0:0:0:0:
248,120,11613,1,10,3:2:0:0:
248,120,11700,1,2,0:0:0:0:
248,120,11787,1,2,0:0:0:0:
177,65,11960,6,0,L|101:79,1,75,2|0,1:2|0:0,0:0:0:0:
38,130,12307,2,0,L|51:228,1,75,10|2,2:2|1:2,0:0:0:0:
116,259,12654,1,2,1:2:0:0:
116,259,12827,1,0,1:1:0:0:
65,325,13001,1,10,2:2:0:0:
65,325,13174,1,0,1:0:0:0:
137,364,13347,6,0,P|204:349|293:332,2,150,2|10|2,1:2|2:2|1:2,0:0:0:0:
65,325,14215,1,0,1:1:0:0:
31,249,14388,1,10,2:2:0:0:
68,175,14561,1,0,1:0:0:0:
27,62,19764,6,0,L|11:6,2,37.5,2|2|2,2:2|2:2|2:2,0:0:0:0:
188,94,20284,6,0,L|286:76,1,75,4|0,1:2|0:0,0:0:0:0:
325,27,20631,2,0,P|381:32|399:131,1,150,2|2,1:2|1:2,0:0:0:0:
353,172,21151,1,2,2:2:0:0:
501,265,21498,1,2,2:2:0:0:
501,265,21584,1,2,2:2:0:0:
501,265,21671,6,0,L|486:343,1,75,2|2,1:2|2:2,0:0:0:0:
413,377,22018,2,0,L|337:352,1,75,2|2,1:2|2:2,0:0:0:0:
300,281,22365,2,0,L|319:194,2,75,2|2|2,1:2|2:2|1:2,0:0:0:0:
227,320,22885,1,2,2:2:0:0:
157,275,23058,5,2,1:2:0:0:
157,275,23405,1,2,1:2:0:0:
21,369,23752,2,0,L|17:210,1,150,0|0,1:0|1:0,0:0:0:0:
69,154,24272,2,0,P|140:183|226:184,1,150,2|2,2:2|2:2,0:0:0:0:
212,186,24706,1,2,2:2:0:0:
212,186,24793,1,2,1:2:0:0:
272,130,24966,2,0,L|282:66,2,37.5,2|2|2,2:2|1:2|1:2,0:0:0:0:
335,182,25313,1,2,1:2:0:0:
413,144,25486,1,2,1:2:0:0:
413,144,25573,1,0,1:1:0:0:
413,144,25660,1,2,1:2:0:0:
413,144,25746,1,0,1:1:0:0:
413,144,25833,5,2,2:2:0:0:
474,297,26180,1,2,3:2:0:0:
320,357,26527,1,2,3:2:0:0:
288,280,26700,1,0,1:1:0:0:
261,202,26873,1,10,2:2:0:0:
261,202,27220,6,0,P|223:215|179:227,1,75,4|2,1:2|2:2,0:0:0:0:
189,224,27480,1,2,2:2:0:0:
189,224,27567,1,10,2:2:0:0:
125,171,27741,2,0,L|140:135,2,37.5,2|2|2,2:2|2:2|1:2,0:0:0:0:
69,231,28087,2,0,L|87:318,2,75,2|10|2,2:2|2:2|2:2,0:0:0:0:
14,171,28608,1,2,1:2:0:0:
14,171,28781,1,2,2:2:0:0:
53,98,28954,1,10,2:2:0:0:
21,21,29128,1,2,2:2:0:0:
21,21,29475,6,0,L|107:0,2,75,2|10|2,2:2|2:2|2:2,0:0:0:0:
53,98,29995,6,0,L|151:112,1,75,2|2,1:2|2:2,0:0:0:0:
191,56,30342,2,0,L|232:73,3,37.5,10|2|2|2,2:2|2:2|2:2|2:2,0:0:0:0:
260,93,30689,2,0,L|315:76,3,37.5,2|0|2|2,1:2|0:0|2:2|2:2,0:0:0:0:
325,53,31035,1,10,2:2:0:0:
393,116,31209,1,2,2:2:0:0:
393,116,31295,1,2,2:2:0:0:
393,116,31382,2,0,P|401:162|403:201,1,75,2|2,1:2|2:2,0:0:0:0:
343,248,31729,1,10,2:2:0:0:
385,318,31902,1,2,2:2:0:0:
385,318,32249,5,2,1:2:0:0:
307,346,32423,1,10,2:2:0:0:
228,370,32596,1,2,2:2:0:0:
164,318,32769,5,2,1:2:0:0:
204,157,33116,1,10,2:2:0:0:
45,109,33463,1,2,1:2:0:0:
45,109,33637,1,2,2:2:0:0:
6,269,33983,1,2,2:2:0:0:
79,231,34157,6,0,L|153:249,1,75,2|2,1:2|2:2,0:0:0:0:
211,306,34504,2,0,L|310:276,1,75,10|2,2:2|2:2,0:0:0:0:
336,221,34850,2,0,L|358:133,2,75,2|0|10,1:2|1:0|2:2,0:0:0:0:
393,280,35371,1,2,2:2:0:0:
467,244,35544,2,0,L|457:159,1,75,2|0,1:2|0:0,0:0:0:0:
436,89,35891,2,0,P|379:75|319:47,1,112.5,10|0,2:2|0:0,0:0:0:0:
316,40,36238,2,0,P|246:58|154:89,1,150,2|8,1:2|1:2,0:0:0:0:
100,40,36758,1,2,2:2:0:0:
100,40,37105,6,0,L|1:16,2,75,2|10|2,2:2|2:2|2:2,0:0:0:0:
176,86,37625,1,2,1:2:0:0:
176,86,37798,1,0,1:0:0:0:
115,142,37972,2,0,P|113:176|127:222,1,75,10|2,2:2|1:2,0:0:0:0:
192,272,38319,6,0,L|320:244,2,112.500004291535,2|2|2,2:2|0:0|0:0,0:0:0:0:
192,272,39359,1,2,2:2:0:0:
56,366,39706,5,4,1:2:0:0:
104,301,39879,1,8,2:2:0:0:
103,301,39966,1,0,1:0:0:0:
103,301,40053,2,0,L|83:245,3,37.5,8|8|8|8,2:2|2:2|2:2|2:2,0:0:0:0:
58,238,40400,1,0,1:1:0:0:
198,152,40746,1,10,2:2:0:0:
66,34,41093,5,4,1:2:0:0:
66,34,41267,2,0,L|229:68,1,165.000005035401,2|2,2:2|2:2,0:0:0:0:
227,67,41787,1,0,1:1:0:0:
308,36,41960,2,0,L|323:-10,2,41.2500012588501,2|2|8,2:2|2:2|2:2,0:0:0:0:
356,112,42307,1,2,2:2:0:0:
424,67,42480,6,0,L|518:92,2,82.5000025177003,2|2|8,1:2|2:2|2:2,0:0:0:0:
356,112,43001,1,2,2:2:0:0:
402,179,43174,1,0,1:1:0:0:
342,233,43347,1,2,2:2:0:0:
342,233,43434,1,2,2:2:0:0:
342,233,43521,2,0,L|241:201,1,82.5000025177003,8|2,2:2|2:2,0:0:0:0:
197,257,43868,5,2,1:2:0:0:
149,189,44041,2,0,L|159:139,2,41.2500012588501,2|2|8,2:2|2:2|2:2,0:0:0:0:
87,243,44388,2,0,L|45:230,2,41.2500012588501,2|2|0,2:2|2:2|1:1,0:0:0:0:
127,326,44735,1,2,2:2:0:0:
127,326,44821,1,2,2:2:0:0:
127,326,44908,1,8,2:2:0:0:
201,362,45082,1,2,2:2:0:0:
269,315,45255,6,0,P|329:290|325:177,1,165.000005035401,2|8,1:2|2:2,0:0:0:0:
275,152,45775,2,0,L|287:111,2,41.2500012588501,2|2|0,2:2|2:2|1:1,0:0:0:0:
220,220,46122,1,2,2:2:0:0:
220,220,46209,1,2,2:2:0:0:
220,220,46295,2,0,P|180:204|140:189,1,82.5000025177003,8|10,2:2|2:2,0:0:0:0:
38,189,46642,6,0,P|107:169|196:109,1,165.000005035401,4|10,1:2|2:2,0:0:0:0:
267,143,47163,1,2,2:2:0:0:
307,63,47336,6,0,L|294:5,2,41.2500012588501,2|2|2,1:2|2:2|2:2,0:0:0:0:
360,137,47683,1,10,2:2:0:0:
360,137,47856,1,2,2:2:0:0:
427,88,48030,6,0,L|485:105,2,41.2500012588501,2|2|2,1:2|2:2|2:2,0:0:0:0:
360,137,48376,1,10,2:2:0:0:
360,137,48550,1,2,2:2:0:0:
418,209,48723,5,2,1:2:0:0:
418,209,48810,1,2,2:2:0:0:
418,209,48897,1,2,2:2:0:0:
348,252,49070,2,0,P|307:238|266:227,1,82.5000025177003,10|2,2:2|2:2,0:0:0:0:
190,189,49417,6,0,P|186:141|177:83,2,82.5000025177003,2|2|10,1:2|2:2|2:2,0:0:0:0:
41,292,50110,2,0,L|-18:277,2,41.2500012588501,2|2|2,1:2|2:2|2:2,0:0:0:0:
100,349,50457,2,0,L|199:330,1,82.5000025177003,10|2,2:2|2:2,0:0:0:0:
254,291,50804,5,2,1:2:0:0:
254,291,50891,1,0,0:0:0:0:
254,291,50978,1,2,2:2:0:0:
324,333,51151,2,0,L|383:311,3,41.2500012588501,12|0|2|0,2:2|0:0|2:2|0:0,0:0:0:0:
403,321,51498,1,2,1:2:0:0:
416,239,51671,1,2,1:2:0:0:
425,156,51845,1,10,2:2:0:0:
319,36,52191,5,4,1:2:0:0:
319,36,52365,2,0,L|156:70,1,165.000005035401,2|2,2:2|2:2,0:0:0:0:
113,139,52885,1,2,2:2:0:0:
38,103,53058,2,0,L|23:51,2,41.2500012588501,2|2|8,1:2|2:2|2:2,0:0:0:0:
4,187,53405,1,2,2:2:0:0:
62,244,53578,6,0,L|154:215,2,82.5000025177003,2|2|8,1:2|2:2|2:2,0:0:0:0:
20,315,54099,1,2,2:2:0:0:
98,365,54272,2,0,L|204:328,1,82.5000025177003,2|2,2:2|1:2,0:0:0:0:
175,337,54532,1,2,2:2:0:0:
175,337,54619,2,0,L|276:369,1,82.5000025177003,8|2,2:2|2:2,0:0:0:0:
321,314,54966,5,2,1:2:0:0:
397,360,55139,2,0,L|446:342,2,41.2500012588501,2|2|8,2:2|2:2|2:2,0:0:0:0:
321,314,55486,2,0,L|292:248,2,41.2500012588501,2|2|2,2:2|2:2|2:2,0:0:0:0:
396,273,55833,1,2,1:2:0:0:
396,273,55919,1,2,2:2:0:0:
396,273,56006,1,8,2:2:0:0:
406,190,56180,1,2,2:2:0:0:
309,189,56353,6,0,L|347:-4,1,165.000005035401,2|8,1:2|2:2,0:0:0:0:
260,4,56873,1,2,1:2:0:0:
220,85,57047,1,2,2:2:0:0:
155,34,57220,1,2,1:2:0:0:
155,34,57307,1,2,2:2:0:0:
155,34,57393,2,0,P|114:47|73:61,1,82.5000025177003,8|10,2:2|2:2,0:0:0:0:
30,128,57740,6,0,P|29:190|55:300,1,165.000005035401,4|10,1:2|2:2,0:0:0:0:
130,316,58261,1,2,2:2:0:0:
186,256,58434,6,0,L|199:198,2,41.2500012588501,2|2|2,2:2|2:2|1:2,0:0:0:0:
246,320,58781,1,10,2:2:0:0:
246,320,58954,1,2,2:2:0:0:
323,290,59128,6,0,L|332:250,2,41.2500012588501,2|2|2,1:2|2:2|2:2,0:0:0:0:
379,356,59474,1,10,2:2:0:0:
379,356,59648,1,2,2:2:0:0:
453,315,59821,5,2,2:2:0:0:
453,315,59908,1,2,2:2:0:0:
453,315,59995,1,2,1:2:0:0:
409,237,60168,2,0,P|404:197|405:146,1,82.5000025177003,10|2,2:2|2:2,0:0:0:0:
434,77,60515,6,0,L|542:40,2,82.5000025177003,2|2|10,1:2|2:2|2:2,0:0:0:0:
281,13,61208,2,0,L|225:-7,2,41.2500012588501,2|0|2,2:2|0:0|1:2,0:0:0:0:
310,90,61555,2,0,P|305:132|282:195,1,82.5000025177003,8|2,2:2|2:2,0:0:0:0:
237,229,61902,5,4,1:2:0:0:
237,229,61989,1,2,2:2:0:0:
237,229,62076,1,2,2:2:0:0:
237,229,62163,1,2,2:2:0:0:
237,229,62249,2,0,L|178:251,3,41.2500012588501,10|2|4|2,2:2|2:2|1:2|2:2,0:0:0:0:
169,272,62596,1,2,2:2:0:0:
130,344,62769,1,10,2:2:0:0:
50,319,62943,1,10,2:2:0:0:
122,82,64330,5,8,2:2:0:0:
122,82,64677,6,0,L|225:59,1,75,4|0,1:2|0:0,0:0:0:0:
257,12,65023,2,0,L|338:28,1,75,10|0,2:2|1:0,0:0:0:0:
396,84,65370,1,2,1:2:0:0:
396,84,65544,1,0,1:1:0:0:
370,164,65717,1,10,2:2:0:0:
370,164,65890,1,0,0:0:0:0:
291,190,66064,6,0,L|444:221,2,150,2|10|2,1:2|2:2|1:2,0:0:0:0:
291,190,67104,1,10,2:2:0:0:
176,71,67451,6,0,L|85:95,1,75,2|0,1:2|0:0,0:0:0:0:
32,48,67797,2,0,L|18:128,1,75,10|2,2:2|1:2,0:0:0:0:
72,192,68144,1,2,1:2:0:0:
72,192,68318,1,0,1:1:0:0:
152,166,68491,1,10,2:2:0:0:
152,166,68664,1,0,0:0:0:0:
215,219,68838,5,2,1:2:0:0:
149,370,69185,1,10,2:2:0:0:
239,382,69359,1,2,0:0:0:0:
239,382,69445,1,2,0:0:0:0:
239,382,69532,2,0,L|279:367,3,37.5,2|2|0|2,1:2|0:0|1:1|0:0,0:0:0:0:
302,338,69879,2,0,L|352:355,2,37.5,10|2|2,2:2|0:0|0:0,0:0:0:0:
246,270,70226,6,0,L|232:138,1,112.500004291535,2|0,1:2|0:0,0:0:0:0:
118,39,70920,1,8,2:2:0:0:
118,39,71267,1,8,2:2:0:0:
277,78,71613,6,0,P|313:73|359:56,1,75,6|0,1:2|1:0,0:0:0:0:
417,13,71960,2,0,P|451:18|497:37,1,75,10|0,2:2|1:0,0:0:0:0:
502,114,72307,2,0,L|483:213,1,75,2|2,3:2|3:2,0:0:0:0:
424,237,72653,1,10,3:2:0:0:
424,237,72740,1,2,0:0:0:0:
424,237,72827,1,2,0:0:0:0:
351,181,73000,6,0,L|254:204,1,75,2|0,1:2|0:0,0:0:0:0:
233,268,73347,2,0,L|155:251,1,75,10|2,2:2|1:2,0:0:0:0:
101,200,73694,1,2,1:2:0:0:
101,200,73867,1,0,1:1:0:0:
39,255,74041,1,10,2:2:0:0:
39,255,74214,1,0,1:0:0:0:
4,180,74387,6,0,L|36:28,2,150,2|10|2,1:2|2:2|1:2,0:0:0:0:
39,255,75255,1,0,1:1:0:0:
39,255,75428,1,10,2:2:0:0:
100,309,75601,1,0,1:0:0:0:
166,263,75775,6,0,P|276:280|371:318,1,191.250003647804,4|2,1:2|2:2,0:0:0:0:
414,360,76469,2,0,L|436:278,1,63.7500012159348,10|2,2:2|2:2,0:0:0:0:
350,153,76989,2,0,P|280:135|215:105,1,127.50000243187,2|2,0:0|0:0,0:0:0:0:
229,112,77683,6,0,L|244:26,2,63.7500012159348,2|10|2,2:2|2:2|2:2,0:0:0:0:
86,197,78376,2,0,L|24:178,2,63.7500012159348,2|2|2,2:2|1:2|1:2,0:0:0:0:
195,322,79070,2,0,L|179:384,2,63.7500012159348,2|10|2,2:2|2:2|2:2,0:0:0:0:
195,322,79764,1,2,0:0:0:0:
270,287,79937,6,0,L|334:305,2,42.5000008106232,2|2|2,1:2|2:2|2:2,0:0:0:0:
245,237,80284,6,0,L|194:229,2,42.5000008106232,2|2|2,1:2|2:2|2:2,0:0:0:0:
284,197,80631,5,10,2:2:0:0:
188,61,80978,1,2,1:2:0:0:
188,61,81324,6,0,P|284:58|403:23,1,191.250003647804,2|2,1:2|2:2,0:0:0:0:
444,81,82018,2,0,P|451:114|449:164,1,63.7500012159348,10|2,2:2|2:2,0:0:0:0:
299,210,82538,2,0,P|298:281|313:353,1,127.50000243187,2|2,0:0|2:2,0:0:0:0:
308,336,83232,1,2,2:2:0:0:
379,293,83405,2,0,L|458:317,1,63.7500012159348,10|2,2:2|2:2,0:0:0:0:
490,377,83752,1,2,2:2:0:0:
464,213,84099,6,0,L|475:157,2,42.5000008106232,2|0|2,1:2|0:0|2:2,0:0:0:0:
422,175,84446,6,0,L|434:113,2,42.5000008106232,2|2|2,1:2|2:2|2:2,0:0:0:0:
386,132,84793,6,0,L|399:71,2,42.5000008106232,10|2|2,1:2|2:2|2:2,0:0:0:0:
352,88,85139,6,0,L|361:33,2,42.5000008106232,2|0|0,1:2|0:0|0:0,0:0:0:0:
296,94,85486,6,0,L|287:157,2,42.5000008106232,2|0|2,1:2|1:0|1:2,0:0:0:0:
251,126,85833,6,0,L|240:191,2,42.5000008106232,2|0|2,1:2|1:0|1:2,0:0:0:0:
208,90,86180,6,0,L|78:50,2,127.50000243187,10|2|2,2:2|1:2|2:2,0:0:0:0:
55,62,87914,5,4,1:2:0:0:
55,62,88087,2,0,L|23:204,2,134.999995880127,0|2|2,1:0|2:2|2:2,0:0:0:0:
127,11,88954,2,0,L|188:38,1,67.4999979400635,10|2,2:2|1:2,0:0:0:0:
279,189,89475,1,2,2:2:0:0:
279,189,89648,2,0,L|356:175,1,67.4999979400635,2|2,1:2|2:2,0:0:0:0:
494,279,90168,1,2,1:2:0:0:
494,279,90342,2,0,L|507:362,1,67.4999979400635,10|2,2:2|2:2,0:0:0:0:
332,381,90862,1,2,1:2:0:0:
288,305,91035,6,0,L|302:243,2,44.999998626709,2|2|2,1:2|2:2|2:2,0:0:0:0:
231,321,91382,6,0,L|190:294,2,44.999998626709,2|2|2,1:2|2:2|2:2,0:0:0:0:
244,378,91729,5,10,2:2:0:0:
66,278,92076,1,6,1:2:0:0:
66,278,92423,6,0,P|40:154|50:50,1,202.499993820191,2|2,1:2|1:2,0:0:0:0:
120,35,93117,2,0,P|127:68|125:118,1,67.4999979400635,10|2,2:2|2:2,0:0:0:0:
259,221,93637,2,0,P|266:158|264:82,1,134.999995880127,0|2,1:0|1:2,0:0:0:0:
264,86,94331,1,2,2:2:0:0:
339,41,94504,2,0,L|421:67,1,67.4999979400635,10|2,2:2|2:2,0:0:0:0:
471,119,94851,1,2,1:2:0:0:
383,293,95198,6,0,L|388:353,2,50,4|2|2,1:2|2:2|2:2,0:0:0:0:
332,251,95545,6,0,L|303:198,2,50,2|2|2,1:2|2:2|2:2,0:0:0:0:
397,253,95892,6,0,L|465:209,2,50,10|2|2,2:2|2:2|2:2,0:0:0:0:
348,295,96238,6,0,L|300:331,2,50,2|2|2,1:2|2:2|2:2,0:0:0:0:
404,325,96584,5,4,1:2:0:0:
444,201,96816,5,0,1:1:0:0:
329,140,97047,5,0,1:1:0:0:
404,33,97279,6,0,L|371:188,2,150,0|2|2,1:1|1:2|2:2,0:0:0:0:
404,33,99359,5,12,2:2:0:0:
404,33,99532,1,8,2:2:0:0:
215,68,99879,1,8,2:2:0:0:
215,68,100053,1,8,2:2:0:0:
440,86,106295,6,0,L|457:26,2,37.5,4|2|2,1:2|2:2|2:2,0:0:0:0:
377,140,106642,2,0,L|297:107,1,75,2|2,1:2|2:2,0:0:0:0:
235,151,106989,2,0,P|208:222|203:311,1,150,2|2,1:2|2:2,0:0:0:0:
253,359,107509,1,2,1:2:0:0:
335,359,107683,2,0,P|351:281|342:193,1,150,2|2,1:2|1:2,0:0:0:0:
316,133,108203,1,2,2:2:0:0:
235,151,108376,2,0,P|203:227|203:312,1,150,2|2,1:2|2:2,0:0:0:0:
253,359,108897,1,0,1:1:0:0:
256,192,109070,12,2,111151,2:2:0:0:
446,350,111845,5,4,1:2:0:0:
446,350,112019,2,0,L|283:316,1,165.000005035401,2|2,2:2|2:2,0:0:0:0:
243,244,112539,1,0,1:1:0:0:
177,294,112712,2,0,L|157:347,2,41.2500012588501,2|2|8,2:2|2:2|2:2,0:0:0:0:
135,222,113059,1,2,2:2:0:0:
185,156,113232,5,2,1:2:0:0:
123,101,113405,2,0,L|86:84,2,41.2500012588501,2|2|8,2:2|2:2|2:2,0:0:0:0:
193,58,113752,2,0,L|213:6,2,41.2500012588501,2|2|0,2:2|2:2|1:1,0:0:0:0:
261,121,114099,1,2,2:2:0:0:
261,121,114186,1,2,2:2:0:0:
261,121,114272,1,8,2:2:0:0:
312,56,114446,1,2,2:2:0:0:
384,94,114619,6,0,P|404:165|384:277,1,165.000005035401,2|8,1:2|2:2,0:0:0:0:
346,322,115139,1,2,2:2:0:0:
282,269,115313,1,0,1:1:0:0:
228,332,115487,1,2,2:2:0:0:
228,332,115573,1,2,2:2:0:0:
228,332,115660,1,8,2:2:0:0:
153,369,115834,1,2,2:2:0:0:
85,322,116006,6,0,P|71:245|79:147,1,165.000005035401,2|8,1:2|2:2,0:0:0:0:
130,95,116527,1,2,2:2:0:0:
182,158,116700,1,0,1:1:0:0:
250,109,116874,1,2,2:2:0:0:
250,109,116961,1,2,2:2:0:0:
250,109,117047,2,0,P|290:125|330:140,1,82.5000025177003,8|10,2:2|2:2,0:0:0:0:
398,97,117394,6,0,P|443:136|423:257,1,165.000005035401,4|10,1:2|2:2,0:0:0:0:
370,277,117915,1,2,2:2:0:0:
303,228,118088,6,0,L|257:211,2,41.2500012588501,2|2|2,1:2|2:2|2:2,0:0:0:0:
370,277,118435,1,10,2:2:0:0:
370,277,118608,1,2,2:2:0:0:
298,319,118782,6,0,L|248:301,2,41.2500012588501,2|2|2,1:2|2:2|2:2,0:0:0:0:
364,375,119128,1,10,2:2:0:0:
364,375,119302,1,2,2:2:0:0:
446,348,119475,5,2,1:2:0:0:
446,348,119562,1,2,2:2:0:0:
446,348,119649,1,2,2:2:0:0:
487,276,119822,2,0,P|495:236|493:185,1,82.5000025177003,10|2,2:2|2:2,0:0:0:0:
447,126,120169,6,0,P|449:89|461:41,2,82.5000025177003,2|2|10,1:2|2:2|2:2,0:0:0:0:
324,236,120862,2,0,L|330:282,2,41.2500012588501,2|2|2,1:2|2:2|2:2,0:0:0:0:
251,196,121209,2,0,P|241:158|241:107,1,82.5000025177003,10|2,2:2|2:2,0:0:0:0:
303,61,121556,5,2,1:2:0:0:
303,61,121643,1,0,1:0:0:0:
303,61,121730,1,2,1:2:0:0:
220,17,121903,2,0,L|161:39,3,41.2500012588501,12|0|2|2,1:2|1:0|1:2|1:2,0:0:0:0:
140,24,122250,1,2,1:2:0:0:
101,96,122423,1,2,1:2:0:0:
30,53,122597,1,10,2:2:0:0:
75,216,122943,5,4,1:2:0:0:
75,216,123117,2,0,L|238:179,1,165.000005035401,2|2,2:2|2:2,0:0:0:0:
289,116,123637,1,2,2:2:0:0:
355,163,123810,2,0,L|371:213,2,41.2500012588501,2|2|8,1:2|2:2|2:2,0:0:0:0:
402,86,124157,1,2,2:2:0:0:
460,143,124330,6,0,P|461:200|430:323,1,165.000005035401,2|8,1:2|2:2,0:0:0:0:
367,350,124851,1,2,2:2:0:0:
305,313,125024,2,0,L|199:350,1,82.5000025177003,2|2,2:2|1:2,0:0:0:0:
227,340,125284,1,2,2:2:0:0:
227,340,125371,2,0,L|126:308,1,82.5000025177003,8|2,2:2|2:2,0:0:0:0:
84,263,125717,6,0,P|64:192|67:89,1,165.000005035401,6|8,1:2|2:2,0:0:0:0:
117,37,126238,1,2,2:2:0:0:
168,100,126411,1,2,2:2:0:0:
247,65,126585,1,2,1:2:0:0:
247,65,126671,1,2,2:2:0:0:
247,65,126758,1,8,2:2:0:0:
322,32,126932,1,2,2:2:0:0:
378,91,127105,6,0,P|375:142|359:195,1,82.5000025177003,2|2,1:2|2:2,0:0:0:0:
367,172,127365,1,2,2:2:0:0:
367,172,127452,1,8,2:2:0:0:
285,184,127625,2,0,L|221:144,2,41.2500012588501,2|2|2,1:2|2:2|2:2,0:0:0:0:
327,267,127972,1,2,1:2:0:0:
327,267,128059,1,2,2:2:0:0:
327,267,128145,2,0,P|327:307|317:359,1,82.5000025177003,12|10,2:2|2:2,0:0:0:0:
243,381,128492,6,0,P|158:351|82:331,1,165.000005035401,4|10,1:2|2:2,0:0:0:0:
36,264,129013,1,2,2:2:0:0:
109,226,129186,6,0,L|171:244,2,41.2500012588501,2|2|2,2:2|2:2|1:2,0:0:0:0:
59,166,129533,1,10,2:2:0:0:
59,166,129706,1,2,2:2:0:0:
132,128,129880,6,0,L|189:144,2,41.2500012588501,2|2|2,1:2|2:2|1:2,0:0:0:0:
93,61,130226,1,10,2:2:0:0:
93,61,130400,1,2,2:2:0:0:
162,14,130573,5,2,2:2:0:0:
162,14,130660,1,2,2:2:0:0:
162,14,130747,1,2,1:2:0:0:
233,55,130920,2,0,P|270:50|327:30,1,82.5000025177003,10|2,2:2|2:2,0:0:0:0:
392,13,131267,6,0,L|502:38,2,82.5000025177003,2|2|10,1:2|2:2|2:2,0:0:0:0:
301,151,131960,2,0,L|313:216,2,41.2500012588501,2|2|2,2:2|2:2|1:2,0:0:0:0:
372,108,132307,2,0,P|409:119|474:133,1,82.5000025177003,8|2,2:2|2:2,0:0:0:0:
512,211,132654,5,4,1:2:0:0:
512,211,132741,1,2,1:2:0:0:
512,211,132828,1,2,1:2:0:0:
512,211,132915,1,2,1:2:0:0:
512,211,133001,2,0,L|500:272,3,41.2500012588501,0|2|4|2,1:1|1:2|1:2|1:2,0:0:0:0:
472,277,133348,1,10,2:2:0:0:
416,337,133521,1,10,2:2:0:0:
346,291,133695,1,10,2:2:0:0:
296,0,135428,6,0,L|288:78,1,75,4|0,1:2|0:0,0:0:0:0:
211,105,135775,2,0,L|229:193,1,75,10|0,2:2|0:0,0:0:0:0:
305,200,136122,2,0,L|285:295,1,75,2|0,1:2|0:0,0:0:0:0:
215,309,136469,2,0,L|230:410,1,75,10|0,2:2|0:0,0:0:0:0:
308,381,136816,6,0,P|384:366|456:303,1,150,2|10,1:2|2:2,0:0:0:0:
473,249,137336,1,2,2:2:0:0:
473,249,137509,1,2,1:2:0:0:
442,172,137683,2,0,L|461:94,1,75,0|10,1:0|2:2,0:0:0:0:
319,12,138203,6,0,L|235:24,1,75,2|0,1:2|0:0,0:0:0:0:
240,105,138550,2,0,L|161:90,1,75,10|0,2:2|0:0,0:0:0:0:
124,19,138897,2,0,L|36:36,1,75,2|0,1:2|0:0,0:0:0:0:
6,103,139244,2,0,L|21:204,1,75,10|0,2:2|0:0,0:0:0:0:
95,150,139591,6,0,P|168:161|242:207,1,150,2|10,1:2|2:2,0:0:0:0:
203,278,140111,1,2,2:2:0:0:
203,278,140284,1,2,1:2:0:0:
122,262,140457,2,0,P|121:306|141:354,1,75,4|14,1:2|1:2,0:0:0:0:
199,380,140804,1,2,1:2:0:0:
270,318,140978,6,0,L|357:289,1,75,4|0,1:2|0:0,0:0:0:0:
406,344,141324,2,0,L|441:257,1,75,10|0,2:2|0:0,0:0:0:0:
512,269,141671,2,0,L|497:195,1,75,2|0,1:2|0:0,0:0:0:0:
512,116,142018,2,0,L|416:66,1,75,10|0,2:2|0:0,0:0:0:0:
362,79,142365,6,0,L|376:-6,2,75,2|2|10,1:2|2:2|2:2,0:0:0:0:
292,123,142885,1,2,2:2:0:0:
292,123,143058,1,2,1:2:0:0:
426,219,143405,1,10,1:2:0:0:
302,328,143752,6,0,P|222:318|147:258,1,150,2|8,1:2|2:2,0:0:0:0:
120,211,144272,1,2,2:2:0:0:
120,211,144446,2,0,L|142:118,2,75,2|2|10,1:2|2:2|2:2,0:0:0:0:
54,261,144966,1,0,0:0:0:0:
8,192,145139,6,0,P|-1:157|2:100,1,75,6|2,1:2|2:2,0:0:0:0:
68,72,145486,2,0,P|76:38|78:-7,2,75,14|2|2,2:2|1:2|1:2,0:0:0:0:
125,131,146006,1,0,1:3:0:0:
169,61,146180,1,0,1:3:0:0:
254,94,146353,1,8,2:2:0:0:
254,94,146440,1,8,2:2:0:0:
254,94,146527,6,0,L|391:65,1,123.75000377655,4|8,1:2|2:2,0:0:0:0:
397,49,146873,2,0,L|489:71,1,82.5000025177003,2|8,1:2|2:2,0:0:0:0:
505,154,147220,2,0,L|481:303,1,123.75000377655,2|8,1:2|2:2,0:0:0:0:
469,289,147567,2,0,L|379:254,1,82.5000025177003,2|8,1:2|2:2,0:0:0:0:
320,202,147914,5,2,1:2:0:0:
261,271,148087,1,2,2:2:0:0:
261,271,148174,1,8,2:2:0:0:
261,271,148261,2,0,L|272:359,1,82.5000025177003,2|10,1:2|2:2,0:0:0:0:
184,381,148608,1,2,1:2:0:0:
116,328,148781,1,10,2:2:0:0:
116,328,148954,1,10,1:2:0:0:
214,175,149301,6,0,L|234:33,1,123.75000377655,4|8,1:2|2:2,0:0:0:0:
218,35,149647,2,0,L|133:13,1,82.5000025177003,2|8,1:2|2:2,0:0:0:0:
56,54,149994,2,0,L|32:203,1,123.75000377655,2|8,1:2|2:2,0:0:0:0:
44,193,150341,2,0,L|134:217,1,82.5000025177003,2|8,1:2|2:2,0:0:0:0:
208,180,150688,5,2,1:2:0:0:
269,260,150861,1,2,2:2:0:0:
269,260,150948,1,8,2:2:0:0:
269,260,151035,2,0,L|280:348,2,82.5000025177003,2|10|2,1:2|2:2|1:2,0:0:0:0:
334,196,151555,1,10,2:2:0:0:
334,196,151728,1,10,1:2:0:0:
310,108,151902,1,2,3:2:0:0:
393,77,152076,6,0,P|429:106|444:193,1,123.75000377655,4|8,1:2|2:2,0:0:0:0:
427,193,152422,2,0,P|414:234|418:288,1,82.5000025177003,2|8,1:2|2:2,0:0:0:0:
466,343,152769,2,0,P|403:323|316:305,1,123.75000377655,2|8,1:2|2:2,0:0:0:0:
328,290,153116,2,0,P|282:301|236:319,1,82.5000025177003,2|8,1:2|2:2,0:0:0:0:
171,265,153463,5,2,1:2:0:0:
240,206,153636,1,2,2:2:0:0:
240,206,153723,1,8,2:2:0:0:
240,206,153810,2,0,L|251:118,1,82.5000025177003,2|10,1:2|2:2,0:0:0:0:
190,54,154157,1,2,1:2:0:0:
32,112,154503,1,10,1:2:0:0:
190,54,154850,6,0,L|363:106,1,165.000005035401,4|0,1:2|1:1,0:0:0:0:
425,52,155371,1,10,2:2:0:0:
487,117,155544,2,0,P|497:153|496:202,1,82.5000025177003,2|2,1:2|1:2,0:0:0:0:
406,209,155891,2,0,P|396:253|402:302,1,82.5000025177003,2|8,1:2|2:2,0:0:0:0:
465,360,156238,1,2,1:2:0:0:
465,360,156411,1,2,2:2:0:0:
380,384,156584,1,2,1:2:0:0:
380,384,156758,1,10,2:2:0:0:
312,324,156931,1,2,1:2:0:0:
240,380,157105,5,14,2:2:0:0:
267,200,157452,1,14,2:2:0:0:
