osu file format v14

[General]
AudioFilename: audio.ogg
AudioLeadIn: 0
PreviewTime: 40741
Countdown: 0
SampleSet: Soft
StackLeniency: 1
Mode: 0
LetterboxInBreaks: 0
WidescreenStoryboard: 1

[Editor]
Bookmarks: 17514,20289,25838,27225,63285,75780,92428,97977,106300,111850,122948,132659,134046,146618,157110,157283,157630
DistanceSpacing: 0.2
BeatDivisor: 4
GridSize: 4
TimelineZoom: 1.86

[Metadata]
Title:Rabbit Hole feat. Hatsune Miku
TitleUnicode:ラビットホール feat. 初音ミク
Artist:DECO*27
ArtistUnicode:DECO*27
Creator:dakiwii
Version:Extra
Source:
Tags:japanese vocaloid hatsune miku rock jrock j-rock j-pop jpop pop deco27 original KARENT 2023 tepe kemu Horie Shouta 堀江晶太 Omutatsu おむたつ 辰巳 Tatsumi Omu tiktok tik-tok
BeatmapID:4541081
BeatmapSetID:2154609

[Difficulty]
HPDrainRate:5
CircleSize:4
OverallDifficulty:8.5
ApproachRate:9
SliderMultiplier:1.8
SliderTickRate:1

[Events]
//Background and Video events
0,0,"rabbithole.jpg",0,0
Video,-32,"rabbithole.avi"
//Break Periods
2,14762,19019
//Storyboard Layer 0 (Background)
//Storyboard Layer 1 (Fail)
//Storyboard Layer 2 (Pass)
//Storyboard Layer 3 (Foreground)
//Storyboard Layer 4 (Overlay)
//Storyboard Sound Samples

[TimingPoints]
516,346.820809248555,4,2,1,78,1,0
3637,346.820809248555,4,2,1,65,1,0
3637,-66.6666666666667,4,2,1,65,0,0
5284,-66.6666666666667,4,2,1,5,0,0
5371,-66.6666666666667,4,2,1,65,0,0
5631,-66.6666666666667,4,2,1,5,0,0
5717,-66.6666666666667,4,2,1,65,0,0
5978,-66.6666666666667,4,2,1,5,0,0
6064,-66.6666666666667,4,2,1,65,0,0
8058,-66.6666666666667,4,2,1,5,0,0
8145,-66.6666666666667,4,2,1,65,0,0
10573,-100,4,2,1,65,0,0
11960,-66.6666666666667,4,2,1,65,0,0
13608,-66.6666666666667,4,2,1,5,0,0
13694,-66.6666666666667,4,2,1,65,0,0
13954,-66.6666666666667,4,2,1,5,0,0
14041,-66.6666666666667,4,2,1,65,0,0
14735,-133.333333333333,4,2,1,65,0,0
19764,-133.333333333333,4,2,1,45,0,0
20197,-133.333333333333,4,2,1,5,0,0
20284,-133.333333333333,4,2,1,50,0,0
24099,-133.333333333333,4,2,1,50,0,0
25833,-90.9090909090909,4,2,1,60,0,0
27220,-100,4,2,1,60,0,0
29388,-100,4,2,1,5,0,0
29475,-100,4,2,1,60,0,0
32336,-100,4,2,1,5,0,0
32423,-100,4,2,1,60,0,0
32509,-100,4,2,1,5,0,0
32596,-100,4,2,1,60,0,0
32683,-100,4,2,1,5,0,0
32769,-100,4,2,1,60,0,0
36498,-100,4,2,1,5,0,0
36584,-100,4,2,1,70,0,0
39619,-100,4,2,1,5,0,0
39706,-100,4,2,1,60,0,0
41093,-90.9090909090909,4,2,1,70,0,0
63116,-133.333333333333,4,2,1,38,0,0
64330,-250,4,2,1,65,0,0
64590,-250,4,2,1,5,0,0
64677,-66.6666666666667,4,2,1,65,0,0
66324,-66.6666666666667,4,2,1,5,0,0
66411,-66.6666666666667,4,2,1,65,0,0
66671,-66.6666666666667,4,2,1,5,0,0
66758,-66.6666666666667,4,2,1,65,0,0
67018,-66.6666666666667,4,2,1,5,0,0
67105,-66.6666666666667,4,2,1,65,0,0
69099,-66.6666666666667,4,2,1,5,0,0
69186,-66.6666666666667,4,2,1,65,0,0
70226,-133.333333333333,4,2,1,45,0,0
70920,-133.333333333333,4,2,1,65,0,0
71613,-100,4,2,1,75,0,0
73001,-66.6666666666667,4,2,1,75,0,0
74648,-66.6666666666667,4,2,1,5,0,0
74735,-66.6666666666667,4,2,1,75,0,0
74995,-66.6666666666667,4,2,1,5,0,0
75082,-66.6666666666667,4,2,1,75,0,0
75775,-100,4,2,2,75,0,0
76295,-100,4,2,2,55,0,0
81238,-100,4,2,2,5,0,0
81324,-100,4,2,2,55,0,0
84099,-100,4,2,2,65,0,0
86787,-100,4,2,2,5,0,0
86873,-100,4,2,2,45,0,0
87914,-100,4,2,2,75,0,0
88781,-100,4,2,2,55,0,0
95197,-100,4,2,2,65,0,0
97538,-100,4,2,2,5,0,0
97625,-100,4,2,1,75,0,0
97885,-100,4,2,2,5,0,0
97899,-100,4,2,1,5,0,0
97972,-100,4,2,1,45,0,0
99012,-133.333333333333,4,2,1,35,0,0
99272,-133.333333333333,4,2,1,5,0,0
99359,-66.6666666666667,4,2,1,75,0,0
100746,-133.333333333333,4,2,1,35,0,0
106295,-133.333333333333,4,2,1,50,0,0
109070,-100,4,2,1,55,0,0
110457,-100,4,2,1,65,0,0
111845,-90.9090909090909,4,2,1,70,0,0
133868,-133.333333333333,4,2,1,38,0,0
135082,-333.333333333333,4,2,1,75,0,0
135342,-333.333333333333,4,2,1,5,0,0
135428,-66.6666666666667,4,2,1,75,0,0
135689,-66.6666666666667,4,2,1,5,0,0
135775,-66.6666666666667,4,2,1,75,0,0
136035,-66.6666666666667,4,2,1,5,0,0
136122,-66.6666666666667,4,2,1,75,0,0
136382,-66.6666666666667,4,2,1,5,0,0
136469,-66.6666666666667,4,2,1,75,0,0
136729,-66.6666666666667,4,2,1,5,0,0
136816,-66.6666666666667,4,2,1,75,0,0
138463,-66.6666666666667,4,2,1,5,0,0
138550,-66.6666666666667,4,2,1,75,0,0
138810,-66.6666666666667,4,2,1,5,0,0
138897,-66.6666666666667,4,2,1,75,0,0
139157,-66.6666666666667,4,2,1,5,0,0
139243,-66.6666666666667,4,2,1,75,0,0
139504,-66.6666666666667,4,2,1,5,0,0
139590,-66.6666666666667,4,2,1,75,0,0
141238,-66.6666666666667,4,2,1,5,0,0
141324,-66.6666666666667,4,2,1,75,0,0
141584,-66.6666666666667,4,2,1,5,0,0
141671,-66.6666666666667,4,2,1,75,0,0
141931,-66.6666666666667,4,2,1,5,0,0
142018,-66.6666666666667,4,2,1,75,0,0
142278,-66.6666666666667,4,2,1,5,0,0
142365,-66.6666666666667,4,2,1,75,0,0
148781,-90.9090909090909,4,2,1,75,0,0
148868,-90.9090909090909,4,2,1,5,0,0
148954,-90.9090909090909,4,2,1,75,0,0
149041,-90.9090909090909,4,2,1,5,0,0
149215,-90.9090909090909,4,2,1,75,0,0
149301,-66.6666666666667,4,2,1,75,0,0
151556,-90.9090909090909,4,2,1,75,0,0
151642,-90.9090909090909,4,2,1,5,0,0
151729,-90.9090909090909,4,2,1,75,0,0
151816,-90.9090909090909,4,2,1,5,0,0
151902,-90.9090909090909,4,2,1,75,0,0
151989,-90.9090909090909,4,2,1,5,0,0
152076,-66.6666666666667,4,2,1,75,0,0
154330,-90.9090909090909,4,2,1,75,0,0
154417,-90.9090909090909,4,2,1,5,0,0
154504,-90.9090909090909,4,2,1,75,0,0
154590,-90.9090909090909,4,2,1,5,0,0
154850,-66.6666666666667,4,2,1,75,0,0

[Colours]
Combo1 : 17,254,176
Combo2 : 173,255,95
Combo3 : 255,88,100
Combo4 : 255,94,55

[HitObjects]
241,59,400,5,0,1:0:0:0:
255,79,516,6,0,P|282:92|320:101,2,60,12|0|0,2:2|3:3|3:3,0:0:0:0:
151,56,862,6,0,P|136:19|134:-20,2,60,8|0|0,2:2|0:0|0:0,0:0:0:0:
221,180,1209,6,0,P|401:131|388:27,1,315,0|0,1:1|3:3,0:0:0:0:
394,37,1903,5,0,1:1:0:0:
257,384,3290,5,8,2:2:0:0:
257,384,3637,6,0,P|266:315|274:232,1,135.000005149842,4|0,1:2|0:0,0:0:0:0:
226,154,3897,1,2,0:0:0:0:
195,182,3984,2,0,P|187:144|190:107,1,67.5000025749208,10|0,2:2|0:0,0:0:0:0:
234,45,4157,1,0,1:0:0:0:
234,45,4331,6,0,P|269:53|319:64,1,67.5000025749208,2|0,1:2|0:0,0:0:0:0:
360,128,4504,2,0,P|392:118|431:109,1,67.5000025749208,0|0,1:1|0:0,0:0:0:0:
458,26,4677,1,10,2:2:0:0:
458,26,4850,1,0,0:0:0:0:
360,128,5024,6,0,P|331:193|317:335,1,202.500007724762,2|0,1:2|0:0,0:0:0:0:
352,355,5371,6,0,P|319:260|329:137,1,202.500007724762,10|0,2:2|0:0,0:0:0:0:
377,117,5718,6,0,P|352:174|336:319,1,202.500007724762,2|0,1:2|0:0,0:0:0:0:
422,374,6065,5,10,2:2:0:0:
422,374,6412,6,0,L|276:339,1,135.000005149842,2|0,1:2|0:0,0:0:0:0:
201,312,6672,1,2,0:0:0:0:
233,286,6759,2,0,P|235:243|218:199,1,67.5000025749208,10|0,2:2|0:0,0:0:0:0:
149,176,6931,1,0,1:0:0:0:
149,176,7106,6,0,P|140:141|144:105,1,67.5000025749208,2|0,1:2|0:0,0:0:0:0:
254,60,7279,2,0,P|262:98|255:143,1,67.5000025749208,0|0,1:1|0:0,0:0:0:0:
227,216,7452,1,10,2:2:0:0:
142,110,7625,1,0,0:0:0:0:
336,33,7799,2,0,P|265:19|191:-4,1,135.000005149842,2|0,1:2|0:0,0:0:0:0:
22,18,8146,6,0,P|10:57|6:99,1,67.5000025749208,10|0,2:2|0:0,0:0:0:0:
50,178,8319,1,2,0:0:0:0:
74,144,8406,1,2,0:0:0:0:
114,124,8493,1,2,1:2:0:0:
162,123,8580,1,2,0:0:0:0:
190,138,8666,1,0,1:1:0:0:
203,162,8753,1,2,0:0:0:0:
208,185,8840,1,10,2:2:0:0:
199,215,8926,1,2,0:0:0:0:
190,228,9012,1,2,0:0:0:0:
190,228,9186,6,0,P|260:243|329:260,1,135.000005149842,2|0,1:2|0:0,0:0:0:0:
413,338,9446,1,2,0:0:0:0:
380,362,9532,2,0,P|344:354|301:347,1,67.5000025749208,10|0,2:2|0:0,0:0:0:0:
227,314,9706,1,0,1:0:0:0:
227,314,9880,6,0,P|220:352|213:397,1,67.5000025749208,2|0,1:2|0:0,0:0:0:0:
321,258,10053,2,0,P|327:222|334:173,1,67.5000025749208,0|0,1:1|0:0,0:0:0:0:
269,121,10226,1,10,2:2:0:0:
269,121,10400,1,0,0:0:0:0:
351,60,10573,6,0,L|407:75,1,45,2|0,1:2|0:0,0:0:0:0:
441,13,10747,2,0,L|494:29,1,45,0|0,1:0|0:0,0:0:0:0:
506,149,10920,2,0,L|513:104,1,45,10|0,0:2|0:0,0:0:0:0:
428,185,11093,2,0,L|437:123,1,45,0|0,1:0|0:0,0:0:0:0:
278,0,11267,5,2,3:2:0:0:
278,0,11354,1,2,3:2:0:0:
278,0,11440,1,2,3:2:0:0:
278,0,11527,1,2,3:2:0:0:
278,0,11614,1,10,3:2:0:0:
244,11,11701,1,2,0:0:0:0:
204,22,11787,1,2,0:0:0:0:
159,31,11874,1,2,0:0:0:0:
136,45,11961,6,0,P|128:117|140:183,1,135.000005149842,2|0,1:2|0:0,0:0:0:0:
239,238,12221,1,2,0:0:0:0:
279,203,12308,2,0,P|283:172|280:127,1,67.5000025749208,10|0,2:2|0:0,0:0:0:0:
356,271,12481,1,2,1:2:0:0:
356,271,12655,6,0,P|391:267|440:262,1,67.5000025749208,2|0,1:2|0:0,0:0:0:0:
512,178,12828,2,0,P|475:186|427:191,1,67.5000025749208,0|0,1:1|0:0,0:0:0:0:
289,371,13001,2,0,P|331:359|378:348,1,67.5000025749208,10|0,2:2|0:0,0:0:0:0:
512,273,13175,2,0,P|470:281|417:290,1,67.5000025749208,0|0,1:0|0:0,0:0:0:0:
279,203,13348,6,0,P|202:238|75:270,1,202.500007724762,2|0,1:2|0:0,0:0:0:0:
50,236,13695,6,0,P|126:250|264:249,1,202.500007724762,10|0,2:2|0:0,0:0:0:0:
299,220,14042,6,0,P|211:267|124:292,1,135.000005149842,2|0,1:2|1:1,0:0:0:0:
116,343,14389,1,10,2:2:0:0:
34,361,14562,1,0,1:0:0:0:
48,364,19764,5,2,2:2:0:0:
48,364,19850,1,2,2:2:0:0:
48,364,19937,2,0,P|96:371|153:381,1,101.250003862381,2|0,2:2|0:0,0:0:0:0:
205,328,20284,5,4,1:2:0:0:
282,348,20631,1,2,1:2:0:0:
355,364,20978,1,2,1:2:0:0:
297,273,21151,2,0,P|304:240|318:210,1,67.5000025749208,2|0,2:2|1:1,0:0:0:0:
512,172,21498,5,2,2:2:0:0:
512,172,21584,1,2,2:2:0:0:
512,172,21671,2,0,P|469:158|439:147,1,67.5000025749208,2|2,1:2|2:2,0:0:0:0:
297,96,22018,2,0,P|330:88|389:66,1,67.5000025749208,2|2,1:2|2:2,0:0:0:0:
512,0,22365,1,2,1:2:0:0:
512,0,22538,1,2,2:2:0:0:
439,55,22712,1,2,1:2:0:0:
345,4,22885,1,2,2:2:0:0:
445,64,23058,5,2,1:2:0:0:
130,10,23405,1,2,1:2:0:0:
130,10,23752,2,0,P|137:64|150:163,1,135.000005149842,0|0,1:0|1:0,0:0:0:0:
130,10,24272,1,2,2:2:0:0:
130,10,24619,5,2,2:2:0:0:
155,20,24706,1,2,2:2:0:0:
181,29,24793,1,2,1:2:0:0:
234,89,24966,1,2,2:2:0:0:
276,76,25053,1,2,1:2:0:0:
318,65,25139,1,2,1:2:0:0:
368,4,25313,1,2,1:2:0:0:
425,94,25486,1,2,1:2:0:0:
418,114,25573,1,0,1:1:0:0:
409,135,25660,1,2,1:2:0:0:
401,156,25746,1,0,1:1:0:0:
415,193,25833,5,2,2:2:0:0:
465,355,26180,6,0,L|504:368,4,24.7500007553101,2|0|0|0|0,3:2|3:0|3:0|3:0|3:0,3:0:0:0:
367,292,26527,6,0,L|410:282,2,24.7500007553101,2|0|0,3:2|3:0|3:0,3:0:0:0:
326,352,26700,1,0,1:1:0:0:
171,200,26873,5,10,2:2:0:0:
252,384,27220,5,4,1:2:0:0:
142,352,27394,1,2,2:2:0:0:
142,352,27480,1,2,2:2:0:0:
142,352,27567,2,0,P|130:304|127:252,1,90,10|2,2:2|2:2,0:0:0:0:
126,263,27827,1,2,2:2:0:0:
126,263,27914,1,2,1:2:0:0:
171,200,28087,1,2,2:2:0:0:
175,190,28174,1,2,2:2:0:0:
181,179,28261,5,10,2:2:0:0:
216,189,28347,1,2,2:2:0:0:
258,201,28434,1,2,2:2:0:0:
298,212,28521,1,2,2:2:0:0:
321,200,28608,6,0,P|330:159|348:95,2,90,2|2|10,1:2|2:2|2:2,0:0:0:0:
423,384,29128,2,0,P|439:320|441:235,1,135,2|0,2:2|0:0,0:0:0:0:
442,251,29475,5,2,2:2:0:0:
507,199,29648,1,10,2:2:0:0:
405,74,29821,1,2,2:2:0:0:
512,0,29995,5,2,1:2:0:0:
421,55,30168,1,2,2:2:0:0:
421,83,30255,1,2,2:2:0:0:
424,109,30342,1,10,2:2:0:0:
425,139,30428,1,2,2:2:0:0:
428,167,30515,1,2,2:2:0:0:
430,198,30602,1,2,2:2:0:0:
418,215,30689,6,0,P|395:208|358:200,1,45,2|0,1:2|0:0,0:0:0:0:
313,143,30862,2,0,P|292:148|260:151,1,45,2|2,2:2|2:2,0:0:0:0:
166,256,31035,1,10,2:2:0:0:
166,256,31209,2,0,P|193:261|236:273,1,45,2|2,2:2|2:2,0:0:0:0:
267,332,31382,5,2,1:2:0:0:
160,374,31556,1,2,2:2:0:0:
279,325,31729,1,10,2:2:0:0:
81,263,31902,1,2,2:2:0:0:
81,263,32249,6,0,L|74:208,1,45,2|0,1:2|0:0,0:0:0:0:
153,170,32423,2,0,L|145:114,1,45,10|0,2:2|0:0,0:0:0:0:
7,125,32596,2,0,L|-1:68,1,45,2|0,2:2|0:0,0:0:0:0:
250,0,32769,5,2,1:2:0:0:
263,84,33116,1,10,2:2:0:0:
343,38,33463,2,0,P|385:55|436:69,1,90,2|2,1:2|2:2,0:0:0:0:
427,67,33983,5,2,2:2:0:0:
401,159,34157,1,2,1:2:0:0:
401,159,34330,1,2,2:2:0:0:
285,225,34504,1,10,2:2:0:0:
285,225,34677,1,2,2:2:0:0:
356,333,34850,2,0,P|375:293|378:220,1,90,2|0,1:2|1:0,0:0:0:0:
265,93,35197,1,10,2:2:0:0:
222,158,35371,1,2,2:2:0:0:
427,67,35544,5,2,1:2:0:0:
222,158,35891,2,0,P|226:207|231:256,1,90,10|0,2:2|0:0,0:0:0:0:
367,382,36238,2,0,P|377:315|372:184,1,180,2|8,1:2|1:2,0:0:0:0:
268,61,36758,1,2,2:2:0:0:
268,61,37105,5,2,2:2:0:0:
179,87,37278,1,10,2:2:0:0:
179,87,37452,1,2,2:2:0:0:
70,21,37625,1,2,1:2:0:0:
45,89,37798,1,0,1:0:0:0:
140,174,37972,1,10,2:2:0:0:
113,243,38145,1,2,1:2:0:0:
27,185,38319,5,2,2:2:0:0:
27,185,38665,5,2,0:0:0:0:
27,185,39012,5,2,0:0:0:0:
119,242,39359,6,0,P|186:223|256:205,1,135,2|0,2:2|0:0,0:0:0:0:
249,206,39706,5,4,1:2:0:0:
347,262,39879,1,8,2:2:0:0:
353,227,39966,1,0,1:0:0:0:
361,192,40053,1,8,2:2:0:0:
368,157,40139,1,8,2:2:0:0:
377,122,40226,1,8,2:2:0:0:
386,88,40313,1,8,2:2:0:0:
394,55,40400,1,0,1:1:0:0:
330,331,40746,5,10,2:2:0:0:
512,194,41093,5,4,1:2:0:0:
456,124,41267,2,0,P|438:164|432:223,1,99.0000030212403,2|10,2:2|2:2,0:0:0:0:
498,294,41613,5,2,2:2:0:0:
497,329,41699,1,2,2:2:0:0:
497,366,41786,1,0,1:1:0:0:
416,313,41960,5,2,2:2:0:0:
408,335,42047,1,2,2:2:0:0:
399,357,42133,1,8,2:2:0:0:
336,312,42307,1,2,2:2:0:0:
431,218,42480,5,2,1:2:0:0:
347,153,42654,1,2,2:2:0:0:
313,142,42741,1,2,2:2:0:0:
277,152,42827,1,8,2:2:0:0:
253,173,42914,1,0,0:0:0:0:
244,200,43001,2,0,L|255:263,1,49.5000015106202,2|2,2:2|2:2,0:0:0:0:
281,377,43174,1,0,1:1:0:0:
281,377,43347,5,2,2:2:0:0:
229,377,43434,1,2,2:2:0:0:
189,354,43521,1,8,2:2:0:0:
161,286,43694,1,2,2:2:0:0:
30,365,43868,5,2,1:2:0:0:
69,296,44041,1,2,2:2:0:0:
65,271,44128,1,2,2:2:0:0:
62,249,44215,1,8,2:2:0:0:
125,201,44388,5,2,2:2:0:0:
132,176,44475,1,2,2:2:0:0:
140,148,44561,1,0,1:1:0:0:
217,158,44735,5,2,2:2:0:0:
252,138,44821,1,2,2:2:0:0:
287,122,44908,2,0,P|314:79|313:18,1,99.0000030212403,8|2,2:2|2:2,0:0:0:0:
53,0,45255,5,2,1:2:0:0:
124,35,45428,1,2,2:2:0:0:
129,56,45515,1,2,2:2:0:0:
136,79,45602,1,8,2:2:0:0:
213,104,45775,5,2,2:2:0:0:
206,135,45862,1,2,2:2:0:0:
197,167,45949,1,0,1:1:0:0:
270,221,46122,5,2,2:2:0:0:
226,248,46209,1,2,2:2:0:0:
185,271,46295,1,8,2:2:0:0:
335,185,46469,1,10,2:2:0:0:
279,318,46642,5,4,1:2:0:0:
276,327,46729,1,2,2:2:0:0:
275,336,46816,1,2,2:2:0:0:
272,346,46902,1,2,2:2:0:0:
271,355,46989,1,10,2:2:0:0:
202,384,47163,1,2,2:2:0:0:
341,263,47336,6,0,L|400:275,1,49.5000015106202,2|2,1:2|2:2,0:0:0:0:
366,347,47509,2,0,L|434:361,1,49.5000015106202,2|2,2:2|2:2,0:0:0:0:
486,318,47683,1,10,2:2:0:0:
486,318,47856,1,2,2:2:0:0:
345,266,48030,6,0,L|404:278,1,49.5000015106202,2|2,1:2|2:2,0:0:0:0:
370,350,48203,2,0,L|438:364,1,49.5000015106202,2|2,2:2|2:2,0:0:0:0:
486,318,48377,1,10,2:2:0:0:
486,318,48550,1,2,2:2:0:0:
349,269,48723,5,2,1:2:0:0:
383,254,48810,1,2,2:2:0:0:
414,239,48897,1,2,2:2:0:0:
450,222,48983,1,2,2:2:0:0:
484,207,49070,1,10,2:2:0:0:
486,318,49243,1,2,2:2:0:0:
384,160,49417,6,0,L|398:104,3,49.5000015106202,2|0|2|0,1:2|0:0|2:2|0:0,0:0:0:0:
384,160,49764,1,10,2:2:0:0:
310,113,49937,5,2,2:2:0:0:
281,101,50024,1,2,2:2:0:0:
249,96,50110,1,2,1:2:0:0:
218,93,50197,1,2,2:2:0:0:
187,95,50284,1,2,2:2:0:0:
159,100,50371,1,2,2:2:0:0:
129,111,50457,1,10,2:2:0:0:
218,185,50631,1,2,2:2:0:0:
76,218,50804,5,2,1:2:0:0:
104,241,50891,1,0,0:0:0:0:
144,259,50978,1,2,2:2:0:0:
186,267,51064,1,2,2:2:0:0:
232,270,51151,1,12,2:2:0:0:
277,258,51238,1,0,0:0:0:0:
316,242,51324,1,2,2:2:0:0:
347,214,51411,1,0,0:0:0:0:
365,176,51498,5,2,1:2:0:0:
300,87,51671,1,2,1:2:0:0:
424,3,51845,1,10,2:2:0:0:
424,3,52018,2,0,P|421:34|416:59,1,49.5000015106202,8|8,2:2|2:2,0:0:0:0:
271,177,52191,5,4,1:2:0:0:
271,177,52365,2,0,L|168:154,1,99.0000030212403,2|10,2:2|2:2,0:0:0:0:
106,103,52712,1,2,2:2:0:0:
100,65,52798,1,2,2:2:0:0:
95,30,52885,1,2,2:2:0:0:
176,0,53058,2,0,L|223:14,2,49.5000015106202,2|2|8,1:2|2:2|2:2,0:0:0:0:
24,87,53405,1,2,2:2:0:0:
55,167,53579,5,2,1:2:0:0:
55,167,53752,2,0,L|42:232,1,49.5000015106202,2|2,2:2|2:2,0:0:0:0:
105,278,53926,1,8,2:2:0:0:
105,278,54099,2,0,L|92:347,1,49.5000015106202,2|2,2:2|2:2,0:0:0:0:
158,384,54272,1,2,2:2:0:0:
158,384,54446,1,2,1:2:0:0:
194,372,54532,1,2,2:2:0:0:
234,361,54619,1,8,2:2:0:0:
267,293,54793,1,2,2:2:0:0:
170,150,54966,5,2,1:2:0:0:
254,125,55139,1,2,2:2:0:0:
281,132,55226,1,2,2:2:0:0:
315,139,55313,1,8,2:2:0:0:
343,144,55400,1,2,2:2:0:0:
375,149,55486,2,0,P|369:177|361:204,1,49.5000015106202,2|2,2:2|2:2,0:0:0:0:
267,293,55660,1,2,2:2:0:0:
375,376,55833,1,2,1:2:0:0:
413,356,55920,1,2,2:2:0:0:
437,318,56006,2,0,L|427:268,1,49.5000015106202,8|0,2:2|0:0,0:0:0:0:
375,376,56180,1,2,2:2:0:0:
505,200,56353,5,2,1:2:0:0:
455,133,56527,1,2,2:2:0:0:
469,91,56613,1,2,2:2:0:0:
494,55,56700,2,0,P|492:23|484:-6,2,49.5000015106202,8|0|2,2:2|0:0|1:2,0:0:0:0:
375,184,57047,1,2,2:2:0:0:
296,110,57220,1,2,1:2:0:0:
283,72,57307,1,2,2:2:0:0:
290,28,57394,1,8,2:2:0:0:
375,184,57567,1,10,2:2:0:0:
218,110,57741,5,4,1:2:0:0:
208,106,57827,1,2,2:2:0:0:
198,101,57914,1,2,2:2:0:0:
188,96,58001,1,2,2:2:0:0:
179,90,58087,1,10,2:2:0:0:
111,122,58261,1,2,2:2:0:0:
202,197,58434,6,0,L|207:252,1,49.5000015106202,2|2,2:2|2:2,0:0:0:0:
126,249,58608,2,0,L|133:305,1,49.5000015106202,2|2,1:2|2:2,0:0:0:0:
212,346,58781,1,10,2:2:0:0:
212,346,58954,1,2,2:2:0:0:
202,192,59128,2,0,L|207:250,1,49.5000015106202,2|2,1:2|2:2,0:0:0:0:
122,247,59302,2,0,L|130:306,1,49.5000015106202,2|2,2:2|2:2,0:0:0:0:
213,349,59475,1,10,2:2:0:0:
213,349,59648,1,2,2:2:0:0:
203,187,59821,2,0,L|209:248,1,49.5000015106202,2|2,2:2|2:2,0:0:0:0:
118,244,59995,2,0,L|126:307,1,49.5000015106202,2|2,1:2|2:2,0:0:0:0:
214,352,60168,1,10,2:2:0:0:
214,352,60341,1,2,2:2:0:0:
72,384,60515,6,0,L|24:374,3,49.5000015106202,2|0|2|0,1:2|0:0|2:2|0:0,0:0:0:0:
72,384,60862,1,10,2:2:0:0:
214,352,61035,1,2,2:2:0:0:
244,359,61122,1,2,2:2:0:0:
279,365,61209,1,2,2:2:0:0:
312,370,61295,1,0,0:0:0:0:
342,374,61382,1,2,1:2:0:0:
375,379,61469,1,2,2:2:0:0:
409,384,61556,1,8,2:2:0:0:
333,291,61729,1,2,2:2:0:0:
483,229,61902,5,4,1:2:0:0:
434,220,61989,1,2,2:2:0:0:
387,210,62076,1,2,2:2:0:0:
337,199,62163,1,2,2:2:0:0:
286,189,62249,1,10,2:2:0:0:
233,175,62336,1,2,2:2:0:0:
185,164,62423,1,4,1:2:0:0:
138,153,62509,1,2,2:2:0:0:
91,140,62596,1,2,2:2:0:0:
13,191,62769,1,10,2:2:0:0:
0,99,62943,1,10,2:2:0:0:
90,28,63116,6,0,L|14:8,1,67.5000025749208,2|2,2:2|2:2,0:0:0:0:
13,0,64330,6,0,P|10:32|10:58,1,54,8|0,2:2|0:0,0:0:0:0:
9,53,64677,6,0,P|80:69|156:90,1,135.000005149842,4|0,1:2|0:0,0:0:0:0:
258,30,64937,1,2,0:0:0:0:
230,52,65024,2,0,P|222:90|225:127,1,67.5000025749208,10|0,2:2|0:0,0:0:0:0:
362,250,65197,1,0,1:0:0:0:
362,250,65371,6,0,P|327:242|277:231,1,67.5000025749208,2|0,1:2|0:0,0:0:0:0:
261,312,65544,2,0,P|229:322|190:331,1,67.5000025749208,0|0,1:1|0:0,0:0:0:0:
131,384,65717,1,10,2:2:0:0:
131,384,65890,1,0,0:0:0:0:
45,258,66064,6,0,L|88:51,1,202.500007724762,2|0,1:2|0:0,0:0:0:0:
106,31,66411,6,0,L|129:249,1,202.500007724762,10|0,2:2|0:0,0:0:0:0:
71,269,66758,6,0,L|112:67,1,202.500007724762,2|0,1:2|0:0,0:0:0:0:
181,5,67105,5,10,2:2:0:0:
181,5,67452,6,0,L|327:40,1,135.000005149842,2|0,1:2|0:0,0:0:0:0:
397,90,67712,1,2,0:0:0:0:
435,75,67799,2,0,P|443:41|448:-1,1,67.5000025749208,10|0,2:2|0:0,0:0:0:0:
336,155,67971,1,2,1:2:0:0:
336,155,68146,6,0,L|406:172,1,67.5000025749208,2|0,1:2|0:0,0:0:0:0:
481,280,68319,2,0,L|406:263,1,67.5000025749208,0|0,1:1|0:0,0:0:0:0:
306,323,68492,1,10,2:2:0:0:
261,218,68665,1,0,0:0:0:0:
158,301,68839,2,0,P|229:315|303:338,1,135.000005149842,2|0,1:2|0:0,0:0:0:0:
465,345,69186,6,0,P|477:306|481:264,1,67.5000025749208,10|0,2:2|0:0,0:0:0:0:
413,156,69359,1,2,0:0:0:0:
363,165,69446,1,2,0:0:0:0:
333,199,69533,1,2,1:2:0:0:
322,245,69620,1,2,0:0:0:0:
286,265,69706,1,0,1:1:0:0:
256,255,69793,1,2,0:0:0:0:
240,239,69880,1,10,2:2:0:0:
234,221,69966,1,2,0:0:0:0:
241,212,70052,1,2,0:0:0:0:
241,212,70226,6,0,L|97:238,1,135.000005149842,2|0,1:2|0:0,0:0:0:0:
108,235,70920,1,8,2:2:0:0:
54,171,71266,1,8,2:2:0:0:
119,102,71440,1,8,2:2:0:0:
119,102,71527,1,8,2:2:0:0:
119,102,71613,6,0,L|124:53,1,45,6|0,1:2|0:0,0:0:0:0:
36,16,71787,2,0,L|22:91,1,45,0|0,1:0|0:0,0:0:0:0:
132,114,71960,2,0,L|138:70,1,45,10|0,2:2|0:0,0:0:0:0:
23,1,72133,2,0,L|14:63,1,45,0|0,1:0|0:0,0:0:0:0:
214,178,72307,5,2,3:2:0:0:
214,178,72394,1,2,3:2:0:0:
214,178,72480,1,2,3:2:0:0:
214,178,72567,1,2,3:2:0:0:
214,178,72654,1,10,3:2:0:0:
248,167,72741,1,2,0:0:0:0:
288,156,72827,1,2,0:0:0:0:
333,147,72914,1,2,0:0:0:0:
356,156,73001,6,0,P|364:228|352:294,1,135.000005149842,2|0,1:2|0:0,0:0:0:0:
280,345,73261,1,2,0:0:0:0:
249,324,73348,2,0,P|218:333|175:342,1,67.5000025749208,10|0,2:2|0:0,0:0:0:0:
51,269,73521,1,2,1:2:0:0:
51,269,73695,6,0,L|54:197,1,67.5000025749208,2|0,1:2|0:0,0:0:0:0:
177,78,73868,2,0,L|178:161,1,67.5000025749208,0|0,1:1|0:0,0:0:0:0:
26,305,74041,2,0,L|16:239,1,67.5000025749208,10|0,2:2|0:0,0:0:0:0:
128,58,74215,2,0,L|145:144,1,67.5000025749208,0|0,1:0|0:0,0:0:0:0:
296,250,74388,6,0,L|320:40,1,202.500007724762,2|0,1:2|0:0,0:0:0:0:
348,16,74735,6,0,L|307:226,1,202.500007724762,10|0,2:2|0:0,0:0:0:0:
341,231,75082,6,0,L|338:81,1,135.000005149842,2|0,1:2|1:1,0:0:0:0:
348,16,75429,1,10,2:2:0:0:
473,91,75602,1,0,1:0:0:0:
416,155,75775,5,4,1:2:0:0:
512,271,76295,5,2,2:2:0:0:
512,271,76469,2,0,L|392:236,1,90,10|2,2:2|2:2,0:0:0:0:
425,245,76989,5,2,0:0:0:0:
406,316,77336,1,2,0:0:0:0:
260,379,77683,1,2,2:2:0:0:
314,229,77856,2,0,P|324:284|309:345,1,90,10|2,2:2|2:2,0:0:0:0:
319,317,78376,6,0,P|272:307|210:287,2,90,2|2|2,2:2|1:2|1:2,0:0:0:0:
427,139,79070,2,0,P|474:149|538:169,2,90,2|10|2,2:2|2:2|2:2,0:0:0:0:
427,139,79764,1,2,0:0:0:0:
378,88,79937,5,2,1:2:0:0:
348,96,80053,1,2,2:2:0:0:
323,104,80168,1,2,2:2:0:0:
285,95,80284,5,2,1:2:0:0:
250,103,80400,1,2,2:2:0:0:
215,112,80515,1,2,2:2:0:0:
185,143,80631,5,10,2:2:0:0:
185,143,80978,6,0,P|128:100|147:22,1,135,2|0,1:2|0:0,0:0:0:0:
190,0,81324,5,2,1:2:0:0:
51,35,81844,5,2,2:2:0:0:
51,35,82018,2,0,L|40:130,1,90,10|2,2:2|2:2,0:0:0:0:
40,124,82538,5,2,0:0:0:0:
21,196,82885,1,2,2:2:0:0:
179,273,83232,1,2,2:2:0:0:
110,218,83405,2,0,P|100:278|115:334,1,90,10|2,2:2|2:2,0:0:0:0:
245,375,83752,2,0,P|257:313|251:215,1,135,2|0,2:2|0:0,0:0:0:0:
185,164,84099,6,0,P|170:141|155:82,2,60,2|0|2,1:2|0:0|2:2,0:0:0:0:
328,198,84446,6,0,P|344:231|350:273,2,60,2|2|2,1:2|2:2|2:2,0:0:0:0:
184,42,84793,6,0,P|157:35|110:31,2,60,10|2|2,1:2|2:2|2:2,0:0:0:0:
373,130,85139,6,0,P|404:148|453:162,2,60,2|0|0,1:2|0:0|0:0,0:0:0:0:
302,38,85486,5,2,1:2:0:0:
289,73,85602,1,0,1:0:0:0:
275,112,85717,1,2,1:2:0:0:
242,137,85833,5,2,1:2:0:0:
248,181,85949,1,0,1:0:0:0:
263,226,86064,1,2,1:2:0:0:
247,259,86180,6,0,L|127:232,1,120,10|0,2:2|0:0,0:0:0:0:
129,232,86527,6,0,P|118:295|133:393,1,135,2|0,1:2|0:0,0:0:0:0:
124,365,86873,5,2,2:2:0:0:
202,347,87567,5,2,2:2:0:0:
504,294,87914,5,4,1:2:0:0:
479,207,88087,2,0,L|448:408,2,180,0|2|2,1:0|2:2|2:2,0:0:0:0:
479,207,88954,1,10,2:2:0:0:
479,207,89128,1,2,1:2:0:0:
480,68,89475,1,2,2:2:0:0:
480,68,89648,1,2,1:2:0:0:
480,68,89821,1,2,2:2:0:0:
370,13,90168,1,2,1:2:0:0:
370,13,90342,1,10,2:2:0:0:
370,13,90515,1,2,2:2:0:0:
370,13,90862,1,2,1:2:0:0:
278,68,91035,5,2,1:2:0:0:
256,61,91151,1,2,2:2:0:0:
233,53,91267,1,2,2:2:0:0:
183,0,91382,5,2,1:2:0:0:
162,6,91498,1,2,2:2:0:0:
141,13,91613,1,2,2:2:0:0:
101,74,91729,5,10,2:2:0:0:
442,223,92076,1,6,1:2:0:0:
256,384,92423,5,2,1:2:0:0:
256,384,92943,1,2,1:2:0:0:
315,321,93116,2,0,P|314:278|295:200,1,90,10|2,2:2|2:2,0:0:0:0:
315,321,93463,1,0,1:0:0:0:
221,274,93637,2,0,L|18:307,2,180,0|2|2,1:0|1:2|2:2,0:0:0:0:
221,274,94504,1,10,2:2:0:0:
221,274,94677,1,2,2:2:0:0:
306,231,94850,2,0,P|321:161|321:89,1,135,2|0,1:2|0:0,0:0:0:0:
246,12,95197,5,4,1:2:0:0:
246,12,95313,1,2,2:2:0:0:
246,12,95428,1,2,2:2:0:0:
188,71,95544,5,2,1:2:0:0:
188,71,95660,1,2,2:2:0:0:
188,71,95775,1,2,2:2:0:0:
155,145,95891,5,10,2:2:0:0:
155,145,96006,1,2,2:2:0:0:
155,145,96122,1,2,2:2:0:0:
151,223,96238,5,2,1:2:0:0:
151,223,96353,1,2,2:2:0:0:
151,223,96469,1,2,2:2:0:0:
177,294,96584,6,0,L|184:360,1,60,4|0,1:2|0:0,0:0:0:0:
278,202,96816,6,0,L|266:278,1,60,0|0,1:1|0:0,0:0:0:0:
416,125,97047,6,0,L|383:204,1,60,0|0,1:1|0:0,0:0:0:0:
314,384,97278,6,0,P|241:368|152:343,1,135,0|0,1:1|0:0,0:0:0:0:
108,384,97625,6,0,P|64:346|89:244,1,135,2|0,1:2|3:3,0:0:0:0:
63,273,97972,5,2,2:2:0:0:
255,0,99012,6,0,L|239:122,1,101.250003862381,2|0,0:0|0:0,0:0:0:0:
251,184,99359,5,12,2:2:0:0:
251,184,99532,1,8,2:2:0:0:
257,0,99879,1,8,2:2:0:0:
257,0,100053,1,8,2:2:0:0:
257,194,100400,1,2,2:2:0:0:
257,194,100746,5,4,1:2:0:0:
257,194,100920,1,2,0:0:0:0:
257,194,101093,1,2,0:0:0:0:
315,239,101267,2,0,L|364:222,2,33.7500012874604,2|2|2,0:0|0:0|0:0,0:0:0:0:
266,300,101613,2,0,L|222:283,2,33.7500012874604,2|2|2,0:0|0:0|0:0,0:0:0:0:
266,300,101960,1,2,0:0:0:0:
372,384,102134,5,2,0:0:0:0:
425,329,102307,2,0,L|416:283,2,33.7500012874604,2|2|2,0:0|0:0|0:0,0:0:0:0:
425,329,102654,1,2,0:0:0:0:
499,362,102827,1,2,0:0:0:0:
492,287,103001,2,0,L|505:235,2,33.7500012874604,2|2|2,0:0|0:0|0:0,0:0:0:0:
492,287,103347,1,2,0:0:0:0:
405,205,103521,5,2,0:0:0:0:
469,159,103694,2,0,L|516:147,2,33.7500012874604,2|2|2,0:0|0:0|0:0,0:0:0:0:
456,83,104041,2,0,L|486:29,2,33.7500012874604,2|2|2,0:0|0:0|0:0,0:0:0:0:
396,36,104388,2,0,L|383:-20,2,33.7500012874604,2|2|2,0:0|0:0|0:0,0:0:0:0:
351,97,104735,1,2,0:0:0:0:
212,2,104908,5,2,0:0:0:0:
266,56,105082,2,0,L|311:42,2,33.7500012874604,2|2|2,0:0|0:0|0:0,0:0:0:0:
206,104,105428,2,0,L|162:85,2,33.7500012874604,2|2|2,0:0|0:0|0:0,0:0:0:0:
273,160,105775,1,0,3:0:0:0:
273,160,105861,1,0,3:0:0:0:
273,160,105949,2,0,L|262:229,1,67.5000025749208,0|2,3:0|0:0,0:0:0:0:
416,314,106295,5,4,1:2:0:0:
418,307,106382,1,2,2:2:0:0:
420,300,106469,1,2,2:2:0:0:
422,293,106556,1,2,2:2:0:0:
423,286,106642,1,2,1:2:0:0:
476,229,106816,1,2,2:2:0:0:
397,146,106989,6,0,L|406:96,1,33.7500012874604,2|2,1:2|2:2,0:0:0:0:
407,153,107163,2,0,L|416:98,1,33.7500012874604,2|2,2:2|1:2,0:0:0:0:
474,62,107336,1,2,2:2:0:0:
474,62,107509,1,2,1:2:0:0:
401,150,107683,6,0,L|410:100,1,33.7500012874604,2|2,1:2|2:2,0:0:0:0:
411,157,107857,2,0,L|420:102,1,33.7500012874604,2|2,2:2|2:2,0:0:0:0:
478,66,108030,1,2,1:2:0:0:
478,66,108203,1,2,2:2:0:0:
405,154,108376,6,0,L|414:104,1,33.7500012874604,2|2,1:2|2:2,0:0:0:0:
415,161,108550,2,0,L|424:106,1,33.7500012874604,2|2,2:2|1:2,0:0:0:0:
482,70,108723,1,2,2:2:0:0:
482,70,108896,1,0,1:1:0:0:
398,2,109070,5,2,1:2:0:0:
391,6,109157,1,0,0:0:0:0:
385,8,109243,1,2,1:2:0:0:
379,9,109330,1,0,0:0:0:0:
372,10,109417,1,2,1:2:0:0:
365,11,109504,1,0,0:0:0:0:
358,15,109590,1,2,1:2:0:0:
350,14,109677,1,2,2:2:0:0:
342,19,109764,6,0,P|315:11|282:-3,3,45,2|2|2|2,1:2|2:2|1:2|2:2,0:0:0:0:
444,94,110110,2,0,P|472:78|493:59,3,45,2|0|2|0,1:2|0:0|1:2|0:0,0:0:0:0:
356,162,110457,5,0,1:1:0:0:
313,177,110544,1,0,1:1:0:0:
266,169,110631,1,0,1:1:0:0:
237,142,110717,1,0,1:1:0:0:
221,103,110804,1,0,1:1:0:0:
179,87,110891,1,0,1:1:0:0:
135,96,110978,1,0,1:1:0:0:
106,125,111064,1,0,1:1:0:0:
107,168,111151,5,2,2:2:0:0:
32,146,111324,1,2,2:2:0:0:
44,71,111498,1,10,2:2:0:0:
44,71,111845,5,4,1:2:0:0:
141,0,112019,2,0,P|183:13|240:28,1,99.0000030212403,2|10,2:2|2:2,0:0:0:0:
333,100,112365,5,2,2:2:0:0:
367,92,112451,1,2,2:2:0:0:
403,83,112538,1,0,1:1:0:0:
415,161,112712,5,2,2:2:0:0:
437,168,112799,1,2,2:2:0:0:
459,177,112885,1,8,2:2:0:0:
413,238,113059,1,2,2:2:0:0:
512,384,113232,5,2,1:2:0:0:
512,384,113405,2,0,L|503:304,1,49.5000015106202,2|2,2:2|2:2,0:0:0:0:
498,247,113579,1,8,2:2:0:0:
425,384,113753,2,0,L|420:322,1,49.5000015106202,2|2,2:2|2:2,0:0:0:0:
413,238,113926,1,0,1:1:0:0:
333,310,114099,5,2,2:2:0:0:
302,293,114186,1,2,2:2:0:0:
283,261,114273,1,8,2:2:0:0:
313,185,114446,1,2,2:2:0:0:
254,67,114620,5,2,1:2:0:0:
188,21,114793,1,2,2:2:0:0:
188,21,114880,1,2,2:2:0:0:
188,21,114966,2,0,L|136:33,1,49.5000015106202,8|2,2:2|2:2,0:0:0:0:
134,108,115139,2,0,L|84:95,1,49.5000015106202,2|2,2:2|2:2,0:0:0:0:
37,35,115313,1,0,1:1:0:0:
37,35,115487,5,2,2:2:0:0:
13,78,115573,1,2,2:2:0:0:
0,125,115660,2,0,L|16:227,1,99.0000030212403,8|2,2:2|2:2,0:0:0:0:
155,345,116007,5,2,1:2:0:0:
104,290,116180,1,2,2:2:0:0:
99,269,116267,1,2,2:2:0:0:
92,246,116354,1,8,2:2:0:0:
161,193,116527,1,2,2:2:0:0:
250,230,116701,1,0,1:1:0:0:
334,161,116874,5,2,2:2:0:0:
340,109,116961,1,2,2:2:0:0:
350,63,117047,1,8,2:2:0:0:
260,6,117221,1,10,2:2:0:0:
350,63,117394,5,4,1:2:0:0:
359,60,117481,1,2,2:2:0:0:
367,56,117568,1,2,2:2:0:0:
377,54,117654,1,2,2:2:0:0:
385,50,117741,1,10,2:2:0:0:
446,93,117915,1,2,2:2:0:0:
490,187,118088,6,0,L|476:244,1,49.5000015106202,2|2,1:2|2:2,0:0:0:0:
397,222,118261,2,0,L|406:283,1,49.5000015106202,2|2,2:2|2:2,0:0:0:0:
473,334,118435,1,10,2:2:0:0:
473,334,118608,1,2,2:2:0:0:
493,190,118781,6,0,L|479:247,1,49.5000015106202,2|2,1:2|2:2,0:0:0:0:
400,225,118954,2,0,L|409:286,1,49.5000015106202,2|2,2:2|2:2,0:0:0:0:
476,337,119128,1,10,2:2:0:0:
476,337,119301,1,2,2:2:0:0:
497,193,119475,6,0,L|483:250,1,49.5000015106202,2|2,1:2|2:2,0:0:0:0:
404,228,119648,2,0,L|413:289,1,49.5000015106202,2|2,2:2|2:2,0:0:0:0:
480,340,119822,1,10,2:2:0:0:
480,340,119995,1,2,2:2:0:0:
326,381,120169,6,0,L|264:367,3,49.5000015106202,2|0|2|0,1:2|0:0|2:2|0:0,0:0:0:0:
326,381,120516,1,10,2:2:0:0:
411,276,120689,5,2,2:2:0:0:
426,248,120776,1,2,2:2:0:0:
435,217,120862,1,2,1:2:0:0:
442,187,120949,1,2,2:2:0:0:
443,156,121036,1,2,2:2:0:0:
442,127,121123,1,2,2:2:0:0:
435,96,121209,1,10,2:2:0:0:
358,179,121383,1,2,2:2:0:0:
374,46,121556,5,2,1:2:0:0:
337,49,121643,1,0,1:0:0:0:
296,65,121730,1,2,1:2:0:0:
261,89,121816,1,2,1:2:0:0:
226,119,121903,1,12,1:2:0:0:
203,159,121990,1,0,1:0:0:0:
187,198,122076,1,2,1:2:0:0:
177,244,122163,1,2,1:2:0:0:
180,288,122250,5,2,1:2:0:0:
256,335,122423,1,2,1:2:0:0:
88,381,122597,1,10,2:2:0:0:
88,381,122770,2,0,P|91:350|96:325,1,49.5000015106202,8|8,2:2|2:2,0:0:0:0:
103,192,122943,5,4,1:2:0:0:
103,192,123117,2,0,L|90:67,1,99.0000030212403,2|10,2:2|2:2,0:0:0:0:
162,20,123464,1,2,2:2:0:0:
198,31,123550,1,2,2:2:0:0:
232,42,123637,1,2,2:2:0:0:
303,175,123810,2,0,L|289:233,2,49.5000015106202,2|2|8,1:2|2:2|2:2,0:0:0:0:
243,121,124157,1,2,2:2:0:0:
418,187,124331,5,2,1:2:0:0:
418,187,124504,2,0,L|479:177,1,49.5000015106202,2|2,2:2|2:2,0:0:0:0:
355,116,124678,1,8,2:2:0:0:
355,116,124851,2,0,L|414:108,1,49.5000015106202,2|2,2:2|2:2,0:0:0:0:
321,42,125024,1,2,2:2:0:0:
321,42,125198,1,2,1:2:0:0:
285,54,125284,1,2,2:2:0:0:
247,66,125371,1,8,2:2:0:0:
186,21,125545,1,2,2:2:0:0:
303,175,125718,5,6,1:2:0:0:
211,163,125891,1,2,2:2:0:0:
218,189,125978,1,2,2:2:0:0:
227,223,126065,1,8,2:2:0:0:
233,251,126152,1,2,2:2:0:0:
240,279,126238,2,0,P|235:307|224:342,1,49.5000015106202,2|2,2:2|2:2,0:0:0:0:
161,376,126412,1,2,2:2:0:0:
91,292,126585,1,2,1:2:0:0:
80,248,126672,1,2,2:2:0:0:
89,204,126758,2,0,P|95:174|99:152,1,49.5000015106202,8|0,2:2|0:0,0:0:0:0:
162,106,126932,1,2,2:2:0:0:
2,0,127105,5,2,1:2:0:0:
117,81,127279,1,2,2:2:0:0:
162,106,127365,1,2,2:2:0:0:
209,100,127452,2,0,P|219:69|224:36,2,49.5000015106202,8|0|2,2:2|0:0|1:2,0:0:0:0:
209,100,127712,1,2,2:2:0:0:
209,100,127799,1,2,2:2:0:0:
301,163,127972,1,2,1:2:0:0:
352,149,128059,1,2,2:2:0:0:
382,104,128146,1,12,2:2:0:0:
361,3,128319,1,10,2:2:0:0:
463,71,128493,5,4,1:2:0:0:
465,81,128579,1,2,2:2:0:0:
467,92,128666,1,2,2:2:0:0:
468,103,128753,1,2,2:2:0:0:
468,114,128839,1,10,2:2:0:0:
433,180,129013,1,2,2:2:0:0:
348,271,129186,6,0,L|284:259,1,49.5000015106202,2|2,2:2|2:2,0:0:0:0:
247,176,129360,2,0,L|177:191,1,49.5000015106202,2|2,1:2|2:2,0:0:0:0:
138,256,129533,1,10,2:2:0:0:
138,256,129706,1,2,2:2:0:0:
355,276,129879,6,0,L|286:263,1,49.5000015106202,2|2,1:2|2:2,0:0:0:0:
249,171,130053,2,0,L|173:187,1,49.5000015106202,2|2,1:2|2:2,0:0:0:0:
131,257,130226,1,10,2:2:0:0:
131,257,130399,1,2,2:2:0:0:
359,281,130573,6,0,L|285:267,1,49.5000015106202,2|2,2:2|2:2,0:0:0:0:
251,166,130747,2,0,L|170:183,1,49.5000015106202,2|2,1:2|2:2,0:0:0:0:
125,258,130920,1,10,2:2:0:0:
125,258,131093,1,2,2:2:0:0:
226,384,131267,6,0,L|238:329,3,49.5000015106202,2|0|2|0,1:2|0:0|2:2|0:0,0:0:0:0:
226,384,131614,1,10,2:2:0:0:
132,294,131787,1,2,2:2:0:0:
125,258,131874,1,2,2:2:0:0:
117,225,131961,1,2,2:2:0:0:
111,194,132047,1,2,2:2:0:0:
105,161,132134,1,2,1:2:0:0:
99,135,132221,1,2,2:2:0:0:
93,103,132308,1,8,2:2:0:0:
125,32,132481,1,2,2:2:0:0:
0,108,132654,5,4,1:2:0:0:
53,119,132741,1,2,1:2:0:0:
106,129,132828,1,2,1:2:0:0:
158,140,132915,1,2,1:2:0:0:
211,150,133001,1,0,1:1:0:0:
267,163,133088,1,2,1:2:0:0:
321,176,133175,1,4,1:2:0:0:
374,189,133261,1,2,1:2:0:0:
425,203,133348,1,10,2:2:0:0:
502,126,133521,1,10,2:2:0:0:
363,38,133695,1,10,2:2:0:0:
433,0,133868,6,0,L|448:96,1,67.5000025749208,2|2,2:2|2:2,0:0:0:0:
443,66,135082,6,0,P|452:91|459:110,1,40.4999987640381,0|0,3:3|0:0,0:0:0:0:
456,104,135428,6,0,L|247:45,1,202.500007724762,4|0,1:2|0:0,0:0:0:0:
220,73,135775,6,0,L|420:35,1,202.500007724762,10|0,2:2|0:0,0:0:0:0:
460,40,136122,6,0,L|236:5,1,202.500007724762,2|0,1:2|0:0,0:0:0:0:
200,53,136469,6,0,L|404:-3,1,202.500007724762,10|0,2:2|0:0,0:0:0:0:
460,40,136816,5,2,1:2:0:0:
393,101,136989,1,2,2:2:0:0:
456,253,137163,2,0,P|482:188|487:85,1,135.000005149842,10|2,2:2|2:2,0:0:0:0:
393,101,137509,1,2,1:2:0:0:
456,253,137683,5,0,1:0:0:0:
316,197,137856,1,10,2:2:0:0:
489,123,138030,1,2,1:2:0:0:
374,316,138203,6,0,L|170:278,1,202.500007724762,2|0,1:2|0:0,0:0:0:0:
143,278,138550,6,0,L|395:270,1,202.500007724762,10|0,2:2|0:0,0:0:0:0:
313,218,138897,6,0,L|115:299,1,202.500007724762,2|0,1:2|0:0,0:0:0:0:
116,307,139244,6,0,L|303:158,1,202.500007724762,10|0,2:2|0:0,0:0:0:0:
337,122,139591,5,2,1:2:0:0:
266,56,139764,1,2,2:2:0:0:
155,180,139937,2,0,P|100:132|122:33,1,135.000005149842,10|2,2:2|2:2,0:0:0:0:
178,0,140284,1,2,1:2:0:0:
155,180,140458,5,4,1:2:0:0:
344,228,140631,1,14,1:2:0:0:
496,96,140805,1,2,1:2:0:0:
226,311,140978,6,0,L|460:249,1,202.500007724762,4|0,1:2|0:0,0:0:0:0:
471,291,141325,6,0,L|260:246,1,202.500007724762,10|0,2:2|0:0,0:0:0:0:
251,272,141672,6,0,L|449:230,1,202.500007724762,2|0,1:2|0:0,0:0:0:0:
486,253,142019,6,0,L|285:222,1,202.500007724762,10|0,2:2|0:0,0:0:0:0:
251,272,142366,5,2,1:2:0:0:
187,208,142539,1,2,2:2:0:0:
298,96,142713,1,10,2:2:0:0:
258,25,142885,1,2,2:2:0:0:
476,160,143059,1,2,1:2:0:0:
118,61,143406,1,10,1:2:0:0:
373,0,143752,6,0,P|385:166|350:282,1,270.000010299683,2|8,1:2|2:2,0:0:0:0:
268,254,144272,1,2,2:2:0:0:
305,148,144446,2,0,P|350:199|340:306,2,135.000005149842,2|2|10,1:2|2:2|2:2,0:0:0:0:
357,263,144966,1,0,0:0:0:0:
253,318,145139,5,6,1:2:0:0:
391,357,145313,1,2,2:2:0:0:
222,301,145486,1,14,2:2:0:0:
461,302,145660,1,2,1:2:0:0:
187,283,145833,1,2,1:2:0:0:
363,263,146006,5,0,1:3:0:0:
376,186,146180,1,0,1:3:0:0:
392,113,146353,1,8,2:2:0:0:
392,113,146440,1,8,2:2:0:0:
392,113,146527,6,0,L|254:88,1,135.000005149842,4|0,1:2|0:0,0:0:0:0:
188,24,146787,1,8,2:2:0:0:
188,24,146873,2,0,P|175:89|172:165,2,135.000005149842,2|8|2,1:2|2:2|1:2,0:0:0:0:
272,178,147480,1,8,2:2:0:0:
272,178,147567,2,0,P|287:254|278:341,1,135.000005149842,2|8,1:2|2:2,0:0:0:0:
94,384,147914,5,2,1:2:0:0:
27,300,148087,1,2,2:2:0:0:
203,256,148261,1,2,1:2:0:0:
91,95,148434,2,0,P|85:136|93:184,1,67.5000025749208,10|8,2:2|0:0,0:0:0:0:
117,307,148608,1,2,1:2:0:0:
117,307,148781,6,0,L|123:238,1,49.5000015106202,10|0,2:2|0:0,0:0:0:0:
196,163,148954,2,0,L|203:86,1,49.5000015106202,10|0,1:2|0:0,0:0:0:0:
200,113,149301,6,0,P|258:104|343:90,1,135.000005149842,4|0,1:2|0:0,0:0:0:0:
381,16,149561,1,8,2:2:0:0:
381,16,149647,2,0,P|426:30|516:43,2,135.000005149842,2|8|2,1:2|2:2|1:2,0:0:0:0:
296,176,150254,1,8,2:2:0:0:
296,176,150341,2,0,P|281:252|286:334,1,135.000005149842,2|8,1:2|2:2,0:0:0:0:
282,309,150601,1,0,1:0:0:0:
282,309,150688,5,2,1:2:0:0:
353,366,150862,1,2,2:2:0:0:
197,328,151035,1,2,1:2:0:0:
375,259,151209,1,10,2:2:0:0:
179,201,151382,1,2,1:2:0:0:
179,201,151556,6,0,L|190:121,1,49.5000015106202,10|0,2:2|0:0,0:0:0:0:
105,149,151728,2,0,L|112:101,1,49.5000015106202,10|0,1:2|0:0,0:0:0:0:
38,91,151902,2,0,L|46:32,1,49.5000015106202,2|0,3:2|0:0,0:0:0:0:
227,0,152076,6,0,L|372:33,1,135.000005149842,4|0,1:2|0:0,0:0:0:0:
442,90,152336,1,8,2:2:0:0:
442,90,152422,2,0,P|442:156|425:225,2,135.000005149842,2|8|2,1:2|2:2|1:2,0:0:0:0:
294,190,153029,1,8,2:2:0:0:
294,190,153116,2,0,L|435:225,1,135.000005149842,2|8,1:2|2:2,0:0:0:0:
512,343,153463,5,2,1:2:0:0:
364,384,153636,2,0,P|358:347|364:294,1,67.5000025749208,2|8,2:2|2:2,0:0:0:0:
434,341,153810,1,2,1:2:0:0:
281,358,153984,1,10,2:2:0:0:
355,232,154157,1,2,1:2:0:0:
355,232,154330,6,0,L|353:173,1,49.5000015106202,8|0,2:2|0:0,0:0:0:0:
349,96,154504,2,0,L|346:29,1,49.5000015106202,10|0,1:2|0:0,0:0:0:0:
346,46,154850,6,0,P|222:61|174:156,1,202.500007724762,4|8,1:2|2:2,0:0:0:0:
180,118,155197,2,0,P|117:93|49:74,1,135.000005149842,0|10,1:1|2:2,0:0:0:0:
52,74,155457,1,0,1:0:0:0:
52,74,155544,1,2,1:2:0:0:
100,168,155717,1,2,1:2:0:0:
92,197,155804,1,8,2:2:0:0:
83,225,155891,1,2,1:2:0:0:
132,281,156064,1,8,2:2:0:0:
8,380,156238,5,2,1:2:0:0:
209,307,156411,1,2,2:2:0:0:
8,380,156584,1,2,1:2:0:0:
205,231,156758,1,10,2:2:0:0:
8,380,156931,1,2,1:2:0:0:
202,155,157105,5,14,2:2:0:0:
211,382,157452,1,14,2:2:0:0:
