osu file format v14

[General]
AudioFilename: audio.ogg
AudioLeadIn: 0
PreviewTime: 41029
Countdown: 0
SampleSet: Normal
StackLeniency: 0.7
Mode: 1
LetterboxInBreaks: 0
WidescreenStoryboard: 1

[Editor]
DistanceSpacing: 1.1
BeatDivisor: 4
GridSize: 32
TimelineZoom: 2.799999

[Metadata]
Title:Rabbit Hole feat. Hatsune Miku
TitleUnicode:ラビットホール feat. 初音ミク
Artist:DECO*27
ArtistUnicode:DECO*27
Creator:Quorum
Version:Futsuu
Source:
Tags:nevqr never cdh cdhsausageboy Asagi Mutsuki Asagi_Mutsuki deco27 japanese pop jpop j-pop jp karent vocaloid ボーカロイド CV01 デコニーナ deco niina pure pure_pure
BeatmapID:4537563
BeatmapSetID:2147276

[Difficulty]
HPDrainRate:7
CircleSize:5
OverallDifficulty:4
ApproachRate:5
SliderMultiplier:1.4
SliderTickRate:3

[Events]
//Background and Video events
0,0,"rabbit.jpg",0,60
Video,-67,"video.mp4"
//Break Periods
//Storyboard Layer 0 (Background)
//Storyboard Layer 1 (Fail)
//Storyboard Layer 2 (Pass)
//Storyboard Layer 3 (Foreground)
//Storyboard Layer 4 (Overlay)
//Storyboard Sound Samples

[TimingPoints]
457,346.820809248555,4,1,0,60,1,0
457,-100,4,1,0,60,0,0
1844,346.820809248555,5,1,0,60,1,0
1844,-100,5,1,0,60,0,0
3578,346.820809248555,4,1,0,75,1,0
3578,-100,5,1,0,75,0,0
20220,-100,4,1,0,65,0,0
20393,-100,4,1,0,65,0,0
20567,-100,4,1,0,66,0,0
20740,-100,4,1,0,66,0,0
20827,-100,4,1,0,66,0,0
20914,-100,4,1,0,66,0,0
21087,-100,4,1,0,67,0,0
21434,-100,4,1,0,67,0,0
21520,-100,4,1,0,67,0,0
21607,-100,4,1,0,68,0,0
21781,-100,4,1,0,68,0,0
21954,-100,4,1,0,68,0,0
22127,-100,4,1,0,68,0,0
22214,-100,4,1,0,69,0,0
22301,-100,4,1,0,69,0,0
22648,-100,4,1,0,69,0,0
22821,-100,4,1,0,70,0,0
22994,-100,4,1,0,70,0,0
23341,-100,4,1,0,70,0,0
23515,-100,4,1,0,71,0,0
23688,-100,4,1,0,71,0,0
24035,-100,4,1,0,72,0,0
24208,-100,4,1,0,72,0,0
24382,-100,4,1,0,72,0,0
24555,-100,4,1,0,72,0,0
24642,-100,4,1,0,73,0,0
24729,-100,4,1,0,73,0,0
24902,-100,4,1,0,73,0,0
24989,-100,4,1,0,74,0,0
25075,-100,4,1,0,74,0,0
25249,-100,4,1,0,74,0,0
25422,-100,4,1,0,74,0,0
25596,-100,4,1,0,75,0,0
25769,-100,4,1,0,75,0,0
27156,-100,4,1,0,75,0,0
38255,-100,4,1,0,50,0,0
39642,-100,4,1,0,75,0,0
41034,-100,4,1,0,75,0,1
62884,-100,4,1,0,75,0,0
100682,-100,4,1,0,50,0,0
100856,-100,4,1,0,50,0,0
101029,-100,4,1,0,50,0,0
101203,-100,4,1,0,51,0,0
101376,-100,4,1,0,51,0,0
101549,-100,4,1,0,51,0,0
101636,-100,4,1,0,52,0,0
101723,-100,4,1,0,52,0,0
102070,-100,4,1,0,52,0,0
102243,-100,4,1,0,53,0,0
102416,-100,4,1,0,53,0,0
102590,-100,4,1,0,53,0,0
102763,-100,4,1,0,54,0,0
102937,-100,4,1,0,54,0,0
103023,-100,4,1,0,54,0,0
103110,-100,4,1,0,54,0,0
103457,-100,4,1,0,55,0,0
103630,-100,4,1,0,55,0,0
103804,-100,4,1,0,56,0,0
103977,-100,4,1,0,56,0,0
104064,-100,4,1,0,56,0,0
104151,-100,4,1,0,56,0,0
104324,-100,4,1,0,57,0,0
104411,-100,4,1,0,57,0,0
104497,-100,4,1,0,57,0,0
104844,-100,4,1,0,58,0,0
105018,-100,4,1,0,58,0,0
105191,-100,4,1,0,58,0,0
105364,-100,4,1,0,59,0,0
105451,-100,4,1,0,59,0,0
105538,-100,4,1,0,59,0,0
105711,-100,4,1,0,59,0,0
105798,-100,4,1,0,60,0,0
105885,-100,4,1,0,60,0,0
106231,-100,4,1,0,70,0,0
106405,-100,4,1,0,70,0,0
106492,-100,4,1,0,70,0,0
106578,-100,4,1,0,70,0,0
106752,-100,4,1,0,71,0,0
106925,-100,4,1,0,71,0,0
107012,-100,4,1,0,71,0,0
107099,-100,4,1,0,71,0,0
107272,-100,4,1,0,71,0,0
107445,-100,4,1,0,71,0,0
107619,-100,4,1,0,71,0,0
107705,-100,4,1,0,71,0,0
107792,-100,4,1,0,72,0,0
107966,-100,4,1,0,72,0,0
108139,-100,4,1,0,72,0,0
108312,-100,4,1,0,72,0,0
108399,-100,4,1,0,72,0,0
108486,-100,4,1,0,72,0,0
108659,-100,4,1,0,72,0,0
109011,-100,4,1,0,73,0,0
109179,-100,4,1,0,73,0,0
109353,-100,4,1,0,73,0,0
109526,-100,4,1,0,73,0,0
109613,-100,4,1,0,73,0,0
109700,-100,4,1,0,73,0,0
109873,-100,4,1,0,74,0,0
109960,-100,4,1,0,74,0,0
110046,-100,4,1,0,74,0,0
110393,-100,4,1,0,74,0,0
110480,-100,4,1,0,74,0,0
110567,-100,4,1,0,74,0,0
110653,-100,4,1,0,74,0,0
110740,-100,4,1,0,75,0,0
110914,-100,4,1,0,75,0,0
111087,-100,4,1,0,75,0,0
111260,-100,4,1,0,75,0,0
111439,-100,4,1,0,75,0,0
111786,-100,4,1,0,75,0,1
133635,-100,4,1,0,75,0,0

[HitObjects]
222,219,457,5,8,0:0:0:0:
227,204,803,1,0,0:0:0:0:
238,106,1150,1,8,0:0:0:0:
135,150,1844,1,0,0:0:0:0:
308,107,3578,1,12,0:0:0:0:
309,260,3924,1,8,0:0:0:0:
314,259,4271,1,0,0:0:0:0:
328,183,4445,1,0,0:0:0:0:
262,223,4618,1,8,0:0:0:0:
414,243,4965,1,0,0:0:0:0:
259,239,5312,1,8,0:0:0:0:
244,260,6005,1,8,0:0:0:0:
308,107,6352,1,0,0:0:0:0:
327,184,6699,1,8,0:0:0:0:
314,259,7046,1,0,0:0:0:0:
328,183,7219,1,0,0:0:0:0:
262,223,7393,1,8,0:0:0:0:
414,243,7739,1,0,0:0:0:0:
259,239,8086,1,8,0:0:0:0:
331,213,8260,1,0,0:0:0:0:
138,114,8606,1,0,0:0:0:0:
244,260,8780,1,8,0:0:0:0:
256,192,8953,1,8,0:0:0:0:
333,192,9127,1,0,0:0:0:0:
309,260,9473,1,8,0:0:0:0:
314,259,9820,1,0,0:0:0:0:
328,183,9994,1,0,0:0:0:0:
262,223,10167,1,8,0:0:0:0:
414,243,10514,1,0,0:0:0:0:
259,239,10861,1,8,0:0:0:0:
244,260,11554,1,8,0:0:0:0:
104,125,11728,1,8,0:0:0:0:
308,107,11901,1,0,0:0:0:0:
327,184,12248,1,8,0:0:0:0:
314,259,12595,1,0,0:0:0:0:
328,183,12768,1,0,0:0:0:0:
262,223,12942,1,8,0:0:0:0:
414,243,13288,1,0,0:0:0:0:
259,239,13635,1,8,0:0:0:0:
331,213,13809,1,0,0:0:0:0:
256,192,14156,1,8,0:0:0:0:
244,260,14329,1,8,0:0:0:0:
179,118,14502,1,8,0:0:0:0:
483,232,15023,1,0,0:0:0:0:
331,257,15369,1,8,0:0:0:0:
227,60,15890,1,0,0:0:0:0:
106,159,16063,1,8,0:0:0:0:
203,233,16410,1,0,0:0:0:0:
202,233,16757,1,8,0:0:0:0:
102,160,17104,1,8,0:0:0:0:
303,301,17797,1,8,0:0:0:0:
201,230,18144,1,0,0:0:0:0:
254,324,18664,1,0,0:0:0:0:
337,376,18838,1,8,0:0:0:0:
282,265,19184,1,0,0:0:0:0:
307,178,19531,1,8,0:0:0:0:
237,279,19878,1,8,0:0:0:0:
259,157,20225,1,0,0:0:0:0:
147,80,20572,1,0,0:0:0:0:
239,236,20919,1,0,0:0:0:0:
100,108,21092,1,8,0:0:0:0:
260,339,21439,1,8,0:0:0:0:
263,277,21612,1,0,0:0:0:0:
358,198,21959,1,8,0:0:0:0:
336,270,22306,1,0,0:0:0:0:
287,232,22479,1,0,0:0:0:0:
299,222,22653,1,8,0:0:0:0:
177,203,22999,1,0,0:0:0:0:
299,206,23346,1,8,0:0:0:0:
189,262,23693,1,0,0:0:0:0:
343,248,24213,1,8,0:0:0:0:
218,180,24560,1,0,0:0:0:0:
299,206,24734,1,8,0:0:0:0:
272,221,25080,1,8,0:0:0:0:
333,220,25427,1,0,0:0:0:0:
275,241,25601,1,0,0:0:0:0:
299,206,25774,1,8,0:0:0:0:
175,212,26121,1,8,0:0:0:0:
298,207,26468,1,8,0:0:0:0:
175,212,26814,1,0,0:0:0:0:
297,197,27161,1,12,0:0:0:0:
262,249,27508,1,0,0:0:0:0:
261,217,27855,1,0,0:0:0:0:
261,217,28028,1,0,0:0:0:0:
201,232,28202,1,8,0:0:0:0:
201,232,28549,1,0,0:0:0:0:
316,189,28895,1,8,0:0:0:0:
216,260,29589,1,8,0:0:0:0:
216,260,29762,1,8,0:0:0:0:
297,197,29936,1,0,0:0:0:0:
262,249,30283,1,8,0:0:0:0:
261,217,30630,1,0,0:0:0:0:
261,217,30803,1,0,0:0:0:0:
201,232,30976,1,8,0:0:0:0:
201,232,31323,1,0,0:0:0:0:
316,189,31670,1,8,0:0:0:0:
216,260,32364,1,8,0:0:0:0:
179,96,32537,1,8,0:0:0:0:
277,267,32710,1,0,0:0:0:0:
277,267,33057,1,8,0:0:0:0:
217,159,33404,1,0,0:0:0:0:
247,212,33578,1,8,0:0:0:0:
148,138,33924,1,8,0:0:0:0:
180,190,34098,1,0,0:0:0:0:
247,212,34445,1,8,0:0:0:0:
247,212,34618,1,0,0:0:0:0:
306,227,34791,1,0,0:0:0:0:
305,226,35138,1,8,0:0:0:0:
164,136,35312,1,0,0:0:0:0:
294,241,35485,1,8,0:0:0:0:
375,148,35832,1,8,0:0:0:0:
318,257,36179,1,0,0:0:0:0:
272,215,36699,1,8,0:0:0:0:
389,251,37046,1,0,0:0:0:0:
327,257,37219,1,8,0:0:0:0:
133,90,37393,1,0,0:0:0:0:
245,205,37566,1,8,0:0:0:0:
224,215,37913,1,8,0:0:0:0:
284,223,38086,1,0,0:0:0:0:
284,223,38260,1,8,0:0:0:0:
188,300,38606,1,0,0:0:0:0:
262,201,38953,1,0,0:0:0:0:
189,300,39300,1,0,0:0:0:0:
137,136,39647,1,12,0:0:0:0:
137,136,39994,1,12,0:0:0:0:
137,136,40341,1,12,0:0:0:0:
219,194,41034,5,12,0:0:0:0:
219,194,41381,1,0,0:0:0:0:
219,194,41728,1,0,0:0:0:0:
219,194,41901,1,8,0:0:0:0:
219,194,42075,1,8,0:0:0:0:
219,194,42421,1,0,0:0:0:0:
219,194,42768,1,8,0:0:0:0:
146,167,43115,1,8,0:0:0:0:
217,195,43288,1,0,0:0:0:0:
280,238,43462,1,8,0:0:0:0:
280,238,43809,1,0,0:0:0:0:
280,238,43982,1,8,0:0:0:0:
280,238,44156,1,8,0:0:0:0:
172,156,44329,1,0,0:0:0:0:
277,244,44502,1,8,0:0:0:0:
269,230,44849,1,8,0:0:0:0:
280,238,45196,1,0,0:0:0:0:
280,238,45369,1,8,0:0:0:0:
280,238,45543,1,8,0:0:0:0:
208,78,45716,1,8,0:0:0:0:
277,244,45890,1,0,0:0:0:0:
269,230,46236,1,8,0:0:0:0:
140,145,46583,1,0,0:0:0:0:
295,157,47277,1,8,0:0:0:0:
269,229,47450,1,0,0:0:0:0:
269,229,47624,1,8,0:0:0:0:
126,171,47971,1,0,0:0:0:0:
186,216,48144,1,8,0:0:0:0:
216,239,48317,1,8,0:0:0:0:
223,300,48664,1,0,0:0:0:0:
216,239,48838,1,8,0:0:0:0:
216,239,49011,1,8,0:0:0:0:
267,93,49358,1,0,0:0:0:0:
260,169,49531,1,0,0:0:0:0:
312,225,49705,1,8,0:0:0:0:
312,225,49878,1,8,0:0:0:0:
312,225,50051,1,0,0:0:0:0:
313,251,50398,1,8,0:0:0:0:
220,291,50745,1,0,0:0:0:0:
237,244,50919,1,0,0:0:0:0:
237,244,51092,1,0,0:0:0:0:
243,218,51439,1,8,0:0:0:0:
243,218,51612,1,8,0:0:0:0:
243,218,51786,1,0,0:0:0:0:
219,194,52132,5,12,0:0:0:0:
175,112,52479,1,0,0:0:0:0:
219,194,52826,1,0,0:0:0:0:
219,194,52999,1,0,0:0:0:0:
219,194,53173,1,8,0:0:0:0:
219,194,53520,1,0,0:0:0:0:
219,194,53867,1,8,0:0:0:0:
146,167,54213,1,8,0:0:0:0:
217,195,54387,1,0,0:0:0:0:
280,238,54560,1,8,0:0:0:0:
280,238,54907,1,0,0:0:0:0:
280,238,55080,1,8,0:0:0:0:
280,238,55254,1,0,0:0:0:0:
203,268,55427,1,8,0:0:0:0:
277,244,55601,1,8,0:0:0:0:
269,230,55947,1,0,0:0:0:0:
280,238,56294,1,0,0:0:0:0:
280,238,56468,1,8,0:0:0:0:
280,238,56641,1,0,0:0:0:0:
277,244,56988,1,8,0:0:0:0:
203,268,57161,1,8,0:0:0:0:
269,230,57335,1,8,0:0:0:0:
140,145,57682,1,0,0:0:0:0:
295,157,58375,1,8,0:0:0:0:
269,229,58549,1,0,0:0:0:0:
269,229,58722,1,8,0:0:0:0:
126,171,59069,1,0,0:0:0:0:
186,216,59242,1,8,0:0:0:0:
216,239,59416,1,8,0:0:0:0:
223,300,59762,1,0,0:0:0:0:
216,239,59936,1,8,0:0:0:0:
216,239,60109,1,8,0:0:0:0:
267,93,60456,1,0,0:0:0:0:
260,169,60630,1,0,0:0:0:0:
312,225,60803,1,8,0:0:0:0:
237,244,60976,1,8,0:0:0:0:
312,225,61150,1,0,0:0:0:0:
313,251,61497,1,8,0:0:0:0:
220,291,61843,1,0,0:0:0:0:
76,112,62017,1,0,0:0:0:0:
237,244,62190,1,8,0:0:0:0:
243,218,62537,1,8,0:0:0:0:
135,78,62710,1,8,0:0:0:0:
243,218,62884,1,0,0:0:0:0:
234,242,64271,5,0,0:0:0:0:
308,107,64618,1,12,0:0:0:0:
309,260,64965,1,8,0:0:0:0:
314,259,65312,1,0,0:0:0:0:
328,183,65485,1,0,0:0:0:0:
262,223,65658,1,8,0:0:0:0:
414,243,66005,1,0,0:0:0:0:
259,239,66352,1,8,0:0:0:0:
244,260,67046,1,8,0:0:0:0:
308,107,67393,1,0,0:0:0:0:
327,184,67739,1,8,0:0:0:0:
314,259,68086,1,0,0:0:0:0:
328,183,68260,1,0,0:0:0:0:
262,223,68433,1,8,0:0:0:0:
414,243,68780,5,0,0:0:0:0:
259,239,69127,1,8,0:0:0:0:
331,213,69300,1,0,0:0:0:0:
185,71,69647,1,0,0:0:0:0:
244,260,69820,1,8,0:0:0:0:
256,192,69994,1,8,0:0:0:0:
333,192,70167,1,0,0:0:0:0:
314,259,70861,1,4,0:0:0:0:
262,223,71208,1,4,0:0:0:0:
414,243,71554,1,12,0:0:0:0:
331,213,71901,1,0,0:0:0:0:
244,260,72595,1,8,0:0:0:0:
178,82,72768,1,8,0:0:0:0:
308,107,72942,1,0,0:0:0:0:
260,103,73288,1,8,0:0:0:0:
314,259,73635,1,0,0:0:0:0:
328,183,73809,1,0,0:0:0:0:
262,223,73982,1,8,0:0:0:0:
414,243,74329,1,0,0:0:0:0:
331,213,74676,1,0,0:0:0:0:
259,239,74849,1,8,0:0:0:0:
256,192,75196,1,0,0:0:0:0:
244,260,75369,1,0,0:0:0:0:
244,135,75543,1,0,0:0:0:0:
269,268,75716,1,8,0:0:0:0:
246,328,76236,1,0,0:0:0:0:
312,289,76410,1,8,0:0:0:0:
246,328,76930,1,0,0:0:0:0:
236,273,77277,1,0,0:0:0:0:
332,184,77624,1,0,0:0:0:0:
283,228,77797,1,8,0:0:0:0:
332,184,78317,1,0,0:0:0:0:
283,228,78491,1,8,0:0:0:0:
332,184,79011,1,8,0:0:0:0:
283,228,79184,1,8,0:0:0:0:
220,160,79705,1,0,0:0:0:0:
142,184,79878,1,8,0:0:0:0:
134,181,80225,1,8,0:0:0:0:
137,120,80398,1,8,0:0:0:0:
134,181,80572,1,0,0:0:0:0:
289,269,80919,1,8,0:0:0:0:
174,207,81265,1,0,0:0:0:0:
246,328,81786,1,0,0:0:0:0:
312,289,81959,1,8,0:0:0:0:
246,328,82479,1,0,0:0:0:0:
236,273,82826,1,0,0:0:0:0:
332,184,83173,1,0,0:0:0:0:
283,228,83346,1,8,0:0:0:0:
332,184,83693,1,0,0:0:0:0:
185,107,84040,1,8,0:0:0:0:
185,107,84560,1,8,0:0:0:0:
185,107,84734,1,0,0:0:0:0:
185,107,85080,1,0,0:0:0:0:
185,107,85601,1,8,0:0:0:0:
185,107,85774,1,0,0:0:0:0:
185,107,86121,1,0,0:0:0:0:
322,240,86468,1,8,0:0:0:0:
322,240,86814,1,0,0:0:0:0:
3,10,87855,1,0,0:0:0:0:
252,251,88028,1,0,0:0:0:0:
234,160,88375,1,0,0:0:0:0:
275,242,88722,1,0,0:0:0:0:
294,200,88895,1,8,0:0:0:0:
332,184,89416,1,0,0:0:0:0:
283,228,89589,1,8,0:0:0:0:
332,184,90109,1,8,0:0:0:0:
283,228,90283,1,8,0:0:0:0:
220,160,90803,1,0,0:0:0:0:
67,149,90976,1,8,0:0:0:0:
67,149,91323,1,8,0:0:0:0:
273,110,91497,1,8,0:0:0:0:
67,149,91670,1,0,0:0:0:0:
289,269,92017,1,8,0:0:0:0:
174,207,92364,1,0,0:0:0:0:
246,328,92884,1,0,0:0:0:0:
312,289,93057,1,8,0:0:0:0:
246,328,93578,1,0,0:0:0:0:
236,273,93924,1,0,0:0:0:0:
332,184,94271,1,0,0:0:0:0:
283,228,94445,1,8,0:0:0:0:
332,184,94791,1,0,0:0:0:0:
195,180,95138,1,8,0:0:0:0:
176,31,95312,1,0,0:0:0:0:
202,151,95485,1,8,0:0:0:0:
202,151,95832,1,0,0:0:0:0:
171,35,96005,1,0,0:0:0:0:
202,151,96179,1,8,0:0:0:0:
202,151,96525,1,8,0:0:0:0:
219,63,96699,1,8,0:0:0:0:
202,151,96872,1,8,0:0:0:0:
202,151,97219,1,0,0:0:0:0:
332,213,97566,1,8,0:0:0:0:
379,274,97913,1,0,0:0:0:0:
236,201,99300,1,12,0:0:0:0:
225,199,99473,1,12,0:0:0:0:
209,176,99820,1,12,0:0:0:0:
209,176,99994,1,12,0:0:0:0:
243,202,100687,5,8,0:0:0:0:
198,153,101381,1,0,0:0:0:0:
198,153,102075,1,8,0:0:0:0:
198,153,102768,1,8,0:0:0:0:
291,364,103462,1,0,0:0:0:0:
216,145,104156,1,8,0:0:0:0:
208,120,104849,1,8,0:0:0:0:
208,120,105543,1,0,0:0:0:0:
278,339,106236,1,12,0:0:0:0:
273,223,106583,1,0,0:0:0:0:
273,223,106930,1,8,0:0:0:0:
370,284,107624,1,0,0:0:0:0:
268,227,107971,1,8,0:0:0:0:
344,140,108317,1,0,0:0:0:0:
399,197,109011,1,0,0:0:0:0:
353,232,109184,1,0,0:0:0:0:
296,220,109358,1,8,0:0:0:0:
296,220,109705,1,8,0:0:0:0:
296,220,110051,1,0,0:0:0:0:
296,220,110398,1,0,0:0:0:0:
296,220,110572,1,0,0:0:0:0:
296,220,110745,1,8,0:0:0:0:
296,220,110919,1,8,0:0:0:0:
250,183,111092,1,0,0:0:0:0:
219,194,111786,5,12,0:0:0:0:
219,194,112132,1,0,0:0:0:0:
219,194,112479,1,0,0:0:0:0:
198,49,112653,1,0,0:0:0:0:
219,194,112826,1,8,0:0:0:0:
219,194,113173,1,8,0:0:0:0:
219,194,113346,1,8,0:0:0:0:
219,194,113520,1,0,0:0:0:0:
146,167,113867,1,8,0:0:0:0:
217,195,114040,1,0,0:0:0:0:
280,238,114213,1,8,0:0:0:0:
280,238,114560,1,0,0:0:0:0:
280,238,114734,1,8,0:0:0:0:
280,238,114907,1,8,0:0:0:0:
204,223,115080,1,8,0:0:0:0:
277,244,115254,1,0,0:0:0:0:
269,230,115601,1,8,0:0:0:0:
280,238,115947,1,0,0:0:0:0:
280,238,116121,1,8,0:0:0:0:
280,238,116294,1,8,0:0:0:0:
277,244,116641,1,8,0:0:0:0:
203,268,116814,1,0,0:0:0:0:
269,230,116988,1,8,0:0:0:0:
140,145,117335,1,0,0:0:0:0:
295,157,118028,1,0,0:0:0:0:
269,229,118202,1,0,0:0:0:0:
269,229,118375,1,8,0:0:0:0:
126,171,118722,1,0,0:0:0:0:
186,216,118895,1,8,0:0:0:0:
216,239,119069,1,8,0:0:0:0:
223,300,119416,1,0,0:0:0:0:
216,239,119589,1,8,0:0:0:0:
216,239,119762,1,8,0:0:0:0:
267,93,120109,1,0,0:0:0:0:
260,169,120283,1,0,0:0:0:0:
312,225,120456,1,8,0:0:0:0:
312,225,120630,1,0,0:0:0:0:
312,225,120803,1,8,0:0:0:0:
313,251,121150,1,8,0:0:0:0:
220,291,121497,1,0,0:0:0:0:
237,244,121670,1,0,0:0:0:0:
237,244,121843,1,0,0:0:0:0:
243,218,122190,1,8,0:0:0:0:
243,218,122364,1,8,0:0:0:0:
243,218,122537,1,0,0:0:0:0:
219,194,122884,5,12,0:0:0:0:
128,122,123231,1,0,0:0:0:0:
219,194,123578,1,0,0:0:0:0:
219,194,123751,1,8,0:0:0:0:
219,194,123924,1,8,0:0:0:0:
219,194,124271,1,8,0:0:0:0:
219,194,124445,1,0,0:0:0:0:
219,194,124618,1,0,0:0:0:0:
146,167,124965,1,0,0:0:0:0:
217,195,125138,1,8,0:0:0:0:
280,238,125312,1,8,0:0:0:0:
280,238,125658,1,8,0:0:0:0:
280,238,125832,1,0,0:0:0:0:
280,238,126005,1,8,0:0:0:0:
211,86,126179,1,8,0:0:0:0:
277,244,126352,1,0,0:0:0:0:
269,230,126699,1,8,0:0:0:0:
280,238,127046,1,0,0:0:0:0:
280,238,127219,1,0,0:0:0:0:
280,238,127393,1,8,0:0:0:0:
181,71,127566,1,8,0:0:0:0:
277,244,127739,1,0,0:0:0:0:
269,230,128086,1,8,0:0:0:0:
140,145,128433,1,0,0:0:0:0:
295,157,129127,1,0,0:0:0:0:
269,229,129300,1,0,0:0:0:0:
269,229,129473,1,8,0:0:0:0:
126,171,129820,1,0,0:0:0:0:
186,216,129994,1,8,0:0:0:0:
216,239,130167,1,8,0:0:0:0:
223,300,130514,1,0,0:0:0:0:
216,239,130687,1,8,0:0:0:0:
216,239,130861,1,8,0:0:0:0:
267,93,131208,1,0,0:0:0:0:
260,169,131381,1,0,0:0:0:0:
312,225,131554,1,8,0:0:0:0:
312,225,131728,1,8,0:0:0:0:
312,225,131901,1,0,0:0:0:0:
313,251,132248,1,0,0:0:0:0:
279,204,132595,1,8,0:0:0:0:
237,244,132768,1,8,0:0:0:0:
237,244,132942,1,8,0:0:0:0:
243,218,133288,1,0,0:0:0:0:
243,218,133462,1,8,0:0:0:0:
243,218,133635,1,0,0:0:0:0:
308,107,135369,1,12,0:0:0:0:
309,260,135716,1,8,0:0:0:0:
314,259,136063,1,0,0:0:0:0:
262,223,136410,1,8,0:0:0:0:
331,213,136757,1,8,0:0:0:0:
259,239,136930,1,0,0:0:0:0:
268,196,137104,1,8,0:0:0:0:
244,260,137797,1,0,0:0:0:0:
262,206,137971,1,8,0:0:0:0:
308,107,138144,1,0,0:0:0:0:
309,260,138491,1,8,0:0:0:0:
314,259,138838,1,0,0:0:0:0:
262,223,139184,1,8,0:0:0:0:
331,213,139531,1,8,0:0:0:0:
259,239,139705,1,0,0:0:0:0:
268,196,139878,1,8,0:0:0:0:
291,278,140572,1,0,0:0:0:0:
262,206,140745,1,0,0:0:0:0:
308,107,140919,1,12,0:0:0:0:
149,150,141265,1,0,0:0:0:0:
314,259,141612,1,8,0:0:0:0:
262,223,141959,1,8,0:0:0:0:
291,278,142306,1,8,0:0:0:0:
268,196,142479,1,8,0:0:0:0:
268,196,142653,1,0,0:0:0:0:
207,62,142826,1,0,0:0:0:0:
268,196,142999,1,8,0:0:0:0:
331,213,143346,1,8,0:0:0:0:
308,107,143693,1,0,0:0:0:0:
237,244,144213,1,8,0:0:0:0:
206,162,144387,1,8,0:0:0:0:
271,201,144560,1,0,0:0:0:0:
197,224,144734,1,8,0:0:0:0:
317,260,145080,1,8,0:0:0:0:
267,200,145254,1,8,0:0:0:0:
315,259,145427,1,0,0:0:0:0:
108,112,145601,1,0,0:0:0:0:
324,256,145774,1,8,0:0:0:0:
308,107,146468,1,12,0:0:0:0:
314,183,146814,1,8,0:0:0:0:
314,259,147161,1,0,0:0:0:0:
262,223,147508,1,8,0:0:0:0:
331,213,147855,1,0,0:0:0:0:
259,239,148028,1,0,0:0:0:0:
268,196,148202,1,8,0:0:0:0:
291,278,148549,1,8,0:0:0:0:
244,260,148895,1,0,0:0:0:0:
262,206,149069,1,8,0:0:0:0:
308,107,149242,1,0,0:0:0:0:
308,259,149589,1,0,0:0:0:0:
314,259,149936,1,8,0:0:0:0:
262,223,150283,1,8,0:0:0:0:
331,213,150630,1,8,0:0:0:0:
259,239,150803,1,0,0:0:0:0:
268,196,150976,1,8,0:0:0:0:
244,260,151323,1,0,0:0:0:0:
159,129,151670,1,0,0:0:0:0:
189,44,151843,1,0,0:0:0:0:
308,107,152017,1,12,0:0:0:0:
176,51,152364,1,0,0:0:0:0:
314,259,152710,1,8,0:0:0:0:
262,223,153057,1,8,0:0:0:0:
291,278,153404,1,8,0:0:0:0:
268,196,153578,1,8,0:0:0:0:
244,260,153751,1,0,0:0:0:0:
196,73,153924,1,0,0:0:0:0:
268,196,154098,1,8,0:0:0:0:
331,213,154445,1,8,0:0:0:0:
308,107,154791,1,0,0:0:0:0:
237,244,155312,1,8,0:0:0:0:
206,162,155485,1,8,0:0:0:0:
282,181,155658,1,0,0:0:0:0:
197,224,155832,1,8,0:0:0:0:
317,260,156179,1,8,0:0:0:0:
267,200,156352,1,8,0:0:0:0:
315,259,156525,1,0,0:0:0:0:
324,256,156872,1,8,0:0:0:0:
315,259,157046,1,4,0:0:0:0:
315,259,157393,1,12,0:0:0:0:
