osu file format v14

[General]
AudioFilename: audio.ogg
AudioLeadIn: 0
PreviewTime: 40698
Countdown: 0
SampleSet: Soft
StackLeniency: 0.7
Mode: 3
LetterboxInBreaks: 0
SpecialStyle: 0
WidescreenStoryboard: 0

[Editor]
Bookmarks: 3608,14707,27192,41065,64649,75747,100718,111816,135400,157597
DistanceSpacing: 0.5
BeatDivisor: 4
GridSize: 4
TimelineZoom: 2.3

[Metadata]
Title:Rabbit Hole feat. Hatsune Miku
TitleUnicode:ラビットホール feat. 初音ミク
Artist:DECO*27
ArtistUnicode:DECO*27
Creator:Lude
Version:O
Source:
Tags:2023 vocaloid original Love it KARENT japanese j pop rock j-pop j-rock jpop jrock
BeatmapID:4514601
BeatmapSetID:2144164

[Difficulty]
HPDrainRate:9.1
CircleSize:4
OverallDifficulty:8.5
ApproachRate:5
SliderMultiplier:1.4
SliderTickRate:1

[Events]
//Background and Video events
0,0,"rabbit hole.jpg",0,0
//Break Periods
//Storyboard Layer 0 (Background)
//Storyboard Layer 1 (Fail)
//Storyboard Layer 2 (Pass)
//Storyboard Layer 3 (Foreground)
//Storyboard Layer 4 (Overlay)
//Storyboard Sound Samples

[TimingPoints]
2201,346.820809248555,4,2,1,50,1,0
41044,-100,4,2,1,50,0,1
64628,-100,4,2,1,50,0,0
111796,-100,4,2,1,50,0,1
135380,-100,4,2,1,50,0,0

[HitObjects]
192,192,351,5,2,0:0:0:0:
64,192,351,1,0,0:0:0:0:
320,192,466,1,8,0:0:0:0:
448,192,466,1,0,0:0:0:0:
64,192,582,1,0,0:0:0:0:
320,192,582,1,2,0:0:0:0:
192,192,698,1,0,0:0:0:0:
64,192,813,1,0,0:0:0:0:
448,192,813,1,8,0:0:0:0:
64,192,929,1,0,0:0:0:0:
192,192,929,1,0,0:0:0:0:
320,192,1044,1,2,0:0:0:0:
448,192,1160,1,0,0:0:0:0:
192,192,1160,128,2,1247:0:0:0:0:
64,192,1247,128,2,1854:0:0:0:0:
320,192,1420,1,8,0:0:0:0:
448,192,1507,1,8,0:0:0:0:
192,192,1594,1,8,0:0:0:0:
320,192,1680,1,8,0:0:0:0:
448,192,1767,1,8,0:0:0:0:
192,192,1854,1,0,0:0:0:0:
320,192,1854,1,2,0:0:0:0:
192,192,2201,1,0,0:0:0:0:
64,192,2287,1,0,0:0:0:0:
192,192,2374,1,0,0:0:0:0:
64,192,2461,1,0,0:0:0:0:
448,192,2547,128,2,2634:1:0:0:0:
192,192,2634,1,0,0:0:0:0:
448,192,2721,128,2,2807:1:0:0:0:
192,192,2807,1,0,0:0:0:0:
320,192,2894,1,0,0:0:0:0:
192,192,3068,1,0,0:0:0:0:
320,192,3241,1,2,0:0:0:0:
448,192,3241,1,2,1:0:0:0:
64,192,3588,1,0,0:0:0:0:
448,192,3588,1,4,0:0:0:0:
192,192,3588,1,2,0:0:0:0:
320,192,3674,1,0,0:0:0:0:
192,192,3761,1,0,0:0:0:0:
64,192,3848,1,0,0:0:0:0:
320,192,3935,1,8,0:0:0:0:
448,192,3935,1,0,0:0:0:0:
64,192,4021,1,0,0:0:0:0:
192,192,4108,1,0,0:0:0:0:
448,192,4108,1,0,0:0:0:0:
320,192,4195,1,0,0:0:0:0:
192,192,4281,1,2,0:0:0:0:
64,192,4281,1,0,0:0:0:0:
448,192,4368,1,0,0:0:0:0:
192,192,4455,1,0,0:0:0:0:
320,192,4455,1,0,0:0:0:0:
64,192,4542,1,0,0:0:0:0:
320,192,4628,1,8,0:0:0:0:
448,192,4628,1,0,0:0:0:0:
64,192,4715,1,0,0:0:0:0:
192,192,4802,1,0,0:0:0:0:
448,192,4802,1,0,0:0:0:0:
320,192,4888,1,0,0:0:0:0:
192,192,4975,1,2,0:0:0:0:
64,192,4975,1,0,0:0:0:0:
448,192,5062,1,0,0:0:0:0:
64,192,5148,1,0,0:0:0:0:
192,192,5148,1,0,0:0:0:0:
320,192,5235,1,0,0:0:0:0:
64,192,5322,1,0,0:0:0:0:
448,192,5322,1,8,0:0:0:0:
320,192,5409,1,0,0:0:0:0:
192,192,5495,1,0,0:0:0:0:
64,192,5495,1,0,0:0:0:0:
448,192,5582,1,0,0:0:0:0:
192,192,5669,1,0,0:0:0:0:
320,192,5669,1,2,0:0:0:0:
64,192,5755,1,0,0:0:0:0:
320,192,5842,128,0,5929:0:0:0:0:
448,192,5842,128,0,5929:0:0:0:40:clap.wav
64,192,5929,1,0,0:0:0:0:
320,192,6016,128,8,6102:0:0:0:0:
448,192,6016,128,0,6189:0:0:0:40:clap.wav
64,192,6102,1,0,0:0:0:0:
192,192,6189,1,0,0:0:0:0:
320,192,6276,1,0,0:0:0:0:
448,192,6362,1,0,0:0:0:0:
64,192,6362,1,2,0:0:0:0:
192,192,6449,1,0,0:0:0:0:
448,192,6536,1,0,0:0:0:0:
320,192,6622,1,0,0:0:0:0:
192,192,6709,1,8,0:0:0:0:
64,192,6709,1,0,0:0:0:0:
448,192,6796,1,0,0:0:0:0:
64,192,6883,1,0,0:0:0:0:
320,192,6883,1,0,0:0:0:0:
192,192,6969,1,0,0:0:0:0:
320,192,7056,1,2,0:0:0:0:
448,192,7056,1,0,0:0:0:0:
64,192,7143,1,0,0:0:0:0:
192,192,7229,1,0,0:0:0:0:
448,192,7229,1,0,0:0:0:0:
320,192,7316,1,0,0:0:0:0:
192,192,7403,1,8,0:0:0:0:
64,192,7403,1,0,0:0:0:0:
448,192,7490,1,0,0:0:0:0:
320,192,7576,1,0,0:0:0:0:
192,192,7576,1,0,0:0:0:0:
64,192,7663,1,0,0:0:0:0:
320,192,7750,1,2,0:0:0:0:
448,192,7750,1,0,0:0:0:0:
192,192,7836,1,0,0:0:0:0:
320,192,7923,1,0,0:0:0:0:
448,192,7923,1,0,0:0:0:0:
192,192,8010,1,0,0:0:0:0:
448,192,8096,1,8,0:0:0:0:
64,192,8096,128,0,8183:0:0:0:0:
192,192,8183,1,0,0:0:0:0:
320,192,8270,1,0,0:0:0:0:
448,192,8270,128,0,8357:0:0:0:0:
192,192,8357,128,0,8443:0:0:0:0:
448,192,8443,1,2,0:0:0:0:
320,192,8443,128,0,8530:0:0:0:0:
64,192,8530,128,0,8617:0:0:0:0:
320,192,8617,1,0,0:0:0:0:
192,192,8617,128,0,8703:0:0:0:0:
448,192,8703,128,0,8790:0:0:0:0:
320,192,8790,1,0,0:0:0:0:
192,192,8790,128,8,8877:0:0:0:0:
64,192,8877,128,0,8964:0:0:0:0:
448,192,8964,1,0,0:0:0:0:
320,192,8964,128,0,9050:0:0:0:0:
192,192,9050,1,0,0:0:0:0:
64,192,9137,1,0,0:0:0:0:
320,192,9137,1,2,0:0:0:0:
448,192,9224,1,0,0:0:0:0:
64,192,9310,1,0,0:0:0:0:
448,192,9397,1,0,0:0:0:0:
192,192,9484,1,8,0:0:0:0:
64,192,9484,1,0,0:0:0:0:
320,192,9570,1,0,0:0:0:0:
192,192,9657,1,0,0:0:0:0:
448,192,9657,1,0,0:0:0:0:
320,192,9744,1,0,0:0:0:0:
192,192,9831,1,2,0:0:0:0:
64,192,9831,1,0,0:0:0:0:
448,192,9917,1,0,0:0:0:0:
64,192,10004,1,0,0:0:0:0:
320,192,10004,1,0,0:0:0:0:
192,192,10091,1,0,0:0:0:0:
448,192,10177,1,8,0:0:0:0:
64,192,10177,1,0,0:0:0:0:
320,192,10264,1,0,0:0:0:0:
192,192,10351,1,0,0:0:0:0:
64,192,10351,1,0,0:0:0:0:
448,192,10437,1,0,0:0:0:0:
192,192,10524,1,0,0:0:0:0:
320,192,10524,1,2,0:0:0:0:
64,192,10611,1,0,0:0:0:0:
192,192,10698,1,0,0:0:0:0:
320,192,10698,1,0,0:0:0:0:
64,192,10784,1,0,0:0:0:0:
320,192,10871,1,8,0:0:0:0:
448,192,10871,1,0,0:0:0:0:
64,192,10958,1,0,0:0:0:0:
192,192,11044,1,0,0:0:0:0:
320,192,11044,1,0,0:0:0:0:
64,192,11131,1,0,0:0:0:0:
320,192,11218,1,2,0:0:0:0:
448,192,11218,1,0,0:0:0:0:
192,192,11305,1,0,0:0:0:0:
448,192,11391,128,0,11478:0:0:0:0:
64,192,11391,128,0,11478:0:0:0:0:
320,192,11478,1,0,0:0:0:0:
64,192,11565,1,0,0:0:0:0:
192,192,11565,128,8,11651:0:0:0:0:
448,192,11651,128,0,11738:0:0:0:0:
64,192,11738,128,0,11825:0:0:0:0:
192,192,11738,1,0,0:0:0:0:
320,192,11825,128,0,11911:0:0:0:0:
192,192,11911,1,2,0:0:0:0:
448,192,11911,1,0,0:0:0:0:
64,192,11998,1,0,0:0:0:0:
320,192,12085,1,0,0:0:0:0:
192,192,12172,1,0,0:0:0:0:
64,192,12258,1,0,0:0:0:0:
448,192,12258,1,8,0:0:0:0:
320,192,12345,1,0,0:0:0:0:
192,192,12432,1,0,0:0:0:0:
64,192,12432,1,0,0:0:0:0:
448,192,12518,1,0,0:0:0:0:
320,192,12605,1,2,0:0:0:0:
64,192,12605,1,0,0:0:0:0:
192,192,12692,1,0,0:0:0:0:
448,192,12779,1,0,0:0:0:0:
64,192,12779,1,0,0:0:0:0:
320,192,12865,1,0,0:0:0:0:
192,192,12952,1,8,0:0:0:0:
64,192,12952,1,0,0:0:0:0:
448,192,13039,1,0,0:0:0:0:
320,192,13125,1,0,0:0:0:0:
64,192,13125,1,0,0:0:0:0:
192,192,13212,1,0,0:0:0:0:
320,192,13299,1,2,0:0:0:0:
448,192,13299,1,0,0:0:0:0:
64,192,13385,1,0,0:0:0:0:
320,192,13472,1,0,0:0:0:0:
448,192,13472,1,0,0:0:0:0:
64,192,13559,1,0,0:0:0:0:
192,192,13646,1,0,0:0:0:0:
448,192,13646,1,8,0:0:0:0:
64,192,13732,1,0,0:0:0:0:
320,192,13819,1,0,0:0:0:0:
448,192,13819,1,0,0:0:0:0:
64,192,13906,1,0,0:0:0:0:
192,192,13992,1,0,0:0:0:0:
448,192,13992,1,2,0:0:0:0:
64,192,14079,1,0,0:0:0:0:
448,192,14166,1,0,0:0:0:0:
320,192,14166,128,0,14253:0:0:0:0:
192,192,14253,1,0,0:0:0:0:
64,192,14339,1,0,0:0:0:0:
448,192,14339,128,8,14426:0:0:0:0:
320,192,14426,1,0,0:0:0:0:
64,192,14513,1,0,0:0:0:0:
192,192,14513,128,0,14599:0:0:0:0:
448,192,14599,1,0,0:0:0:0:
320,192,14686,1,0,0:0:0:0:
64,192,14686,1,2,0:0:0:0:
448,192,14859,1,0,0:0:0:0:
320,192,15033,1,0,0:0:0:0:
192,192,15206,1,0,0:0:0:0:
320,192,15380,1,2,1:0:0:0:
448,192,15553,1,2,1:0:0:0:
448,192,15900,1,0,0:0:0:0:
64,192,16073,1,0,0:0:0:0:
448,192,16247,1,0,0:0:0:0:
192,192,16420,1,0,0:0:0:0:
64,192,16594,1,0,0:0:0:0:
320,192,16767,1,2,1:0:0:0:
320,192,17114,128,2,17461:1:0:0:0:
192,192,17461,1,0,0:0:0:0:
448,192,17634,1,0,0:0:0:0:
320,192,17807,1,0,0:0:0:0:
192,192,17981,1,0,0:0:0:0:
320,192,18154,1,2,1:0:0:0:
448,192,18328,1,2,1:0:0:0:
448,192,18674,1,0,0:0:0:0:
64,192,18848,1,0,0:0:0:0:
448,192,19021,1,0,0:0:0:0:
64,192,19195,1,0,0:0:0:0:
192,192,19368,1,0,0:0:0:0:
320,192,19542,128,2,19715:1:0:0:0:
64,192,19715,1,0,0:0:0:0:
64,192,19802,1,0,0:0:0:0:
192,192,19888,128,2,20235:1:0:0:0:
448,192,20235,1,4,0:0:0:0:
320,192,20235,1,2,0:0:0:0:
64,192,20409,1,0,0:0:0:0:
192,192,20582,1,2,0:0:0:0:
320,192,20582,1,0,0:0:0:0:
448,192,20755,1,0,0:0:0:0:
192,192,20929,1,2,0:0:0:0:
64,192,20929,1,0,0:0:0:0:
320,192,21102,1,0,0:0:0:0:
448,192,21102,1,0,0:0:0:0:
64,192,21276,1,0,0:0:0:0:
192,192,21276,1,2,0:0:0:0:
448,192,21449,1,0,0:0:0:0:
448,192,21536,1,0,0:0:0:0:
64,192,21622,1,0,0:0:0:0:
320,192,21622,1,2,0:0:0:0:
64,192,21796,1,0,0:0:0:0:
192,192,21969,1,0,0:0:0:0:
448,192,21969,1,2,0:0:0:0:
192,192,22143,1,0,0:0:0:0:
64,192,22316,1,0,0:0:0:0:
448,192,22316,1,2,0:0:0:0:
192,192,22490,1,0,0:0:0:0:
448,192,22576,1,0,0:0:0:0:
64,192,22663,1,0,0:0:0:0:
320,192,22663,1,2,0:0:0:0:
448,192,22836,1,0,0:0:0:0:
64,192,23010,1,0,0:0:0:0:
192,192,23010,1,2,0:0:0:0:
448,192,23183,1,0,0:0:0:0:
64,192,23357,1,0,0:0:0:0:
320,192,23357,1,2,0:0:0:0:
448,192,23530,1,0,0:0:0:0:
64,192,23703,1,0,0:0:0:0:
192,192,23703,1,2,0:0:0:0:
448,192,23877,1,0,0:0:0:0:
192,192,24050,1,0,0:0:0:0:
320,192,24050,1,2,0:0:0:0:
64,192,24224,1,0,0:0:0:0:
448,192,24224,1,0,0:0:0:0:
192,192,24397,1,0,0:0:0:0:
320,192,24397,1,2,0:0:0:0:
64,192,24570,1,2,0:0:0:0:
64,192,24657,1,0,0:0:0:0:
320,192,24744,1,2,0:0:0:0:
448,192,24744,1,0,0:0:0:0:
192,192,24917,1,2,0:0:0:0:
192,192,25004,1,2,0:0:0:0:
64,192,25091,1,0,0:0:0:0:
448,192,25091,1,2,0:0:0:0:
192,192,25264,1,0,0:0:0:0:
320,192,25264,1,2,0:0:0:0:
64,192,25437,1,0,0:0:0:0:
192,192,25437,1,2,0:0:0:0:
320,192,25524,1,2,0:0:0:0:
192,192,25611,1,2,0:0:0:0:
320,192,25698,1,2,0:0:0:0:
192,192,25784,1,2,0:0:0:0:
64,192,25784,1,0,0:0:0:0:
64,192,26131,1,8,0:0:0:0:
192,192,26174,1,0,0:0:0:0:
320,192,26218,1,0,0:0:0:0:
448,192,26261,1,0,0:0:0:0:
64,192,26478,1,8,0:0:0:0:
192,192,26521,1,0,0:0:0:0:
320,192,26565,1,0,0:0:0:0:
448,192,26608,1,0,0:0:0:0:
64,192,26651,1,0,0:0:0:0:
192,192,26651,1,2,0:0:0:0:
448,192,26825,1,0,0:0:0:0:
320,192,26825,128,8,27172:0:0:0:0:
448,192,27172,1,4,0:0:0:0:
64,192,27172,1,2,0:0:0:0:
192,192,27345,1,0,0:0:0:0:
320,192,27432,1,0,0:0:0:0:
448,192,27518,1,8,0:0:0:0:
64,192,27518,1,0,0:0:0:0:
192,192,27692,1,0,0:0:0:0:
320,192,27779,1,0,0:0:0:0:
448,192,27865,1,2,0:0:0:0:
64,192,27865,1,0,0:0:0:0:
192,192,27952,1,0,0:0:0:0:
64,192,28039,1,0,0:0:0:0:
192,192,28125,1,0,0:0:0:0:
320,192,28212,1,8,0:0:0:0:
448,192,28212,1,0,0:0:0:0:
64,192,28299,1,0,0:0:0:0:
192,192,28385,1,0,0:0:0:0:
320,192,28472,1,0,0:0:0:0:
64,192,28559,1,0,0:0:0:0:
448,192,28559,128,2,28732:0:0:0:0:
192,192,28732,128,0,28906:0:0:0:0:
448,192,28906,128,8,29253:0:0:0:0:
64,192,28906,1,0,0:0:0:0:
192,192,29079,128,0,29253:0:0:0:0:
64,192,29253,1,0,0:0:0:0:
320,192,29253,1,2,0:0:0:0:
64,192,29339,1,0,0:0:0:0:
192,192,29426,128,0,29513:0:0:0:0:
448,192,29426,128,2,29513:1:0:0:0:
64,192,29599,128,8,29686:0:0:0:0:
320,192,29599,128,2,29686:1:0:0:0:
192,192,29773,128,0,29859:0:0:0:0:
448,192,29773,128,2,29859:1:0:0:0:
64,192,29946,1,0,0:0:0:0:
320,192,29946,1,2,0:0:0:0:
320,192,30120,1,0,0:0:0:0:
192,192,30206,1,0,0:0:0:0:
64,192,30293,1,0,0:0:0:0:
448,192,30293,1,8,0:0:0:0:
320,192,30466,1,0,0:0:0:0:
192,192,30553,1,0,0:0:0:0:
64,192,30640,1,0,0:0:0:0:
448,192,30640,1,2,0:0:0:0:
320,192,30727,1,0,0:0:0:0:
448,192,30813,1,0,0:0:0:0:
320,192,30900,1,0,0:0:0:0:
448,192,30987,1,8,0:0:0:0:
64,192,30987,1,0,0:0:0:0:
192,192,31073,1,0,0:0:0:0:
320,192,31160,1,0,0:0:0:0:
448,192,31247,1,0,0:0:0:0:
64,192,31333,1,0,0:0:0:0:
192,192,31333,128,2,31507:0:0:0:0:
448,192,31507,128,0,31680:0:0:0:0:
192,192,31680,128,8,32027:0:0:0:0:
64,192,31680,1,0,0:0:0:0:
448,192,31854,128,0,32027:0:0:0:0:
64,192,32027,1,0,0:0:0:0:
320,192,32027,1,2,0:0:0:0:
192,192,32201,128,2,32287:1:0:0:0:
448,192,32201,128,0,32287:0:0:0:0:
320,192,32374,128,8,32461:0:0:0:0:
64,192,32374,128,2,32461:1:0:0:0:
192,192,32547,128,0,32634:0:0:0:0:
64,192,32547,128,2,32634:1:0:0:0:
448,192,32721,1,0,0:0:0:0:
320,192,32721,1,2,0:0:0:0:
64,192,32894,1,0,0:0:0:0:
448,192,32981,1,0,0:0:0:0:
192,192,33068,1,8,0:0:0:0:
64,192,33068,1,0,0:0:0:0:
320,192,33241,1,0,0:0:0:0:
192,192,33414,1,0,0:0:0:0:
448,192,33414,1,2,0:0:0:0:
64,192,33588,1,0,0:0:0:0:
320,192,33588,1,0,0:0:0:0:
192,192,33761,1,0,0:0:0:0:
448,192,33761,1,8,0:0:0:0:
64,192,33935,1,0,0:0:0:0:
320,192,33935,1,0,0:0:0:0:
192,192,34108,1,0,0:0:0:0:
448,192,34108,1,2,0:0:0:0:
192,192,34281,1,0,0:0:0:0:
64,192,34455,1,0,0:0:0:0:
320,192,34455,1,8,0:0:0:0:
320,192,34628,1,0,0:0:0:0:
192,192,34802,1,0,0:0:0:0:
448,192,34802,1,2,0:0:0:0:
64,192,34888,1,0,0:0:0:0:
320,192,34975,128,0,35322:0:0:0:0:
64,192,35148,128,8,35322:0:0:0:0:
448,192,35148,1,0,0:0:0:0:
192,192,35322,128,0,35495:0:0:0:0:
320,192,35495,1,2,0:0:0:0:
448,192,35495,1,0,0:0:0:0:
192,192,35669,1,0,0:0:0:0:
320,192,35755,1,0,0:0:0:0:
64,192,35842,1,0,0:0:0:0:
448,192,35842,1,8,0:0:0:0:
320,192,36016,1,0,0:0:0:0:
192,192,36189,1,0,0:0:0:0:
448,192,36189,1,2,0:0:0:0:
64,192,36362,1,0,0:0:0:0:
320,192,36536,1,0,0:0:0:0:
448,192,36536,1,8,0:0:0:0:
192,192,36709,1,0,0:0:0:0:
448,192,36796,1,0,0:0:0:0:
64,192,36883,1,0,0:0:0:0:
320,192,36883,1,2,0:0:0:0:
192,192,37056,1,0,0:0:0:0:
64,192,37229,1,0,0:0:0:0:
448,192,37229,1,8,0:0:0:0:
320,192,37403,1,0,0:0:0:0:
192,192,37576,1,2,0:0:0:0:
64,192,37576,128,0,37750:0:0:0:0:
448,192,37750,128,0,37923:0:0:0:0:
192,192,37923,128,8,38096:0:0:0:0:
64,192,37923,1,0,0:0:0:0:
320,192,38096,128,0,38270:0:0:0:0:
64,192,38270,1,2,1:0:0:0:
192,192,38270,1,0,0:0:0:0:
64,192,38617,1,2,1:0:0:0:
192,192,38617,1,0,0:0:0:0:
64,192,38964,1,2,1:0:0:0:
192,192,38964,1,0,0:0:0:0:
64,192,39310,128,2,39570:1:0:0:0:
192,192,39310,128,0,39570:0:0:0:0:
64,192,39657,1,0,0:0:0:0:
320,192,39657,1,8,0:0:0:0:
448,192,39657,1,4,0:0:0:0:
192,192,39744,1,0,0:0:0:0:
448,192,39831,1,8,0:0:0:0:
320,192,39917,1,8,0:0:0:0:
192,192,40004,1,8,0:0:0:0:
64,192,40004,1,0,0:0:0:0:
448,192,40004,1,0,0:0:0:0:
320,192,40091,1,8,0:0:0:0:
64,192,40177,1,8,0:0:0:0:
192,192,40264,1,8,0:0:0:0:
64,192,40351,1,0,0:0:0:0:
320,192,40351,1,8,0:0:0:0:
448,192,40351,1,0,0:0:0:0:
192,192,40698,128,2,40958:0:0:0:0:
320,192,40698,128,0,40958:0:0:0:0:
448,192,41044,1,4,0:0:0:0:
64,192,41044,1,0,0:0:0:0:
192,192,41044,1,2,0:0:0:0:
192,192,41218,1,0,0:0:0:0:
320,192,41218,1,0,0:0:0:0:
64,192,41391,1,0,0:0:0:0:
448,192,41391,1,8,0:0:0:0:
192,192,41565,1,0,0:0:0:0:
320,192,41651,1,0,0:0:0:0:
192,192,41738,1,2,0:0:0:0:
64,192,41738,1,0,0:0:0:0:
320,192,41911,1,0,0:0:0:0:
192,192,41998,1,0,0:0:0:0:
320,192,42085,1,8,0:0:0:0:
448,192,42085,1,0,0:0:0:0:
64,192,42258,1,0,0:0:0:0:
192,192,42258,1,0,0:0:0:0:
64,192,42432,1,0,0:0:0:0:
448,192,42432,1,2,0:0:0:0:
192,192,42605,1,0,0:0:0:0:
320,192,42692,1,0,0:0:0:0:
64,192,42779,1,0,0:0:0:0:
448,192,42779,1,8,0:0:0:0:
192,192,42865,1,0,0:0:0:0:
320,192,42952,1,0,0:0:0:0:
192,192,43125,1,0,0:0:0:0:
448,192,43125,1,2,0:0:0:0:
64,192,43299,1,0,0:0:0:0:
320,192,43299,1,0,0:0:0:0:
448,192,43385,1,0,0:0:0:0:
192,192,43472,1,8,0:0:0:0:
64,192,43472,1,0,0:0:0:0:
192,192,43646,1,0,0:0:0:0:
320,192,43646,1,0,0:0:0:0:
64,192,43819,1,0,0:0:0:0:
448,192,43819,1,2,0:0:0:0:
320,192,43992,1,0,0:0:0:0:
64,192,44079,1,0,0:0:0:0:
320,192,44166,1,8,0:0:0:0:
448,192,44166,1,0,0:0:0:0:
64,192,44253,1,0,0:0:0:0:
192,192,44339,1,0,0:0:0:0:
448,192,44426,1,0,0:0:0:0:
192,192,44513,1,2,0:0:0:0:
64,192,44513,1,0,0:0:0:0:
320,192,44686,1,0,0:0:0:0:
448,192,44686,1,0,0:0:0:0:
192,192,44773,1,0,0:0:0:0:
64,192,44859,1,0,0:0:0:0:
320,192,44859,1,8,0:0:0:0:
192,192,45033,1,0,0:0:0:0:
448,192,45033,1,0,0:0:0:0:
64,192,45206,1,0,0:0:0:0:
448,192,45206,1,2,0:0:0:0:
192,192,45380,1,0,0:0:0:0:
192,192,45466,1,0,0:0:0:0:
64,192,45553,1,0,0:0:0:0:
320,192,45553,1,8,0:0:0:0:
320,192,45727,1,0,0:0:0:0:
320,192,45813,1,0,0:0:0:0:
192,192,45900,1,0,0:0:0:0:
448,192,45900,1,2,0:0:0:0:
64,192,46073,1,0,0:0:0:0:
320,192,46073,1,0,0:0:0:0:
192,192,46160,1,0,0:0:0:0:
320,192,46247,1,8,0:0:0:0:
448,192,46247,1,0,0:0:0:0:
64,192,46333,1,8,0:0:0:0:
192,192,46420,1,8,0:0:0:0:
448,192,46420,1,0,0:0:0:0:
320,192,46507,1,8,0:0:0:0:
64,192,46594,1,4,0:0:0:0:
192,192,46594,1,2,0:0:0:0:
448,192,46594,1,0,0:0:0:0:
320,192,46680,1,0,0:0:0:0:
448,192,46767,1,0,0:0:0:0:
320,192,46854,1,0,0:0:0:0:
448,192,46940,1,8,0:0:0:0:
64,192,46940,1,0,0:0:0:0:
192,192,47114,1,0,0:0:0:0:
320,192,47114,1,0,0:0:0:0:
64,192,47201,1,0,0:0:0:0:
320,192,47287,1,2,0:0:0:0:
448,192,47287,1,0,0:0:0:0:
64,192,47374,1,0,0:0:0:0:
448,192,47461,1,0,0:0:0:0:
192,192,47461,1,0,0:0:0:0:
64,192,47547,1,0,0:0:0:0:
320,192,47634,1,8,0:0:0:0:
448,192,47634,1,0,0:0:0:0:
320,192,47807,1,0,0:0:0:0:
448,192,47807,1,0,0:0:0:0:
192,192,47981,1,2,0:0:0:0:
64,192,47981,1,0,0:0:0:0:
448,192,48068,1,0,0:0:0:0:
64,192,48154,1,0,0:0:0:0:
320,192,48154,1,0,0:0:0:0:
448,192,48241,1,0,0:0:0:0:
192,192,48328,1,8,0:0:0:0:
64,192,48328,1,0,0:0:0:0:
320,192,48501,1,0,0:0:0:0:
448,192,48501,1,0,0:0:0:0:
192,192,48674,1,2,0:0:0:0:
64,192,48674,1,0,0:0:0:0:
448,192,48761,1,0,0:0:0:0:
320,192,48848,1,0,0:0:0:0:
64,192,48848,1,0,0:0:0:0:
448,192,48935,1,0,0:0:0:0:
192,192,49021,1,8,0:0:0:0:
64,192,49021,1,0,0:0:0:0:
320,192,49195,1,0,0:0:0:0:
448,192,49195,1,0,0:0:0:0:
192,192,49368,1,2,0:0:0:0:
64,192,49368,1,0,0:0:0:0:
320,192,49455,1,0,0:0:0:0:
192,192,49542,1,0,0:0:0:0:
320,192,49628,1,0,0:0:0:0:
64,192,49715,1,0,0:0:0:0:
448,192,49715,1,8,0:0:0:0:
192,192,49802,1,0,0:0:0:0:
64,192,49888,1,0,0:0:0:0:
192,192,49975,1,0,0:0:0:0:
64,192,50062,1,0,0:0:0:0:
448,192,50062,1,2,0:0:0:0:
320,192,50148,1,0,0:0:0:0:
448,192,50235,1,0,0:0:0:0:
320,192,50322,1,0,0:0:0:0:
192,192,50409,1,8,0:0:0:0:
64,192,50409,1,0,0:0:0:0:
320,192,50582,1,0,0:0:0:0:
448,192,50582,1,0,0:0:0:0:
192,192,50755,1,2,0:0:0:0:
448,192,50755,1,0,0:0:0:0:
64,192,50842,1,0,0:0:0:0:
320,192,50929,1,0,0:0:0:0:
192,192,50929,1,0,0:0:0:0:
64,192,51016,1,0,0:0:0:0:
320,192,51102,1,8,0:0:0:0:
448,192,51102,1,0,0:0:0:0:
64,192,51189,1,0,0:0:0:0:
192,192,51276,1,2,0:0:0:0:
448,192,51276,1,0,0:0:0:0:
320,192,51362,1,0,0:0:0:0:
192,192,51449,1,0,0:0:0:0:
64,192,51449,1,0,0:0:0:0:
448,192,51449,1,0,0:0:0:0:
320,192,51622,1,0,0:0:0:0:
192,192,51622,1,2,0:0:0:0:
64,192,51796,1,0,0:0:0:0:
192,192,51796,1,0,0:0:0:0:
448,192,51796,1,0,0:0:0:0:
320,192,51796,1,8,0:0:0:0:
64,192,51969,1,8,0:0:0:0:
448,192,51969,1,0,0:0:0:0:
64,192,52056,1,8,0:0:0:0:
192,192,52143,1,2,0:0:0:0:
320,192,52143,1,4,0:0:0:0:
448,192,52143,1,0,0:0:0:0:
64,192,52316,1,0,0:0:0:0:
192,192,52316,1,0,0:0:0:0:
320,192,52490,1,8,0:0:0:0:
448,192,52490,1,0,0:0:0:0:
192,192,52663,1,0,0:0:0:0:
448,192,52750,1,0,0:0:0:0:
320,192,52836,1,0,0:0:0:0:
64,192,52836,1,0,0:0:0:0:
448,192,53010,1,2,0:0:0:0:
320,192,53010,1,0,0:0:0:0:
192,192,53096,1,0,0:0:0:0:
448,192,53183,1,8,0:0:0:0:
64,192,53183,1,0,0:0:0:0:
192,192,53357,1,0,0:0:0:0:
320,192,53357,1,0,0:0:0:0:
64,192,53530,1,0,0:0:0:0:
448,192,53530,1,2,0:0:0:0:
320,192,53703,1,0,0:0:0:0:
448,192,53790,1,0,0:0:0:0:
64,192,53877,1,0,0:0:0:0:
320,192,53877,1,8,0:0:0:0:
448,192,53964,1,0,0:0:0:0:
192,192,54050,1,0,0:0:0:0:
64,192,54137,1,0,0:0:0:0:
192,192,54224,1,0,0:0:0:0:
448,192,54224,1,0,0:0:0:0:
320,192,54397,1,2,0:0:0:0:
448,192,54397,1,0,0:0:0:0:
64,192,54484,1,0,0:0:0:0:
192,192,54570,1,0,0:0:0:0:
320,192,54570,1,8,0:0:0:0:
64,192,54744,1,0,0:0:0:0:
448,192,54744,1,0,0:0:0:0:
192,192,54917,1,2,0:0:0:0:
448,192,54917,1,0,0:0:0:0:
320,192,55091,1,0,0:0:0:0:
448,192,55177,1,0,0:0:0:0:
320,192,55264,1,8,0:0:0:0:
64,192,55264,1,0,0:0:0:0:
192,192,55351,1,0,0:0:0:0:
448,192,55437,1,0,0:0:0:0:
320,192,55524,1,0,0:0:0:0:
192,192,55611,1,0,0:0:0:0:
64,192,55611,1,0,0:0:0:0:
320,192,55784,1,2,0:0:0:0:
448,192,55784,1,0,0:0:0:0:
64,192,55871,1,0,0:0:0:0:
192,192,55958,1,8,0:0:0:0:
448,192,55958,1,0,0:0:0:0:
320,192,56131,1,0,0:0:0:0:
64,192,56131,1,0,0:0:0:0:
64,192,56305,1,0,0:0:0:0:
448,192,56305,1,2,0:0:0:0:
320,192,56478,1,0,0:0:0:0:
64,192,56478,1,0,0:0:0:0:
192,192,56565,1,2,0:0:0:0:
320,192,56651,1,8,0:0:0:0:
448,192,56651,1,0,0:0:0:0:
64,192,56738,1,0,0:0:0:0:
192,192,56825,1,2,0:0:0:0:
448,192,56825,1,0,0:0:0:0:
192,192,56998,1,0,0:0:0:0:
448,192,56998,1,0,0:0:0:0:
64,192,57172,1,0,0:0:0:0:
320,192,57172,1,2,0:0:0:0:
192,192,57258,1,0,0:0:0:0:
320,192,57345,1,8,0:0:0:0:
448,192,57345,1,0,0:0:0:0:
192,192,57518,1,2,0:0:0:0:
64,192,57518,1,0,0:0:0:0:
64,192,57692,1,0,0:0:0:0:
320,192,57692,1,2,0:0:0:0:
448,192,57692,1,4,0:0:0:0:
192,192,57779,1,0,0:0:0:0:
64,192,57865,1,0,0:0:0:0:
192,192,57952,1,0,0:0:0:0:
320,192,58039,1,8,0:0:0:0:
448,192,58039,1,0,0:0:0:0:
192,192,58212,1,0,0:0:0:0:
320,192,58299,1,0,0:0:0:0:
64,192,58385,1,0,0:0:0:0:
448,192,58385,1,0,0:0:0:0:
192,192,58472,1,0,0:0:0:0:
448,192,58559,1,2,0:0:0:0:
64,192,58559,1,0,0:0:0:0:
320,192,58646,1,0,0:0:0:0:
192,192,58732,1,8,0:0:0:0:
64,192,58732,1,0,0:0:0:0:
320,192,58906,1,0,0:0:0:0:
448,192,58906,1,0,0:0:0:0:
64,192,59079,1,0,0:0:0:0:
448,192,59079,1,2,0:0:0:0:
192,192,59166,1,0,0:0:0:0:
448,192,59253,1,0,0:0:0:0:
320,192,59339,1,0,0:0:0:0:
192,192,59426,1,8,0:0:0:0:
64,192,59426,1,0,0:0:0:0:
320,192,59599,1,0,0:0:0:0:
448,192,59599,1,0,0:0:0:0:
320,192,59773,1,0,0:0:0:0:
64,192,59773,1,0,0:0:0:0:
448,192,59859,1,0,0:0:0:0:
192,192,59946,1,2,0:0:0:0:
64,192,59946,1,0,0:0:0:0:
320,192,60033,1,0,0:0:0:0:
448,192,60120,1,0,0:0:0:0:
64,192,60120,1,8,0:0:0:0:
320,192,60293,1,0,0:0:0:0:
192,192,60293,1,0,0:0:0:0:
64,192,60466,1,0,0:0:0:0:
192,192,60466,1,2,0:0:0:0:
448,192,60553,1,0,0:0:0:0:
192,192,60640,1,0,0:0:0:0:
448,192,60727,1,0,0:0:0:0:
64,192,60813,1,0,0:0:0:0:
320,192,60813,1,8,0:0:0:0:
192,192,60900,1,0,0:0:0:0:
64,192,60987,1,0,0:0:0:0:
448,192,61073,1,0,0:0:0:0:
192,192,61160,1,0,0:0:0:0:
320,192,61160,1,0,0:0:0:0:
64,192,61247,1,0,0:0:0:0:
320,192,61333,1,2,0:0:0:0:
448,192,61333,1,0,0:0:0:0:
64,192,61420,1,0,0:0:0:0:
448,192,61507,1,0,0:0:0:0:
192,192,61507,1,8,0:0:0:0:
320,192,61680,1,0,0:0:0:0:
64,192,61680,1,0,0:0:0:0:
192,192,61854,1,2,0:0:0:0:
64,192,61854,1,0,0:0:0:0:
448,192,61940,1,8,0:0:0:0:
64,192,62027,1,0,0:0:0:0:
192,192,62027,1,2,0:0:0:0:
320,192,62114,1,0,0:0:0:0:
192,192,62201,1,0,0:0:0:0:
448,192,62201,1,8,0:0:0:0:
64,192,62287,1,0,0:0:0:0:
320,192,62374,1,2,0:0:0:0:
448,192,62374,1,0,0:0:0:0:
192,192,62461,1,0,0:0:0:0:
64,192,62547,1,0,0:0:0:0:
320,192,62547,1,8,0:0:0:0:
448,192,62634,1,8,0:0:0:0:
64,192,62721,1,0,0:0:0:0:
320,192,62721,1,2,0:0:0:0:
64,192,62894,1,0,0:0:0:0:
192,192,62894,1,8,0:0:0:0:
448,192,62894,1,0,0:0:0:0:
448,192,63068,128,2,63414:1:0:0:0:
192,192,63241,128,2,63414:1:0:0:0:
64,192,64281,1,8,0:0:0:0:
320,192,64281,128,2,64628:1:0:0:0:
64,192,64628,1,2,0:0:0:0:
192,192,64628,1,4,0:0:0:0:
448,192,64715,1,0,0:0:0:0:
320,192,64802,1,0,0:0:0:0:
192,192,64888,1,0,0:0:0:0:
64,192,64975,1,0,0:0:0:0:
448,192,64975,1,8,0:0:0:0:
192,192,65062,1,0,0:0:0:0:
320,192,65148,1,0,0:0:0:0:
64,192,65148,1,0,0:0:0:0:
448,192,65235,1,0,0:0:0:0:
192,192,65322,1,2,0:0:0:0:
64,192,65322,1,0,0:0:0:0:
448,192,65409,1,0,0:0:0:0:
320,192,65495,1,0,0:0:0:0:
64,192,65495,1,0,0:0:0:0:
192,192,65582,1,0,0:0:0:0:
320,192,65669,1,8,0:0:0:0:
448,192,65669,1,0,0:0:0:0:
64,192,65755,1,0,0:0:0:0:
192,192,65842,1,0,0:0:0:0:
448,192,65842,1,0,0:0:0:0:
320,192,65929,1,0,0:0:0:0:
192,192,66016,1,0,0:0:0:0:
448,192,66016,1,2,0:0:0:0:
64,192,66102,1,0,0:0:0:0:
448,192,66189,1,0,0:0:0:0:
192,192,66189,1,0,0:0:0:0:
64,192,66276,1,0,0:0:0:0:
320,192,66362,1,0,0:0:0:0:
448,192,66362,1,8,0:0:0:0:
64,192,66449,1,0,0:0:0:0:
192,192,66536,1,0,0:0:0:0:
448,192,66536,1,0,0:0:0:0:
64,192,66622,1,0,0:0:0:0:
192,192,66709,1,0,0:0:0:0:
320,192,66709,1,2,0:0:0:0:
448,192,66796,1,0,0:0:0:0:
64,192,66883,128,0,66969:0:0:0:0:
192,192,66883,128,0,66969:0:0:0:0:
320,192,66969,1,0,0:0:0:0:
64,192,67056,128,0,67229:0:0:0:0:
192,192,67056,128,8,67143:0:0:0:0:
320,192,67143,1,0,0:0:0:0:
448,192,67229,1,0,0:0:0:0:
192,192,67316,1,0,0:0:0:0:
64,192,67403,1,0,0:0:0:0:
320,192,67403,1,2,0:0:0:0:
448,192,67490,1,0,0:0:0:0:
192,192,67576,1,0,0:0:0:0:
320,192,67663,1,0,0:0:0:0:
448,192,67750,1,8,0:0:0:0:
64,192,67750,1,0,0:0:0:0:
192,192,67836,1,0,0:0:0:0:
64,192,67923,1,0,0:0:0:0:
320,192,67923,1,0,0:0:0:0:
448,192,68010,1,0,0:0:0:0:
192,192,68096,1,2,0:0:0:0:
64,192,68096,1,0,0:0:0:0:
448,192,68183,1,0,0:0:0:0:
320,192,68270,1,0,0:0:0:0:
64,192,68270,1,0,0:0:0:0:
448,192,68357,1,0,0:0:0:0:
192,192,68443,1,8,0:0:0:0:
64,192,68443,1,0,0:0:0:0:
448,192,68530,1,0,0:0:0:0:
320,192,68617,1,0,0:0:0:0:
64,192,68617,1,0,0:0:0:0:
192,192,68703,1,0,0:0:0:0:
320,192,68790,1,2,0:0:0:0:
448,192,68790,1,0,0:0:0:0:
64,192,68877,1,0,0:0:0:0:
320,192,68964,1,0,0:0:0:0:
448,192,68964,1,0,0:0:0:0:
64,192,69050,1,0,0:0:0:0:
448,192,69137,1,8,0:0:0:0:
192,192,69137,128,0,69224:0:0:0:0:
64,192,69224,1,0,0:0:0:0:
448,192,69310,1,0,0:0:0:0:
192,192,69310,128,0,69397:0:0:0:0:
320,192,69397,128,0,69484:0:0:0:0:
64,192,69484,1,2,0:0:0:0:
448,192,69484,128,0,69570:0:0:0:0:
192,192,69570,128,0,69657:0:0:0:0:
448,192,69657,1,0,0:0:0:0:
64,192,69657,128,0,69744:0:0:0:0:
320,192,69744,128,0,69831:0:0:0:0:
448,192,69831,1,8,0:0:0:0:
192,192,69831,128,0,69917:0:0:0:0:
64,192,69917,128,0,70004:0:0:0:0:
448,192,70004,1,0,0:0:0:0:
320,192,70004,128,0,70091:0:0:0:0:
192,192,70091,1,0,0:0:0:0:
64,192,70177,1,2,0:0:0:0:
448,192,70177,1,0,0:0:0:0:
64,192,70871,1,2,0:0:0:0:
448,192,70871,1,0,0:0:0:0:
64,192,71218,1,2,0:0:0:0:
448,192,71218,1,0,0:0:0:0:
64,192,71391,1,0,0:0:0:0:
192,192,71391,1,8,0:0:0:0:
320,192,71478,1,8,0:0:0:0:
448,192,71478,1,0,0:0:0:0:
64,192,71565,1,4,0:0:0:0:
192,192,71565,1,2,0:0:0:0:
448,192,71651,1,0,0:0:0:0:
64,192,71738,1,0,0:0:0:0:
320,192,71738,1,0,0:0:0:0:
448,192,71825,1,0,0:0:0:0:
192,192,71911,1,8,0:0:0:0:
64,192,71911,1,0,0:0:0:0:
448,192,71998,1,0,0:0:0:0:
320,192,72085,1,0,0:0:0:0:
64,192,72085,1,0,0:0:0:0:
448,192,72172,1,0,0:0:0:0:
192,192,72258,1,2,0:0:0:0:
64,192,72258,1,0,0:0:0:0:
320,192,72345,1,0,0:0:0:0:
192,192,72432,128,0,72518:0:0:0:0:
448,192,72432,128,0,72518:0:0:0:0:
64,192,72518,1,0,0:0:0:0:
448,192,72605,1,0,0:0:0:0:
320,192,72605,128,8,72692:0:0:0:0:
64,192,72692,128,0,72779:0:0:0:0:
192,192,72779,1,0,0:0:0:0:
448,192,72779,128,0,72865:0:0:0:0:
320,192,72865,128,0,72952:0:0:0:0:
192,192,72952,1,2,0:0:0:0:
64,192,72952,1,0,0:0:0:0:
448,192,73039,1,0,0:0:0:0:
320,192,73125,1,0,0:0:0:0:
192,192,73212,1,0,0:0:0:0:
64,192,73299,1,0,0:0:0:0:
448,192,73299,1,8,0:0:0:0:
192,192,73385,1,0,0:0:0:0:
320,192,73472,1,0,0:0:0:0:
64,192,73472,1,0,0:0:0:0:
448,192,73559,1,0,0:0:0:0:
192,192,73646,1,2,0:0:0:0:
64,192,73646,1,0,0:0:0:0:
448,192,73732,1,0,0:0:0:0:
64,192,73819,1,0,0:0:0:0:
320,192,73819,1,0,0:0:0:0:
192,192,73906,1,0,0:0:0:0:
448,192,73992,1,8,0:0:0:0:
64,192,73992,1,0,0:0:0:0:
320,192,74079,1,0,0:0:0:0:
192,192,74166,1,0,0:0:0:0:
64,192,74166,1,0,0:0:0:0:
320,192,74253,1,0,0:0:0:0:
64,192,74339,1,0,0:0:0:0:
192,192,74339,1,2,0:0:0:0:
448,192,74426,1,0,0:0:0:0:
64,192,74513,1,0,0:0:0:0:
192,192,74513,1,0,0:0:0:0:
448,192,74599,1,0,0:0:0:0:
64,192,74686,1,0,0:0:0:0:
320,192,74686,1,8,0:0:0:0:
448,192,74773,1,0,0:0:0:0:
64,192,74859,1,0,0:0:0:0:
192,192,74859,1,0,0:0:0:0:
448,192,74946,1,0,0:0:0:0:
192,192,75033,1,0,0:0:0:0:
320,192,75033,1,2,0:0:0:0:
64,192,75120,1,0,0:0:0:0:
448,192,75206,1,0,0:0:0:0:
320,192,75206,128,8,75293:0:0:0:0:
64,192,75293,1,0,0:0:0:0:
448,192,75380,1,8,0:0:0:0:
192,192,75380,128,0,75466:0:0:0:0:
320,192,75466,1,0,0:0:0:0:
448,192,75553,1,0,0:0:0:0:
64,192,75553,128,2,75640:0:0:0:0:
192,192,75640,1,0,0:0:0:0:
448,192,75727,128,4,76247:0:0:0:0:
320,192,75727,1,2,0:0:0:0:
64,192,75900,1,0,0:0:0:0:
64,192,76073,1,0,0:0:0:0:
192,192,76247,1,2,0:0:0:0:
64,192,76420,128,8,76767:0:0:0:0:
448,192,76420,1,0,0:0:0:0:
448,192,76594,128,0,76767:0:0:0:0:
192,192,76767,1,0,0:0:0:0:
320,192,76940,128,0,77114:0:0:0:0:
64,192,77114,1,0,0:0:0:0:
320,192,77287,128,0,77461:0:0:0:0:
64,192,77461,1,0,0:0:0:0:
192,192,77461,1,2,0:0:0:0:
320,192,77634,128,0,77807:0:0:0:0:
448,192,77807,128,8,78154:0:0:0:0:
192,192,77807,1,0,0:0:0:0:
64,192,77981,128,0,78154:0:0:0:0:
320,192,78154,1,0,0:0:0:0:
448,192,78241,1,0,0:0:0:0:
192,192,78328,128,0,78501:0:0:0:0:
320,192,78414,1,0,0:0:0:0:
448,192,78501,128,2,78848:0:0:0:0:
64,192,78501,1,0,0:0:0:0:
320,192,78674,128,2,78848:0:0:0:0:
192,192,78674,1,0,0:0:0:0:
64,192,78848,1,0,0:0:0:0:
320,192,79021,128,0,79195:0:0:0:0:
64,192,79195,128,8,79542:0:0:0:0:
448,192,79195,1,0,0:0:0:0:
192,192,79368,128,0,79542:0:0:0:0:
320,192,79542,1,0,0:0:0:0:
448,192,79715,128,0,79888:0:0:0:0:
64,192,79888,1,0,0:0:0:0:
320,192,79888,1,0,0:0:0:0:
64,192,80004,1,0,0:0:0:0:
64,192,80120,1,0,0:0:0:0:
320,192,80235,1,2,0:0:0:0:
448,192,80235,1,0,0:0:0:0:
320,192,80351,1,0,0:0:0:0:
320,192,80466,1,0,0:0:0:0:
64,192,80582,1,0,0:0:0:0:
448,192,80582,1,8,0:0:0:0:
192,192,80755,1,0,0:0:0:0:
64,192,80929,128,0,81016:0:0:0:0:
192,192,80929,128,2,81016:1:0:0:0:
448,192,80929,128,0,81016:0:0:0:0:
320,192,80929,128,2,81016:0:0:0:0:
320,192,81102,1,0,0:0:0:0:
64,192,81276,128,2,81796:0:0:0:0:
448,192,81276,1,0,0:0:0:0:
320,192,81449,1,0,0:0:0:0:
448,192,81622,1,0,0:0:0:0:
320,192,81796,128,2,81969:0:0:0:0:
192,192,81796,1,0,0:0:0:0:
448,192,81969,128,8,82316:0:0:0:0:
64,192,81969,1,0,0:0:0:0:
192,192,82143,128,0,82316:0:0:0:0:
320,192,82316,1,0,0:0:0:0:
64,192,82490,128,0,82663:0:0:0:0:
448,192,82490,1,0,0:0:0:0:
192,192,82576,1,0,0:0:0:0:
320,192,82663,1,0,0:0:0:0:
64,192,82836,128,0,83010:0:0:0:0:
320,192,83010,1,2,0:0:0:0:
448,192,83010,1,0,0:0:0:0:
64,192,83183,128,0,83357:0:0:0:0:
448,192,83357,128,8,83703:0:0:0:0:
320,192,83357,1,0,0:0:0:0:
192,192,83530,128,0,83703:0:0:0:0:
64,192,83703,128,0,84050:0:0:0:0:
320,192,83790,1,0,0:0:0:0:
192,192,83877,1,0,0:0:0:0:
320,192,83964,1,0,0:0:0:0:
192,192,84050,1,2,0:0:0:0:
448,192,84050,1,0,0:0:0:0:
64,192,84166,1,0,0:0:0:0:
320,192,84281,1,0,0:0:0:0:
192,192,84397,1,0,0:0:0:0:
448,192,84397,1,0,0:0:0:0:
192,192,84513,1,0,0:0:0:0:
448,192,84570,1,2,0:0:0:0:
192,192,84628,1,0,0:0:0:0:
320,192,84744,1,8,0:0:0:0:
448,192,84744,1,0,0:0:0:0:
64,192,84859,1,0,0:0:0:0:
448,192,84975,1,0,0:0:0:0:
320,192,85091,1,2,0:0:0:0:
64,192,85091,1,0,0:0:0:0:
320,192,85206,1,0,0:0:0:0:
64,192,85264,1,0,0:0:0:0:
320,192,85322,1,0,0:0:0:0:
64,192,85437,1,0,0:0:0:0:
448,192,85437,1,0,0:0:0:0:
320,192,85553,1,0,0:0:0:0:
192,192,85669,1,0,0:0:0:0:
448,192,85784,1,2,0:0:0:0:
64,192,85784,1,0,0:0:0:0:
448,192,85900,1,0,0:0:0:0:
192,192,85958,1,0,0:0:0:0:
448,192,86016,1,0,0:0:0:0:
64,192,86131,1,0,0:0:0:0:
192,192,86131,1,8,0:0:0:0:
320,192,86305,1,0,0:0:0:0:
64,192,86478,1,0,0:0:0:0:
192,192,86478,1,2,0:0:0:0:
320,192,86594,1,2,0:0:0:0:
448,192,86594,1,0,0:0:0:0:
192,192,86709,1,2,0:0:0:0:
64,192,86709,1,0,0:0:0:0:
320,192,86825,1,2,0:0:0:0:
448,192,86825,128,0,87345:0:0:0:0:
64,192,86998,128,0,87172:0:0:0:0:
192,192,87172,128,0,87345:0:0:0:0:
320,192,87345,128,0,87518:0:0:0:0:
192,192,87518,1,0,0:0:0:0:
320,192,87605,1,0,0:0:0:0:
192,192,87692,1,0,0:0:0:0:
320,192,87865,1,8,0:0:0:0:
448,192,87865,1,4,0:0:0:0:
64,192,87909,1,0,0:0:0:0:
192,192,87952,1,0,0:0:0:0:
320,192,87995,1,0,0:0:0:0:
448,192,88039,1,0,0:0:0:0:
64,192,88082,1,0,0:0:0:0:
192,192,88125,1,0,0:0:0:0:
320,192,88169,1,0,0:0:0:0:
448,192,88212,1,0,0:0:0:0:
64,192,88270,1,0,0:0:0:0:
192,192,88328,1,0,0:0:0:0:
320,192,88385,1,0,0:0:0:0:
448,192,88443,1,0,0:0:0:0:
64,192,88501,1,0,0:0:0:0:
192,192,88559,1,0,0:0:0:0:
320,192,88646,1,0,0:0:0:0:
64,192,88732,1,0,0:0:0:0:
448,192,88732,1,2,0:0:0:0:
192,192,88819,1,0,0:0:0:0:
320,192,88906,1,8,0:0:0:0:
448,192,88906,1,0,0:0:0:0:
192,192,89079,1,2,0:0:0:0:
64,192,89079,1,0,0:0:0:0:
448,192,89253,128,0,89599:0:0:0:0:
64,192,89426,128,0,89599:0:0:0:0:
192,192,89599,128,2,89946:0:0:0:0:
320,192,89599,1,4,0:0:0:0:
448,192,89773,128,0,89946:0:0:0:0:
320,192,89946,1,0,0:0:0:0:
64,192,90120,128,2,90293:0:0:0:0:
192,192,90120,1,0,0:0:0:0:
448,192,90293,128,8,90640:0:0:0:0:
320,192,90293,1,0,0:0:0:0:
64,192,90466,128,0,90640:0:0:0:0:
320,192,90640,1,0,0:0:0:0:
192,192,90813,128,2,90987:0:0:0:0:
64,192,90813,1,0,0:0:0:0:
448,192,90987,1,0,0:0:0:0:
320,192,90987,1,0,0:0:0:0:
448,192,91102,1,0,0:0:0:0:
448,192,91218,1,0,0:0:0:0:
64,192,91333,1,0,0:0:0:0:
320,192,91333,1,2,0:0:0:0:
64,192,91449,1,0,0:0:0:0:
64,192,91565,1,0,0:0:0:0:
192,192,91680,1,0,0:0:0:0:
320,192,91680,1,8,0:0:0:0:
64,192,91854,1,0,0:0:0:0:
64,192,92027,128,0,92114:0:0:0:0:
192,192,92027,128,2,92114:0:0:0:0:
320,192,92027,128,2,92114:1:0:0:0:
448,192,92027,128,0,92114:0:0:0:0:
320,192,92201,1,0,0:0:0:0:
64,192,92374,128,2,92894:0:0:0:0:
448,192,92374,1,0,0:0:0:0:
320,192,92547,1,0,0:0:0:0:
448,192,92721,1,0,0:0:0:0:
320,192,92894,128,2,93068:0:0:0:0:
192,192,92894,1,0,0:0:0:0:
448,192,93068,128,8,93414:0:0:0:0:
64,192,93068,1,0,0:0:0:0:
64,192,93241,128,0,93414:0:0:0:0:
320,192,93414,1,0,0:0:0:0:
192,192,93588,128,0,93761:0:0:0:0:
448,192,93588,1,0,0:0:0:0:
320,192,93674,1,0,0:0:0:0:
448,192,93761,1,0,0:0:0:0:
192,192,93935,128,2,94108:0:0:0:0:
320,192,93935,1,0,0:0:0:0:
448,192,94108,1,2,0:0:0:0:
64,192,94108,1,0,0:0:0:0:
320,192,94195,1,0,0:0:0:0:
192,192,94281,128,0,94455:0:0:0:0:
448,192,94368,1,0,0:0:0:0:
320,192,94455,128,8,94802:0:0:0:0:
64,192,94455,1,0,0:0:0:0:
64,192,94628,128,0,94802:0:0:0:0:
448,192,94802,128,2,95148:0:0:0:0:
192,192,94802,1,0,0:0:0:0:
64,192,94888,1,0,0:0:0:0:
320,192,94975,1,0,0:0:0:0:
192,192,95062,1,0,0:0:0:0:
64,192,95148,1,0,0:0:0:0:
320,192,95148,1,2,0:0:0:0:
192,192,95264,1,0,0:0:0:0:
320,192,95380,1,0,0:0:0:0:
64,192,95495,1,0,0:0:0:0:
448,192,95495,1,2,0:0:0:0:
64,192,95611,1,0,0:0:0:0:
320,192,95669,1,0,0:0:0:0:
64,192,95727,1,0,0:0:0:0:
448,192,95842,1,8,0:0:0:0:
192,192,95842,1,0,0:0:0:0:
320,192,95958,1,0,0:0:0:0:
192,192,96073,1,0,0:0:0:0:
448,192,96189,1,2,0:0:0:0:
64,192,96189,1,0,0:0:0:0:
448,192,96305,1,0,0:0:0:0:
192,192,96362,1,0,0:0:0:0:
448,192,96420,1,0,0:0:0:0:
64,192,96536,1,0,0:0:0:0:
192,192,96536,1,2,0:0:0:0:
320,192,96651,1,0,0:0:0:0:
192,192,96767,1,2,0:0:0:0:
320,192,96883,1,0,0:0:0:0:
448,192,96883,1,0,0:0:0:0:
320,192,96998,1,2,0:0:0:0:
320,192,97114,1,0,0:0:0:0:
448,192,97229,1,0,0:0:0:0:
64,192,97229,1,2,0:0:0:0:
192,192,97403,1,0,0:0:0:0:
64,192,97576,128,0,97836:0:0:0:0:
448,192,97576,128,2,97836:0:0:0:0:
320,192,97663,1,0,0:0:0:0:
192,192,97750,1,0,0:0:0:0:
320,192,97836,1,0,0:0:0:0:
448,192,97923,1,0,0:0:0:0:
64,192,97923,1,0,0:0:0:0:
448,192,98964,128,0,99310:0:0:0:0:
64,192,99310,1,0,0:0:0:0:
192,192,99310,1,8,0:0:0:0:
320,192,99310,1,2,0:0:0:0:
448,192,99397,1,0,0:0:0:0:
320,192,99484,1,2,0:0:0:0:
192,192,99484,1,8,0:0:0:0:
64,192,99484,1,0,0:0:0:0:
448,192,99570,1,0,0:0:0:0:
64,192,99657,1,0,0:0:0:0:
192,192,99744,1,0,0:0:0:0:
64,192,99831,1,0,0:0:0:0:
320,192,99831,1,8,0:0:0:0:
448,192,99831,1,2,0:0:0:0:
192,192,99917,1,0,0:0:0:0:
64,192,100004,1,0,0:0:0:0:
448,192,100004,1,2,0:0:0:0:
320,192,100004,1,8,0:0:0:0:
192,192,100177,1,0,0:0:0:0:
320,192,100264,1,0,0:0:0:0:
192,192,100351,128,2,100698:1:0:0:0:
64,192,100698,1,2,0:0:0:0:
448,192,100698,128,4,100784:0:0:0:0:
320,192,100871,128,0,100958:0:0:0:0:
64,192,101044,1,2,0:0:0:0:
448,192,101044,128,0,101131:0:0:0:0:
320,192,101218,128,0,101305:0:0:0:0:
448,192,101305,128,0,101391:0:0:0:0:
64,192,101391,1,2,0:0:0:0:
320,192,101391,128,0,101478:0:0:0:0:
448,192,101565,128,0,101651:0:0:0:0:
320,192,101651,128,0,101738:0:0:0:0:
64,192,101738,1,2,0:0:0:0:
448,192,101738,128,2,101825:1:0:0:0:
192,192,101911,128,2,101998:1:0:0:0:
448,192,102085,1,2,0:0:0:0:
64,192,102085,128,0,102172:0:0:0:0:
192,192,102258,128,0,102345:0:0:0:0:
64,192,102345,128,0,102432:0:0:0:0:
448,192,102432,1,2,0:0:0:0:
192,192,102432,128,0,102518:0:0:0:0:
64,192,102518,128,0,102605:0:0:0:0:
192,192,102605,128,0,102692:0:0:0:0:
448,192,102779,1,2,0:0:0:0:
192,192,102779,128,0,102865:0:0:0:0:
64,192,102952,128,2,103039:1:0:0:0:
192,192,103039,128,0,103125:0:0:0:0:
448,192,103125,1,2,0:0:0:0:
64,192,103125,128,0,103212:0:0:0:0:
320,192,103299,128,2,103385:1:0:0:0:
64,192,103472,1,2,0:0:0:0:
448,192,103472,128,0,103559:0:0:0:0:
192,192,103646,128,0,103732:0:0:0:0:
320,192,103732,128,0,103819:0:0:0:0:
64,192,103819,1,2,0:0:0:0:
448,192,103819,128,0,103906:0:0:0:0:
448,192,103992,128,0,104079:0:0:0:0:
320,192,104079,128,0,104166:0:0:0:0:
64,192,104166,1,2,0:0:0:0:
192,192,104166,128,0,104253:0:0:0:0:
192,192,104339,128,0,104426:0:0:0:0:
320,192,104426,128,0,104513:0:0:0:0:
64,192,104513,1,2,0:0:0:0:
448,192,104513,128,2,104599:1:0:0:0:
320,192,104686,128,2,104773:1:0:0:0:
448,192,104859,1,2,0:0:0:0:
192,192,104859,128,0,104946:0:0:0:0:
64,192,105033,128,0,105120:0:0:0:0:
192,192,105120,128,0,105206:0:0:0:0:
448,192,105206,1,2,0:0:0:0:
320,192,105206,128,0,105293:0:0:0:0:
64,192,105293,128,0,105380:0:0:0:0:
320,192,105380,128,0,105466:0:0:0:0:
192,192,105466,128,0,105553:0:0:0:0:
448,192,105553,1,2,0:0:0:0:
64,192,105553,128,0,105640:0:0:0:0:
64,192,105727,128,2,105813:1:0:0:0:
192,192,105813,128,0,105900:0:0:0:0:
448,192,105900,1,2,0:0:0:0:
320,192,105900,128,0,105987:0:0:0:0:
320,192,106073,128,2,106160:1:0:0:0:
64,192,106247,1,2,0:0:0:0:
448,192,106247,1,4,0:0:0:0:
192,192,106333,1,0,0:0:0:0:
64,192,106420,1,0,0:0:0:0:
192,192,106507,1,0,0:0:0:0:
320,192,106594,1,0,0:0:0:40:clap.wav
64,192,106594,1,0,0:0:0:0:
448,192,106767,1,0,0:0:0:0:
448,192,106854,1,0,0:0:0:0:
64,192,106940,1,0,0:0:0:0:
192,192,106940,1,0,0:0:0:40:clap.wav
320,192,107027,1,0,0:0:0:0:
192,192,107114,1,0,0:0:0:0:
448,192,107201,1,0,0:0:0:0:
64,192,107287,1,0,0:0:0:0:
320,192,107287,1,0,0:0:0:40:clap.wav
192,192,107461,1,0,0:0:0:0:
448,192,107461,1,0,0:0:0:0:
64,192,107634,1,0,0:0:0:0:
192,192,107634,1,0,0:0:0:40:clap.wav
320,192,107721,1,0,0:0:0:0:
192,192,107807,1,0,0:0:0:0:
448,192,107894,1,0,0:0:0:0:
64,192,107981,1,0,0:0:0:0:
320,192,107981,1,0,0:0:0:40:clap.wav
192,192,108154,1,0,0:0:0:0:
448,192,108154,1,0,0:0:0:0:
64,192,108328,1,0,0:0:0:0:
192,192,108328,1,0,0:0:0:40:clap.wav
320,192,108414,1,0,0:0:0:0:
192,192,108501,1,0,0:0:0:0:
448,192,108588,1,0,0:0:0:0:
320,192,108674,1,0,0:0:0:40:clap.wav
64,192,108674,1,0,0:0:0:0:
192,192,108848,1,0,0:0:0:0:
448,192,108848,1,0,0:0:0:0:
320,192,109021,1,0,0:0:0:40:clap.wav
448,192,109021,1,0,0:0:0:0:
192,192,109108,1,0,0:0:0:0:
320,192,109195,1,0,0:0:0:0:
192,192,109281,1,0,0:0:0:0:
64,192,109368,1,0,0:0:0:0:
448,192,109368,1,0,0:0:0:40:clap.wav
320,192,109455,1,0,0:0:0:0:
448,192,109542,1,0,0:0:0:0:
320,192,109628,1,0,0:0:0:0:
64,192,109715,1,0,0:0:0:40:clap.wav
448,192,109715,1,0,0:0:0:0:
192,192,109802,1,0,0:0:0:0:
64,192,109888,1,0,0:0:0:0:
192,192,109975,1,0,0:0:0:0:
320,192,110062,1,0,0:0:0:40:clap.wav
448,192,110062,1,0,0:0:0:0:
64,192,110148,1,0,0:0:0:40:clap.wav
192,192,110148,1,0,0:0:0:0:
320,192,110235,1,0,0:0:0:40:clap.wav
448,192,110235,1,0,0:0:0:0:
192,192,110322,1,0,0:0:0:0:
64,192,110322,1,0,0:0:0:40:clap.wav
320,192,110409,1,8,0:0:0:0:
448,192,110409,1,0,0:0:0:0:
64,192,110495,1,8,0:0:0:0:
448,192,110582,1,0,0:0:0:0:
192,192,110582,1,0,0:0:0:0:
64,192,110669,1,8,0:0:0:0:
320,192,110755,1,0,0:0:0:0:
192,192,110755,1,8,0:0:0:0:
448,192,110842,1,0,0:0:0:0:
64,192,110842,1,0,0:0:0:0:
192,192,110929,1,0,0:0:0:0:
320,192,110929,1,8,0:0:0:0:
64,192,111016,1,0,0:0:0:0:
448,192,111016,1,0,0:0:0:0:
192,192,111102,1,0,0:0:0:0:
320,192,111102,1,2,1:0:0:0:
64,192,111276,1,2,1:0:0:0:
448,192,111276,1,0,0:0:0:0:
64,192,111449,1,0,0:0:0:0:
192,192,111449,1,2,0:0:0:0:
320,192,111449,1,2,1:0:0:0:
448,192,111449,1,0,0:0:0:0:
64,192,111796,1,0,0:0:0:0:
448,192,111796,1,4,0:0:0:0:
320,192,111796,1,2,0:0:0:0:
320,192,111969,1,0,0:0:0:0:
192,192,111969,1,0,0:0:0:0:
448,192,112143,1,8,0:0:0:0:
64,192,112143,1,0,0:0:0:0:
320,192,112316,1,0,0:0:0:0:
192,192,112403,1,0,0:0:0:0:
64,192,112403,1,0,0:0:0:0:
320,192,112490,1,2,0:0:0:0:
448,192,112490,1,0,0:0:0:0:
192,192,112663,1,0,0:0:0:0:
320,192,112750,1,0,0:0:0:0:
448,192,112750,1,0,0:0:0:0:
192,192,112836,1,8,0:0:0:0:
64,192,112836,1,0,0:0:0:0:
64,192,113010,1,0,0:0:0:0:
192,192,113010,1,0,0:0:0:0:
448,192,113183,1,2,0:0:0:0:
64,192,113183,1,0,0:0:0:0:
320,192,113357,1,0,0:0:0:0:
192,192,113443,1,0,0:0:0:0:
448,192,113530,1,8,0:0:0:0:
64,192,113530,1,0,0:0:0:0:
320,192,113617,1,0,0:0:0:0:
192,192,113703,1,0,0:0:0:0:
448,192,113790,1,0,0:0:0:0:
320,192,113877,1,2,0:0:0:0:
64,192,113877,1,0,0:0:0:0:
448,192,114050,1,0,0:0:0:0:
192,192,114050,1,0,0:0:0:0:
64,192,114137,1,0,0:0:0:0:
320,192,114224,1,8,0:0:0:0:
192,192,114224,1,0,0:0:0:0:
320,192,114397,1,0,0:0:0:0:
192,192,114397,1,0,0:0:0:0:
448,192,114570,1,2,0:0:0:0:
64,192,114570,1,0,0:0:0:0:
192,192,114744,1,0,0:0:0:0:
448,192,114831,1,0,0:0:0:0:
192,192,114917,1,8,0:0:0:0:
64,192,114917,1,0,0:0:0:0:
448,192,115004,1,0,0:0:0:0:
320,192,115091,1,0,0:0:0:0:
64,192,115177,1,0,0:0:0:0:
320,192,115264,1,2,0:0:0:0:
448,192,115264,1,0,0:0:0:0:
192,192,115437,1,0,0:0:0:0:
64,192,115437,1,0,0:0:0:0:
320,192,115524,1,0,0:0:0:0:
448,192,115611,1,8,0:0:0:0:
192,192,115611,1,0,0:0:0:0:
448,192,115784,1,0,0:0:0:0:
192,192,115784,1,0,0:0:0:0:
320,192,115958,1,2,0:0:0:0:
64,192,115958,1,0,0:0:0:0:
320,192,116131,1,0,0:0:0:0:
320,192,116218,1,0,0:0:0:0:
64,192,116305,1,0,0:0:0:0:
192,192,116305,1,8,0:0:0:0:
448,192,116391,1,0,0:0:0:0:
192,192,116478,1,0,0:0:0:0:
320,192,116651,1,2,0:0:0:0:
64,192,116651,1,0,0:0:0:0:
448,192,116825,1,0,0:0:0:0:
192,192,116825,1,0,0:0:0:0:
320,192,116911,1,0,0:0:0:0:
192,192,116998,1,8,0:0:0:0:
64,192,116998,1,0,0:0:0:0:
448,192,117085,1,8,0:0:0:0:
320,192,117172,1,8,0:0:0:0:
64,192,117172,1,0,0:0:0:0:
192,192,117258,1,8,0:0:0:0:
448,192,117345,1,4,0:0:0:0:
320,192,117345,1,2,0:0:0:0:
64,192,117345,1,0,0:0:0:0:
192,192,117432,1,0,0:0:0:0:
64,192,117518,1,0,0:0:0:0:
192,192,117605,1,0,0:0:0:0:
64,192,117692,1,0,0:0:0:0:
448,192,117692,1,8,0:0:0:0:
320,192,117865,1,0,0:0:0:0:
192,192,117865,1,0,0:0:0:0:
448,192,117952,1,0,0:0:0:0:
192,192,118039,1,2,0:0:0:0:
64,192,118039,1,0,0:0:0:0:
448,192,118125,1,0,0:0:0:0:
64,192,118212,1,0,0:0:0:0:
320,192,118212,1,0,0:0:0:0:
448,192,118299,1,0,0:0:0:0:
192,192,118385,1,8,0:0:0:0:
64,192,118385,1,0,0:0:0:0:
192,192,118559,1,0,0:0:0:0:
64,192,118559,1,0,0:0:0:0:
320,192,118732,1,2,0:0:0:0:
448,192,118732,1,0,0:0:0:0:
64,192,118819,1,0,0:0:0:0:
448,192,118906,1,0,0:0:0:0:
192,192,118906,1,0,0:0:0:0:
64,192,118992,1,0,0:0:0:0:
320,192,119079,1,8,0:0:0:0:
448,192,119079,1,0,0:0:0:0:
448,192,119253,1,0,0:0:0:0:
320,192,119253,1,0,0:0:0:0:
192,192,119426,1,2,0:0:0:0:
64,192,119426,1,0,0:0:0:0:
448,192,119513,1,0,0:0:0:0:
320,192,119599,1,0,0:0:0:0:
64,192,119599,1,0,0:0:0:0:
448,192,119686,1,0,0:0:0:0:
192,192,119773,1,8,0:0:0:0:
64,192,119773,1,0,0:0:0:0:
192,192,119946,1,0,0:0:0:0:
64,192,119946,1,0,0:0:0:0:
320,192,120120,1,2,0:0:0:0:
448,192,120120,1,0,0:0:0:0:
192,192,120206,1,0,0:0:0:0:
320,192,120293,1,0,0:0:0:0:
192,192,120380,1,0,0:0:0:0:
448,192,120466,1,8,0:0:0:0:
64,192,120466,1,0,0:0:0:0:
320,192,120553,1,0,0:0:0:0:
448,192,120640,1,0,0:0:0:0:
320,192,120727,1,0,0:0:0:0:
448,192,120813,1,2,0:0:0:0:
64,192,120813,1,0,0:0:0:0:
192,192,120900,1,0,0:0:0:0:
64,192,120987,1,0,0:0:0:0:
192,192,121073,1,0,0:0:0:0:
320,192,121160,1,8,0:0:0:0:
448,192,121160,1,0,0:0:0:0:
192,192,121333,1,0,0:0:0:0:
64,192,121333,1,0,0:0:0:0:
320,192,121507,1,2,0:0:0:0:
64,192,121507,1,0,0:0:0:0:
448,192,121594,1,0,0:0:0:0:
192,192,121680,1,0,0:0:0:0:
320,192,121680,1,0,0:0:0:0:
448,192,121767,1,0,0:0:0:0:
192,192,121854,1,8,0:0:0:0:
64,192,121854,1,0,0:0:0:0:
448,192,121940,1,0,0:0:0:0:
320,192,122027,1,2,0:0:0:0:
64,192,122027,1,0,0:0:0:0:
192,192,122114,1,0,0:0:0:0:
320,192,122201,1,0,0:0:0:0:
448,192,122201,1,0,0:0:0:0:
64,192,122201,1,0,0:0:0:0:
192,192,122374,1,2,0:0:0:0:
64,192,122374,1,0,0:0:0:0:
448,192,122547,1,0,0:0:0:0:
320,192,122547,1,8,0:0:0:0:
64,192,122547,1,0,0:0:0:0:
192,192,122547,1,0,0:0:0:0:
448,192,122721,1,8,0:0:0:0:
320,192,122721,1,0,0:0:0:0:
448,192,122807,1,8,0:0:0:0:
320,192,122894,1,4,0:0:0:0:
192,192,122894,1,2,0:0:0:0:
64,192,122894,1,0,0:0:0:0:
448,192,123068,1,0,0:0:0:0:
320,192,123068,1,0,0:0:0:0:
192,192,123241,1,8,0:0:0:0:
64,192,123241,1,0,0:0:0:0:
320,192,123414,1,0,0:0:0:0:
448,192,123414,1,0,0:0:0:0:
64,192,123501,1,0,0:0:0:0:
192,192,123588,1,0,0:0:0:0:
448,192,123588,1,0,0:0:0:0:
64,192,123761,1,0,0:0:0:0:
192,192,123761,1,2,0:0:0:0:
320,192,123848,1,0,0:0:0:0:
192,192,123935,1,0,0:0:0:0:
448,192,123935,1,8,0:0:0:0:
320,192,124108,1,0,0:0:0:0:
64,192,124108,1,0,0:0:0:0:
448,192,124281,1,0,0:0:0:0:
192,192,124281,1,2,0:0:0:0:
192,192,124455,1,0,0:0:0:0:
320,192,124455,1,0,0:0:0:0:
64,192,124542,1,0,0:0:0:0:
448,192,124628,1,8,0:0:0:0:
192,192,124628,1,0,0:0:0:0:
64,192,124715,1,0,0:0:0:0:
320,192,124802,1,0,0:0:0:0:
192,192,124888,1,0,0:0:0:0:
320,192,124975,1,0,0:0:0:0:
64,192,124975,1,0,0:0:0:0:
192,192,125148,1,2,0:0:0:0:
64,192,125148,1,0,0:0:0:0:
448,192,125235,1,0,0:0:0:0:
320,192,125322,1,8,0:0:0:0:
192,192,125322,1,0,0:0:0:0:
448,192,125495,1,0,0:0:0:0:
64,192,125495,1,0,0:0:0:0:
320,192,125669,1,2,0:0:0:0:
64,192,125669,1,0,0:0:0:0:
192,192,125842,1,0,0:0:0:0:
448,192,125842,1,0,0:0:0:0:
64,192,125929,1,0,0:0:0:0:
192,192,126016,1,0,0:0:0:0:
448,192,126016,1,8,0:0:0:0:
320,192,126102,1,0,0:0:0:0:
64,192,126189,1,0,0:0:0:0:
192,192,126276,1,0,0:0:0:0:
320,192,126362,1,0,0:0:0:0:
448,192,126362,1,0,0:0:0:0:
192,192,126536,1,2,0:0:0:0:
64,192,126536,1,0,0:0:0:0:
448,192,126622,1,0,0:0:0:0:
320,192,126709,1,8,0:0:0:0:
64,192,126709,1,0,0:0:0:0:
192,192,126883,1,0,0:0:0:0:
448,192,126883,1,0,0:0:0:0:
448,192,127056,1,2,0:0:0:0:
64,192,127056,1,0,0:0:0:0:
192,192,127229,1,0,0:0:0:0:
448,192,127229,1,0,0:0:0:0:
320,192,127316,1,2,0:0:0:0:
192,192,127403,1,8,0:0:0:0:
64,192,127403,1,0,0:0:0:0:
448,192,127490,1,0,0:0:0:0:
320,192,127576,1,2,0:0:0:0:
64,192,127576,1,0,0:0:0:0:
448,192,127663,1,0,0:0:0:0:
320,192,127750,1,0,0:0:0:0:
64,192,127750,1,0,0:0:0:0:
448,192,127923,1,0,0:0:0:0:
192,192,127923,1,2,0:0:0:0:
320,192,128010,1,0,0:0:0:0:
192,192,128096,1,8,0:0:0:0:
64,192,128096,1,0,0:0:0:0:
320,192,128270,1,2,0:0:0:0:
448,192,128270,1,0,0:0:0:0:
448,192,128443,1,4,0:0:0:0:
192,192,128443,1,2,0:0:0:0:
64,192,128443,1,0,0:0:0:0:
320,192,128530,1,0,0:0:0:0:
448,192,128617,1,0,0:0:0:0:
320,192,128703,1,0,0:0:0:0:
192,192,128790,1,8,0:0:0:0:
64,192,128790,1,0,0:0:0:0:
320,192,128964,1,0,0:0:0:0:
448,192,128964,1,0,0:0:0:0:
192,192,129050,1,0,0:0:0:0:
448,192,129137,1,0,0:0:0:0:
64,192,129137,1,0,0:0:0:0:
320,192,129224,1,0,0:0:0:0:
64,192,129310,1,2,0:0:0:0:
448,192,129310,1,0,0:0:0:0:
192,192,129397,1,0,0:0:0:0:
320,192,129484,1,8,0:0:0:0:
448,192,129484,1,0,0:0:0:0:
192,192,129657,1,0,0:0:0:0:
64,192,129657,1,0,0:0:0:0:
448,192,129831,1,2,0:0:0:0:
64,192,129831,1,0,0:0:0:0:
320,192,129917,1,0,0:0:0:0:
64,192,130004,1,0,0:0:0:0:
192,192,130091,1,0,0:0:0:0:
320,192,130177,1,8,0:0:0:0:
448,192,130177,1,0,0:0:0:0:
192,192,130351,1,0,0:0:0:0:
64,192,130351,1,0,0:0:0:0:
320,192,130524,1,0,0:0:0:0:
64,192,130524,1,0,0:0:0:0:
448,192,130611,1,0,0:0:0:0:
192,192,130698,1,0,0:0:0:0:
64,192,130698,1,2,0:0:0:0:
320,192,130784,1,0,0:0:0:0:
448,192,130871,1,8,0:0:0:0:
64,192,130871,1,0,0:0:0:0:
320,192,131044,1,0,0:0:0:0:
192,192,131044,1,0,0:0:0:0:
448,192,131218,1,0,0:0:0:0:
320,192,131218,1,2,0:0:0:0:
64,192,131305,1,0,0:0:0:0:
320,192,131391,1,0,0:0:0:0:
64,192,131478,1,0,0:0:0:0:
448,192,131565,1,8,0:0:0:0:
192,192,131565,1,0,0:0:0:0:
320,192,131651,1,0,0:0:0:0:
448,192,131738,1,0,0:0:0:0:
64,192,131825,1,0,0:0:0:0:
320,192,131911,1,0,0:0:0:0:
192,192,131911,1,0,0:0:0:0:
448,192,131998,1,0,0:0:0:0:
192,192,132085,1,2,0:0:0:0:
64,192,132085,1,0,0:0:0:0:
448,192,132172,1,0,0:0:0:0:
64,192,132258,1,0,0:0:0:0:
320,192,132258,1,8,0:0:0:0:
192,192,132432,1,2,0:0:0:0:
448,192,132432,1,4,0:0:0:0:
320,192,132605,1,0,0:0:0:0:
448,192,132605,1,0,0:0:0:0:
64,192,132692,1,0,0:0:0:0:
448,192,132779,1,0,0:0:0:0:
320,192,132779,1,0,0:0:0:0:
192,192,132865,1,0,0:0:0:0:
320,192,132952,1,2,0:0:0:0:
64,192,132952,1,0,0:0:0:0:
448,192,133039,1,0,0:0:0:0:
192,192,133125,1,0,0:0:0:0:
64,192,133125,1,0,0:0:0:0:
320,192,133212,1,0,0:0:0:0:
448,192,133299,1,8,0:0:0:0:
192,192,133299,1,0,0:0:0:0:
64,192,133385,1,0,0:0:0:0:
448,192,133472,1,0,0:0:0:0:
192,192,133472,1,2,0:0:0:0:
448,192,133646,1,0,0:0:0:0:
320,192,133646,1,8,0:0:0:0:
64,192,133646,1,0,0:0:0:0:
192,192,133819,128,2,134166:1:0:0:0:
320,192,133992,128,2,134166:1:0:0:0:
192,192,135033,128,2,135380:0:0:0:0:
64,192,135033,1,0,0:0:0:0:
64,192,135380,1,2,1:0:0:0:
320,192,135380,1,2,0:0:0:0:
448,192,135380,1,4,0:0:0:0:
64,192,135553,1,0,0:0:0:0:
192,192,135727,1,2,1:0:0:0:
320,192,135727,1,8,0:0:0:0:
448,192,135727,1,0,0:0:0:0:
192,192,135900,1,0,0:0:0:0:
64,192,136073,1,0,0:0:0:0:
320,192,136073,1,2,0:0:0:0:
448,192,136073,1,2,1:0:0:0:
320,192,136247,1,0,0:0:0:0:
192,192,136420,1,8,0:0:0:0:
448,192,136420,1,2,1:0:0:0:
64,192,136420,1,0,0:0:0:0:
448,192,136594,1,0,0:0:0:0:
192,192,136767,1,0,0:0:0:0:
64,192,136767,128,0,136854:0:0:0:0:
320,192,136767,128,2,136854:0:0:0:0:
192,192,136940,128,0,137027:0:0:0:0:
448,192,136940,128,0,137027:0:0:0:0:
64,192,137114,128,0,137201:0:0:0:0:
320,192,137114,128,8,137201:0:0:0:0:
448,192,137114,1,0,0:0:0:0:
192,192,137287,128,0,137374:0:0:0:0:
448,192,137287,128,0,137374:0:0:0:0:
448,192,137461,1,0,0:0:0:0:
64,192,137461,128,0,137547:0:0:0:0:
320,192,137461,128,2,137547:0:0:0:0:
64,192,137634,1,0,0:0:0:0:
192,192,137634,1,0,0:0:0:40:clap.wav
320,192,137807,1,8,0:0:0:0:
448,192,137807,1,0,0:0:0:0:
192,192,137807,1,0,0:0:0:40:clap.wav
192,192,137981,1,0,0:0:0:40:clap.wav
64,192,137981,1,0,0:0:0:0:
64,192,138154,1,2,1:0:0:0:
320,192,138154,1,2,0:0:0:0:
448,192,138154,1,4,0:0:0:0:
448,192,138328,1,0,0:0:0:0:
320,192,138501,1,8,0:0:0:0:
192,192,138501,1,0,0:0:0:0:
64,192,138501,1,2,1:0:0:0:
320,192,138674,1,0,0:0:0:0:
448,192,138848,1,0,0:0:0:0:
192,192,138848,1,2,0:0:0:0:
64,192,138848,1,2,1:0:0:0:
192,192,139021,1,0,0:0:0:0:
64,192,139195,1,2,1:0:0:0:
320,192,139195,1,8,0:0:0:0:
448,192,139195,1,0,0:0:0:0:
64,192,139368,1,0,0:0:0:0:
192,192,139542,1,0,0:0:0:0:
448,192,139542,128,0,139628:0:0:0:0:
320,192,139542,128,2,139628:0:0:0:0:
192,192,139715,128,0,139802:0:0:0:0:
64,192,139715,128,0,139802:0:0:0:0:
320,192,139888,128,8,139975:0:0:0:0:
448,192,139888,128,0,139975:0:0:0:0:
64,192,139888,1,0,0:0:0:0:
64,192,140062,128,0,140148:0:0:0:0:
192,192,140062,128,0,140148:0:0:0:0:
320,192,140235,128,2,140322:0:0:0:0:
448,192,140235,128,0,140322:0:0:0:0:
192,192,140235,1,0,0:0:0:0:
320,192,140409,1,0,0:0:0:40:clap.wav
64,192,140409,1,0,0:0:0:0:
64,192,140582,1,0,0:0:0:0:
192,192,140582,1,0,0:0:0:40:clap.wav
448,192,140582,1,8,0:0:0:0:
64,192,140755,1,0,0:0:0:40:clap.wav
320,192,140755,1,2,0:0:0:0:
448,192,140929,1,2,1:0:0:0:
192,192,140929,1,2,0:0:0:0:
320,192,140929,1,4,0:0:0:0:
64,192,141102,1,0,0:0:0:0:
192,192,141276,1,0,0:0:0:0:
320,192,141276,1,8,0:0:0:0:
448,192,141276,1,2,1:0:0:0:
192,192,141449,1,0,0:0:0:0:
64,192,141622,1,0,0:0:0:0:
448,192,141622,1,2,1:0:0:0:
320,192,141622,1,2,0:0:0:0:
320,192,141796,1,0,0:0:0:0:
64,192,141969,1,0,0:0:0:0:
192,192,141969,1,8,0:0:0:0:
448,192,141969,1,2,1:0:0:0:
448,192,142143,1,0,0:0:0:0:
192,192,142316,128,2,142403:0:0:0:0:
64,192,142316,128,0,142403:0:0:0:0:
320,192,142316,1,0,0:0:0:0:
192,192,142490,128,0,142576:0:0:0:0:
320,192,142490,128,0,142576:0:0:0:0:
320,192,142663,128,8,142750:0:0:0:0:
448,192,142663,128,0,142750:0:0:0:0:
64,192,142663,1,0,0:0:0:0:
64,192,142836,128,0,142923:0:0:0:0:
192,192,142836,128,0,142923:0:0:0:0:
192,192,143010,128,2,143096:0:0:0:0:
320,192,143010,128,0,143096:0:0:0:0:
448,192,143010,1,0,0:0:0:0:
64,192,143183,1,0,0:0:0:40:clap.wav
320,192,143183,1,0,0:0:0:0:
192,192,143357,1,0,0:0:0:0:
64,192,143357,1,0,0:0:0:40:clap.wav
448,192,143357,1,8,0:0:0:0:
320,192,143530,1,0,0:0:0:0:
192,192,143530,1,0,0:0:0:0:
320,192,143703,1,2,0:0:0:0:
448,192,143703,1,0,0:0:0:0:
64,192,143703,128,0,144050:0:0:0:0:
192,192,143877,1,0,0:0:0:0:
192,192,144050,1,0,0:0:0:0:
320,192,144050,1,0,0:0:0:0:
448,192,144050,1,8,0:0:0:0:
64,192,144224,128,0,144397:0:0:0:0:
320,192,144224,1,0,0:0:0:0:
320,192,144397,128,2,144570:0:0:0:0:
192,192,144397,1,0,0:0:0:0:
448,192,144397,1,0,0:0:0:0:
64,192,144570,128,0,144744:0:0:0:0:
448,192,144570,1,0,0:0:0:0:
448,192,144744,128,8,144917:0:0:0:0:
192,192,144744,1,0,0:0:0:0:
320,192,144744,1,0,0:0:0:0:
64,192,144917,128,0,145091:0:0:0:0:
192,192,144917,1,0,0:0:0:0:
448,192,145091,1,0,0:0:0:0:
320,192,145091,1,2,0:0:0:0:
192,192,145091,1,0,0:0:0:0:
64,192,145264,1,0,0:0:0:0:
320,192,145264,1,0,0:0:0:0:
192,192,145437,1,4,0:0:0:0:
448,192,145437,1,8,0:0:0:0:
64,192,145437,1,0,0:0:0:0:
320,192,145611,1,0,0:0:0:0:
448,192,145611,1,0,0:0:0:0:
192,192,145784,1,2,0:0:0:0:
64,192,145784,1,0,0:0:0:0:
320,192,145784,1,0,0:0:0:0:
192,192,145958,128,0,146044:0:0:0:0:
64,192,145958,128,0,146131:0:0:0:40:clap.wav
192,192,146131,128,0,146305:0:0:0:40:clap.wav
320,192,146131,128,0,146218:0:0:0:0:
320,192,146305,128,0,146391:0:0:0:40:clap.wav
448,192,146305,128,8,146391:0:0:0:0:
192,192,146391,1,8,0:0:0:0:
64,192,146391,1,0,0:0:0:0:
320,192,146478,1,2,0:0:0:0:
448,192,146478,1,4,0:0:0:0:
192,192,146651,1,0,0:0:0:0:
320,192,146738,1,8,0:0:0:0:
448,192,146738,1,0,0:0:0:0:
192,192,146825,1,2,0:0:0:0:
64,192,146825,1,0,0:0:0:0:
64,192,146998,1,0,0:0:0:0:
320,192,146998,1,8,0:0:0:0:
192,192,147172,1,4,0:0:0:0:
448,192,147172,1,0,0:0:0:0:
320,192,147172,1,2,0:0:0:0:
64,192,147345,1,0,0:0:0:0:
192,192,147432,1,0,0:0:0:0:
448,192,147432,1,8,0:0:0:0:
320,192,147518,1,2,0:0:0:0:
64,192,147518,1,0,0:0:0:0:
192,192,147692,1,0,0:0:0:0:
448,192,147692,1,8,0:0:0:0:
192,192,147865,1,4,0:0:0:0:
320,192,147865,1,2,0:0:0:0:
64,192,147865,1,0,0:0:0:0:
448,192,148039,1,0,0:0:0:0:
320,192,148125,1,8,0:0:0:0:
192,192,148125,1,0,0:0:0:0:
64,192,148212,1,0,0:0:0:0:
448,192,148212,1,2,0:0:0:0:
192,192,148385,1,0,0:0:0:0:
320,192,148385,1,8,0:0:0:0:
192,192,148559,1,4,0:0:0:0:
448,192,148559,1,0,0:0:0:0:
320,192,148559,1,2,0:0:0:0:
64,192,148732,1,0,0:0:0:40:clap.wav
320,192,148732,1,8,0:0:0:0:
64,192,148906,1,0,0:0:0:40:clap.wav
192,192,148906,1,0,0:0:0:0:
448,192,148906,1,8,0:0:0:0:
192,192,149079,1,8,0:0:0:0:
64,192,149079,1,0,0:0:0:40:clap.wav
320,192,149166,1,8,0:0:0:0:
192,192,149253,1,2,0:0:0:0:
448,192,149253,1,4,0:0:0:0:
64,192,149253,1,0,0:0:0:0:
320,192,149426,1,0,0:0:0:0:
192,192,149513,1,8,0:0:0:0:
64,192,149513,1,0,0:0:0:0:
320,192,149599,1,2,0:0:0:0:
448,192,149599,1,0,0:0:0:0:
64,192,149773,1,0,0:0:0:0:
192,192,149773,1,8,0:0:0:0:
192,192,149946,1,4,0:0:0:0:
320,192,149946,1,2,0:0:0:0:
448,192,149946,1,0,0:0:0:0:
64,192,150120,1,0,0:0:0:0:
192,192,150206,1,0,0:0:0:0:
448,192,150206,1,8,0:0:0:0:
320,192,150293,1,2,0:0:0:0:
64,192,150293,1,0,0:0:0:0:
192,192,150466,1,0,0:0:0:0:
448,192,150466,1,8,0:0:0:0:
192,192,150640,1,4,0:0:0:0:
320,192,150640,1,2,0:0:0:0:
64,192,150640,1,0,0:0:0:0:
448,192,150813,1,0,0:0:0:0:
192,192,150900,1,8,0:0:0:0:
64,192,150900,1,0,0:0:0:0:
320,192,150987,1,2,0:0:0:0:
448,192,150987,1,0,0:0:0:0:
320,192,151160,1,0,0:0:0:0:
192,192,151160,1,8,0:0:0:0:
64,192,151333,1,0,0:0:0:0:
448,192,151333,1,4,0:0:0:0:
192,192,151333,1,2,0:0:0:0:
320,192,151507,1,0,0:0:0:40:clap.wav
192,192,151507,1,8,0:0:0:0:
320,192,151680,1,0,0:0:0:40:clap.wav
448,192,151680,1,8,0:0:0:0:
64,192,151680,1,0,0:0:0:0:
192,192,151854,1,8,0:0:0:0:
64,192,151854,1,0,0:0:0:40:clap.wav
320,192,152027,1,2,0:0:0:0:
448,192,152027,1,4,0:0:0:0:
64,192,152114,1,0,0:0:0:0:
192,192,152201,1,0,0:0:0:0:
448,192,152201,1,0,0:0:0:0:
320,192,152287,1,8,0:0:0:0:
192,192,152374,1,2,0:0:0:0:
64,192,152374,1,0,0:0:0:0:
192,192,152547,1,0,0:0:0:0:
320,192,152547,1,8,0:0:0:0:
448,192,152547,1,0,0:0:0:0:
64,192,152721,1,4,0:0:0:0:
320,192,152721,1,2,0:0:0:0:
448,192,152807,1,0,0:0:0:0:
64,192,152894,1,0,0:0:0:0:
192,192,152894,1,0,0:0:0:0:
320,192,152981,1,8,0:0:0:0:
192,192,153068,1,2,0:0:0:0:
64,192,153068,1,0,0:0:0:0:
192,192,153241,1,0,0:0:0:0:
320,192,153241,1,8,0:0:0:0:
448,192,153241,1,0,0:0:0:0:
64,192,153414,1,4,0:0:0:0:
320,192,153414,1,2,0:0:0:0:
448,192,153501,1,0,0:0:0:0:
192,192,153588,1,0,0:0:0:0:
320,192,153588,1,0,0:0:0:0:
64,192,153674,1,8,0:0:0:0:
320,192,153761,1,2,0:0:0:0:
448,192,153761,1,0,0:0:0:0:
192,192,153935,1,8,0:0:0:0:
64,192,153935,1,0,0:0:0:0:
448,192,153935,1,0,0:0:0:0:
64,192,154108,1,0,0:0:0:0:
320,192,154108,1,2,0:0:0:0:
192,192,154281,1,8,0:0:0:0:
320,192,154281,1,0,0:0:0:0:
448,192,154281,1,0,0:0:0:40:clap.wav
192,192,154455,1,8,0:0:0:0:
64,192,154455,1,0,0:0:0:40:clap.wav
320,192,154628,1,8,0:0:0:0:
448,192,154628,1,0,0:0:0:0:
192,192,154715,1,8,0:0:0:0:
64,192,154715,1,0,0:0:0:0:
320,192,154802,1,2,0:0:0:0:
448,192,154802,1,4,0:0:0:0:
64,192,154888,1,0,0:0:0:0:
192,192,154975,1,8,0:0:0:0:
448,192,154975,1,0,0:0:0:0:
320,192,155062,1,8,0:0:0:0:
192,192,155148,1,2,0:0:0:0:
64,192,155148,1,0,0:0:0:0:
192,192,155322,1,0,0:0:0:0:
320,192,155322,1,8,0:0:0:0:
448,192,155322,1,0,0:0:0:0:
64,192,155495,1,4,0:0:0:0:
320,192,155495,1,2,0:0:0:0:
448,192,155582,1,0,0:0:0:0:
192,192,155669,1,8,0:0:0:0:
64,192,155669,1,0,0:0:0:0:
320,192,155755,1,8,0:0:0:0:
192,192,155842,1,2,0:0:0:0:
448,192,155842,1,0,0:0:0:0:
64,192,156016,1,0,0:0:0:0:
320,192,156016,1,8,0:0:0:0:
448,192,156016,1,0,0:0:0:0:
64,192,156189,1,4,0:0:0:0:
192,192,156189,1,2,0:0:0:0:
320,192,156189,1,0,0:0:0:0:
448,192,156276,1,0,0:0:0:0:
64,192,156362,1,0,0:0:0:0:
320,192,156449,1,8,0:0:0:0:
192,192,156536,1,2,0:0:0:0:
64,192,156536,1,0,0:0:0:0:
448,192,156536,1,0,0:0:0:0:
320,192,156622,1,0,0:0:0:0:
192,192,156709,1,8,0:0:0:0:
64,192,156796,1,0,0:0:0:0:
192,192,156883,1,0,0:0:0:0:
448,192,156883,1,4,0:0:0:0:
320,192,156883,1,2,0:0:0:0:
192,192,157056,128,8,157143:0:0:0:0:
64,192,157056,128,2,157143:1:0:0:0:
320,192,157056,1,0,0:0:0:0:
64,192,157403,128,2,157490:1:0:0:0:
192,192,157403,128,8,157490:0:0:0:0:
320,192,157403,1,0,0:0:0:0:
