osu file format v14

[General]
AudioFilename: audio.mp3
AudioLeadIn: 0
PreviewTime: 40723
Countdown: 0
SampleSet: Normal
StackLeniency: 0.7
Mode: 3
LetterboxInBreaks: 0
SpecialStyle: 0
WidescreenStoryboard: 0

[Editor]
Bookmarks: 14681,52176,70210,75760,100731,122927,157436
DistanceSpacing: 0.3
BeatDivisor: 12
GridSize: 4
TimelineZoom: 1.9

[Metadata]
Title:Rabbit Hole
TitleUnicode:ラビットホール
Artist:DECO*27
ArtistUnicode:DECO*27
Creator:popy_gd
Version:owo
Source:
Tags:deco27 feat hatsune miku rabitto horu japanese pop vocaloid long note ln release
BeatmapID:4533061
BeatmapSetID:2151511

[Difficulty]
HPDrainRate:8
CircleSize:4
OverallDifficulty:7.5
ApproachRate:5
SliderMultiplier:1.4
SliderTickRate:1

[Events]
//Background and Video events
0,0,"rabbit hole.jpg",0,0
//Break Periods
//Storyboard Layer 0 (Background)
//Storyboard Layer 1 (Fail)
//Storyboard Layer 2 (Pass)
//Storyboard Layer 3 (Foreground)
//Storyboard Layer 4 (Overlay)
//Storyboard Sound Samples

[TimingPoints]
492,346.820809248555,4,1,0,100,1,0
2226,346.820809248555,4,1,0,100,1,0
41069,-100,4,1,0,100,0,1
62919,-100,4,1,0,100,0,0
111821,-100,4,1,0,100,0,1
133671,-100,4,1,0,100,0,0

[HitObjects]
320,192,376,5,0,0:0:0:0:
64,192,492,128,0,665:0:0:0:0:
320,192,492,1,0,0:0:0:0:
192,192,492,128,0,607:0:0:0:0:
448,192,607,128,0,781:0:0:0:0:
320,192,723,128,0,896:0:0:0:0:
64,192,838,128,0,1012:0:0:0:0:
192,192,838,1,0,0:0:0:0:
448,192,954,128,0,1127:0:0:0:0:
192,192,1070,128,0,1243:0:0:0:0:
320,192,1070,1,0,0:0:0:0:
64,192,1185,128,0,1532:0:0:0:0:
448,192,1243,128,0,1879:0:0:0:0:
192,192,1445,1,0,0:0:0:0:
320,192,1532,1,0,0:0:0:0:
192,192,1619,1,0,0:0:0:0:
320,192,1705,1,0,0:0:0:0:
192,192,1792,1,0,0:0:0:0:
64,192,1792,1,0,0:0:0:0:
320,192,1879,1,0,0:0:0:0:
64,192,1879,1,0,0:0:0:0:
192,192,2226,128,0,2312:0:0:0:0:
320,192,2312,128,0,2399:0:0:0:0:
192,192,2399,128,0,2486:0:0:0:0:
320,192,2486,128,0,2572:0:0:0:0:
64,192,2572,128,0,2717:0:0:0:0:
192,192,2659,128,0,2804:0:0:0:0:
448,192,2746,128,0,2890:0:0:0:0:
320,192,2832,128,0,2977:0:0:0:0:
192,192,2919,128,0,3035:0:0:0:0:
320,192,3093,128,0,3208:0:0:0:0:
64,192,3266,128,0,3382:0:0:0:0:
448,192,3266,1,0,0:0:0:0:
192,192,3613,128,0,3902:0:0:0:0:
320,192,3613,128,0,3786:0:0:0:0:
64,192,3642,128,0,3786:0:0:0:0:
448,192,3786,1,0,0:0:0:0:
320,192,3873,1,0,0:0:0:0:
192,192,3960,128,0,4249:0:0:0:0:
64,192,3960,128,0,4046:0:0:0:0:
448,192,4046,128,0,4133:0:0:0:0:
320,192,4133,128,0,4220:0:0:0:0:
64,192,4220,128,0,4335:0:0:0:0:
192,192,4306,128,0,4595:0:0:0:0:
448,192,4306,128,0,4480:0:0:0:0:
320,192,4393,128,0,4480:0:0:0:0:
64,192,4480,128,0,4567:0:0:0:0:
448,192,4567,128,0,4653:0:0:0:0:
192,192,4653,128,0,4942:0:0:0:0:
64,192,4653,128,0,4827:0:0:0:0:
320,192,4740,128,0,4827:0:0:0:0:
448,192,4827,128,0,4913:0:0:0:0:
64,192,4913,128,0,5000:0:0:0:0:
320,192,5000,128,0,5289:0:0:0:0:
192,192,5000,128,0,5173:0:0:0:0:
448,192,5000,128,0,5087:0:0:0:0:
64,192,5087,128,0,5173:0:0:0:0:
448,192,5173,128,0,5260:0:0:0:0:
192,192,5260,128,0,5347:0:0:0:0:
320,192,5347,128,0,5636:0:0:0:0:
448,192,5347,128,0,5520:0:0:0:0:
64,192,5434,128,0,5520:0:0:0:0:
192,192,5520,128,0,5607:0:0:0:0:
320,192,5694,128,0,5983:0:0:0:0:
448,192,5694,128,0,5867:0:0:0:0:
192,192,5780,1,0,0:0:0:0:
64,192,5867,128,0,5954:0:0:0:0:
192,192,5896,128,0,6041:0:0:0:0:
320,192,6041,128,0,6330:0:0:0:0:
448,192,6041,128,0,6214:0:0:0:0:
192,192,6127,128,0,6301:0:0:0:0:
64,192,6214,128,0,6301:0:0:0:0:
448,192,6301,128,0,6387:0:0:0:0:
64,192,6387,128,0,6676:0:0:0:0:
192,192,6387,128,0,6561:0:0:0:0:
320,192,6416,128,0,6561:0:0:0:0:
448,192,6561,1,0,0:0:0:0:
320,192,6647,1,0,0:0:0:0:
64,192,6734,128,0,7023:0:0:0:0:
192,192,6734,128,0,6821:0:0:0:0:
448,192,6821,128,0,6908:0:0:0:0:
320,192,6908,128,0,6994:0:0:0:0:
192,192,6994,128,0,7081:0:0:0:0:
64,192,7081,128,0,7370:0:0:0:0:
448,192,7081,128,0,7254:0:0:0:0:
192,192,7168,128,0,7254:0:0:0:0:
320,192,7254,128,0,7341:0:0:0:0:
448,192,7341,128,0,7428:0:0:0:0:
64,192,7428,128,0,7717:0:0:0:0:
192,192,7428,128,0,7601:0:0:0:0:
320,192,7515,128,0,7601:0:0:0:0:
448,192,7601,128,0,7688:0:0:0:0:
192,192,7688,128,0,7775:0:0:0:0:
448,192,7775,128,0,8064:0:0:0:0:
64,192,7775,128,0,7948:0:0:0:0:
320,192,7775,128,0,7861:0:0:0:0:
192,192,7861,128,0,7948:0:0:0:0:
320,192,7948,128,0,8035:0:0:0:0:
64,192,8035,128,0,8121:0:0:0:0:
448,192,8121,128,0,8410:0:0:0:0:
320,192,8121,128,0,8295:0:0:0:0:
64,192,8208,128,0,8324:0:0:0:0:
192,192,8295,128,0,8410:0:0:0:0:
320,192,8382,128,0,8497:0:0:0:0:
448,192,8468,128,0,8757:0:0:0:0:
64,192,8468,128,0,8584:0:0:0:0:
320,192,8555,128,0,8642:0:0:0:0:
192,192,8642,128,0,8757:0:0:0:0:
64,192,8728,128,0,8844:0:0:0:0:
448,192,8815,128,0,9104:0:0:0:0:
320,192,8815,128,0,9075:0:0:0:0:
192,192,8815,128,0,8931:0:0:0:0:
64,192,8902,128,0,9046:0:0:0:0:
192,192,8989,128,0,9104:0:0:0:0:
320,192,9162,128,0,9451:0:0:0:0:
448,192,9162,128,0,9335:0:0:0:0:
64,192,9191,128,0,9335:0:0:0:0:
192,192,9335,1,0,0:0:0:0:
64,192,9422,1,0,0:0:0:0:
320,192,9509,128,0,9798:0:0:0:0:
448,192,9509,128,0,9595:0:0:0:0:
64,192,9595,128,0,9682:0:0:0:0:
192,192,9682,128,0,9769:0:0:0:0:
448,192,9769,128,0,9856:0:0:0:0:
320,192,9856,128,0,10145:0:0:0:0:
64,192,9856,128,0,10029:0:0:0:0:
448,192,9942,128,0,10029:0:0:0:0:
192,192,10029,128,0,10116:0:0:0:0:
64,192,10116,128,0,10202:0:0:0:0:
320,192,10202,128,0,10491:0:0:0:0:
448,192,10202,128,0,10376:0:0:0:0:
192,192,10289,128,0,10376:0:0:0:0:
64,192,10376,128,0,10462:0:0:0:0:
448,192,10462,128,0,10549:0:0:0:0:
192,192,10549,128,0,10838:0:0:0:0:
320,192,10549,128,0,10723:0:0:0:0:
64,192,10549,128,0,10636:0:0:0:0:
448,192,10636,128,0,10723:0:0:0:0:
64,192,10723,128,0,10809:0:0:0:0:
320,192,10809,128,0,10896:0:0:0:0:
192,192,10896,128,0,11185:0:0:0:0:
64,192,10896,128,0,11069:0:0:0:0:
448,192,10983,128,0,11069:0:0:0:0:
320,192,11069,128,0,11156:0:0:0:0:
192,192,11243,128,0,11532:0:0:0:0:
64,192,11243,128,0,11358:0:0:0:0:
320,192,11330,1,0,0:0:0:0:
448,192,11416,128,0,11532:0:0:0:0:
320,192,11445,128,0,11590:0:0:0:0:
192,192,11590,128,0,11879:0:0:0:0:
64,192,11590,128,0,11705:0:0:0:0:
448,192,11676,128,0,11792:0:0:0:0:
320,192,11763,128,0,11879:0:0:0:0:
64,192,11850,128,0,11994:0:0:0:0:
448,192,11936,128,0,12226:0:0:0:0:
192,192,11936,128,0,12110:0:0:0:0:
320,192,11965,128,0,12110:0:0:0:0:
64,192,12110,1,0,0:0:0:0:
192,192,12197,1,0,0:0:0:0:
448,192,12283,128,0,12572:0:0:0:0:
320,192,12283,128,0,12370:0:0:0:0:
64,192,12370,128,0,12457:0:0:0:0:
320,192,12457,128,0,12543:0:0:0:0:
192,192,12543,128,0,12630:0:0:0:0:
448,192,12630,128,0,12919:0:0:0:0:
64,192,12630,128,0,12804:0:0:0:0:
320,192,12717,128,0,12804:0:0:0:0:
192,192,12804,128,0,12890:0:0:0:0:
64,192,12890,128,0,12977:0:0:0:0:
448,192,12977,128,0,13266:0:0:0:0:
320,192,12977,128,0,13150:0:0:0:0:
192,192,13064,128,0,13150:0:0:0:0:
64,192,13150,128,0,13237:0:0:0:0:
320,192,13237,128,0,13324:0:0:0:0:
64,192,13324,128,0,13613:0:0:0:0:
448,192,13324,128,0,13497:0:0:0:0:
192,192,13324,128,0,13410:0:0:0:0:
320,192,13410,128,0,13497:0:0:0:0:
192,192,13497,128,0,13584:0:0:0:0:
320,192,13584,128,0,13671:0:0:0:0:
64,192,13671,128,0,13960:0:0:0:0:
192,192,13671,128,0,13844:0:0:0:0:
448,192,13757,128,0,13844:0:0:0:0:
320,192,13844,128,0,13931:0:0:0:0:
448,192,13931,128,0,14017:0:0:0:0:
64,192,14017,128,0,14306:0:0:0:0:
192,192,14017,1,0,0:0:0:0:
320,192,14104,1,0,0:0:0:0:
192,192,14191,1,0,0:0:0:0:
448,192,14191,128,0,14278:0:0:0:0:
320,192,14278,1,0,0:0:0:0:
64,192,14364,128,0,14653:0:0:0:0:
448,192,14364,128,0,14538:0:0:0:0:
192,192,14364,128,0,14451:0:0:0:0:
320,192,14451,128,0,14624:0:0:0:0:
192,192,14538,128,0,14711:0:0:0:0:
320,192,14711,1,0,0:0:0:0:
448,192,14884,128,0,14971:0:0:0:0:
192,192,15058,128,0,15145:0:0:0:0:
320,192,15231,128,0,15318:0:0:0:0:
448,192,15405,128,0,15520:0:0:0:0:
64,192,15578,128,0,15665:0:0:0:0:
192,192,15607,128,0,15752:0:0:0:0:
320,192,15752,1,0,0:0:0:0:
448,192,15925,128,0,16041:0:0:0:0:
192,192,16098,128,0,16214:0:0:0:0:
64,192,16272,128,0,16358:0:0:0:0:
448,192,16301,128,0,16445:0:0:0:0:
320,192,16445,128,0,16561:0:0:0:0:
192,192,16647,128,0,16734:0:0:0:0:
448,192,16792,128,0,16879:0:0:0:0:
320,192,16821,128,0,16908:0:0:0:0:
192,192,16965,1,0,0:0:0:0:
320,192,17139,128,0,17312:0:0:0:0:
448,192,17168,128,0,17486:0:0:0:0:
64,192,17312,128,0,17486:0:0:0:0:
320,192,17486,1,0,0:0:0:0:
64,192,17659,128,0,17746:0:0:0:0:
320,192,17832,128,0,17919:0:0:0:0:
192,192,18006,128,0,18093:0:0:0:0:
64,192,18179,128,0,18295:0:0:0:0:
448,192,18353,128,0,18439:0:0:0:0:
320,192,18382,128,0,18526:0:0:0:0:
192,192,18526,1,0,0:0:0:0:
64,192,18699,128,0,18815:0:0:0:0:
320,192,18873,128,0,18989:0:0:0:0:
448,192,19046,128,0,19133:0:0:0:0:
64,192,19075,128,0,19220:0:0:0:0:
192,192,19220,128,0,19335:0:0:0:0:
320,192,19422,128,0,19509:0:0:0:0:
64,192,19567,128,0,19653:0:0:0:0:
192,192,19595,128,0,19682:0:0:0:0:
320,192,19740,1,0,0:0:0:0:
320,192,19827,1,0,0:0:0:0:
192,192,19913,128,0,20087:0:0:0:0:
448,192,19942,128,0,20260:0:0:0:0:
64,192,20260,128,0,20347:0:0:0:0:
192,192,20289,128,0,20434:0:0:0:0:
320,192,20318,128,0,20462:0:0:0:0:
448,192,20520,1,0,0:0:0:0:
192,192,20607,128,0,20723:0:0:0:0:
64,192,20636,128,0,20780:0:0:0:0:
320,192,20780,1,0,0:0:0:0:
192,192,20954,128,0,21041:0:0:0:0:
448,192,20954,128,0,21069:0:0:0:0:
320,192,21127,128,0,21214:0:0:0:0:
64,192,21127,128,0,21243:0:0:0:0:
192,192,21301,1,0,0:0:0:0:
64,192,21474,1,0,0:0:0:0:
448,192,21503,128,0,21647:0:0:0:0:
320,192,21561,128,0,21647:0:0:0:0:
64,192,21647,128,0,21821:0:0:0:0:
192,192,21676,128,0,21850:0:0:0:0:
448,192,21821,128,0,21994:0:0:0:0:
320,192,21850,128,0,22023:0:0:0:0:
64,192,21994,128,0,22168:0:0:0:0:
192,192,22023,128,0,22197:0:0:0:0:
448,192,22168,128,0,22341:0:0:0:0:
320,192,22197,128,0,22370:0:0:0:0:
64,192,22341,128,0,22428:0:0:0:0:
192,192,22370,128,0,22457:0:0:0:0:
448,192,22515,128,0,22601:0:0:0:0:
64,192,22543,128,0,22630:0:0:0:0:
192,192,22688,128,0,22775:0:0:0:0:
448,192,22717,128,0,22804:0:0:0:0:
192,192,22861,1,0,0:0:0:0:
320,192,22890,128,0,23035:0:0:0:0:
192,192,22948,1,0,0:0:0:0:
64,192,23035,128,0,23121:0:0:0:0:
448,192,23035,128,0,23150:0:0:0:0:
320,192,23208,1,0,0:0:0:0:
192,192,23295,1,0,0:0:0:0:
320,192,23382,128,0,23468:0:0:0:0:
448,192,23410,128,0,23555:0:0:0:0:
320,192,23555,1,0,0:0:0:0:
64,192,23728,128,0,23902:0:0:0:0:
192,192,23757,128,0,24075:0:0:0:0:
448,192,23902,1,0,0:0:0:0:
320,192,24075,1,0,0:0:0:0:
64,192,24249,128,0,24335:0:0:0:0:
192,192,24249,128,0,24422:0:0:0:0:
448,192,24422,1,0,0:0:0:0:
192,192,24595,1,0,0:0:0:0:
320,192,24624,128,0,24798:0:0:0:0:
192,192,24682,128,0,24769:0:0:0:0:
64,192,24769,128,0,24856:0:0:0:0:
448,192,24769,128,0,24884:0:0:0:0:
320,192,24942,1,0,0:0:0:0:
192,192,24971,128,0,25116:0:0:0:0:
320,192,25029,128,0,25116:0:0:0:0:
64,192,25116,128,0,25289:0:0:0:0:
448,192,25145,128,0,25231:0:0:0:0:
192,192,25289,128,0,25549:0:0:0:0:
320,192,25318,128,0,25520:0:0:0:0:
448,192,25462,128,0,25752:0:0:0:0:
64,192,25491,128,0,25752:0:0:0:0:
320,192,25636,128,0,25752:0:0:0:0:
192,192,25665,128,0,25838:0:0:0:0:
64,192,25809,128,0,25925:0:0:0:0:
448,192,25838,128,0,25954:0:0:0:0:
320,192,25867,128,0,25983:0:0:0:0:
64,192,26156,128,0,26330:0:0:0:0:
192,192,26214,128,0,26358:0:0:0:0:
320,192,26272,128,0,26387:0:0:0:0:
448,192,26330,128,0,26416:0:0:0:0:
64,192,26387,1,0,0:0:0:0:
448,192,26503,128,0,26676:0:0:0:0:
320,192,26561,128,0,26705:0:0:0:0:
192,192,26619,128,0,26734:0:0:0:0:
64,192,26676,128,0,26763:0:0:0:0:
448,192,26734,1,0,0:0:0:0:
64,192,26850,128,0,27110:0:0:0:0:
192,192,26850,128,0,27081:0:0:0:0:
320,192,26850,128,0,27023:0:0:0:0:
192,192,27197,128,0,27283:0:0:0:0:
64,192,27197,128,0,27370:0:0:0:0:
448,192,27197,1,0,0:0:0:0:
448,192,27283,1,0,0:0:0:0:
320,192,27283,1,0,0:0:0:0:
192,192,27370,128,0,27543:0:0:0:0:
320,192,27457,128,0,27543:0:0:0:0:
448,192,27543,128,0,27717:0:0:0:0:
64,192,27543,128,0,27630:0:0:0:0:
192,192,27630,128,0,27717:0:0:0:0:
64,192,27717,128,0,27890:0:0:0:0:
320,192,27717,128,0,27804:0:0:0:0:
448,192,27804,128,0,27890:0:0:0:0:
192,192,27890,128,0,28064:0:0:0:0:
320,192,27890,128,0,27977:0:0:0:0:
448,192,27977,128,0,28064:0:0:0:0:
320,192,28064,128,0,28237:0:0:0:0:
64,192,28064,128,0,28150:0:0:0:0:
192,192,28150,128,0,28237:0:0:0:0:
64,192,28237,128,0,28410:0:0:0:0:
448,192,28237,128,0,28324:0:0:0:0:
192,192,28324,128,0,28410:0:0:0:0:
320,192,28410,128,0,28497:0:0:0:0:
448,192,28410,128,0,28584:0:0:0:0:
64,192,28497,128,0,28584:0:0:0:0:
192,192,28584,128,0,28757:0:0:0:0:
320,192,28584,128,0,28671:0:0:0:0:
320,192,28757,128,0,29017:0:0:0:0:
64,192,28757,128,0,29017:0:0:0:0:
192,192,28844,128,0,29278:0:0:0:0:
448,192,28931,128,0,29104:0:0:0:0:
64,192,29104,128,0,29278:0:0:0:0:
320,192,29104,128,0,29191:0:0:0:0:
320,192,29278,1,0,0:0:0:0:
448,192,29451,128,0,29538:0:0:0:0:
192,192,29451,128,0,29538:0:0:0:0:
64,192,29480,128,0,29711:0:0:0:0:
448,192,29624,128,0,29711:0:0:0:0:
192,192,29624,128,0,29711:0:0:0:0:
320,192,29653,128,0,29884:0:0:0:0:
64,192,29798,128,0,29884:0:0:0:0:
192,192,29798,128,0,29884:0:0:0:0:
448,192,29827,128,0,29913:0:0:0:0:
64,192,29971,1,0,0:0:0:0:
448,192,29971,128,0,30145:0:0:0:0:
320,192,29971,128,0,30058:0:0:0:0:
192,192,30058,1,0,0:0:0:0:
64,192,30058,1,0,0:0:0:0:
320,192,30145,128,0,30318:0:0:0:0:
192,192,30231,128,0,30318:0:0:0:0:
448,192,30318,128,0,30405:0:0:0:0:
64,192,30318,128,0,30491:0:0:0:0:
320,192,30405,128,0,30491:0:0:0:0:
192,192,30491,128,0,30578:0:0:0:0:
448,192,30491,128,0,30665:0:0:0:0:
64,192,30578,128,0,30665:0:0:0:0:
192,192,30665,128,0,30752:0:0:0:0:
320,192,30665,128,0,30838:0:0:0:0:
64,192,30752,128,0,30838:0:0:0:0:
448,192,30838,128,0,30925:0:0:0:0:
192,192,30838,128,0,31012:0:0:0:0:
320,192,30925,128,0,31012:0:0:0:0:
64,192,31012,128,0,31098:0:0:0:0:
448,192,31012,128,0,31185:0:0:0:0:
320,192,31098,128,0,31185:0:0:0:0:
64,192,31185,128,0,31358:0:0:0:0:
192,192,31185,128,0,31272:0:0:0:0:
448,192,31272,128,0,31358:0:0:0:0:
192,192,31358,128,0,31445:0:0:0:0:
320,192,31358,128,0,31532:0:0:0:0:
448,192,31532,128,0,31792:0:0:0:0:
192,192,31532,128,0,31792:0:0:0:0:
320,192,31619,128,0,32052:0:0:0:0:
64,192,31705,128,0,31879:0:0:0:0:
192,192,31879,128,0,31965:0:0:0:0:
448,192,31879,128,0,32052:0:0:0:0:
192,192,32052,1,0,0:0:0:0:
448,192,32226,128,0,32312:0:0:0:0:
64,192,32226,128,0,32312:0:0:0:0:
320,192,32254,128,0,32486:0:0:0:0:
448,192,32399,128,0,32486:0:0:0:0:
64,192,32399,128,0,32486:0:0:0:0:
192,192,32428,128,0,32659:0:0:0:0:
64,192,32572,128,0,32746:0:0:0:0:
448,192,32572,128,0,32659:0:0:0:0:
320,192,32601,128,0,32746:0:0:0:0:
192,192,32746,128,0,32919:0:0:0:0:
448,192,32775,128,0,32919:0:0:0:0:
320,192,32919,1,0,0:0:0:0:
192,192,33006,1,0,0:0:0:0:
64,192,33093,128,0,33353:0:0:0:0:
320,192,33121,128,0,33266:0:0:0:0:
192,192,33266,128,0,33526:0:0:0:0:
320,192,33353,1,0,0:0:0:0:
448,192,33439,128,0,33786:0:0:0:0:
64,192,33439,128,0,33613:0:0:0:0:
192,192,33613,128,0,33699:0:0:0:0:
320,192,33613,128,0,33786:0:0:0:0:
192,192,33786,1,0,0:0:0:0:
64,192,33786,1,0,0:0:0:0:
320,192,33960,128,0,34075:0:0:0:0:
192,192,34133,128,0,34220:0:0:0:0:
64,192,34162,128,0,34393:0:0:0:0:
192,192,34306,128,0,34393:0:0:0:0:
448,192,34335,128,0,34567:0:0:0:0:
320,192,34480,128,0,34567:0:0:0:0:
192,192,34509,128,0,34740:0:0:0:0:
320,192,34653,128,0,34740:0:0:0:0:
64,192,34682,128,0,34913:0:0:0:0:
192,192,34827,128,0,34913:0:0:0:0:
448,192,34856,128,0,35058:0:0:0:0:
320,192,35000,128,0,35087:0:0:0:0:
192,192,35029,128,0,35260:0:0:0:0:
64,192,35173,128,0,35260:0:0:0:0:
320,192,35202,128,0,35434:0:0:0:0:
448,192,35347,128,0,35434:0:0:0:0:
64,192,35376,128,0,35520:0:0:0:0:
192,192,35434,1,0,0:0:0:0:
320,192,35520,128,0,35636:0:0:0:0:
448,192,35520,1,0,0:0:0:0:
192,192,35694,1,0,0:0:0:0:
64,192,35780,1,0,0:0:0:0:
192,192,35867,128,0,35983:0:0:0:0:
320,192,35867,128,0,35954:0:0:0:0:
320,192,36041,128,0,36301:0:0:0:0:
64,192,36214,128,0,36474:0:0:0:0:
448,192,36214,128,0,36474:0:0:0:0:
192,192,36387,128,0,36647:0:0:0:0:
320,192,36561,128,0,36821:0:0:0:0:
64,192,36561,1,0,0:0:0:0:
448,192,36734,128,0,36994:0:0:0:0:
192,192,36734,128,0,36850:0:0:0:0:
64,192,36908,1,0,0:0:0:0:
320,192,36908,128,0,37168:0:0:0:0:
192,192,37081,128,0,37341:0:0:0:0:
64,192,37081,128,0,37254:0:0:0:0:
448,192,37254,128,0,37717:0:0:0:0:
320,192,37254,128,0,37341:0:0:0:0:
320,192,37428,128,0,37890:0:0:0:0:
64,192,37428,128,0,37543:0:0:0:0:
64,192,37601,128,0,38064:0:0:0:0:
192,192,37601,128,0,37717:0:0:0:0:
192,192,37775,128,0,38064:0:0:0:0:
448,192,37775,128,0,37890:0:0:0:0:
320,192,37948,128,0,38237:0:0:0:0:
448,192,37948,128,0,38237:0:0:0:0:
192,192,38121,128,0,38295:0:0:0:0:
64,192,38121,128,0,38295:0:0:0:0:
320,192,38295,128,0,38382:0:0:0:0:
320,192,38642,128,0,38728:0:0:0:0:
448,192,38671,128,0,38757:0:0:0:0:
192,192,38960,128,0,39046:0:0:0:0:
64,192,38989,128,0,39075:0:0:0:0:
320,192,39335,128,0,39682:0:0:0:0:
192,192,39364,128,0,39538:0:0:0:0:
64,192,39682,128,0,39798:0:0:0:0:
448,192,39682,128,0,39856:0:0:0:0:
192,192,39769,128,0,39856:0:0:0:0:
64,192,39856,128,0,39942:0:0:0:0:
320,192,39942,128,0,40029:0:0:0:0:
448,192,40000,128,0,40145:0:0:0:0:
64,192,40029,128,0,40202:0:0:0:0:
192,192,40116,128,0,40202:0:0:0:0:
320,192,40202,128,0,40289:0:0:0:0:
192,192,40289,128,0,40376:0:0:0:0:
320,192,40376,128,0,40549:0:0:0:0:
64,192,40376,128,0,40723:0:0:0:0:
448,192,40376,128,0,40723:0:0:0:0:
192,192,40549,128,0,40723:0:0:0:0:
320,192,40723,128,0,41069:0:0:0:0:
448,192,41069,1,0,0:0:0:0:
64,192,41069,128,0,41243:0:0:0:0:
192,192,41069,128,0,41185:0:0:0:0:
448,192,41156,1,0,0:0:0:0:
320,192,41243,128,0,41330:0:0:0:0:
192,192,41330,128,0,41416:0:0:0:0:
320,192,41416,128,0,41532:0:0:0:0:
448,192,41416,128,0,41590:0:0:0:0:
64,192,41416,1,0,0:0:0:0:
64,192,41503,1,0,0:0:0:0:
192,192,41590,128,0,41676:0:0:0:0:
64,192,41676,128,0,41763:0:0:0:0:
448,192,41763,128,0,41936:0:0:0:0:
320,192,41763,128,0,41879:0:0:0:0:
192,192,41763,1,0,0:0:0:0:
192,192,41850,1,0,0:0:0:0:
320,192,41936,128,0,42023:0:0:0:0:
64,192,42023,128,0,42110:0:0:0:0:
192,192,42110,128,0,42226:0:0:0:0:
320,192,42110,128,0,42226:0:0:0:0:
448,192,42139,128,0,42312:0:0:0:0:
192,192,42283,128,0,42399:0:0:0:0:
320,192,42283,128,0,42399:0:0:0:0:
64,192,42312,128,0,42486:0:0:0:0:
448,192,42457,128,0,42630:0:0:0:0:
192,192,42457,1,0,0:0:0:0:
320,192,42457,128,0,42572:0:0:0:0:
192,192,42543,1,0,0:0:0:0:
64,192,42630,128,0,42717:0:0:0:0:
320,192,42717,128,0,42804:0:0:0:0:
192,192,42804,128,0,42977:0:0:0:0:
448,192,42804,1,0,0:0:0:0:
64,192,42804,128,0,42919:0:0:0:0:
448,192,42890,1,0,0:0:0:0:
64,192,42977,128,0,43064:0:0:0:0:
320,192,42977,128,0,43064:0:0:0:0:
192,192,43064,128,0,43150:0:0:0:0:
448,192,43150,128,0,43266:0:0:0:0:
320,192,43150,128,0,43237:0:0:0:0:
64,192,43150,1,0,0:0:0:0:
64,192,43237,1,0,0:0:0:0:
320,192,43324,128,0,43410:0:0:0:0:
192,192,43410,128,0,43497:0:0:0:0:
320,192,43497,128,0,43613:0:0:0:0:
64,192,43497,128,0,43613:0:0:0:0:
448,192,43526,128,0,43699:0:0:0:0:
64,192,43671,128,0,43786:0:0:0:0:
320,192,43671,128,0,43786:0:0:0:0:
192,192,43699,128,0,43873:0:0:0:0:
448,192,43844,128,0,44017:0:0:0:0:
320,192,43844,128,0,43960:0:0:0:0:
64,192,43844,1,0,0:0:0:0:
64,192,43931,1,0,0:0:0:0:
320,192,44017,1,0,0:0:0:0:
192,192,44017,128,0,44133:0:0:0:0:
448,192,44104,128,0,44191:0:0:0:0:
64,192,44191,128,0,44364:0:0:0:0:
192,192,44191,128,0,44306:0:0:0:0:
320,192,44191,1,0,0:0:0:0:
320,192,44278,1,0,0:0:0:0:
448,192,44364,128,0,44451:0:0:0:0:
320,192,44451,128,0,44538:0:0:0:0:
192,192,44538,128,0,44653:0:0:0:0:
448,192,44538,1,0,0:0:0:0:
64,192,44538,128,0,44711:0:0:0:0:
448,192,44624,1,0,0:0:0:0:
320,192,44711,128,0,44798:0:0:0:0:
192,192,44798,128,0,44884:0:0:0:0:
320,192,44884,128,0,45000:0:0:0:0:
448,192,44884,128,0,44971:0:0:0:0:
64,192,44913,128,0,45087:0:0:0:0:
320,192,45058,128,0,45173:0:0:0:0:
192,192,45058,128,0,45173:0:0:0:0:
448,192,45087,128,0,45260:0:0:0:0:
64,192,45231,128,0,45405:0:0:0:0:
192,192,45231,128,0,45318:0:0:0:0:
320,192,45318,128,0,45405:0:0:0:0:
448,192,45405,128,0,45578:0:0:0:0:
192,192,45405,1,0,0:0:0:0:
192,192,45491,128,0,45578:0:0:0:0:
320,192,45578,1,0,0:0:0:0:
64,192,45578,128,0,45694:0:0:0:0:
320,192,45665,128,0,45752:0:0:0:0:
64,192,45752,1,0,0:0:0:0:
448,192,45752,128,0,45867:0:0:0:0:
192,192,45838,128,0,45925:0:0:0:0:
448,192,45925,128,0,46012:0:0:0:0:
64,192,45925,128,0,46041:0:0:0:0:
320,192,45925,1,0,0:0:0:0:
192,192,46012,1,0,0:0:0:0:
320,192,46098,128,0,46185:0:0:0:0:
64,192,46098,128,0,46185:0:0:0:0:
448,192,46098,1,0,0:0:0:0:
448,192,46185,128,0,46272:0:0:0:0:
320,192,46272,128,0,46387:0:0:0:0:
192,192,46272,128,0,46387:0:0:0:0:
64,192,46301,128,0,46474:0:0:0:0:
192,192,46445,128,0,46561:0:0:0:0:
320,192,46445,128,0,46619:0:0:0:0:
448,192,46474,128,0,46561:0:0:0:0:
64,192,46619,128,0,46705:0:0:0:0:
448,192,46619,128,0,46879:0:0:0:0:
192,192,46619,1,0,0:0:0:0:
320,192,46705,128,0,46792:0:0:0:0:
192,192,46705,128,0,46879:0:0:0:0:
64,192,46792,128,0,46879:0:0:0:0:
320,192,46879,128,0,46965:0:0:0:0:
192,192,46965,128,0,47139:0:0:0:0:
64,192,46965,128,0,47052:0:0:0:0:
448,192,46965,128,0,47052:0:0:0:0:
64,192,47139,128,0,47399:0:0:0:0:
448,192,47139,128,0,47254:0:0:0:0:
320,192,47139,1,0,0:0:0:0:
192,192,47226,128,0,47312:0:0:0:0:
320,192,47226,128,0,47399:0:0:0:0:
448,192,47312,128,0,47399:0:0:0:0:
192,192,47399,128,0,47486:0:0:0:0:
320,192,47486,128,0,47572:0:0:0:0:
448,192,47486,128,0,47746:0:0:0:0:
64,192,47572,128,0,47659:0:0:0:0:
192,192,47659,128,0,47832:0:0:0:0:
320,192,47659,128,0,47775:0:0:0:0:
320,192,47832,128,0,48006:0:0:0:0:
448,192,47832,128,0,47919:0:0:0:0:
64,192,47861,128,0,48035:0:0:0:0:
448,192,48006,128,0,48093:0:0:0:0:
192,192,48006,128,0,48093:0:0:0:0:
320,192,48093,128,0,48179:0:0:0:0:
192,192,48179,128,0,48266:0:0:0:0:
64,192,48179,128,0,48439:0:0:0:0:
448,192,48266,128,0,48353:0:0:0:0:
320,192,48353,128,0,48526:0:0:0:0:
192,192,48353,128,0,48468:0:0:0:0:
192,192,48526,128,0,48642:0:0:0:0:
448,192,48526,128,0,48642:0:0:0:0:
64,192,48555,128,0,48699:0:0:0:0:
192,192,48699,128,0,48786:0:0:0:0:
448,192,48699,128,0,48786:0:0:0:0:
320,192,48786,128,0,48873:0:0:0:0:
64,192,48873,128,0,49133:0:0:0:0:
192,192,48873,128,0,48960:0:0:0:0:
448,192,48960,128,0,49046:0:0:0:0:
192,192,49046,128,0,49162:0:0:0:0:
320,192,49046,128,0,49220:0:0:0:0:
448,192,49220,128,0,49335:0:0:0:0:
192,192,49220,128,0,49335:0:0:0:0:
64,192,49249,128,0,49393:0:0:0:0:
320,192,49393,128,0,49509:0:0:0:0:
192,192,49393,1,0,0:0:0:0:
448,192,49480,128,0,49567:0:0:0:0:
192,192,49480,1,0,0:0:0:0:
320,192,49567,128,0,49682:0:0:0:0:
64,192,49567,128,0,49740:0:0:0:0:
448,192,49653,128,0,49740:0:0:0:0:
192,192,49740,128,0,50000:0:0:0:0:
320,192,49740,1,0,0:0:0:0:
64,192,49827,1,0,0:0:0:0:
448,192,49913,1,0,0:0:0:0:
320,192,49913,128,0,50000:0:0:0:0:
64,192,50000,128,0,50087:0:0:0:0:
320,192,50087,128,0,50260:0:0:0:0:
192,192,50087,128,0,50173:0:0:0:0:
448,192,50087,128,0,50173:0:0:0:0:
64,192,50173,128,0,50260:0:0:0:0:
448,192,50260,128,0,50347:0:0:0:0:
192,192,50260,128,0,50347:0:0:0:0:
320,192,50347,128,0,50434:0:0:0:0:
192,192,50434,128,0,50520:0:0:0:0:
448,192,50434,128,0,50549:0:0:0:0:
64,192,50462,128,0,50636:0:0:0:0:
192,192,50607,128,0,50723:0:0:0:0:
320,192,50607,128,0,50694:0:0:0:0:
448,192,50636,128,0,50780:0:0:0:0:
320,192,50780,128,0,50867:0:0:0:0:
64,192,50780,128,0,50867:0:0:0:0:
192,192,50867,128,0,50954:0:0:0:0:
448,192,50867,128,0,50954:0:0:0:0:
320,192,50954,128,0,51041:0:0:0:0:
64,192,50954,128,0,51041:0:0:0:0:
192,192,51041,128,0,51127:0:0:0:0:
448,192,51041,128,0,51127:0:0:0:0:
320,192,51127,128,0,51214:0:0:0:0:
64,192,51127,128,0,51214:0:0:0:0:
192,192,51214,128,0,51301:0:0:0:0:
448,192,51214,128,0,51301:0:0:0:0:
320,192,51301,128,0,51416:0:0:0:0:
64,192,51301,128,0,51387:0:0:0:0:
192,192,51387,128,0,51474:0:0:0:0:
448,192,51474,128,0,51590:0:0:0:0:
320,192,51474,128,0,51590:0:0:0:0:
64,192,51503,128,0,51619:0:0:0:0:
192,192,51647,128,0,51763:0:0:0:0:
320,192,51647,128,0,51763:0:0:0:0:
448,192,51676,128,0,51792:0:0:0:0:
64,192,51821,128,0,51936:0:0:0:0:
320,192,51821,128,0,51936:0:0:0:0:
192,192,51850,128,0,51965:0:0:0:0:
448,192,51908,1,0,0:0:0:0:
320,192,51994,1,0,0:0:0:0:
192,192,52081,1,0,0:0:0:0:
320,192,52168,128,0,52312:0:0:0:0:
448,192,52168,128,0,52341:0:0:0:0:
64,192,52168,1,0,0:0:0:0:
64,192,52254,1,0,0:0:0:0:
192,192,52341,128,0,52428:0:0:0:0:
320,192,52428,128,0,52515:0:0:0:0:
448,192,52515,1,0,0:0:0:0:
64,192,52515,128,0,52688:0:0:0:0:
192,192,52515,128,0,52630:0:0:0:0:
448,192,52601,1,0,0:0:0:0:
320,192,52688,128,0,52775:0:0:0:0:
192,192,52775,128,0,52861:0:0:0:0:
64,192,52861,1,0,0:0:0:0:
448,192,52861,128,0,52977:0:0:0:0:
320,192,52861,128,0,53035:0:0:0:0:
64,192,52948,1,0,0:0:0:0:
192,192,53035,128,0,53121:0:0:0:0:
448,192,53121,128,0,53208:0:0:0:0:
192,192,53208,128,0,53324:0:0:0:0:
320,192,53208,128,0,53324:0:0:0:0:
64,192,53237,128,0,53410:0:0:0:0:
192,192,53382,128,0,53497:0:0:0:0:
320,192,53382,128,0,53497:0:0:0:0:
448,192,53410,128,0,53584:0:0:0:0:
192,192,53555,128,0,53671:0:0:0:0:
320,192,53555,1,0,0:0:0:0:
64,192,53555,128,0,53728:0:0:0:0:
320,192,53642,1,0,0:0:0:0:
448,192,53728,128,0,53815:0:0:0:0:
192,192,53815,128,0,53902:0:0:0:0:
448,192,53902,128,0,54017:0:0:0:0:
64,192,53902,1,0,0:0:0:0:
320,192,53902,128,0,54075:0:0:0:0:
64,192,53989,1,0,0:0:0:0:
192,192,54075,128,0,54162:0:0:0:0:
448,192,54075,128,0,54162:0:0:0:0:
320,192,54162,128,0,54249:0:0:0:0:
448,192,54249,1,0,0:0:0:0:
192,192,54249,128,0,54335:0:0:0:0:
64,192,54249,128,0,54364:0:0:0:0:
448,192,54335,1,0,0:0:0:0:
192,192,54422,128,0,54509:0:0:0:0:
320,192,54509,128,0,54595:0:0:0:0:
448,192,54595,128,0,54711:0:0:0:0:
192,192,54595,128,0,54711:0:0:0:0:
64,192,54624,128,0,54798:0:0:0:0:
192,192,54769,128,0,54884:0:0:0:0:
448,192,54769,128,0,54884:0:0:0:0:
320,192,54798,128,0,54971:0:0:0:0:
448,192,54942,1,0,0:0:0:0:
192,192,54942,128,0,55058:0:0:0:0:
64,192,54942,128,0,55116:0:0:0:0:
448,192,55029,1,0,0:0:0:0:
320,192,55116,128,0,55231:0:0:0:0:
192,192,55116,128,0,55202:0:0:0:0:
64,192,55202,128,0,55289:0:0:0:0:
192,192,55289,1,0,0:0:0:0:
320,192,55289,128,0,55405:0:0:0:0:
448,192,55289,128,0,55462:0:0:0:0:
192,192,55376,128,0,55462:0:0:0:0:
320,192,55462,128,0,55549:0:0:0:0:
192,192,55549,128,0,55636:0:0:0:0:
448,192,55636,128,0,55809:0:0:0:0:
64,192,55636,1,0,0:0:0:0:
320,192,55636,128,0,55752:0:0:0:0:
64,192,55723,1,0,0:0:0:0:
192,192,55809,128,0,55896:0:0:0:0:
320,192,55896,128,0,55983:0:0:0:0:
64,192,55983,128,0,56069:0:0:0:0:
192,192,55983,128,0,56098:0:0:0:0:
448,192,56012,128,0,56185:0:0:0:0:
320,192,56156,128,0,56272:0:0:0:0:
192,192,56156,128,0,56272:0:0:0:0:
64,192,56185,128,0,56358:0:0:0:0:
320,192,56330,128,0,56416:0:0:0:0:
448,192,56330,128,0,56503:0:0:0:0:
192,192,56416,128,0,56503:0:0:0:0:
320,192,56503,1,0,0:0:0:0:
64,192,56503,128,0,56676:0:0:0:0:
320,192,56590,128,0,56676:0:0:0:0:
448,192,56676,128,0,56792:0:0:0:0:
192,192,56676,1,0,0:0:0:0:
192,192,56763,128,0,56850:0:0:0:0:
64,192,56850,128,0,56965:0:0:0:0:
448,192,56850,128,0,56936:0:0:0:0:
320,192,56936,128,0,57023:0:0:0:0:
448,192,57023,128,0,57139:0:0:0:0:
64,192,57023,128,0,57197:0:0:0:0:
192,192,57023,128,0,57110:0:0:0:0:
320,192,57110,128,0,57254:0:0:0:0:
448,192,57197,128,0,57283:0:0:0:0:
192,192,57197,128,0,57283:0:0:0:0:
64,192,57283,128,0,57370:0:0:0:0:
320,192,57370,128,0,57486:0:0:0:0:
192,192,57370,128,0,57486:0:0:0:0:
448,192,57399,128,0,57572:0:0:0:0:
192,192,57543,128,0,57717:0:0:0:0:
320,192,57543,128,0,57659:0:0:0:0:
64,192,57572,128,0,57659:0:0:0:0:
448,192,57717,128,0,57804:0:0:0:0:
320,192,57717,1,0,0:0:0:0:
64,192,57717,128,0,57977:0:0:0:0:
320,192,57804,128,0,57977:0:0:0:0:
192,192,57804,128,0,57890:0:0:0:0:
448,192,57890,128,0,57977:0:0:0:0:
192,192,57977,128,0,58064:0:0:0:0:
448,192,58064,128,0,58150:0:0:0:0:
320,192,58064,128,0,58237:0:0:0:0:
64,192,58064,128,0,58150:0:0:0:0:
64,192,58237,128,0,58324:0:0:0:0:
192,192,58237,1,0,0:0:0:0:
448,192,58237,128,0,58497:0:0:0:0:
192,192,58324,128,0,58497:0:0:0:0:
320,192,58324,128,0,58410:0:0:0:0:
64,192,58410,128,0,58497:0:0:0:0:
320,192,58497,128,0,58584:0:0:0:0:
64,192,58584,128,0,58844:0:0:0:0:
192,192,58584,128,0,58671:0:0:0:0:
448,192,58671,128,0,58757:0:0:0:0:
192,192,58757,128,0,58873:0:0:0:0:
320,192,58757,128,0,58931:0:0:0:0:
64,192,58931,128,0,59017:0:0:0:0:
192,192,58931,128,0,59104:0:0:0:0:
448,192,58960,128,0,59133:0:0:0:0:
320,192,59104,128,0,59191:0:0:0:0:
64,192,59104,128,0,59191:0:0:0:0:
192,192,59191,128,0,59278:0:0:0:0:
448,192,59278,128,0,59538:0:0:0:0:
320,192,59278,128,0,59364:0:0:0:0:
64,192,59364,128,0,59451:0:0:0:0:
320,192,59451,128,0,59567:0:0:0:0:
192,192,59451,128,0,59624:0:0:0:0:
64,192,59624,128,0,59740:0:0:0:0:
320,192,59624,128,0,59740:0:0:0:0:
448,192,59653,128,0,59798:0:0:0:0:
64,192,59798,128,0,59884:0:0:0:0:
320,192,59798,128,0,59884:0:0:0:0:
192,192,59884,128,0,59971:0:0:0:0:
320,192,59971,128,0,60058:0:0:0:0:
448,192,59971,128,0,60231:0:0:0:0:
64,192,60058,128,0,60145:0:0:0:0:
192,192,60145,128,0,60318:0:0:0:0:
320,192,60145,128,0,60260:0:0:0:0:
320,192,60318,128,0,60434:0:0:0:0:
64,192,60318,128,0,60434:0:0:0:0:
448,192,60347,128,0,60491:0:0:0:0:
64,192,60491,1,0,0:0:0:0:
192,192,60491,128,0,60607:0:0:0:0:
448,192,60578,128,0,60665:0:0:0:0:
320,192,60578,128,0,60723:0:0:0:0:
64,192,60665,128,0,60838:0:0:0:0:
192,192,60665,128,0,60780:0:0:0:0:
448,192,60752,128,0,60838:0:0:0:0:
320,192,60838,128,0,61098:0:0:0:0:
192,192,60838,128,0,60925:0:0:0:0:
64,192,60925,128,0,61012:0:0:0:0:
192,192,61012,128,0,61127:0:0:0:0:
448,192,61012,128,0,61098:0:0:0:0:
64,192,61098,128,0,61185:0:0:0:0:
448,192,61185,128,0,61272:0:0:0:0:
320,192,61185,128,0,61272:0:0:0:0:
192,192,61185,128,0,61358:0:0:0:0:
64,192,61272,128,0,61358:0:0:0:0:
320,192,61358,128,0,61445:0:0:0:0:
448,192,61358,128,0,61445:0:0:0:0:
192,192,61445,128,0,61532:0:0:0:0:
64,192,61532,128,0,61647:0:0:0:0:
320,192,61532,128,0,61619:0:0:0:0:
448,192,61561,128,0,61734:0:0:0:0:
192,192,61705,128,0,61879:0:0:0:0:
64,192,61705,128,0,61792:0:0:0:0:
320,192,61734,128,0,61850:0:0:0:0:
448,192,61879,128,0,61965:0:0:0:0:
64,192,61879,128,0,61965:0:0:0:0:
192,192,61965,128,0,62052:0:0:0:0:
320,192,61965,128,0,62052:0:0:0:0:
448,192,62052,128,0,62139:0:0:0:0:
64,192,62052,128,0,62139:0:0:0:0:
192,192,62139,128,0,62226:0:0:0:0:
320,192,62139,128,0,62226:0:0:0:0:
448,192,62226,128,0,62312:0:0:0:0:
64,192,62226,128,0,62312:0:0:0:0:
192,192,62312,128,0,62399:0:0:0:0:
320,192,62312,128,0,62399:0:0:0:0:
448,192,62399,128,0,62486:0:0:0:0:
64,192,62399,128,0,62515:0:0:0:0:
320,192,62486,128,0,62572:0:0:0:0:
192,192,62572,128,0,62688:0:0:0:0:
64,192,62572,128,0,62688:0:0:0:0:
448,192,62601,128,0,62717:0:0:0:0:
192,192,62746,128,0,62861:0:0:0:0:
320,192,62746,128,0,62861:0:0:0:0:
64,192,62775,128,0,62890:0:0:0:0:
192,192,62919,128,0,63035:0:0:0:0:
448,192,62919,128,0,63035:0:0:0:0:
320,192,62948,128,0,63064:0:0:0:0:
64,192,62977,128,0,63093:0:0:0:0:
192,192,63093,128,0,63266:0:0:0:0:
320,192,63266,128,0,63613:0:0:0:0:
448,192,64249,1,0,0:0:0:0:
320,192,64278,1,0,0:0:0:0:
64,192,64306,128,0,64769:0:0:0:0:
320,192,64653,128,0,64942:0:0:0:0:
192,192,64653,128,0,64827:0:0:0:0:
448,192,64682,128,0,64827:0:0:0:0:
64,192,64827,1,0,0:0:0:0:
192,192,64913,1,0,0:0:0:0:
320,192,65000,128,0,65289:0:0:0:0:
448,192,65000,128,0,65087:0:0:0:0:
64,192,65087,128,0,65173:0:0:0:0:
192,192,65173,128,0,65260:0:0:0:0:
448,192,65260,128,0,65376:0:0:0:0:
320,192,65347,128,0,65636:0:0:0:0:
64,192,65347,128,0,65520:0:0:0:0:
192,192,65434,128,0,65520:0:0:0:0:
448,192,65520,128,0,65607:0:0:0:0:
64,192,65607,128,0,65694:0:0:0:0:
320,192,65694,128,0,65983:0:0:0:0:
448,192,65694,128,0,65867:0:0:0:0:
192,192,65780,128,0,65867:0:0:0:0:
64,192,65867,128,0,65954:0:0:0:0:
448,192,65954,128,0,66041:0:0:0:0:
192,192,66041,128,0,66330:0:0:0:0:
320,192,66041,128,0,66214:0:0:0:0:
64,192,66041,128,0,66127:0:0:0:0:
448,192,66127,128,0,66214:0:0:0:0:
64,192,66214,128,0,66301:0:0:0:0:
320,192,66301,128,0,66387:0:0:0:0:
192,192,66387,128,0,66676:0:0:0:0:
64,192,66387,128,0,66561:0:0:0:0:
448,192,66474,128,0,66561:0:0:0:0:
320,192,66561,128,0,66647:0:0:0:0:
192,192,66734,128,0,67023:0:0:0:0:
64,192,66734,128,0,66908:0:0:0:0:
320,192,66821,1,0,0:0:0:0:
448,192,66908,128,0,66994:0:0:0:0:
320,192,66936,128,0,67081:0:0:0:0:
192,192,67081,128,0,67370:0:0:0:0:
64,192,67081,128,0,67254:0:0:0:0:
320,192,67168,128,0,67341:0:0:0:0:
448,192,67254,128,0,67341:0:0:0:0:
64,192,67341,128,0,67428:0:0:0:0:
448,192,67428,128,0,67717:0:0:0:0:
320,192,67428,128,0,67601:0:0:0:0:
192,192,67457,128,0,67601:0:0:0:0:
64,192,67601,1,0,0:0:0:0:
192,192,67688,1,0,0:0:0:0:
448,192,67775,128,0,68064:0:0:0:0:
320,192,67775,128,0,67861:0:0:0:0:
64,192,67861,128,0,67948:0:0:0:0:
192,192,67948,128,0,68035:0:0:0:0:
320,192,68035,128,0,68121:0:0:0:0:
448,192,68121,128,0,68410:0:0:0:0:
64,192,68121,128,0,68295:0:0:0:0:
320,192,68208,128,0,68295:0:0:0:0:
192,192,68295,128,0,68382:0:0:0:0:
64,192,68382,128,0,68468:0:0:0:0:
448,192,68468,128,0,68757:0:0:0:0:
320,192,68468,128,0,68642:0:0:0:0:
192,192,68555,128,0,68642:0:0:0:0:
64,192,68642,128,0,68728:0:0:0:0:
320,192,68728,128,0,68815:0:0:0:0:
64,192,68815,128,0,69104:0:0:0:0:
448,192,68815,128,0,68989:0:0:0:0:
192,192,68815,128,0,68902:0:0:0:0:
320,192,68902,128,0,68989:0:0:0:0:
192,192,68989,128,0,69075:0:0:0:0:
448,192,69075,128,0,69162:0:0:0:0:
64,192,69162,128,0,69451:0:0:0:0:
192,192,69162,128,0,69335:0:0:0:0:
448,192,69249,128,0,69364:0:0:0:0:
320,192,69335,128,0,69451:0:0:0:0:
192,192,69422,128,0,69538:0:0:0:0:
64,192,69509,128,0,69798:0:0:0:0:
448,192,69509,128,0,69624:0:0:0:0:
192,192,69595,128,0,69682:0:0:0:0:
320,192,69682,128,0,69798:0:0:0:0:
448,192,69769,128,0,69884:0:0:0:0:
64,192,69856,128,0,70145:0:0:0:0:
192,192,69856,128,0,70116:0:0:0:0:
320,192,69856,128,0,69971:0:0:0:0:
448,192,69942,128,0,70087:0:0:0:0:
320,192,70029,128,0,70145:0:0:0:0:
192,192,70202,128,0,70491:0:0:0:0:
448,192,70202,1,0,0:0:0:0:
320,192,70376,128,0,70809:0:0:0:0:
192,192,70549,128,0,70838:0:0:0:0:
64,192,70549,128,0,70780:0:0:0:0:
448,192,70723,128,0,70896:0:0:0:0:
192,192,70896,128,0,71185:0:0:0:0:
64,192,70896,128,0,71069:0:0:0:0:
320,192,70925,128,0,71098:0:0:0:0:
192,192,71243,128,0,71532:0:0:0:0:
448,192,71243,128,0,71330:0:0:0:0:
64,192,71272,128,0,71416:0:0:0:0:
320,192,71330,1,0,0:0:0:0:
448,192,71416,1,0,0:0:0:0:
64,192,71503,1,0,0:0:0:0:
320,192,71590,128,0,71879:0:0:0:0:
192,192,71590,128,0,71763:0:0:0:0:
448,192,71590,128,0,71676:0:0:0:0:
64,192,71676,128,0,71763:0:0:0:0:
448,192,71763,128,0,71850:0:0:0:0:
192,192,71850,128,0,71936:0:0:0:0:
320,192,71936,128,0,72226:0:0:0:0:
448,192,71936,128,0,72110:0:0:0:0:
64,192,72023,128,0,72110:0:0:0:0:
192,192,72110,128,0,72197:0:0:0:0:
320,192,72283,128,0,72572:0:0:0:0:
448,192,72283,128,0,72399:0:0:0:0:
192,192,72370,1,0,0:0:0:0:
64,192,72457,128,0,72572:0:0:0:0:
192,192,72486,128,0,72630:0:0:0:0:
448,192,72630,128,0,72746:0:0:0:0:
320,192,72630,128,0,72919:0:0:0:0:
64,192,72717,128,0,72832:0:0:0:0:
192,192,72804,128,0,72919:0:0:0:0:
448,192,72890,128,0,72977:0:0:0:0:
64,192,72977,128,0,73266:0:0:0:0:
320,192,72977,128,0,73150:0:0:0:0:
192,192,73006,128,0,73150:0:0:0:0:
448,192,73150,1,0,0:0:0:0:
320,192,73237,1,0,0:0:0:0:
64,192,73324,128,0,73613:0:0:0:0:
192,192,73324,128,0,73410:0:0:0:0:
448,192,73410,128,0,73497:0:0:0:0:
192,192,73497,128,0,73584:0:0:0:0:
320,192,73584,128,0,73671:0:0:0:0:
64,192,73671,128,0,73960:0:0:0:0:
448,192,73671,128,0,73844:0:0:0:0:
192,192,73757,128,0,73844:0:0:0:0:
320,192,73844,128,0,73931:0:0:0:0:
448,192,73931,128,0,74017:0:0:0:0:
64,192,74017,128,0,74306:0:0:0:0:
192,192,74017,128,0,74191:0:0:0:0:
320,192,74104,128,0,74191:0:0:0:0:
448,192,74191,128,0,74278:0:0:0:0:
192,192,74278,128,0,74364:0:0:0:0:
448,192,74364,128,0,74653:0:0:0:0:
64,192,74364,128,0,74538:0:0:0:0:
320,192,74364,128,0,74451:0:0:0:0:
192,192,74451,128,0,74538:0:0:0:0:
320,192,74538,128,0,74624:0:0:0:0:
192,192,74624,128,0,74711:0:0:0:0:
448,192,74711,128,0,75000:0:0:0:0:
320,192,74711,128,0,74884:0:0:0:0:
64,192,74798,128,0,74884:0:0:0:0:
192,192,74884,128,0,74971:0:0:0:0:
64,192,74971,128,0,75058:0:0:0:0:
448,192,75058,128,0,75347:0:0:0:0:
320,192,75058,1,0,0:0:0:0:
192,192,75145,1,0,0:0:0:0:
320,192,75231,1,0,0:0:0:0:
64,192,75231,128,0,75318:0:0:0:0:
192,192,75318,1,0,0:0:0:0:
448,192,75405,128,0,75694:0:0:0:0:
64,192,75405,128,0,75520:0:0:0:0:
320,192,75434,128,0,75665:0:0:0:0:
192,192,75578,128,0,75694:0:0:0:0:
64,192,75607,128,0,75752:0:0:0:0:
320,192,75752,128,0,76012:0:0:0:0:
192,192,75752,128,0,75925:0:0:0:0:
64,192,76098,1,0,0:0:0:0:
192,192,76272,1,0,0:0:0:0:
448,192,76272,128,0,76445:0:0:0:0:
320,192,76445,128,0,76561:0:0:0:0:
64,192,76474,128,0,76590:0:0:0:0:
192,192,76503,128,0,76619:0:0:0:0:
448,192,76619,128,0,76734:0:0:0:0:
64,192,76792,128,0,76965:0:0:0:0:
192,192,76965,128,0,77139:0:0:0:0:
320,192,76965,128,0,77081:0:0:0:0:
448,192,77139,1,0,0:0:0:0:
320,192,77312,128,0,77399:0:0:0:0:
192,192,77312,128,0,77428:0:0:0:0:
64,192,77486,1,0,0:0:0:0:
320,192,77659,128,0,77832:0:0:0:0:
448,192,77832,128,0,77948:0:0:0:0:
64,192,77861,128,0,77977:0:0:0:0:
192,192,77890,128,0,78006:0:0:0:0:
320,192,78006,128,0,78121:0:0:0:0:
64,192,78179,1,0,0:0:0:0:
192,192,78266,1,0,0:0:0:0:
320,192,78353,128,0,78526:0:0:0:0:
64,192,78353,1,0,0:0:0:0:
192,192,78439,1,0,0:0:0:0:
448,192,78526,128,0,78642:0:0:0:0:
64,192,78555,128,0,78671:0:0:0:0:
192,192,78584,128,0,78699:0:0:0:0:
320,192,78699,128,0,78815:0:0:0:0:
448,192,78699,1,0,0:0:0:0:
448,192,78873,1,0,0:0:0:0:
320,192,79046,128,0,79220:0:0:0:0:
448,192,79220,128,0,79335:0:0:0:0:
64,192,79249,128,0,79364:0:0:0:0:
192,192,79278,128,0,79393:0:0:0:0:
320,192,79393,128,0,79509:0:0:0:0:
192,192,79567,1,0,0:0:0:0:
320,192,79740,128,0,79913:0:0:0:0:
64,192,79913,128,0,80029:0:0:0:0:
192,192,79913,128,0,79971:0:0:0:0:
192,192,80029,128,0,80145:0:0:0:0:
320,192,80029,128,0,80087:0:0:0:0:
320,192,80145,128,0,80260:0:0:0:0:
448,192,80145,128,0,80202:0:0:0:0:
192,192,80260,128,0,80318:0:0:0:0:
64,192,80260,128,0,80376:0:0:0:0:
192,192,80376,128,0,80491:0:0:0:0:
320,192,80376,128,0,80434:0:0:0:0:
320,192,80491,128,0,80607:0:0:0:0:
448,192,80491,128,0,80549:0:0:0:0:
64,192,80607,128,0,80694:0:0:0:0:
192,192,80636,128,0,80723:0:0:0:0:
448,192,80665,128,0,80780:0:0:0:0:
320,192,80780,1,0,0:0:0:0:
192,192,80954,128,0,81127:0:0:0:0:
320,192,80983,128,0,81214:0:0:0:0:
448,192,81012,128,0,81301:0:0:0:0:
192,192,81301,128,0,81561:0:0:0:0:
64,192,81301,128,0,81474:0:0:0:0:
448,192,81647,1,0,0:0:0:0:
320,192,81821,1,0,0:0:0:0:
64,192,81821,128,0,81994:0:0:0:0:
192,192,81994,128,0,82110:0:0:0:0:
448,192,82023,128,0,82139:0:0:0:0:
320,192,82052,128,0,82168:0:0:0:0:
64,192,82168,128,0,82283:0:0:0:0:
448,192,82341,128,0,82515:0:0:0:0:
320,192,82515,128,0,82688:0:0:0:0:
192,192,82515,128,0,82630:0:0:0:0:
64,192,82688,1,0,0:0:0:0:
192,192,82861,128,0,82948:0:0:0:0:
320,192,82861,128,0,82977:0:0:0:0:
448,192,83035,1,0,0:0:0:0:
192,192,83208,128,0,83382:0:0:0:0:
64,192,83382,128,0,83497:0:0:0:0:
448,192,83410,128,0,83526:0:0:0:0:
320,192,83439,128,0,83555:0:0:0:0:
192,192,83555,128,0,83671:0:0:0:0:
64,192,83728,1,0,0:0:0:0:
192,192,83728,128,0,84075:0:0:0:0:
320,192,83815,1,0,0:0:0:0:
64,192,83902,1,0,0:0:0:0:
320,192,83989,1,0,0:0:0:0:
64,192,84075,128,0,84292:0:0:0:0:
448,192,84075,128,0,84249:0:0:0:0:
192,192,84205,128,0,84379:0:0:0:0:
320,192,84335,128,0,84422:0:0:0:0:
64,192,84422,128,0,84639:0:0:0:0:
448,192,84422,128,0,84595:0:0:0:0:
192,192,84552,128,0,84942:0:0:0:0:
320,192,84682,128,0,84812:0:0:0:0:
448,192,84769,128,0,85029:0:0:0:0:
64,192,84769,128,0,85029:0:0:0:0:
320,192,84899,128,0,85159:0:0:0:0:
192,192,85029,128,0,85289:0:0:0:0:
64,192,85116,128,0,85376:0:0:0:0:
448,192,85116,128,0,85376:0:0:0:0:
320,192,85246,128,0,85419:0:0:0:0:
192,192,85376,128,0,85462:0:0:0:0:
448,192,85462,128,0,85723:0:0:0:0:
64,192,85462,128,0,85983:0:0:0:0:
192,192,85593,128,0,85723:0:0:0:0:
320,192,85723,128,0,85853:0:0:0:0:
192,192,85809,128,0,86069:0:0:0:0:
448,192,85809,128,0,86069:0:0:0:0:
320,192,85939,128,0,86069:0:0:0:0:
64,192,86069,128,0,86214:0:0:0:0:
320,192,86156,128,0,86416:0:0:0:0:
192,192,86156,128,0,86243:0:0:0:0:
448,192,86185,128,0,86416:0:0:0:0:
64,192,86301,128,0,86763:0:0:0:0:
192,192,86330,128,0,86763:0:0:0:0:
448,192,86503,128,0,86850:0:0:0:0:
320,192,86503,1,0,0:0:0:0:
320,192,86619,1,0,0:0:0:0:
320,192,86734,1,0,0:0:0:0:
192,192,86850,128,0,87197:0:0:0:0:
64,192,86850,128,0,87081:0:0:0:0:
448,192,87023,128,0,87370:0:0:0:0:
320,192,87197,128,0,87659:0:0:0:0:
64,192,87370,128,0,87775:0:0:0:0:
192,192,87370,128,0,87659:0:0:0:0:
448,192,87543,128,0,87775:0:0:0:0:
192,192,87717,128,0,87832:0:0:0:0:
320,192,87717,128,0,87890:0:0:0:0:
448,192,87890,1,0,0:0:0:0:
64,192,87934,1,0,0:0:0:0:
192,192,87977,1,0,0:0:0:0:
320,192,88020,1,0,0:0:0:0:
448,192,88064,128,0,88179:0:0:0:0:
64,192,88121,1,0,0:0:0:0:
192,192,88179,1,0,0:0:0:0:
320,192,88237,1,0,0:0:0:0:
448,192,88295,1,0,0:0:0:0:
64,192,88353,1,0,0:0:0:0:
320,192,88410,128,0,88526:0:0:0:0:
192,192,88497,1,0,0:0:0:0:
448,192,88584,1,0,0:0:0:0:
320,192,88642,1,0,0:0:0:0:
64,192,88671,1,0,0:0:0:0:
192,192,88757,128,0,88873:0:0:0:0:
64,192,88786,128,0,88902:0:0:0:0:
320,192,88844,1,0,0:0:0:0:
448,192,88931,128,0,89046:0:0:0:0:
192,192,88960,128,0,89104:0:0:0:0:
64,192,88989,128,0,89133:0:0:0:0:
320,192,89104,128,0,89278:0:0:0:0:
448,192,89104,1,0,0:0:0:0:
64,192,89278,1,0,0:0:0:0:
192,192,89451,1,0,0:0:0:0:
320,192,89451,128,0,89624:0:0:0:0:
448,192,89624,128,0,89740:0:0:0:0:
64,192,89653,128,0,89769:0:0:0:0:
192,192,89682,128,0,89798:0:0:0:0:
320,192,89711,1,0,0:0:0:0:
448,192,89798,128,0,89913:0:0:0:0:
64,192,89971,1,0,0:0:0:0:
320,192,90145,128,0,90318:0:0:0:0:
448,192,90318,128,0,90434:0:0:0:0:
64,192,90347,128,0,90462:0:0:0:0:
192,192,90376,128,0,90491:0:0:0:0:
320,192,90491,128,0,90607:0:0:0:0:
448,192,90665,128,0,90925:0:0:0:0:
192,192,90838,128,0,91012:0:0:0:0:
64,192,90838,128,0,91098:0:0:0:0:
320,192,91012,128,0,91069:0:0:0:0:
448,192,91012,128,0,91127:0:0:0:0:
192,192,91127,128,0,91185:0:0:0:0:
320,192,91127,128,0,91243:0:0:0:0:
64,192,91243,128,0,91301:0:0:0:0:
192,192,91243,128,0,91358:0:0:0:0:
448,192,91358,128,0,91474:0:0:0:0:
320,192,91358,128,0,91416:0:0:0:0:
192,192,91474,128,0,91532:0:0:0:0:
320,192,91474,128,0,91590:0:0:0:0:
64,192,91590,128,0,91647:0:0:0:0:
192,192,91590,128,0,91705:0:0:0:0:
448,192,91705,128,0,91792:0:0:0:0:
320,192,91734,128,0,91821:0:0:0:0:
64,192,91763,128,0,91879:0:0:0:0:
192,192,91879,1,0,0:0:0:0:
320,192,92052,128,0,92226:0:0:0:0:
192,192,92081,128,0,92312:0:0:0:0:
64,192,92110,128,0,92399:0:0:0:0:
448,192,92399,128,0,92572:0:0:0:0:
320,192,92399,128,0,92659:0:0:0:0:
64,192,92746,1,0,0:0:0:0:
448,192,92919,128,0,93093:0:0:0:0:
192,192,92919,1,0,0:0:0:0:
320,192,93093,128,0,93208:0:0:0:0:
64,192,93121,128,0,93237:0:0:0:0:
192,192,93150,128,0,93266:0:0:0:0:
448,192,93266,128,0,93382:0:0:0:0:
64,192,93439,128,0,93613:0:0:0:0:
320,192,93613,128,0,93728:0:0:0:0:
192,192,93613,128,0,93786:0:0:0:0:
448,192,93786,1,0,0:0:0:0:
192,192,93960,128,0,94075:0:0:0:0:
320,192,93960,128,0,94046:0:0:0:0:
64,192,94133,1,0,0:0:0:0:
320,192,94306,128,0,94480:0:0:0:0:
448,192,94480,128,0,94595:0:0:0:0:
64,192,94509,128,0,94624:0:0:0:0:
192,192,94538,128,0,94653:0:0:0:0:
320,192,94653,128,0,94769:0:0:0:0:
320,192,94827,128,0,95173:0:0:0:0:
448,192,94827,1,0,0:0:0:0:
192,192,94913,1,0,0:0:0:0:
448,192,95000,1,0,0:0:0:0:
192,192,95087,1,0,0:0:0:0:
64,192,95173,128,0,95434:0:0:0:0:
448,192,95173,128,0,95434:0:0:0:0:
192,192,95217,128,0,95347:0:0:0:0:
320,192,95304,128,0,95564:0:0:0:0:
192,192,95434,128,0,95694:0:0:0:0:
64,192,95520,128,0,95780:0:0:0:0:
448,192,95520,128,0,95780:0:0:0:0:
320,192,95650,128,0,96041:0:0:0:0:
192,192,95780,128,0,95910:0:0:0:0:
448,192,95867,128,0,96127:0:0:0:0:
64,192,95867,128,0,96127:0:0:0:0:
192,192,95997,128,0,96257:0:0:0:0:
320,192,96127,128,0,96387:0:0:0:0:
64,192,96214,128,0,96474:0:0:0:0:
448,192,96214,128,0,96474:0:0:0:0:
192,192,96344,128,0,96734:0:0:0:0:
320,192,96474,128,0,96604:0:0:0:0:
448,192,96561,128,0,97081:0:0:0:0:
64,192,96561,128,0,96821:0:0:0:0:
320,192,96691,128,0,96821:0:0:0:0:
192,192,96821,128,0,96951:0:0:0:0:
64,192,96908,128,0,97168:0:0:0:0:
320,192,96908,128,0,97168:0:0:0:0:
192,192,97038,128,0,97168:0:0:0:0:
448,192,97168,128,0,97312:0:0:0:0:
320,192,97254,128,0,97341:0:0:0:0:
192,192,97254,128,0,97515:0:0:0:0:
64,192,97283,128,0,97515:0:0:0:0:
448,192,97399,128,0,97861:0:0:0:0:
320,192,97428,128,0,97645:0:0:0:0:
192,192,97601,1,0,0:0:0:0:
64,192,97601,128,0,97948:0:0:0:0:
320,192,97688,1,0,0:0:0:0:
192,192,97775,1,0,0:0:0:0:
320,192,97861,1,0,0:0:0:0:
192,192,97948,128,0,98035:0:0:0:0:
448,192,97948,1,0,0:0:0:0:
320,192,98295,1,0,0:0:0:0:
192,192,98447,1,0,0:0:0:0:
64,192,98533,1,0,0:0:0:0:
320,192,98663,1,0,0:0:0:0:
64,192,98728,1,0,0:0:0:0:
192,192,98815,1,0,0:0:0:0:
448,192,98880,1,0,0:0:0:0:
320,192,98989,128,0,99162:0:0:0:0:
64,192,99017,128,0,99335:0:0:0:0:
192,192,99335,128,0,99451:0:0:0:0:
320,192,99335,128,0,99451:0:0:0:0:
448,192,99335,128,0,99422:0:0:0:0:
320,192,99509,128,0,99595:0:0:0:0:
448,192,99509,128,0,99624:0:0:0:0:
192,192,99682,128,0,99798:0:0:0:0:
448,192,99856,128,0,99942:0:0:0:0:
320,192,99856,128,0,99971:0:0:0:0:
320,192,100029,128,0,100116:0:0:0:0:
448,192,100029,128,0,100145:0:0:0:0:
192,192,100029,128,0,100145:0:0:0:0:
64,192,100376,128,0,100723:0:0:0:0:
192,192,100723,1,0,0:0:0:0:
320,192,100723,1,0,0:0:0:0:
448,192,100896,1,0,0:0:0:0:
192,192,101069,1,0,0:0:0:0:
320,192,101243,1,0,0:0:0:0:
192,192,101330,1,0,0:0:0:0:
320,192,101416,1,0,0:0:0:0:
192,192,101590,1,0,0:0:0:0:
320,192,101676,1,0,0:0:0:0:
64,192,101763,128,0,101936:0:0:0:0:
448,192,101936,128,0,102110:0:0:0:0:
320,192,102110,1,0,0:0:0:0:
192,192,102283,1,0,0:0:0:0:
320,192,102370,1,0,0:0:0:0:
192,192,102457,1,0,0:0:0:0:
192,192,102630,1,0,0:0:0:0:
320,192,102717,1,0,0:0:0:0:
192,192,102804,1,0,0:0:0:0:
320,192,102977,1,0,0:0:0:0:
192,192,103064,1,0,0:0:0:0:
448,192,103150,128,0,103324:0:0:0:0:
64,192,103324,128,0,103497:0:0:0:0:
320,192,103497,1,0,0:0:0:0:
320,192,103671,1,0,0:0:0:0:
192,192,103757,1,0,0:0:0:0:
320,192,103844,1,0,0:0:0:0:
192,192,104017,1,0,0:0:0:0:
320,192,104104,1,0,0:0:0:0:
192,192,104191,1,0,0:0:0:0:
320,192,104364,1,0,0:0:0:0:
192,192,104451,1,0,0:0:0:0:
448,192,104538,128,0,104711:0:0:0:0:
64,192,104711,128,0,104884:0:0:0:0:
192,192,104884,128,0,104971:0:0:0:0:
448,192,105058,128,0,105145:0:0:0:0:
320,192,105145,128,0,105231:0:0:0:0:
448,192,105231,128,0,105347:0:0:0:0:
64,192,105405,128,0,105491:0:0:0:0:
192,192,105491,128,0,105578:0:0:0:0:
64,192,105578,128,0,105694:0:0:0:0:
192,192,105752,128,0,105838:0:0:0:0:
320,192,105838,128,0,105925:0:0:0:0:
448,192,105925,128,0,106098:0:0:0:0:
192,192,105925,128,0,106185:0:0:0:0:
64,192,106098,128,0,106272:0:0:0:0:
320,192,106272,128,0,106358:0:0:0:0:
192,192,106272,128,0,106358:0:0:0:0:
448,192,106301,128,0,106387:0:0:0:0:
64,192,106358,128,0,106445:0:0:0:0:
192,192,106445,128,0,106532:0:0:0:0:
64,192,106532,128,0,106619:0:0:0:0:
192,192,106619,128,0,106734:0:0:0:0:
448,192,106619,1,0,0:0:0:0:
320,192,106647,1,0,0:0:0:0:
320,192,106792,128,0,106879:0:0:0:0:
64,192,106792,1,0,0:0:0:0:
448,192,106879,128,0,106965:0:0:0:0:
320,192,106965,128,0,107052:0:0:0:0:
192,192,106965,128,0,107081:0:0:0:0:
448,192,107052,128,0,107139:0:0:0:0:
320,192,107139,128,0,107226:0:0:0:0:
64,192,107139,128,0,107254:0:0:0:0:
192,192,107226,128,0,107312:0:0:0:0:
320,192,107312,128,0,107486:0:0:0:0:
448,192,107312,128,0,107428:0:0:0:0:
64,192,107486,128,0,107659:0:0:0:0:
192,192,107486,128,0,107601:0:0:0:0:
320,192,107659,128,0,107746:0:0:0:0:
192,192,107688,1,0,0:0:0:0:
448,192,107746,128,0,107832:0:0:0:0:
320,192,107832,128,0,107919:0:0:0:0:
64,192,107832,1,0,0:0:0:0:
448,192,107919,128,0,108006:0:0:0:0:
320,192,108006,128,0,108179:0:0:0:0:
64,192,108006,128,0,108353:0:0:0:0:
448,192,108179,128,0,108353:0:0:0:0:
192,192,108179,128,0,108295:0:0:0:0:
320,192,108353,128,0,108439:0:0:0:0:
192,192,108382,1,0,0:0:0:0:
448,192,108439,128,0,108526:0:0:0:0:
64,192,108526,1,0,0:0:0:0:
320,192,108526,128,0,108613:0:0:0:0:
448,192,108613,128,0,108699:0:0:0:0:
64,192,108699,128,0,109046:0:0:0:0:
320,192,108699,128,0,108873:0:0:0:0:
448,192,108873,128,0,109046:0:0:0:0:
192,192,108873,128,0,108989:0:0:0:0:
320,192,109046,1,0,0:0:0:0:
192,192,109046,128,0,109162:0:0:0:0:
64,192,109133,128,0,109220:0:0:0:0:
192,192,109220,128,0,109335:0:0:0:0:
448,192,109220,1,0,0:0:0:0:
64,192,109306,128,0,109393:0:0:0:0:
320,192,109393,128,0,109567:0:0:0:0:
192,192,109393,1,0,0:0:0:0:
448,192,109480,1,0,0:0:0:0:
64,192,109567,128,0,109740:0:0:0:0:
192,192,109567,128,0,109653:0:0:0:0:
320,192,109653,1,0,0:0:0:0:
448,192,109740,1,0,0:0:0:0:
192,192,109740,128,0,109856:0:0:0:0:
448,192,109827,128,0,109942:0:0:0:0:
320,192,109856,1,0,0:0:0:0:
64,192,109913,1,0,0:0:0:0:
192,192,109913,128,0,110029:0:0:0:0:
64,192,110000,128,0,110116:0:0:0:0:
320,192,110000,1,0,0:0:0:0:
192,192,110087,1,0,0:0:0:0:
448,192,110087,128,0,110202:0:0:0:0:
320,192,110173,128,0,110289:0:0:0:0:
64,192,110202,1,0,0:0:0:0:
192,192,110260,128,0,110376:0:0:0:0:
64,192,110318,128,0,110462:0:0:0:0:
320,192,110347,1,0,0:0:0:0:
320,192,110434,128,0,110520:0:0:0:0:
448,192,110434,128,0,110520:0:0:0:0:
192,192,110520,128,0,110607:0:0:0:0:
64,192,110520,128,0,110607:0:0:0:0:
320,192,110607,128,0,110694:0:0:0:0:
448,192,110607,128,0,110694:0:0:0:0:
192,192,110694,128,0,110780:0:0:0:0:
64,192,110694,128,0,110780:0:0:0:0:
320,192,110780,128,0,110896:0:0:0:0:
448,192,110780,128,0,110867:0:0:0:0:
192,192,110867,128,0,110983:0:0:0:0:
64,192,110867,128,0,110954:0:0:0:0:
320,192,110954,128,0,111069:0:0:0:0:
448,192,110954,128,0,111127:0:0:0:0:
64,192,111041,128,0,111156:0:0:0:0:
192,192,111041,128,0,111156:0:0:0:0:
320,192,111127,128,0,111243:0:0:0:0:
448,192,111301,128,0,111416:0:0:0:0:
64,192,111474,128,0,111590:0:0:0:0:
192,192,111474,128,0,111821:0:0:0:0:
320,192,111503,128,0,111734:0:0:0:0:
448,192,111821,128,0,111994:0:0:0:0:
320,192,111821,128,0,111965:0:0:0:0:
64,192,111821,1,0,0:0:0:0:
64,192,111908,1,0,0:0:0:0:
192,192,111994,128,0,112081:0:0:0:0:
320,192,112081,128,0,112168:0:0:0:0:
192,192,112168,128,0,112283:0:0:0:0:
64,192,112168,128,0,112341:0:0:0:0:
448,192,112168,1,0,0:0:0:0:
448,192,112254,1,0,0:0:0:0:
320,192,112341,128,0,112428:0:0:0:0:
192,192,112428,128,0,112515:0:0:0:0:
320,192,112515,128,0,112688:0:0:0:0:
448,192,112515,128,0,112630:0:0:0:0:
64,192,112515,1,0,0:0:0:0:
64,192,112601,1,0,0:0:0:0:
192,192,112688,128,0,112775:0:0:0:0:
448,192,112775,128,0,112861:0:0:0:0:
320,192,112861,128,0,112977:0:0:0:0:
192,192,112861,128,0,112977:0:0:0:0:
64,192,112890,128,0,113064:0:0:0:0:
320,192,113035,128,0,113150:0:0:0:0:
192,192,113035,128,0,113150:0:0:0:0:
448,192,113064,128,0,113237:0:0:0:0:
64,192,113208,128,0,113382:0:0:0:0:
320,192,113208,1,0,0:0:0:0:
192,192,113208,128,0,113324:0:0:0:0:
320,192,113295,1,0,0:0:0:0:
448,192,113382,128,0,113468:0:0:0:0:
192,192,113468,128,0,113555:0:0:0:0:
320,192,113555,128,0,113728:0:0:0:0:
64,192,113555,1,0,0:0:0:0:
448,192,113555,128,0,113671:0:0:0:0:
64,192,113642,1,0,0:0:0:0:
448,192,113728,128,0,113815:0:0:0:0:
192,192,113728,128,0,113815:0:0:0:0:
320,192,113815,128,0,113902:0:0:0:0:
64,192,113902,128,0,114017:0:0:0:0:
192,192,113902,128,0,113989:0:0:0:0:
448,192,113902,1,0,0:0:0:0:
448,192,113989,1,0,0:0:0:0:
192,192,114075,128,0,114162:0:0:0:0:
320,192,114162,128,0,114249:0:0:0:0:
192,192,114249,128,0,114364:0:0:0:0:
448,192,114249,128,0,114364:0:0:0:0:
64,192,114278,128,0,114451:0:0:0:0:
448,192,114422,128,0,114538:0:0:0:0:
192,192,114422,128,0,114538:0:0:0:0:
320,192,114451,128,0,114624:0:0:0:0:
64,192,114595,128,0,114769:0:0:0:0:
192,192,114595,128,0,114711:0:0:0:0:
448,192,114595,1,0,0:0:0:0:
448,192,114682,1,0,0:0:0:0:
192,192,114769,128,0,114884:0:0:0:0:
320,192,114769,128,0,114856:0:0:0:0:
64,192,114856,128,0,114942:0:0:0:0:
448,192,114942,128,0,115116:0:0:0:0:
320,192,114942,128,0,115058:0:0:0:0:
192,192,114942,1,0,0:0:0:0:
192,192,115029,128,0,115116:0:0:0:0:
64,192,115116,128,0,115202:0:0:0:0:
192,192,115202,128,0,115289:0:0:0:0:
320,192,115289,128,0,115405:0:0:0:0:
64,192,115289,1,0,0:0:0:0:
448,192,115289,128,0,115462:0:0:0:0:
64,192,115376,1,0,0:0:0:0:
192,192,115462,128,0,115549:0:0:0:0:
320,192,115549,128,0,115636:0:0:0:0:
192,192,115636,128,0,115752:0:0:0:0:
64,192,115636,128,0,115723:0:0:0:0:
448,192,115665,128,0,115838:0:0:0:0:
192,192,115809,128,0,115925:0:0:0:0:
320,192,115809,128,0,115925:0:0:0:0:
64,192,115838,128,0,116012:0:0:0:0:
448,192,115983,128,0,116156:0:0:0:0:
320,192,115983,128,0,116069:0:0:0:0:
192,192,116069,128,0,116156:0:0:0:0:
64,192,116156,128,0,116330:0:0:0:0:
320,192,116156,1,0,0:0:0:0:
320,192,116243,128,0,116330:0:0:0:0:
192,192,116330,1,0,0:0:0:0:
448,192,116330,128,0,116445:0:0:0:0:
192,192,116416,128,0,116503:0:0:0:0:
448,192,116503,1,0,0:0:0:0:
64,192,116503,128,0,116619:0:0:0:0:
320,192,116590,128,0,116676:0:0:0:0:
64,192,116676,128,0,116850:0:0:0:0:
448,192,116676,128,0,116792:0:0:0:0:
192,192,116676,128,0,116763:0:0:0:0:
320,192,116763,128,0,116936:0:0:0:0:
192,192,116850,128,0,116936:0:0:0:0:
448,192,116850,128,0,116936:0:0:0:0:
64,192,116936,128,0,117023:0:0:0:0:
192,192,117023,128,0,117139:0:0:0:0:
320,192,117023,128,0,117139:0:0:0:0:
448,192,117052,128,0,117226:0:0:0:0:
320,192,117197,128,0,117370:0:0:0:0:
192,192,117197,128,0,117312:0:0:0:0:
64,192,117226,128,0,117312:0:0:0:0:
64,192,117370,128,0,117486:0:0:0:0:
448,192,117370,1,0,0:0:0:0:
192,192,117370,128,0,117543:0:0:0:0:
448,192,117457,128,0,117630:0:0:0:0:
64,192,117543,128,0,117630:0:0:0:0:
320,192,117543,128,0,117630:0:0:0:0:
192,192,117630,128,0,117717:0:0:0:0:
320,192,117717,128,0,117890:0:0:0:0:
448,192,117717,128,0,117804:0:0:0:0:
64,192,117717,128,0,117804:0:0:0:0:
448,192,117890,128,0,118150:0:0:0:0:
64,192,117890,128,0,118006:0:0:0:0:
192,192,117890,1,0,0:0:0:0:
320,192,117977,128,0,118064:0:0:0:0:
192,192,117977,128,0,118150:0:0:0:0:
64,192,118064,128,0,118150:0:0:0:0:
320,192,118150,128,0,118237:0:0:0:0:
192,192,118237,128,0,118324:0:0:0:0:
64,192,118237,128,0,118497:0:0:0:0:
448,192,118324,128,0,118410:0:0:0:0:
320,192,118410,128,0,118584:0:0:0:0:
192,192,118410,128,0,118526:0:0:0:0:
448,192,118584,128,0,118757:0:0:0:0:
64,192,118584,128,0,118671:0:0:0:0:
192,192,118613,128,0,118786:0:0:0:0:
64,192,118757,128,0,118931:0:0:0:0:
320,192,118757,128,0,118844:0:0:0:0:
448,192,118844,128,0,118931:0:0:0:0:
192,192,118844,1,0,0:0:0:0:
320,192,118931,128,0,119017:0:0:0:0:
192,192,118931,128,0,119191:0:0:0:0:
448,192,119017,128,0,119104:0:0:0:0:
320,192,119104,128,0,119278:0:0:0:0:
64,192,119104,128,0,119220:0:0:0:0:
192,192,119278,128,0,119480:0:0:0:0:
64,192,119278,128,0,119393:0:0:0:0:
448,192,119306,128,0,119451:0:0:0:0:
64,192,119451,128,0,119624:0:0:0:0:
320,192,119451,128,0,119538:0:0:0:0:
448,192,119538,128,0,119624:0:0:0:0:
192,192,119538,1,0,0:0:0:0:
320,192,119624,128,0,119711:0:0:0:0:
192,192,119624,128,0,119884:0:0:0:0:
448,192,119711,128,0,119798:0:0:0:0:
320,192,119798,128,0,119971:0:0:0:0:
64,192,119798,128,0,119913:0:0:0:0:
192,192,119971,128,0,120087:0:0:0:0:
64,192,119971,128,0,120145:0:0:0:0:
448,192,120000,128,0,120231:0:0:0:0:
320,192,120145,1,0,0:0:0:0:
192,192,120145,128,0,120260:0:0:0:0:
64,192,120231,128,0,120318:0:0:0:0:
320,192,120231,128,0,120405:0:0:0:0:
448,192,120318,128,0,120491:0:0:0:0:
192,192,120318,128,0,120434:0:0:0:0:
64,192,120405,128,0,120491:0:0:0:0:
320,192,120491,128,0,120752:0:0:0:0:
192,192,120491,1,0,0:0:0:0:
448,192,120578,1,0,0:0:0:0:
64,192,120665,1,0,0:0:0:0:
192,192,120665,128,0,120752:0:0:0:0:
448,192,120752,128,0,120838:0:0:0:0:
192,192,120838,128,0,121012:0:0:0:0:
320,192,120838,128,0,120925:0:0:0:0:
64,192,120838,128,0,120925:0:0:0:0:
448,192,120925,128,0,121012:0:0:0:0:
64,192,121012,128,0,121098:0:0:0:0:
320,192,121012,128,0,121098:0:0:0:0:
192,192,121098,128,0,121185:0:0:0:0:
320,192,121185,128,0,121272:0:0:0:0:
64,192,121185,128,0,121301:0:0:0:0:
448,192,121214,128,0,121387:0:0:0:0:
320,192,121358,128,0,121474:0:0:0:0:
192,192,121358,128,0,121445:0:0:0:0:
64,192,121387,128,0,121532:0:0:0:0:
192,192,121532,128,0,121619:0:0:0:0:
448,192,121532,128,0,121619:0:0:0:0:
320,192,121619,128,0,121705:0:0:0:0:
64,192,121619,128,0,121705:0:0:0:0:
192,192,121705,128,0,121792:0:0:0:0:
448,192,121705,128,0,121792:0:0:0:0:
320,192,121792,128,0,121879:0:0:0:0:
64,192,121792,128,0,121879:0:0:0:0:
192,192,121879,128,0,121965:0:0:0:0:
448,192,121879,128,0,121965:0:0:0:0:
320,192,121965,128,0,122052:0:0:0:0:
64,192,121965,128,0,122052:0:0:0:0:
192,192,122052,128,0,122168:0:0:0:0:
448,192,122052,128,0,122139:0:0:0:0:
320,192,122139,128,0,122226:0:0:0:0:
192,192,122226,128,0,122341:0:0:0:0:
448,192,122226,128,0,122341:0:0:0:0:
64,192,122254,128,0,122370:0:0:0:0:
320,192,122399,128,0,122515:0:0:0:0:
192,192,122399,128,0,122515:0:0:0:0:
448,192,122428,128,0,122543:0:0:0:0:
192,192,122572,128,0,122688:0:0:0:0:
64,192,122572,128,0,122832:0:0:0:0:
320,192,122601,128,0,122775:0:0:0:0:
448,192,122659,128,0,122861:0:0:0:0:
192,192,122746,128,0,122861:0:0:0:0:
320,192,122832,128,0,122919:0:0:0:0:
192,192,122919,128,0,123093:0:0:0:0:
64,192,122919,128,0,123064:0:0:0:0:
448,192,122919,1,0,0:0:0:0:
448,192,123006,1,0,0:0:0:0:
320,192,123093,128,0,123179:0:0:0:0:
192,192,123179,128,0,123266:0:0:0:0:
320,192,123266,128,0,123382:0:0:0:0:
448,192,123266,128,0,123439:0:0:0:0:
64,192,123266,1,0,0:0:0:0:
64,192,123353,1,0,0:0:0:0:
192,192,123439,128,0,123526:0:0:0:0:
320,192,123526,128,0,123613:0:0:0:0:
192,192,123613,128,0,123786:0:0:0:0:
64,192,123613,128,0,123728:0:0:0:0:
448,192,123613,1,0,0:0:0:0:
448,192,123699,1,0,0:0:0:0:
320,192,123786,128,0,123873:0:0:0:0:
64,192,123873,128,0,123960:0:0:0:0:
192,192,123960,128,0,124075:0:0:0:0:
320,192,123960,128,0,124075:0:0:0:0:
448,192,123989,128,0,124162:0:0:0:0:
192,192,124133,128,0,124249:0:0:0:0:
320,192,124133,128,0,124249:0:0:0:0:
64,192,124162,128,0,124335:0:0:0:0:
448,192,124306,128,0,124480:0:0:0:0:
192,192,124306,1,0,0:0:0:0:
320,192,124306,128,0,124422:0:0:0:0:
192,192,124393,1,0,0:0:0:0:
64,192,124480,128,0,124567:0:0:0:0:
320,192,124567,128,0,124653:0:0:0:0:
448,192,124653,128,0,124827:0:0:0:0:
192,192,124653,1,0,0:0:0:0:
64,192,124653,128,0,124769:0:0:0:0:
192,192,124740,1,0,0:0:0:0:
64,192,124827,128,0,124913:0:0:0:0:
320,192,124827,128,0,124913:0:0:0:0:
192,192,124913,128,0,125000:0:0:0:0:
448,192,125000,128,0,125116:0:0:0:0:
320,192,125000,128,0,125087:0:0:0:0:
64,192,125000,1,0,0:0:0:0:
64,192,125087,1,0,0:0:0:0:
320,192,125173,128,0,125260:0:0:0:0:
192,192,125260,128,0,125347:0:0:0:0:
320,192,125347,128,0,125462:0:0:0:0:
64,192,125347,128,0,125462:0:0:0:0:
448,192,125376,128,0,125549:0:0:0:0:
64,192,125520,128,0,125636:0:0:0:0:
320,192,125520,128,0,125636:0:0:0:0:
192,192,125549,128,0,125723:0:0:0:0:
448,192,125694,128,0,125867:0:0:0:0:
320,192,125694,128,0,125809:0:0:0:0:
64,192,125694,1,0,0:0:0:0:
64,192,125780,1,0,0:0:0:0:
320,192,125867,128,0,125954:0:0:0:0:
192,192,125867,128,0,125983:0:0:0:0:
448,192,125954,128,0,126041:0:0:0:0:
64,192,126041,128,0,126214:0:0:0:0:
192,192,126041,128,0,126156:0:0:0:0:
320,192,126041,1,0,0:0:0:0:
320,192,126127,128,0,126214:0:0:0:0:
448,192,126214,128,0,126301:0:0:0:0:
320,192,126301,128,0,126387:0:0:0:0:
192,192,126387,128,0,126503:0:0:0:0:
448,192,126387,1,0,0:0:0:0:
64,192,126387,128,0,126561:0:0:0:0:
448,192,126474,1,0,0:0:0:0:
320,192,126561,128,0,126647:0:0:0:0:
192,192,126647,128,0,126734:0:0:0:0:
320,192,126734,128,0,126850:0:0:0:0:
448,192,126734,128,0,126821:0:0:0:0:
64,192,126763,128,0,126936:0:0:0:0:
320,192,126908,128,0,127023:0:0:0:0:
192,192,126908,128,0,127023:0:0:0:0:
448,192,126936,128,0,127110:0:0:0:0:
64,192,127081,128,0,127254:0:0:0:0:
192,192,127081,128,0,127168:0:0:0:0:
320,192,127168,128,0,127254:0:0:0:0:
448,192,127254,128,0,127428:0:0:0:0:
192,192,127254,1,0,0:0:0:0:
192,192,127341,128,0,127428:0:0:0:0:
320,192,127428,1,0,0:0:0:0:
64,192,127428,128,0,127543:0:0:0:0:
320,192,127515,128,0,127601:0:0:0:0:
64,192,127601,128,0,127688:0:0:0:0:
448,192,127601,128,0,127717:0:0:0:0:
192,192,127688,128,0,127775:0:0:0:0:
320,192,127775,128,0,127861:0:0:0:0:
448,192,127775,128,0,127861:0:0:0:0:
64,192,127775,128,0,127890:0:0:0:0:
192,192,127861,128,0,128006:0:0:0:0:
320,192,127948,128,0,128035:0:0:0:0:
64,192,127948,128,0,128035:0:0:0:0:
448,192,127948,1,0,0:0:0:0:
448,192,128035,128,0,128121:0:0:0:0:
320,192,128121,128,0,128237:0:0:0:0:
192,192,128121,128,0,128237:0:0:0:0:
64,192,128150,128,0,128324:0:0:0:0:
192,192,128295,128,0,128410:0:0:0:0:
320,192,128295,128,0,128468:0:0:0:0:
448,192,128324,128,0,128410:0:0:0:0:
192,192,128468,1,0,0:0:0:0:
64,192,128468,128,0,128584:0:0:0:0:
448,192,128468,128,0,128728:0:0:0:0:
192,192,128555,128,0,128728:0:0:0:0:
320,192,128555,128,0,128642:0:0:0:0:
64,192,128642,128,0,128728:0:0:0:0:
320,192,128728,128,0,128815:0:0:0:0:
448,192,128815,128,0,128902:0:0:0:0:
64,192,128815,128,0,128902:0:0:0:0:
192,192,128815,128,0,128989:0:0:0:0:
320,192,128989,1,0,0:0:0:0:
448,192,128989,128,0,129104:0:0:0:0:
64,192,128989,128,0,129249:0:0:0:0:
320,192,129075,128,0,129249:0:0:0:0:
192,192,129075,128,0,129162:0:0:0:0:
448,192,129162,128,0,129249:0:0:0:0:
192,192,129249,128,0,129335:0:0:0:0:
448,192,129335,128,0,129595:0:0:0:0:
320,192,129335,128,0,129422:0:0:0:0:
64,192,129422,128,0,129509:0:0:0:0:
320,192,129509,128,0,129624:0:0:0:0:
192,192,129509,128,0,129682:0:0:0:0:
448,192,129682,128,0,129769:0:0:0:0:
64,192,129682,128,0,129856:0:0:0:0:
320,192,129711,128,0,129884:0:0:0:0:
192,192,129856,128,0,129942:0:0:0:0:
448,192,129856,128,0,130029:0:0:0:0:
320,192,129942,1,0,0:0:0:0:
64,192,129942,128,0,130029:0:0:0:0:
320,192,130029,128,0,130289:0:0:0:0:
192,192,130029,128,0,130116:0:0:0:0:
64,192,130116,128,0,130202:0:0:0:0:
448,192,130202,128,0,130318:0:0:0:0:
192,192,130202,128,0,130376:0:0:0:0:
448,192,130376,128,0,130491:0:0:0:0:
320,192,130376,128,0,130578:0:0:0:0:
64,192,130405,128,0,130549:0:0:0:0:
192,192,130549,128,0,130636:0:0:0:0:
448,192,130549,128,0,130723:0:0:0:0:
320,192,130636,1,0,0:0:0:0:
64,192,130636,128,0,130723:0:0:0:0:
320,192,130723,128,0,130983:0:0:0:0:
192,192,130723,128,0,130809:0:0:0:0:
64,192,130809,128,0,131012:0:0:0:0:
448,192,130896,128,0,131012:0:0:0:0:
192,192,130896,128,0,131069:0:0:0:0:
448,192,131069,128,0,131156:0:0:0:0:
320,192,131069,128,0,131185:0:0:0:0:
64,192,131098,128,0,131272:0:0:0:0:
192,192,131156,128,0,131272:0:0:0:0:
320,192,131243,128,0,131358:0:0:0:0:
448,192,131243,128,0,131358:0:0:0:0:
192,192,131330,128,0,131474:0:0:0:0:
64,192,131330,128,0,131416:0:0:0:0:
320,192,131416,128,0,131532:0:0:0:0:
448,192,131416,128,0,131590:0:0:0:0:
64,192,131503,128,0,131590:0:0:0:0:
320,192,131590,128,0,131676:0:0:0:0:
192,192,131590,128,0,131850:0:0:0:0:
448,192,131676,128,0,131763:0:0:0:0:
64,192,131763,128,0,131850:0:0:0:0:
320,192,131763,128,0,131879:0:0:0:0:
448,192,131850,128,0,131936:0:0:0:0:
320,192,131936,128,0,132110:0:0:0:0:
192,192,131936,128,0,132023:0:0:0:0:
64,192,131936,128,0,132023:0:0:0:0:
448,192,132023,128,0,132110:0:0:0:0:
64,192,132110,128,0,132197:0:0:0:0:
192,192,132110,128,0,132197:0:0:0:0:
320,192,132197,128,0,132283:0:0:0:0:
192,192,132283,128,0,132370:0:0:0:0:
448,192,132283,128,0,132399:0:0:0:0:
64,192,132312,128,0,132486:0:0:0:0:
320,192,132457,128,0,132630:0:0:0:0:
192,192,132457,128,0,132572:0:0:0:0:
448,192,132486,128,0,132630:0:0:0:0:
192,192,132630,128,0,132717:0:0:0:0:
64,192,132630,128,0,132717:0:0:0:0:
320,192,132717,128,0,132804:0:0:0:0:
448,192,132717,128,0,132804:0:0:0:0:
192,192,132804,128,0,132890:0:0:0:0:
64,192,132804,128,0,132890:0:0:0:0:
320,192,132890,128,0,132977:0:0:0:0:
448,192,132890,128,0,132977:0:0:0:0:
64,192,132977,128,0,133064:0:0:0:0:
192,192,132977,128,0,133064:0:0:0:0:
320,192,133064,128,0,133150:0:0:0:0:
448,192,133064,128,0,133150:0:0:0:0:
192,192,133150,128,0,133237:0:0:0:0:
64,192,133150,128,0,133237:0:0:0:0:
448,192,133237,128,0,133324:0:0:0:0:
320,192,133237,128,0,133295:0:0:0:0:
192,192,133324,128,0,133439:0:0:0:0:
64,192,133324,128,0,133410:0:0:0:0:
320,192,133353,128,0,133439:0:0:0:0:
192,192,133497,128,0,133613:0:0:0:0:
448,192,133497,128,0,133584:0:0:0:0:
320,192,133526,128,0,133642:0:0:0:0:
192,192,133671,128,0,133786:0:0:0:0:
448,192,133671,128,0,133931:0:0:0:0:
64,192,133699,128,0,133815:0:0:0:0:
320,192,133728,128,0,133931:0:0:0:0:
192,192,133844,128,0,134017:0:0:0:0:
64,192,133931,128,0,134017:0:0:0:0:
320,192,134017,128,0,134364:0:0:0:0:
192,192,135029,1,0,0:0:0:0:
448,192,135058,128,0,135491:0:0:0:0:
320,192,135405,128,0,135578:0:0:0:0:
192,192,135434,128,0,135752:0:0:0:0:
64,192,135578,1,0,0:0:0:0:
448,192,135665,1,0,0:0:0:0:
320,192,135752,128,0,135838:0:0:0:0:
64,192,135780,128,0,136098:0:0:0:0:
448,192,135809,128,0,135954:0:0:0:0:
320,192,135925,128,0,136041:0:0:0:0:
192,192,135925,128,0,136098:0:0:0:0:
448,192,136098,128,0,136272:0:0:0:0:
320,192,136127,128,0,136214:0:0:0:0:
192,192,136156,128,0,136358:0:0:0:0:
320,192,136272,1,0,0:0:0:0:
64,192,136358,1,0,0:0:0:0:
448,192,136445,128,0,136619:0:0:0:0:
192,192,136474,128,0,136705:0:0:0:0:
320,192,136503,128,0,136619:0:0:0:0:
64,192,136619,128,0,136792:0:0:0:0:
448,192,136705,1,0,0:0:0:0:
320,192,136792,128,0,137052:0:0:0:0:
192,192,136792,128,0,136965:0:0:0:0:
448,192,136821,128,0,137052:0:0:0:0:
64,192,136965,1,0,0:0:0:0:
192,192,137052,1,0,0:0:0:0:
448,192,137139,128,0,137254:0:0:0:0:
64,192,137139,1,0,0:0:0:0:
320,192,137168,128,0,137312:0:0:0:0:
192,192,137197,128,0,137428:0:0:0:0:
64,192,137312,1,0,0:0:0:0:
448,192,137312,1,0,0:0:0:0:
320,192,137399,1,0,0:0:0:0:
64,192,137486,128,0,137601:0:0:0:0:
448,192,137486,1,0,0:0:0:0:
192,192,137515,128,0,137659:0:0:0:0:
320,192,137543,128,0,137775:0:0:0:0:
64,192,137659,128,0,137775:0:0:0:0:
448,192,137659,128,0,137832:0:0:0:0:
320,192,137832,128,0,137948:0:0:0:0:
192,192,137832,128,0,137977:0:0:0:0:
64,192,137861,128,0,138006:0:0:0:0:
448,192,138006,128,0,138150:0:0:0:0:
320,192,138006,128,0,138121:0:0:0:0:
192,192,138035,128,0,138179:0:0:0:0:
64,192,138179,128,0,138353:0:0:0:0:
320,192,138208,128,0,138526:0:0:0:0:
192,192,138353,1,0,0:0:0:0:
448,192,138439,1,0,0:0:0:0:
192,192,138526,128,0,138613:0:0:0:0:
64,192,138555,128,0,138786:0:0:0:0:
320,192,138584,128,0,138728:0:0:0:0:
448,192,138699,128,0,138873:0:0:0:0:
192,192,138699,128,0,138815:0:0:0:0:
64,192,138873,128,0,139046:0:0:0:0:
320,192,138902,128,0,138989:0:0:0:0:
192,192,138931,128,0,139133:0:0:0:0:
448,192,139046,1,0,0:0:0:0:
64,192,139133,1,0,0:0:0:0:
320,192,139220,128,0,139393:0:0:0:0:
448,192,139249,128,0,139480:0:0:0:0:
192,192,139278,128,0,139393:0:0:0:0:
64,192,139393,128,0,139567:0:0:0:0:
320,192,139480,1,0,0:0:0:0:
448,192,139567,128,0,139798:0:0:0:0:
192,192,139567,128,0,139827:0:0:0:0:
320,192,139595,128,0,139740:0:0:0:0:
64,192,139740,1,0,0:0:0:0:
320,192,139827,1,0,0:0:0:0:
448,192,139913,1,0,0:0:0:0:
64,192,139913,128,0,140029:0:0:0:0:
192,192,139942,128,0,140087:0:0:0:0:
320,192,139971,128,0,140202:0:0:0:0:
64,192,140087,1,0,0:0:0:0:
448,192,140087,1,0,0:0:0:0:
192,192,140173,1,0,0:0:0:0:
64,192,140260,1,0,0:0:0:0:
448,192,140260,128,0,140376:0:0:0:0:
320,192,140289,128,0,140434:0:0:0:0:
192,192,140318,128,0,140549:0:0:0:0:
64,192,140434,128,0,140607:0:0:0:0:
448,192,140434,128,0,140549:0:0:0:0:
320,192,140607,128,0,140752:0:0:0:0:
192,192,140607,128,0,140723:0:0:0:0:
448,192,140636,128,0,140780:0:0:0:0:
192,192,140780,128,0,140896:0:0:0:0:
64,192,140780,128,0,140925:0:0:0:0:
320,192,140809,128,0,140954:0:0:0:0:
448,192,140954,128,0,141127:0:0:0:0:
192,192,140983,128,0,141301:0:0:0:0:
64,192,141127,1,0,0:0:0:0:
448,192,141214,1,0,0:0:0:0:
320,192,141301,128,0,141387:0:0:0:0:
64,192,141330,128,0,141647:0:0:0:0:
448,192,141358,128,0,141503:0:0:0:0:
192,192,141474,128,0,141647:0:0:0:0:
320,192,141474,128,0,141590:0:0:0:0:
448,192,141647,128,0,141821:0:0:0:0:
320,192,141676,128,0,141763:0:0:0:0:
192,192,141705,128,0,141908:0:0:0:0:
320,192,141821,1,0,0:0:0:0:
64,192,141908,1,0,0:0:0:0:
448,192,141994,128,0,142168:0:0:0:0:
192,192,142023,128,0,142254:0:0:0:0:
320,192,142052,128,0,142168:0:0:0:0:
64,192,142168,128,0,142341:0:0:0:0:
448,192,142254,1,0,0:0:0:0:
192,192,142341,128,0,142515:0:0:0:0:
320,192,142341,128,0,142601:0:0:0:0:
448,192,142370,128,0,142601:0:0:0:0:
64,192,142515,1,0,0:0:0:0:
192,192,142601,1,0,0:0:0:0:
64,192,142688,1,0,0:0:0:0:
448,192,142688,128,0,142804:0:0:0:0:
320,192,142717,128,0,142861:0:0:0:0:
192,192,142746,128,0,142977:0:0:0:0:
448,192,142861,1,0,0:0:0:0:
64,192,142861,1,0,0:0:0:0:
320,192,142948,1,0,0:0:0:0:
448,192,143035,1,0,0:0:0:0:
64,192,143035,128,0,143150:0:0:0:0:
192,192,143064,128,0,143208:0:0:0:0:
320,192,143093,128,0,143324:0:0:0:0:
448,192,143208,128,0,143382:0:0:0:0:
64,192,143208,128,0,143324:0:0:0:0:
192,192,143382,128,0,143497:0:0:0:0:
64,192,143410,128,0,143497:0:0:0:0:
448,192,143468,1,0,0:0:0:0:
320,192,143555,1,0,0:0:0:0:
192,192,143642,1,0,0:0:0:0:
64,192,143728,128,0,143902:0:0:0:0:
320,192,143757,128,0,144075:0:0:0:0:
448,192,143786,128,0,143902:0:0:0:0:
192,192,143902,1,0,0:0:0:0:
448,192,143989,1,0,0:0:0:0:
192,192,144075,128,0,144162:0:0:0:0:
64,192,144104,128,0,144335:0:0:0:0:
320,192,144133,128,0,144278:0:0:0:0:
192,192,144249,128,0,144364:0:0:0:0:
448,192,144249,128,0,144422:0:0:0:0:
64,192,144422,128,0,144595:0:0:0:0:
320,192,144451,128,0,144538:0:0:0:0:
192,192,144480,128,0,144682:0:0:0:0:
448,192,144595,1,0,0:0:0:0:
64,192,144682,1,0,0:0:0:0:
320,192,144769,128,0,144942:0:0:0:0:
448,192,144798,128,0,145029:0:0:0:0:
192,192,144827,128,0,145029:0:0:0:0:
64,192,144942,128,0,145202:0:0:0:0:
320,192,145029,1,0,0:0:0:0:
192,192,145116,128,0,145376:0:0:0:0:
448,192,145116,128,0,145376:0:0:0:0:
320,192,145145,128,0,145231:0:0:0:0:
64,192,145289,128,0,145405:0:0:0:0:
320,192,145289,128,0,145462:0:0:0:0:
64,192,145462,128,0,145723:0:0:0:0:
448,192,145462,128,0,145694:0:0:0:0:
192,192,145491,128,0,145578:0:0:0:0:
320,192,145636,128,0,145752:0:0:0:0:
192,192,145636,128,0,145809:0:0:0:0:
320,192,145809,128,0,145983:0:0:0:0:
448,192,145809,128,0,146532:0:0:0:0:
192,192,145983,128,0,146069:0:0:0:0:
64,192,145983,128,0,146069:0:0:0:0:
64,192,146156,128,0,146243:0:0:0:0:
192,192,146156,128,0,146243:0:0:0:0:
64,192,146330,128,0,146445:0:0:0:0:
192,192,146330,128,0,146416:0:0:0:0:
320,192,146416,1,0,0:0:0:0:
192,192,146503,128,0,146676:0:0:0:0:
320,192,146532,128,0,146850:0:0:0:0:
448,192,146676,1,0,0:0:0:0:
64,192,146763,1,0,0:0:0:0:
192,192,146850,128,0,146936:0:0:0:0:
448,192,146879,128,0,147197:0:0:0:0:
64,192,146908,128,0,147052:0:0:0:0:
320,192,147023,128,0,147197:0:0:0:0:
192,192,147023,128,0,147139:0:0:0:0:
64,192,147197,128,0,147370:0:0:0:0:
192,192,147226,128,0,147312:0:0:0:0:
320,192,147254,128,0,147457:0:0:0:0:
192,192,147370,1,0,0:0:0:0:
448,192,147457,1,0,0:0:0:0:
64,192,147543,128,0,147717:0:0:0:0:
320,192,147572,128,0,147804:0:0:0:0:
192,192,147601,128,0,147717:0:0:0:0:
448,192,147717,128,0,147890:0:0:0:0:
64,192,147804,1,0,0:0:0:0:
320,192,147890,128,0,148064:0:0:0:0:
192,192,147890,128,0,148150:0:0:0:0:
64,192,147919,128,0,148150:0:0:0:0:
448,192,148064,1,0,0:0:0:0:
320,192,148150,1,0,0:0:0:0:
448,192,148237,1,0,0:0:0:0:
64,192,148237,128,0,148353:0:0:0:0:
192,192,148266,128,0,148410:0:0:0:0:
320,192,148295,128,0,148526:0:0:0:0:
64,192,148410,1,0,0:0:0:0:
448,192,148410,1,0,0:0:0:0:
192,192,148497,1,0,0:0:0:0:
64,192,148584,1,0,0:0:0:0:
448,192,148584,128,0,148699:0:0:0:0:
320,192,148613,128,0,148757:0:0:0:0:
192,192,148642,128,0,148873:0:0:0:0:
64,192,148757,128,0,148931:0:0:0:0:
448,192,148757,128,0,148873:0:0:0:0:
320,192,148931,128,0,149075:0:0:0:0:
192,192,148931,128,0,149046:0:0:0:0:
448,192,148960,128,0,149104:0:0:0:0:
192,192,149104,128,0,149220:0:0:0:0:
64,192,149104,128,0,149249:0:0:0:0:
320,192,149133,128,0,149278:0:0:0:0:
448,192,149278,128,0,149451:0:0:0:0:
192,192,149306,128,0,149624:0:0:0:0:
320,192,149451,1,0,0:0:0:0:
64,192,149538,1,0,0:0:0:0:
320,192,149624,128,0,149711:0:0:0:0:
448,192,149653,128,0,149884:0:0:0:0:
192,192,149682,128,0,149827:0:0:0:0:
320,192,149798,128,0,149913:0:0:0:0:
64,192,149798,128,0,149971:0:0:0:0:
448,192,149971,128,0,150145:0:0:0:0:
192,192,150000,128,0,150087:0:0:0:0:
320,192,150029,128,0,150231:0:0:0:0:
64,192,150145,1,0,0:0:0:0:
448,192,150231,1,0,0:0:0:0:
192,192,150318,128,0,150491:0:0:0:0:
64,192,150347,128,0,150578:0:0:0:0:
320,192,150376,128,0,150491:0:0:0:0:
448,192,150491,128,0,150665:0:0:0:0:
192,192,150578,1,0,0:0:0:0:
320,192,150665,128,0,150925:0:0:0:0:
64,192,150665,128,0,150896:0:0:0:0:
192,192,150694,128,0,150838:0:0:0:0:
448,192,150838,1,0,0:0:0:0:
192,192,150925,1,0,0:0:0:0:
448,192,151012,128,0,151127:0:0:0:0:
64,192,151012,1,0,0:0:0:0:
320,192,151041,128,0,151185:0:0:0:0:
192,192,151069,128,0,151301:0:0:0:0:
64,192,151185,1,0,0:0:0:0:
448,192,151185,1,0,0:0:0:0:
320,192,151272,1,0,0:0:0:0:
64,192,151358,128,0,151474:0:0:0:0:
448,192,151358,1,0,0:0:0:0:
192,192,151387,128,0,151532:0:0:0:0:
320,192,151416,128,0,151647:0:0:0:0:
64,192,151532,128,0,151647:0:0:0:0:
448,192,151532,128,0,151705:0:0:0:0:
320,192,151705,128,0,151821:0:0:0:0:
192,192,151705,128,0,151850:0:0:0:0:
64,192,151734,128,0,151879:0:0:0:0:
448,192,151879,128,0,152023:0:0:0:0:
320,192,151879,128,0,151994:0:0:0:0:
192,192,151908,128,0,152052:0:0:0:0:
64,192,152052,128,0,152226:0:0:0:0:
320,192,152081,128,0,152399:0:0:0:0:
448,192,152226,1,0,0:0:0:0:
64,192,152312,1,0,0:0:0:0:
192,192,152399,128,0,152486:0:0:0:0:
448,192,152428,128,0,152746:0:0:0:0:
64,192,152457,128,0,152601:0:0:0:0:
192,192,152572,128,0,152688:0:0:0:0:
320,192,152572,128,0,152746:0:0:0:0:
64,192,152746,128,0,152919:0:0:0:0:
192,192,152775,128,0,152861:0:0:0:0:
320,192,152804,128,0,153006:0:0:0:0:
192,192,152919,1,0,0:0:0:0:
448,192,153006,1,0,0:0:0:0:
64,192,153093,128,0,153266:0:0:0:0:
320,192,153121,128,0,153353:0:0:0:0:
192,192,153150,128,0,153266:0:0:0:0:
448,192,153266,128,0,153439:0:0:0:0:
64,192,153353,1,0,0:0:0:0:
192,192,153439,128,0,153699:0:0:0:0:
320,192,153439,128,0,153613:0:0:0:0:
64,192,153468,128,0,153699:0:0:0:0:
448,192,153613,1,0,0:0:0:0:
320,192,153699,1,0,0:0:0:0:
64,192,153786,128,0,153902:0:0:0:0:
448,192,153786,1,0,0:0:0:0:
192,192,153815,128,0,153960:0:0:0:0:
320,192,153844,128,0,154075:0:0:0:0:
448,192,153960,1,0,0:0:0:0:
64,192,153960,1,0,0:0:0:0:
192,192,154046,1,0,0:0:0:0:
448,192,154133,128,0,154249:0:0:0:0:
64,192,154133,1,0,0:0:0:0:
320,192,154162,128,0,154306:0:0:0:0:
192,192,154191,128,0,154422:0:0:0:0:
448,192,154306,128,0,154422:0:0:0:0:
64,192,154306,128,0,154480:0:0:0:0:
320,192,154480,128,0,154595:0:0:0:0:
448,192,154509,128,0,154595:0:0:0:0:
64,192,154567,1,0,0:0:0:0:
192,192,154653,1,0,0:0:0:0:
320,192,154740,1,0,0:0:0:0:
448,192,154827,128,0,155000:0:0:0:0:
192,192,154856,128,0,155173:0:0:0:0:
64,192,154884,128,0,155000:0:0:0:0:
320,192,155000,1,0,0:0:0:0:
64,192,155087,1,0,0:0:0:0:
320,192,155173,128,0,155260:0:0:0:0:
448,192,155202,128,0,155434:0:0:0:0:
192,192,155231,128,0,155376:0:0:0:0:
64,192,155347,128,0,155520:0:0:0:0:
320,192,155347,128,0,155462:0:0:0:0:
448,192,155520,128,0,155694:0:0:0:0:
192,192,155549,128,0,155636:0:0:0:0:
320,192,155578,128,0,155780:0:0:0:0:
64,192,155694,1,0,0:0:0:0:
448,192,155780,1,0,0:0:0:0:
192,192,155867,128,0,156041:0:0:0:0:
64,192,155896,128,0,156127:0:0:0:0:
320,192,155925,128,0,156127:0:0:0:0:
448,192,156041,128,0,156301:0:0:0:0:
192,192,156127,1,0,0:0:0:0:
64,192,156214,128,0,156474:0:0:0:0:
320,192,156214,128,0,156503:0:0:0:0:
192,192,156243,128,0,156387:0:0:0:0:
448,192,156416,1,0,0:0:0:0:
192,192,156474,1,0,0:0:0:0:
448,192,156561,128,0,156676:0:0:0:0:
64,192,156561,128,0,156676:0:0:0:0:
320,192,156590,128,0,156763:0:0:0:0:
192,192,156619,128,0,156879:0:0:0:0:
64,192,156734,128,0,156850:0:0:0:0:
448,192,156734,128,0,156850:0:0:0:0:
320,192,156821,128,0,157023:0:0:0:0:
64,192,156908,128,0,157023:0:0:0:0:
448,192,156908,128,0,157023:0:0:0:0:
192,192,156936,128,0,157197:0:0:0:0:
320,192,157081,128,0,157254:0:0:0:0:
448,192,157081,128,0,157197:0:0:0:0:
64,192,157081,128,0,157226:0:0:0:0:
64,192,157428,128,0,157804:0:0:0:0:
192,192,157428,128,0,157746:0:0:0:0:
320,192,157457,128,0,157775:0:0:0:0:
448,192,157486,128,0,157832:0:0:0:0:
