osu file format v14

[General]
AudioFilename: audio.mp3
AudioLeadIn: 0
PreviewTime: 68697
Countdown: 1
SampleSet: None
StackLeniency: 0.7
Mode: 0
LetterboxInBreaks: 0
WidescreenStoryboard: 0

[Editor]
Bookmarks: 2317,14855,29183,43512,57840,70377,97243,111571,125900,138437,165303,181422,195750,208288,220601
DistanceSpacing: 1.1
BeatDivisor: 4
GridSize: 16
TimelineZoom: 1.7

[Metadata]
Title:Otome Kaibou feat. Hatsune Miku
TitleUnicode:乙女解剖 feat. 初音ミク
Artist:DECO*27
ArtistUnicode:DECO*27
Creator:celerih
Version:Pieces of Love
Source:
Tags:thicc bish vocaloid dissection
BeatmapID:1939659
BeatmapSetID:928655

[Difficulty]
HPDrainRate:5
CircleSize:4
OverallDifficulty:8.3
ApproachRate:8.7
SliderMultiplier:1.8
SliderTickRate:1

[Events]
//Background and Video events
0,0,"Otome Kaibou BG.jpg",0,0
//Break Periods
//Storyboard Layer 0 (Background)
//Storyboard Layer 1 (Fail)
//Storyboard Layer 2 (Pass)
//Storyboard Layer 3 (Foreground)
//Storyboard Sound Samples

[TimingPoints]
526,447.761194029851,4,2,0,70,1,0
14406,-71.4285714285714,4,2,0,70,0,0
14742,-71.4285714285714,4,2,0,5,0,0
14854,-83.3333333333333,4,2,0,70,0,0
21570,-62.5,4,2,0,70,0,0
21906,-62.5,4,2,0,5,0,0
22018,-83.3333333333333,4,2,0,70,0,0
29182,-125,4,2,0,70,0,0
36234,-125,4,2,0,5,0,0
36346,-125,4,2,0,70,0,0
43511,-100,4,2,0,70,0,0
69928,-62.5,4,2,0,70,0,0
70264,-62.5,4,2,0,5,0,0
70376,-71.4285714285714,4,2,0,70,0,1
97242,-100,4,2,0,70,0,0
137988,-62.5,4,2,0,70,0,0
138324,-62.5,4,2,0,5,0,0
138436,-71.4285714285714,4,2,0,70,0,1
165302,-83.3333333333333,4,2,0,70,0,0
179518,-83.3333333333333,4,2,0,5,0,0
179630,-250,4,2,0,70,0,0
181421,-100,4,2,0,70,0,0
195302,-58.8235294117647,4,2,0,70,0,0
195637,-58.8235294117647,4,2,0,5,0,0
195749,-66.6666666666667,4,2,0,70,0,1
207839,-58.8235294117647,4,2,0,70,0,1
208175,-58.8235294117647,4,2,0,5,0,1
208287,-83.3333333333333,4,2,0,70,0,0

[Colours]
Combo1 : 100,140,155
Combo2 : 255,213,128
Combo3 : 238,153,102

[HitObjects]
176,110,1645,5,0,0:0:0:0:
174,137,1869,1,0,0:0:0:0:
173,163,2093,1,0,0:0:0:0:
348,313,2317,6,0,L|354:349,3,30
452,208,2764,2,0,L|454:148,1,45
465,216,2988,2,0,L|467:156,1,45
481,146,3212,2,0,L|479:242,1,90
308,147,3660,1,0,0:0:0:0:
373,81,3884,6,0,B|369:122|346:185|328:140|303:202|297:254,1,180
376,318,4555,1,0,0:0:0:0:
242,81,4779,5,0,0:0:0:0:
259,167,5003,1,0,0:0:0:0:
229,75,5227,5,0,0:0:0:0:
274,180,5451,1,0,0:0:0:0:
323,32,5675,1,0,0:0:0:0:
161,188,5899,6,0,L|116:183,3,30
70,104,6346,2,0,L|14:111,1,45
61,94,6570,2,0,L|5:101,1,45
14,79,6794,1,0,0:0:0:0:
147,151,7018,1,0,0:0:0:0:
163,144,7130,1,0,0:0:0:0:
176,132,7242,1,0,0:0:0:0:
134,60,7466,6,0,P|145:129|160:248,1,180
69,350,8137,1,0,0:0:0:0:
76,179,8361,2,0,P|72:147|67:115,1,45
47,253,8585,5,0,0:0:0:0:
81,336,8809,1,0,0:0:0:0:
164,302,9033,1,0,0:0:0:0:
130,219,9257,2,0,P|134:171|141:121,1,90
360,13,9817,5,0,0:0:0:0:
344,18,9928,2,0,P|329:65|317:127,1,90
452,179,10376,2,0,P|421:137|397:89,1,90
456,39,10824,1,0,0:0:0:0:
352,182,11048,6,0,P|338:272|315:370,1,180
399,369,11720,1,0,0:0:0:0:
218,215,11943,1,0,0:0:0:0:
213,197,12055,1,0,0:0:0:0:
211,179,12167,1,0,0:0:0:0:
278,122,12391,2,0,P|245:88|206:62,1,90
207,46,12727,1,0,0:0:0:0:
211,28,12839,1,0,0:0:0:0:
363,155,13063,6,0,L|359:200,2,30
387,181,13287,2,0,P|381:130|378:85,1,90
175,35,13734,1,0,0:0:0:0:
239,137,13958,1,0,0:0:0:0:
63,296,14182,5,0,0:0:0:0:
70,323,14294,1,0,0:0:0:0:
85,343,14406,2,0,B|86:302|76:233|49:273|40:213|41:161,1,188.999994232178
209,41,14854,6,0,P|266:56|328:67,1,107.999996704102
372,13,15190,1,0,0:0:0:0:
304,84,15302,2,0,P|318:188|332:307,1,215.999993408203
143,158,16085,1,0,0:0:0:0:
125,162,16197,1,0,0:0:0:0:
234,291,16421,6,0,P|191:268|134:245,1,107.999996704102
293,77,16869,2,0,P|297:102|301:143,1,53.9999983520508
311,63,17093,5,0,0:0:0:0:
292,230,17317,1,0,0:0:0:0:
124,211,17540,1,0,0:0:0:0:
143,44,17764,1,0,0:0:0:0:
272,226,17988,2,0,P|256:200|250:171,1,53.9999983520508
359,206,18212,2,0,P|359:175|350:147,1,53.9999983520508
312,384,18436,6,0,P|317:325|328:268,1,107.999996704102
276,202,18772,1,0,0:0:0:0:
346,280,18884,2,0,P|426:277|426:155,1,215.999993408203
236,23,19667,1,0,0:0:0:0:
245,37,19779,1,0,0:0:0:0:
99,132,20003,6,0,P|119:83|170:87,1,107.999996704102
111,287,20451,2,0,P|122:254|135:224,1,53.9999983520508
125,216,20675,2,0,P|102:269|81:330,1,107.999996704102
21,267,21011,1,0,0:0:0:0:
98,327,21123,2,0,P|88:353|78:387,1,53.9999983520508
217,329,21346,1,0,0:0:0:0:
213,318,21421,1,0,0:0:0:0:
205,310,21496,1,0,0:0:0:0:
187,320,21570,6,0,B|232:326|319:306|264:277|342:262|419:270,1,216
486,368,22018,6,0,P|435:352|371:340,1,107.999996704102
300,371,22354,1,0,0:0:0:0:
386,327,22466,2,0,P|402:220|427:103,1,215.999993408203
222,234,23249,1,0,0:0:0:0:
227,250,23361,1,0,0:0:0:0:
307,146,23585,6,0,P|296:91|276:18,1,107.999996704102
128,127,24033,2,0,P|97:120|62:113,1,53.9999983520508
170,67,24257,5,0,0:0:0:0:
3,86,24481,1,0,0:0:0:0:
22,254,24704,1,0,0:0:0:0:
189,235,24928,1,0,0:0:0:0:
24,100,25152,2,0,P|8:126|2:155,1,53.9999983520508
111,116,25376,2,0,P|111:147|102:175,1,53.9999983520508
14,303,25600,6,0,P|26:253|78:246,1,107.999996704102
124,318,25936,1,0,0:0:0:0:
83,226,26048,2,0,P|65:132|34:3,1,215.999993408203
237,95,26831,1,0,0:0:0:0:
230,111,26943,1,0,0:0:0:0:
294,220,27167,1,0,0:0:0:0:
312,74,27391,5,0,0:0:0:0:
241,343,27615,1,0,0:0:0:0:
141,172,27839,1,0,0:0:0:0:
410,243,28062,1,0,0:0:0:0:
407,226,28175,1,0,0:0:0:0:
222,45,28511,5,0,0:0:0:0:
261,238,28734,1,0,0:0:0:0:
266,206,28846,1,0,0:0:0:0:
271,174,28958,1,0,0:0:0:0:
276,142,29070,1,0,0:0:0:0:
280,109,29182,5,0,0:0:0:0:
257,126,29630,1,0,0:0:0:0:
233,143,30078,2,0,P|197:135|144:128,1,72
115,62,30526,1,0,0:0:0:0:
100,78,30749,6,0,P|114:14|197:24,1,144
274,101,31421,1,0,0:0:0:0:
281,82,31645,1,0,0:0:0:0:
479,275,32093,1,0,0:0:0:0:
417,230,32317,1,0,0:0:0:0:
350,258,32540,1,0,0:0:0:0:
284,218,32764,5,0,0:0:0:0:
275,190,33212,1,0,0:0:0:0:
268,162,33660,2,0,P|273:124|277:66,1,72
179,96,34108,2,0,P|170:58|160:1,1,72
378,62,34779,5,0,0:0:0:0:
450,93,35003,1,0,0:0:0:0:
510,42,35227,1,0,0:0:0:0:
285,42,35899,2,0,P|228:27|174:20,1,108
103,5,36346,5,0,0:0:0:0:
31,79,36496,1,0,0:0:0:0:
77,16,36645,1,0,0:0:0:0:
138,181,36794,5,0,0:0:0:0:
112,89,36943,1,0,0:0:0:0:
162,163,37093,1,0,0:0:0:0:
17,255,37242,5,0,0:0:0:0:
48,139,37391,1,0,0:0:0:0:
44,236,37540,1,0,0:0:0:0:
159,312,37690,5,0,0:0:0:0:
172,292,37839,1,0,0:0:0:0:
79,351,37988,1,0,0:0:0:0:
255,347,38137,5,0,0:0:0:0:
277,324,38249,1,0,0:0:0:0:
306,310,38361,1,0,0:0:0:0:
337,304,38473,1,0,0:0:0:0:
369,307,38585,1,0,0:0:0:0:
385,329,38809,1,0,0:0:0:0:
489,133,39033,5,0,0:0:0:0:
485,165,39145,1,0,0:0:0:0:
480,197,39257,1,0,0:0:0:0:
476,229,39369,1,0,0:0:0:0:
473,261,39481,1,0,0:0:0:0:
492,287,39705,2,0,P|499:326|502:368,1,72
309,226,40152,6,0,P|312:204|321:174,1,36
295,241,40376,1,0,0:0:0:0:
315,340,40600,1,0,0:0:0:0:
414,320,40824,1,0,0:0:0:0:
394,221,41048,1,0,0:0:0:0:
288,352,41272,6,0,P|264:340|227:327,1,36
325,281,41496,1,0,0:0:0:0:
315,270,41608,1,0,0:0:0:0:
309,256,41720,1,0,0:0:0:0:
347,115,41943,6,0,L|343:92,1,18
219,43,42391,2,0,L|223:20,1,18
360,127,42839,2,0,L|356:104,1,18
475,14,43063,2,0,P|467:56|459:110,1,72
309,263,43511,6,0,P|321:312|334:382,1,90
395,310,43846,1,0,0:0:0:0:
315,358,43958,2,0,P|225:367|133:382,1,180
61,345,44630,1,0,0:0:0:0:
127,164,44854,1,0,0:0:0:0:
63,114,45078,6,0,P|51:64|38:21,1,90
17,211,45526,1,0,0:0:0:0:
81,263,45749,1,0,0:0:0:0:
158,226,45973,2,0,P|203:213|261:200,1,90
300,254,46309,1,0,0:0:0:0:
240,180,46421,2,0,P|225:158|203:129,1,45
273,95,46645,2,0,P|279:62|285:35,1,45
220,8,46869,1,0,0:0:0:0:
120,161,47093,6,0,P|127:211|142:270,1,90
210,232,47428,1,0,0:0:0:0:
127,269,47540,2,0,P|81:253|36:244,1,90
147,374,47988,1,0,0:0:0:0:
164,368,48100,1,0,0:0:0:0:
181,366,48212,2,0,P|202:372|228:376,1,45
363,273,48436,1,0,0:0:0:0:
303,221,48660,2,0,P|292:267|285:315,1,90
487,149,49108,6,0,L|498:91,1,45
359,29,49331,2,0,P|354:53|350:81,1,45
288,126,49555,1,0,0:0:0:0:
267,121,49667,2,0,P|262:91|258:64,1,45
176,48,49891,1,0,0:0:0:0:
159,48,50003,2,0,P|163:19|169:-3,1,45
110,106,50227,1,0,0:0:0:0:
84,90,50339,1,0,0:0:0:0:
56,110,50451,1,0,0:0:0:0:
26,90,50563,1,0,0:0:0:0:
6,135,50675,5,0,0:0:0:0:
47,249,50824,1,0,0:0:0:0:
33,146,50973,1,0,0:0:0:0:
138,306,51123,5,0,0:0:0:0:
203,206,51272,1,0,0:0:0:0:
132,280,51421,1,0,0:0:0:0:
129,156,51570,5,0,0:0:0:0:
266,104,51720,1,0,0:0:0:0:
139,128,51869,1,0,0:0:0:0:
283,244,52018,6,0,P|288:269|292:311,1,60
340,166,52317,1,0,0:0:0:0:
408,336,52466,5,0,0:0:0:0:
398,296,52578,1,0,0:0:0:0:
404,256,52690,1,0,0:0:0:0:
417,217,52802,1,0,0:0:0:0:
442,185,52914,1,0,0:0:0:0:
460,201,53137,1,0,0:0:0:0:
312,57,53361,5,0,0:0:0:0:
263,64,53473,1,0,0:0:0:0:
213,70,53585,1,0,0:0:0:0:
218,55,53697,1,0,0:0:0:0:
272,89,53809,5,0,0:0:0:0:
223,96,53921,1,0,0:0:0:0:
173,102,54033,1,0,0:0:0:0:
387,97,54257,6,0,P|432:82|487:70,1,90
429,6,54593,1,0,0:0:0:0:
487,89,54705,2,0,L|460:205,1,90
451,326,55152,1,0,0:0:0:0:
472,342,55264,1,0,0:0:0:0:
497,349,55376,1,0,0:0:0:0:
348,222,55600,5,0,0:0:0:0:
318,242,55712,1,0,0:0:0:0:
285,226,55824,1,0,0:0:0:0:
264,255,55936,2,0,L|262:313,1,45
192,359,56720,6,0,L|184:307,1,45
177,312,56887,1,0,0:0:0:0:
167,314,56943,1,0,0:0:0:0:
25,365,57167,1,0,0:0:0:0:
70,249,57391,1,0,0:0:0:0:
67,222,57503,1,0,0:0:0:0:
58,196,57615,1,0,0:0:0:0:
15,69,57839,6,0,B|57:109|57:109|106:89|106:89|178:107,1,180
232,54,58511,1,0,0:0:0:0:
303,146,58734,2,0,P|345:130|389:118,1,90
504,268,59182,1,0,0:0:0:0:
468,175,59406,1,0,0:0:0:0:
478,161,59630,6,0,B|469:111|469:111|509:66|509:66|481:-3,1,180
408,39,60302,1,0,0:0:0:0:
278,122,60526,2,0,B|234:131|163:120|217:93|149:78|94:80,1,180
56,133,61197,1,0,0:0:0:0:
1,320,61421,6,0,B|47:338|47:338|99:315|99:315|172:311,1,180
244,351,62093,1,0,0:0:0:0:
330,254,62317,2,0,P|339:200|353:138,1,90
492,281,62764,1,0,0:0:0:0:
448,359,62988,1,0,0:0:0:0:
464,352,63212,6,0,B|420:317|420:317|361:335|361:335|267:297,1,180
272,239,63884,1,0,0:0:0:0:
385,125,64108,1,0,0:0:0:0:
474,248,64555,2,0,P|482:201|497:144,1,90
457,88,64891,1,0,0:0:0:0:
471,169,65003,6,0,P|416:167|346:69,1,180
297,194,65675,1,0,0:0:0:0:
356,59,65899,2,0,P|397:39|434:12,1,90
248,118,66346,2,0,P|222:80|203:38,1,90,0|0,2:0|2:0,2:0:0:0:
422,147,66794,5,0,0:0:0:0:
381,338,67018,1,0,0:0:0:0:
189,297,67242,1,0,0:0:0:0:
230,106,67466,1,0,0:0:0:0:
390,319,67690,5,0,0:0:0:0:
341,259,67802,1,0,0:0:0:0:
314,262,67914,1,0,0:0:0:0:
287,264,68026,1,0,0:0:0:0:
314,182,68137,5,0,0:0:0:0:
265,242,68249,1,0,0:0:0:0:
238,239,68361,1,0,0:0:0:0:
211,235,68473,2,0,L|151:226,1,45
101,157,68809,6,0,P|89:135|69:104,1,45
222,223,69033,2,0,P|242:210|274:204,1,45
66,339,69257,2,0,P|58:317|60:295,1,45
222,375,69481,1,0,0:0:0:0:
84,152,69705,5,0,0:0:0:0:
97,196,69817,1,0,0:0:0:0:
134,221,69928,2,0,B|140:169|118:96|103:133|86:75|85:-2,1,216
60,215,70376,6,0,P|49:275|38:364,1,125.999996154785
137,365,70712,1,0,0:0:0:0:
29,315,70824,2,0,P|13:247|157:202,1,251.999992309571
300,365,71496,2,0,P|289:325|282:286,1,62.9999980773926
340,218,71720,2,0,P|331:284|325:350,1,125.999996154785
467,192,72167,6,0,P|488:122|510:63,1,125.999996154785
441,182,72503,2,0,P|448:224|455:265,1,62.9999980773926
276,85,72839,2,0,P|248:71|209:53,1,62.9999980773926
283,8,73063,2,0,P|334:12|345:84,1,125.999996154785
303,156,73399,1,0,0:0:0:0:
365,90,73511,2,0,P|432:75|504:70,1,125.999996154785
257,313,73958,6,0,P|195:295|117:279,1,125.999996154785
86,341,74294,1,0,0:0:0:0:
163,269,74406,2,0,P|174:200|187:143,1,125.999996154785
108,66,74742,1,0,0:0:0:0:
206,158,74854,2,0,P|268:158|281:98,1,125.999996154785
193,177,75190,2,0,P|204:210|212:241,1,62.9999980773926
480,252,75526,2,0,P|415:244|411:178,1,125.999996154785
133,14,75973,6,0,P|149:74|160:136,1,125.999996154785
181,334,76421,2,0,P|144:326|102:321,1,62.9999980773926
103,305,76645,1,0,0:0:0:0:
135,286,76757,1,0,0:0:0:0:
171,277,76869,1,0,0:0:0:0:
208,273,76981,1,0,0:0:0:0:
245,276,77093,1,0,0:0:0:0:
348,139,77317,2,0,P|383:129|411:116,1,62.9999980773926
461,219,77540,6,0,P|459:159|397:142,1,125.999996154785
460,64,77876,1,0,0:0:0:0:
383,152,77988,2,0,P|256:123|130:100,1,251.999992309571
4,264,78660,2,0,P|35:249|82:234,1,62.9999980773926
240,318,78884,1,0,0:0:0:0:
142,374,79108,2,0,P|149:314|158:250,1,125.999996154785
26,90,79555,5,0,0:0:0:0:
54,123,79667,1,0,0:0:0:0:
69,164,79779,1,0,0:0:0:0:
143,24,80003,1,0,0:0:0:0:
344,99,80227,2,0,P|410:79|486:64,1,125.999996154785
337,84,80563,2,0,P|300:77|262:70,1,62.9999980773926
288,359,80899,6,0,P|304:282|465:278,1,251.999992309571
426,345,81458,1,0,0:0:0:0:
466,251,81570,2,0,P|478:190|493:124,1,125.999996154785
329,15,82018,1,0,0:0:0:0:
452,268,82242,1,0,0:0:0:0:
214,150,82466,2,0,P|202:92|179:16,1,125.999996154785
63,337,82914,6,0,P|50:315|24:289,1,62.9999980773926
223,279,83137,2,0,P|246:258|256:227,1,62.9999980773926
118,85,83361,2,0,P|100:111|93:146,1,62.9999980773926
153,326,83585,1,0,0:0:0:0:
139,313,83697,1,0,0:0:0:0:
203,166,84033,5,0,0:0:0:0:
194,175,84108,1,0,0:0:0:0:
190,187,84182,1,0,0:0:0:0:
207,207,84257,2,0,P|216:137|220:62,1,125.999996154785
172,3,84593,1,0,0:0:0:0:
240,122,84705,6,0,P|252:203|259:272,1,125.999996154785
195,313,85040,1,0,0:0:0:0:
272,229,85152,2,0,B|326:220|418:243|364:274|456:291|530:281,1,251.999992309571
480,103,85824,2,0,P|441:113|400:130,1,62.9999980773926
364,71,86048,2,0,P|427:33|484:6,1,125.999996154785
100,123,86496,6,0,P|113:64|124:-17,1,125.999996154785
128,127,86831,2,0,P|134:163|140:201,1,62.9999980773926
33,369,87167,2,0,P|23:333|10:294,1,62.9999980773926
58,243,87391,2,0,P|104:294|146:344,1,125.999996154785
224,369,87727,1,0,0:0:0:0:
149,323,87839,2,0,P|139:252|128:192,1,125.999996154785
504,380,88287,6,0,P|451:354|385:330,1,125.999996154785
310,360,88623,1,0,0:0:0:0:
386,311,88734,2,0,P|400:247|420:181,1,125.999996154785
487,149,89070,1,0,0:0:0:0:
389,188,89182,2,0,P|331:177|334:112,1,125.999996154785
375,318,89630,1,0,0:0:0:0:
179,93,89854,2,0,P|237:82|234:17,1,125.999996154785
42,266,90302,6,0,P|68:332|86:395,1,125.999996154785
262,257,90749,2,0,P|273:215|284:181,1,62.9999980773926
349,159,90973,2,0,P|371:226|399:287,1,125.999996154785
365,152,91309,2,0,P|380:114|397:83,1,62.9999980773926
170,83,91645,2,0,P|145:51|116:22,1,62.9999980773926
267,29,91869,6,0,P|245:92|228:158,1,125.999996154785
280,225,92205,1,0,0:0:0:0:
214,143,92317,2,0,P|200:73|364:75,1,251.999992309571
280,249,92988,1,0,0:0:0:0:
306,284,93100,1,0,0:0:0:0:
319,325,93212,1,0,0:0:0:0:
47,155,93436,6,0,P|32:94|9:19,1,125.999996154785
192,266,93884,2,0,P|182:298|172:350,1,62.9999980773926
269,374,94108,2,0,P|346:355|407:344,1,125.999996154785
368,138,94555,2,0,P|379:67|396:-1,1,125.999996154785
385,146,94891,2,0,P|415:138|449:132,1,62.9999980773926
201,303,95227,2,0,P|192:266|181:224,1,62.9999980773926
124,366,95451,5,0,0:0:0:0:
126,290,95563,1,0,0:0:0:0:
176,233,95675,1,0,0:0:0:0:
251,225,95787,1,0,0:0:0:0:
312,268,95899,1,0,0:0:0:0:
442,14,96123,5,0,0:0:0:0:
471,46,96234,1,0,0:0:0:0:
512,63,96346,1,0,0:0:0:0:
256,142,96570,2,0,P|245:111|226:71,1,62.9999980773926
371,359,96794,5,0,0:0:0:0:
28,266,97242,6,0,P|79:277|140:284,1,90
159,340,97578,1,0,0:0:0:0:
114,267,97690,2,0,P|137:198|228:218,1,180
345,338,98473,1,0,0:0:0:0:
362,346,98585,1,0,0:0:0:0:
394,225,98809,6,0,P|348:244|290:259,1,90
259,205,99145,1,0,0:0:0:0:
306,275,99257,2,0,P|299:302|289:339,1,45
406,363,99481,2,0,P|444:353|510:342,1,90
315,247,99928,2,0,P|353:257|419:268,1,90
466,228,100264,1,0,0:0:0:0:
402,280,100376,2,0,P|382:317|361:365,1,90
318,176,100824,6,0,P|312:134|298:60,1,90
235,120,101160,1,0,0:0:0:0:
315,73,101272,2,0,B|352:69|420:82|383:100|441:116|492:111,1,180
237,38,102055,1,0,0:0:0:0:
243,19,102167,1,0,0:0:0:0:
184,123,102391,6,0,P|198:173|209:235,1,90
112,123,102839,1,0,0:0:0:0:
52,29,103063,1,0,0:0:0:0:
66,18,103175,1,0,0:0:0:0:
15,121,103399,1,0,0:0:0:0:
27,134,103511,2,0,P|19:177|11:230,1,90
176,352,103958,2,0,P|219:345|275:338,1,90
428,235,104406,6,0,P|443:281|455:331,1,90
511,366,104742,1,0,0:0:0:0:
435,322,104854,2,0,P|343:295|234:272,1,180
395,161,105637,1,0,0:0:0:0:
406,171,105749,1,0,0:0:0:0:
484,96,105973,6,0,P|439:69|388:45,1,90
330,79,106309,1,0,0:0:0:0:
392,43,106421,2,0,P|401:16|412:-11,1,45
493,40,106645,2,0,P|502:92|506:157,1,90
391,208,107093,2,0,P|382:260|378:325,1,90
441,342,107428,1,0,0:0:0:0:
362,300,107540,2,0,P|316:283|261:272,1,90
190,126,107988,6,0,P|173:75|149:13,1,90
227,8,108324,1,0,0:0:0:0:
146,48,108436,2,0,P|146:143|228:147,1,180
362,58,109220,1,0,0:0:0:0:
358,42,109331,1,0,0:0:0:0:
319,144,109555,6,0,P|310:190|301:252,1,90
197,253,110003,1,0,0:0:0:0:
176,146,110227,1,0,0:0:0:0:
282,126,110451,1,0,0:0:0:0:
270,120,110563,2,0,P|265:95|258:60,1,45
40,185,110899,1,0,0:0:0:0:
150,90,111123,5,0,0:0:0:0:
146,121,111234,1,0,0:0:0:0:
143,152,111346,1,0,0:0:0:0:
140,183,111458,1,0,0:0:0:0:
137,214,111570,5,0,0:0:0:0:
256,192,112466,12,0,113249,0:0:0:0:
466,107,113361,6,0,P|475:60|490:5,1,90
451,121,113697,2,0,P|455:145|458:175,1,45
356,354,114145,1,0,0:0:0:0:
339,346,114257,1,0,0:0:0:0:
182,240,114481,1,0,0:0:0:0:
234,293,114705,2,0,P|287:280|353:268,1,90
381,322,115040,1,0,0:0:0:0:
317,255,115152,6,0,P|322:206|334:138,1,90
388,130,115488,1,0,0:0:0:0:
310,168,115600,2,0,P|263:159|249:110,1,90
124,254,116048,1,0,0:0:0:0:
114,240,116160,1,0,0:0:0:0:
206,333,116384,1,0,0:0:0:0:
192,343,116496,2,0,P|200:288|211:233,1,90
70,158,116943,5,0,0:0:0:0:
54,156,117055,2,0,P|89:128|137:118,1,90
188,70,117391,1,0,0:0:0:0:
202,86,117503,2,0,P|207:111|209:130,1,45
279,70,117727,1,0,0:0:0:0:
296,57,117839,2,0,P|306:33|311:15,1,45
336,135,118063,1,0,0:0:0:0:
351,149,118175,2,0,P|377:144|407:140,1,45
420,61,118399,1,0,0:0:0:0:
447,76,118511,1,0,0:0:0:0:
471,49,118623,1,0,0:0:0:0:
512,61,118734,5,0,0:0:0:0:
487,198,118884,1,0,0:0:0:0:
489,84,119033,1,0,0:0:0:0:
364,140,119182,5,0,0:0:0:0:
289,37,119331,1,0,0:0:0:0:
366,111,119481,1,0,0:0:0:0:
199,158,119630,5,0,0:0:0:0:
308,256,119779,1,0,0:0:0:0:
230,154,119928,1,0,0:0:0:0:
169,364,120078,5,0,0:0:0:0:
227,232,120227,1,0,0:0:0:0:
198,354,120376,1,0,0:0:0:0:
75,280,120526,5,0,0:0:0:0:
69,240,120637,1,0,0:0:0:0:
64,199,120749,1,0,0:0:0:0:
60,158,120861,1,0,0:0:0:0:
54,117,120973,1,0,0:0:0:0:
35,94,121197,1,0,0:0:0:0:
235,161,121421,5,0,0:0:0:0:
273,173,121533,1,0,0:0:0:0:
312,166,121645,1,0,0:0:0:0:
338,135,121757,1,0,0:0:0:0:
343,94,121869,1,0,0:0:0:0:
324,73,122093,2,0,P|335:28|343:-27,1,90
418,125,122540,5,0,0:0:0:0:
438,148,122652,1,0,0:0:0:0:
466,161,122764,1,0,0:0:0:0:
282,189,122988,2,0,P|241:173|174:160,1,90
295,176,123324,2,0,P|315:167|339:159,1,45
168,52,123660,1,0,0:0:0:0:
43,137,123884,1,0,0:0:0:0:
60,142,123996,2,0,P|63:173|69:208,1,45
237,218,125003,6,0,B|228:154|228:154|256:109|256:109|246:29,1,180
224,26,125563,1,0,0:0:0:0:
227,57,125675,1,0,0:0:0:0:
229,88,125787,1,0,0:0:0:0:
232,119,125899,6,0,B|284:92|284:92|345:118|345:118|426:101,1,180
436,29,126570,1,0,0:0:0:0:
508,113,126794,2,0,P|498:160|488:221,1,90
465,367,127242,1,0,0:0:0:0:
510,298,127466,1,0,0:0:0:0:
353,199,127690,5,0,0:0:0:0:
386,130,128026,1,0,0:0:0:0:
380,110,128137,1,0,0:0:0:0:
416,250,128361,1,0,0:0:0:0:
332,211,128585,2,0,P|294:198|244:185,1,90
165,318,129033,2,0,P|202:305|253:292,1,90
135,164,129481,5,0,0:0:0:0:
69,120,129817,1,0,0:0:0:0:
54,126,129928,1,0,0:0:0:0:
127,75,130152,1,0,0:0:0:0:
18,13,130376,2,0,P|27:54|35:102,1,90
137,171,130824,2,0,P|152:128|171:88,1,90
372,34,131272,5,0,0:0:0:0:
283,20,131608,1,0,0:0:0:0:
266,30,131720,1,0,0:0:0:0:
320,137,131943,1,0,0:0:0:0:
456,13,132167,1,0,0:0:0:0:
491,92,132391,1,0,0:0:0:0:
402,179,132615,2,0,P|406:126|411:72,1,90
211,189,133063,6,0,P|235:284|252:372,1,180
313,299,133734,1,0,0:0:0:0:
142,251,133958,2,0,P|101:230|40:207,1,90
288,129,134406,2,0,P|332:113|388:100,1,90
147,95,134854,5,0,0:0:0:0:
167,323,135078,1,0,0:0:0:0:
395,303,135302,1,0,0:0:0:0:
375,74,135526,1,0,0:0:0:0:
155,337,135749,5,0,0:0:0:0:
206,281,135861,1,0,0:0:0:0:
203,254,135973,1,0,0:0:0:0:
200,227,136085,1,0,0:0:0:0:
275,264,136197,5,0,0:0:0:0:
224,208,136309,1,0,0:0:0:0:
227,181,136421,1,0,0:0:0:0:
230,153,136533,2,0,L|234:89,1,45
453,82,136869,6,0,P|452:59|436:26,1,45
384,206,137093,2,0,P|409:210|446:225,1,45
271,143,137317,2,0,P|252:157|238:178,1,45
314,20,137540,1,0,0:0:0:0:
431,296,137764,5,0,0:0:0:0:
422,333,137876,1,0,0:0:0:0:
404,360,137988,2,0,B|397:286|415:232|437:274|460:207|454:127,1,216
215,24,138436,6,0,P|153:35|84:55,1,125.999996154785
17,20,138772,1,0,0:0:0:0:
84,65,138884,2,0,P|218:90|338:121,1,251.999992309571
471,353,139555,2,0,P|440:337|400:326,1,62.9999980773926
388,255,139779,2,0,P|453:243|513:235,1,125.999996154785
227,326,140227,6,0,P|217:257|200:180,1,125.999996154785
249,324,140563,2,0,P|260:357|267:384,1,62.9999980773926
66,215,140899,1,0,0:0:0:0:
165,14,141123,2,0,P|216:18|218:87,1,125.999996154785
291,140,141459,1,0,0:0:0:0:
200,91,141571,2,0,P|214:145|228:220,1,125.999996154785
466,362,142018,6,0,P|444:297|419:235,1,125.999996154785
484,180,142354,1,0,0:0:0:0:
400,254,142466,2,0,P|343:237|347:177,1,125.999996154785
263,204,142802,1,0,0:0:0:0:
365,177,142914,2,0,P|353:125|343:48,1,125.999996154785
347,188,143250,2,0,P|358:221|366:252,1,62.9999980773926
140,139,143585,6,0,P|165:64|177:12,1,125.999996154785
21,351,144033,2,0,P|42:288|106:299,1,125.999996154785
309,351,144481,2,0,P|301:320|285:270,1,62.9999980773926
344,167,144705,1,0,0:0:0:0:
435,337,144928,1,0,0:0:0:0:
455,305,145040,1,0,0:0:0:0:
486,283,145152,1,0,0:0:0:0:
208,346,145376,2,0,P|173:336|142:329,1,62.9999980773926
95,246,145600,6,0,P|146:207|191:161,1,125.999996154785
135,97,145936,1,0,0:0:0:0:
214,177,146048,2,0,B|277:178|366:149|299:124|403:95|448:98,1,251.999992309571
112,9,146720,2,0,P|145:18|192:34,1,62.9999980773926
210,95,146943,2,0,P|193:157|176:245,1,125.999996154785
424,372,147391,5,0,0:0:0:0:
367,173,147615,1,0,0:0:0:0:
342,200,147727,1,0,0:0:0:0:
325,233,147839,1,0,0:0:0:0:
429,17,148063,1,0,0:0:0:0:
158,149,148287,2,0,P|172:215|184:285,1,125.999996154785
178,141,148623,2,0,P|185:100|194:58,1,62.9999980773926
7,310,148958,6,0,B|61:304|154:329|102:353|188:377|269:365,1,251.999992309571
333,321,149518,1,0,0:0:0:0:
247,355,149630,2,0,P|185:319|202:266,1,125.999996154785
384,65,150078,1,0,0:0:0:0:
80,229,150302,1,0,0:0:0:0:
345,374,150526,2,0,P|354:303|371:230,1,125.999996154785
179,109,150973,6,0,P|183:75|206:44,1,62.9999980773926
338,208,151197,2,0,P|314:228|297:259,1,62.9999980773926
393,47,151421,2,0,P|358:32|322:30,1,62.9999980773926
216,212,151645,1,0,0:0:0:0:
211,195,151757,1,0,0:0:0:0:
434,157,152093,5,0,0:0:0:0:
440,167,152168,1,0,0:0:0:0:
451,174,152242,1,0,0:0:0:0:
474,161,152317,2,0,P|407:137|334:118,1,125.999996154785
330,28,152652,1,0,0:0:0:0:
340,134,152764,6,0,P|322:195|308:275,1,125.999996154785
382,319,153100,1,0,0:0:0:0:
292,260,153212,2,0,P|168:223|30:194,1,251.999992309571
239,28,153884,2,0,P|271:32|302:38,1,62.9999980773926
339,105,154108,2,0,P|277:124|211:153,1,125.999996154785
473,314,154555,6,0,P|485:241|496:183,1,125.999996154785
447,317,154891,2,0,P|441:355|430:399,1,62.9999980773926
208,128,155227,1,0,0:0:0:0:
401,203,155451,2,0,P|341:210|260:227,1,125.999996154785
222,288,155787,1,0,0:0:0:0:
267,207,155899,2,0,P|286:148|301:72,1,125.999996154785
60,214,156346,6,0,P|76:276|90:340,1,125.999996154785
26,378,156682,1,0,0:0:0:0:
107,330,156794,2,0,P|155:324|189:386,1,125.999996154785
296,151,157242,2,0,P|286:98|263:20,1,125.999996154785
26,309,157690,1,0,0:0:0:0:
165,231,157914,6,0,P|173:167|187:97,1,125.999996154785
475,253,158361,2,0,P|414:258|399:322,1,125.999996154785
487,95,158809,2,0,P|479:58|468:20,1,62.9999980773926
390,70,159033,2,0,P|372:130|357:210,1,125.999996154785
361,70,159369,2,0,P|355:42|343:10,1,62.9999980773926
129,260,159705,2,0,P|140:222|148:182,1,62.9999980773926
66,115,159928,6,0,P|85:64|154:68,1,125.999996154785
218,3,160264,1,0,0:0:0:0:
147,85,160376,2,0,P|162:176|178:350,1,251.999992309571
391,145,161048,2,0,P|382:172|370:215,1,62.9999980773926
497,314,161272,2,0,P|476:246|461:181,1,125.999996154785
193,340,161720,6,0,P|252:348|333:365,1,125.999996154785
186,319,162055,2,0,P|155:332|123:341,1,62.9999980773926
49,144,162391,2,0,P|30:74|9:6,1,125.999996154785
279,180,162839,2,0,P|289:149|306:108,1,62.9999980773926
141,13,163063,1,0,0:0:0:0:
166,175,163287,1,0,0:0:0:0:
174,184,163361,1,0,0:0:0:0:
180,194,163436,1,0,0:0:0:0:
185,205,163511,5,0,0:0:0:0:
156,229,163623,1,0,0:0:0:0:
133,259,163734,1,0,0:0:0:0:
118,293,163846,1,0,0:0:0:0:
111,330,163958,1,0,0:0:0:0:
347,300,164182,1,0,0:0:0:0:
320,273,164294,1,0,0:0:0:0:
308,237,164406,5,0,0:0:0:0:
316,222,164481,1,0,0:0:0:0:
329,211,164555,1,0,0:0:0:0:
344,204,164630,1,0,0:0:0:0:
360,202,164705,1,0,0:0:0:0:
376,204,164779,1,0,0:0:0:0:
410,228,164854,5,0,0:0:0:0:
376,160,164966,1,0,0:0:0:0:
308,126,165078,1,0,0:0:0:0:
232,122,165190,1,0,0:0:0:0:
174,174,165302,6,0,B|231:180|298:162|262:143|336:121|408:124,1,215.999993408203
449,185,165973,1,0,0:0:0:0:
157,22,166197,1,0,0:0:0:0:
294,102,166533,5,0,0:0:0:0:
308,87,166645,1,0,0:0:0:0:
279,70,166757,1,0,0:0:0:0:
246,67,166869,1,0,0:0:0:0:
214,75,166981,1,0,0:0:0:0:
193,100,167093,5,0,0:0:0:0:
199,175,167205,1,0,0:0:0:0:
210,249,167317,1,0,0:0:0:0:
255,232,167428,5,0,0:0:0:0:
251,285,167540,2,0,L|269:266,1,26.9999991760254
249,335,167652,1,0,0:0:0:0:
415,181,167876,1,0,0:0:0:0:
421,155,167988,5,0,0:0:0:0:
381,173,168100,1,0,0:0:0:0:
337,169,168212,1,0,0:0:0:0:
302,143,168324,1,0,0:0:0:0:
292,100,168436,5,0,0:0:0:0:
340,276,168585,1,0,0:0:0:0:
320,118,168734,1,0,0:0:0:0:
111,193,168884,5,0,0:0:0:0:
130,225,168996,1,0,0:0:0:0:
163,242,169108,1,0,0:0:0:0:
200,245,169220,1,0,0:0:0:0:
235,234,169331,1,0,0:0:0:0:
244,257,169443,2,0,P|235:286|227:324,1,53.9999983520508
367,138,169667,1,0,0:0:0:0:
383,162,169779,5,0,0:0:0:0:
390,109,169891,1,0,0:0:0:0:
356,68,170003,1,0,0:0:0:0:
305,53,170115,1,0,0:0:0:0:
254,69,170227,2,0,P|262:94|273:119,1,53.9999983520508
422,15,170451,1,0,0:0:0:0:
450,60,170563,1,0,0:0:0:0:
493,92,170675,2,0,P|501:61|511:29,1,53.9999983520508
236,251,170899,5,0,0:0:0:0:
263,278,171011,1,0,0:0:0:0:
287,347,171123,5,0,0:0:0:0:
250,324,171234,1,0,0:0:0:0:
212,324,171346,1,0,0:0:0:0:
181,333,171458,1,0,0:0:0:0:
161,352,171570,1,0,0:0:0:0:
139,368,171682,1,0,0:0:0:0:
112,372,171794,1,0,0:0:0:0:
77,356,171906,1,0,0:0:0:0:
97,272,172018,5,0,0:0:0:0:
131,257,172130,1,0,0:0:0:0:
131,294,172242,1,0,0:0:0:0:
7,34,172578,5,0,0:0:0:0:
29,53,172690,2,0,B|67:57|124:52|88:26|149:14|199:15,1,161.999995056153
268,108,173137,1,0,0:0:0:0:
301,135,173249,1,0,0:0:0:0:
331,144,173361,1,0,0:0:0:0:
480,347,173697,1,0,0:0:0:0:
496,363,173809,5,0,0:0:0:0:
490,320,173921,1,0,0:0:0:0:
487,276,174033,1,0,0:0:0:0:
484,232,174145,1,0,0:0:0:0:
482,188,174257,5,0,0:0:0:0:
471,196,174313,2,0,B|420:202|351:192|399:166|329:152|287:156,1,188.999994232178
93,360,175152,2,0,P|140:334|206:309,1,107.999996704102
249,362,175488,1,0,0:0:0:0:
186,296,175600,1,0,0:0:0:0:
201,273,175712,1,0,0:0:0:0:
212,248,175824,1,0,0:0:0:0:
217,221,175936,1,0,0:0:0:0:
215,194,176048,5,0,0:0:0:0:
184,203,176160,1,0,0:0:0:0:
141,194,176272,1,0,0:0:0:0:
111,148,176384,1,0,0:0:0:0:
129,80,176496,1,0,0:0:0:0:
50,253,176720,1,0,0:0:0:0:
67,292,176831,1,0,0:0:0:0:
80,333,176943,5,0,0:0:0:0:
110,263,177055,1,0,0:0:0:0:
110,187,177167,1,0,0:0:0:0:
85,115,177279,1,0,0:0:0:0:
29,63,177391,1,0,0:0:0:0:
289,241,177615,1,0,0:0:0:0:
225,200,177727,1,0,0:0:0:0:
149,200,177839,6,0,P|131:172|130:130,1,53.9999983520508
378,109,178063,2,0,P|368:141|345:159,1,53.9999983520508
203,36,178287,2,0,P|215:9|245:-1,1,53.9999983520508
262,256,178511,1,0,0:0:0:0:
245,243,178623,1,0,0:0:0:0:
150,137,178958,2,0,P|154:168|158:207,1,53.9999983520508
114,253,179182,2,0,P|124:165|138:63,1,161.999995056153
44,44,179630,6,0,B|34:115|58:205|80:154|104:249|100:307,1,270
175,122,181421,6,0,L|181:65,3,30
257,197,181869,2,0,L|263:261,1,45
268,183,182093,2,0,L|274:247,1,45
292,243,182317,2,0,L|285:150,1,90
385,278,182764,1,0,0:0:0:0:
352,352,182988,6,0,P|359:256|368:159,1,180
506,35,183660,1,0,0:0:0:0:
474,134,183884,1,0,0:0:0:0:
260,32,184108,5,0,0:0:0:0:
276,125,184331,1,0,0:0:0:0:
369,108,184555,1,0,0:0:0:0:
353,15,184779,1,0,0:0:0:0:
261,142,185003,6,0,L|255:182,3,30
166,286,185451,2,0,P|158:238|150:185,1,90
98,150,185787,1,0,0:0:0:0:
167,195,185899,2,0,P|209:186|265:179,1,90
195,39,186346,1,0,0:0:0:0:
118,73,186570,6,0,B|160:76|224:62|183:42|244:21|312:30,1,180
350,93,187242,1,0,0:0:0:0:
331,226,187466,1,0,0:0:0:0:
394,306,187690,2,0,P|403:260|414:212,1,90
512,370,188137,2,0,P|503:324|492:276,1,90
294,340,188585,6,0,L|239:333,3,30
186,266,189033,2,0,L|180:215,1,45
202,276,189257,2,0,L|196:225,1,45
158,200,189481,2,0,L|172:306,1,90
65,114,189928,2,0,P|74:84|83:60,1,45
24,12,190152,6,0,P|33:113|39:222,1,180
284,133,190824,1,0,0:0:0:0:
144,349,191048,2,0,P|157:296|169:255,1,90
105,211,191384,1,0,0:0:0:0:
184,273,191496,2,0,P|226:257|292:244,1,90
490,378,191943,6,0,B|447:380|371:370|423:345|358:331|314:336,1,180
427,201,192615,1,0,0:0:0:0:
361,127,192839,2,0,P|355:94|346:54,1,45
287,36,193063,2,0,P|248:47|190:61,1,90
251,234,193511,2,0,P|270:273|298:349,1,90
70,161,193958,6,0,P|62:132|71:106,1,45
289,195,194182,2,0,P|281:224|260:242,1,45
203,71,194406,2,0,P|229:56|245:57,1,45
146,255,194630,1,0,0:0:0:0:
135,229,194742,1,0,0:0:0:0:
414,325,195078,1,0,0:0:0:0:
461,328,195190,1,0,0:0:0:0:
499,357,195302,6,0,B|447:362|369:349|406:322|330:305|271:307,1,229.500004377365
94,378,195749,6,0,P|84:315|56:238,1,135.000005149842
0,159,196085,1,0,0:0:0:0:
89,246,196197,2,0,P|226:222|367:207,1,270.000010299683
468,27,196869,2,0,P|433:9|389:-4,1,67.5000025749208
368,184,197093,2,0,P|439:169|507:161,1,135.000005149842
107,95,197541,6,0,P|78:33|-4:43,1,135.000005149842
126,115,197877,2,0,P|138:151|146:181,1,67.5000025749208
354,355,198212,1,0,0:0:0:0:
302,22,198436,2,0,P|287:77|271:153,1,135.000005149842
188,92,198772,1,0,0:0:0:0:
290,167,198884,2,0,P|359:142|431:121,1,135.000005149842
141,355,199331,6,0,P|119:290|56:298,1,135.000005149842
19,371,199667,1,0,0:0:0:0:
74,263,199779,2,0,P|64:204|47:122,1,135.000005149842
0,50,200115,1,0,0:0:0:0:
75,139,200227,2,0,P|119:148|134:71,1,135.000005149842
78,165,200563,2,0,P|89:198|96:239,1,67.5000025749208
358,378,200899,6,0,P|379:301|401:241,1,135.000005149842
139,88,201346,2,0,P|166:14|220:17,1,135.000005149842
58,327,201794,2,0,P|88:313|124:303,1,67.5000025749208
262,116,202018,1,0,0:0:0:0:
363,355,202242,1,0,0:0:0:0:
335,325,202354,1,0,0:0:0:0:
297,310,202466,1,0,0:0:0:0:
470,237,202690,2,0,P|488:200|506:172,1,67.5000025749208
465,91,202914,6,0,P|412:102|333:121,1,135.000005149842
270,38,203249,1,0,0:0:0:0:
336,146,203361,2,0,P|300:251|146:230,1,270.000010299683
396,357,204033,2,0,P|426:342|463:328,1,67.5000025749208
326,193,204257,2,0,P|259:181|183:171,1,135.000005149842
463,138,204705,6,0,P|479:62|494:2,1,135.000005149842
441,153,205040,2,0,P|451:186|461:230,1,67.5000025749208
131,142,205376,2,0,P|101:85|26:92,1,135.000005149842
279,70,205824,2,0,P|312:54|353:41,1,67.5000025749208
362,210,206048,2,0,P|331:281|306:361,1,135.000005149842
168,30,206496,5,0,0:0:0:0:
281,206,206720,1,0,0:0:0:0:
244,176,206831,1,0,0:0:0:0:
198,161,206943,1,0,0:0:0:0:
440,352,207167,1,0,0:0:0:0:
450,278,207279,1,0,0:0:0:0:
492,216,207391,1,0,0:0:0:0:
345,35,207615,2,0,P|336:79|332:121,1,67.5000025749208
473,304,207839,6,0,B|473:237|459:172|440:206|420:145|418:60,1,229.500004377365
367,266,208287,6,0,P|319:253|239:239,1,107.999996704102
195,282,208623,1,0,0:0:0:0:
247,223,208734,2,0,P|262:104|277:5,1,215.999993408203
89,211,209518,1,0,0:0:0:0:
94,226,209630,1,0,0:0:0:0:
5,116,209854,6,0,P|17:68|29:10,1,107.999996704102
221,170,210302,2,0,P|214:201|207:236,1,53.9999983520508
158,127,210526,5,0,0:0:0:0:
177,294,210750,1,0,0:0:0:0:
345,275,210973,1,0,0:0:0:0:
326,108,211197,1,0,0:0:0:0:
189,281,211421,2,0,P|199:253|200:228,1,53.9999983520508
105,288,211645,2,0,P|89:262|83:238,1,53.9999983520508
169,43,211869,6,0,P|157:96|147:148,1,107.999996704102
74,122,212205,1,0,0:0:0:0:
159,164,212317,2,0,B|204:170|287:150|237:123|319:108|365:115,1,215.999993408203
508,258,213100,1,0,0:0:0:0:
512,273,213212,1,0,0:0:0:0:
461,126,213436,6,0,P|468:75|480:15,1,107.999996704102
277,163,213884,2,0,P|304:169|328:178,1,53.9999983520508
214,113,214108,5,0,0:0:0:0:
222,290,214331,1,0,0:0:0:0:
400,281,214555,1,0,0:0:0:0:
391,103,214779,1,0,0:0:0:0:
244,281,215003,2,0,P|258:305|266:331,1,53.9999983520508
152,262,215227,2,0,P|133:282|120:306,1,53.9999983520508
297,115,215451,6,0,P|283:152|275:183,1,53.9999983520508
170,85,215675,2,0,P|191:118|205:146,1,53.9999983520508
324,111,215899,2,0,P|302:144|288:172,1,53.9999983520508
147,95,216123,2,0,P|174:123|194:148,1,53.9999983520508
341,298,216346,6,0,P|350:264|363:233,1,53.9999983520508
230,198,216570,2,0,P|239:223|245:249,1,53.9999983520508
442,343,216794,2,0,P|431:314|420:276,1,53.9999983520508
129,182,217018,2,0,P|150:220|166:259,1,53.9999983520508
372,44,217242,6,0,P|359:97|348:163,1,107.999996704102
287,212,217578,1,0,0:0:0:0:
374,156,217690,2,0,P|429:141|499:131,1,107.999996704102
357,348,218137,5,0,0:0:0:0:
384,123,218361,1,0,0:0:0:0:
159,95,218585,1,0,0:0:0:0:
132,321,218809,1,0,0:0:0:0:
398,107,219033,6,0,P|416:165|428:220,1,107.999996704102
495,164,219369,1,0,0:0:0:0:
414,228,219481,2,0,P|373:190|322:191,1,107.999996704102
123,321,219928,6,0,P|117:289|89:258,1,53.9999983520508
404,136,220152,2,0,P|382:155|365:191,1,53.9999983520508
162,87,220376,2,0,P|190:74|213:55,1,53.9999983520508
341,327,220600,2,0,P|318:349|309:384,1,53.9999983520508
