osu file format v14

[General]
AudioFilename: audio.mp3
AudioLeadIn: 0
PreviewTime: 176800
Countdown: 0
SampleSet: Normal
StackLeniency: 0.7
Mode: 1
LetterboxInBreaks: 0
WidescreenStoryboard: 1

[Editor]
Bookmarks: 61,27887,69626,95713,109626,133974,149626,163539,201800,204626,221364
DistanceSpacing: 0.8
BeatDivisor: 4
GridSize: 4
TimelineZoom: 1

[Metadata]
Title:Otome Kaibou feat. Hatsune Miku (TeddyLoid Allies Remix)
TitleUnicode:乙女解剖 feat. 初音ミク (TeddyLoid Alllies Remix)
Artist:DECO*27
ArtistUnicode:DECO*27
Creator:Chromoxx
Version:Oni
Source:
Tags:midnaait jerry vocaloid japanese deco27 おとめかいぼう はつねみく otoiro yuma saito girl dissection
BeatmapID:2410700
BeatmapSetID:1150556

[Difficulty]
HPDrainRate:5
CircleSize:5
OverallDifficulty:6
ApproachRate:5
SliderMultiplier:1.4
SliderTickRate:1

[Events]
//Background and Video events
Video,0,"otome kaibou.mp4" S,0,0,,0.67 MY,0,0,,128
0,0,"otome+kaibou.jpg",0,250
//Break Periods
//Storyboard Layer 0 (Background)
//Storyboard Layer 1 (Fail)
//Storyboard Layer 2 (Pass)
//Storyboard Layer 3 (Foreground)
//Storyboard Layer 4 (Overlay)
//Storyboard Sound Samples

[TimingPoints]
61,434.782608695652,4,1,0,70,1,0
27832,-100,4,1,0,80,0,0
69843,-100,4,1,0,70,0,0
95658,-100,4,1,0,90,0,0
95713,-100,4,1,0,90,0,1
107887,-100,4,1,0,80,0,0
134191,-100,4,1,0,70,0,0
149571,-100,4,1,0,80,0,0
163430,-100,4,1,0,90,0,0
163539,-100,4,1,0,90,0,1
202017,-100,4,1,0,80,0,1
204408,-100,4,1,0,70,0,1
205278,-100,4,1,0,70,0,0
220930,434.782608695652,4,1,0,70,1,8

[HitObjects]
186,192,61,5,8,0:0:0:0:
220,209,1800,1,8,0:0:0:0:
198,265,3539,1,0,0:0:0:0:
260,179,5278,1,8,0:0:0:0:
256,183,6147,1,0,0:0:0:0:
198,225,7017,1,8,0:0:0:0:
261,82,7452,1,0,0:0:0:0:
198,225,7669,1,8,0:0:0:0:
198,225,8321,1,0,0:0:0:0:
198,225,8756,1,8,0:0:0:0:
240,78,9191,1,0,0:0:0:0:
307,145,9408,1,8,0:0:0:0:
198,225,9626,1,0,0:0:0:0:
166,208,10495,1,8,0:0:0:0:
182,114,10930,1,8,0:0:0:0:
277,177,11147,1,0,0:0:0:0:
277,177,11800,1,0,0:0:0:0:
277,177,12234,1,8,0:0:0:0:
234,184,13104,1,0,0:0:0:0:
171,196,13974,1,8,0:0:0:0:
299,180,14408,1,0,0:0:0:0:
154,169,14626,1,0,0:0:0:0:
252,105,14843,1,8,0:0:0:0:
141,59,14952,1,8,0:0:0:0:
155,79,15060,1,0,0:0:0:0:
141,59,15278,1,8,0:0:0:0:
141,59,15495,1,8,0:0:0:0:
204,185,15604,1,8,0:0:0:0:
310,278,15713,1,8,0:0:0:0:
310,278,15930,1,0,0:0:0:0:
352,95,16365,1,0,0:0:0:0:
352,95,16582,1,8,0:0:0:0:
122,58,16800,1,0,0:0:0:0:
146,78,17017,1,8,0:0:0:0:
146,78,17126,1,8,0:0:0:0:
165,42,17234,1,8,0:0:0:0:
165,42,17452,1,0,0:0:0:0:
181,174,17887,1,8,0:0:0:0:
181,174,18104,1,8,0:0:0:0:
228,164,18321,1,0,0:0:0:0:
228,164,18430,1,0,0:0:0:0:
228,164,18539,1,8,0:0:0:0:
197,236,18756,1,0,0:0:0:0:
197,236,18974,1,0,0:0:0:0:
197,236,19082,1,0,0:0:0:0:
197,236,19191,1,0,0:0:0:0:
244,149,19408,1,8,0:0:0:0:
244,149,19843,1,8,0:0:0:0:
244,149,20060,1,0,0:0:0:0:
165,82,20278,1,8,0:0:0:0:
165,82,20495,1,0,0:0:0:0:
165,82,20604,1,0,0:0:0:0:
107,56,20713,1,0,0:0:0:0:
107,56,20930,1,8,0:0:0:0:
125,180,21256,1,8,0:0:0:0:
315,124,21365,1,8,0:0:0:0:
125,180,21691,1,8,0:0:0:0:
315,124,21800,1,8,0:0:0:0:
267,241,22017,1,0,0:0:0:0:
215,175,22234,1,8,0:0:0:0:
198,200,22452,1,8,0:0:0:0:
198,200,22669,1,0,0:0:0:0:
198,200,22887,1,8,0:0:0:0:
198,200,23321,1,8,0:0:0:0:
198,200,23539,1,0,0:0:0:0:
284,102,23647,1,0,0:0:0:0:
284,102,23756,1,0,0:0:0:0:
88,105,23974,1,8,0:0:0:0:
88,105,24191,1,0,0:0:0:0:
130,124,24408,1,8,0:0:0:0:
256,192,24626,12,0,26147,0:0:0:0:
266,201,26365,5,0,0:0:0:0:
266,201,26582,1,8,0:0:0:0:
266,201,26800,1,8,0:0:0:0:
266,201,27017,1,0,0:0:0:0:
317,195,27234,1,0,0:0:0:0:
317,195,27343,1,0,0:0:0:0:
155,79,27452,1,8,0:0:0:0:
210,128,27887,1,4,0:0:0:0:
343,135,28104,1,8,0:0:0:0:
343,135,28213,1,8,0:0:0:0:
292,107,28321,1,8,0:0:0:0:
343,135,28539,1,0,0:0:0:0:
204,205,28756,1,8,0:0:0:0:
103,204,28865,1,8,0:0:0:0:
151,180,28974,1,0,0:0:0:0:
184,42,29191,1,8,0:0:0:0:
42,98,29408,1,8,0:0:0:0:
58,90,29481,1,8,0:0:0:0:
58,90,29553,1,8,0:0:0:0:
58,90,29626,1,8,0:0:0:0:
261,172,29843,1,0,0:0:0:0:
261,172,30060,1,0,0:0:0:0:
261,172,30495,1,8,0:0:0:0:
357,190,31147,1,0,0:0:0:0:
357,190,31256,1,0,0:0:0:0:
357,190,31365,1,0,0:0:0:0:
416,178,31582,1,8,0:0:0:0:
239,257,31691,1,8,0:0:0:0:
347,293,31800,1,8,0:0:0:0:
171,77,32017,1,0,0:0:0:0:
270,104,32234,1,8,0:0:0:0:
154,253,32343,1,8,0:0:0:0:
322,212,32452,1,8,0:0:0:0:
322,212,32669,1,0,0:0:0:0:
115,96,32742,1,0,0:0:0:0:
144,100,32814,1,0,0:0:0:0:
144,100,32887,1,0,0:0:0:0:
153,50,33104,1,8,0:0:0:0:
157,60,33321,1,0,0:0:0:0:
158,61,33539,1,0,0:0:0:0:
158,61,33647,1,0,0:0:0:0:
151,135,33974,1,8,0:0:0:0:
151,135,34191,1,0,0:0:0:0:
151,135,34517,1,0,0:0:0:0:
278,198,34843,1,0,0:0:0:0:
27,113,35060,1,8,0:0:0:0:
52,106,35169,1,0,0:0:0:0:
52,106,35278,1,8,0:0:0:0:
215,81,35495,1,0,0:0:0:0:
178,239,35713,1,8,0:0:0:0:
178,215,35821,1,8,0:0:0:0:
178,239,35930,1,0,0:0:0:0:
171,192,36147,1,8,0:0:0:0:
279,200,36365,1,8,0:0:0:0:
123,94,36437,1,8,0:0:0:0:
235,118,36510,1,8,0:0:0:0:
184,145,36582,1,8,0:0:0:0:
311,231,36800,1,0,0:0:0:0:
311,231,37017,1,0,0:0:0:0:
9,162,37452,1,8,0:0:0:0:
195,161,38104,1,0,0:0:0:0:
195,161,38213,1,0,0:0:0:0:
195,161,38321,1,0,0:0:0:0:
416,278,38539,1,8,0:0:0:0:
239,204,38647,1,8,0:0:0:0:
416,278,38756,1,8,0:0:0:0:
239,204,38974,1,0,0:0:0:0:
218,224,39191,1,8,0:0:0:0:
107,142,39300,1,0,0:0:0:0:
152,116,39408,1,8,0:0:0:0:
136,201,39626,1,0,0:0:0:0:
342,149,39698,1,0,0:0:0:0:
136,201,39771,1,0,0:0:0:0:
342,149,39843,1,0,0:0:0:0:
285,129,40278,1,0,0:0:0:0:
237,232,40495,1,0,0:0:0:0:
237,232,40604,1,0,0:0:0:0:
155,119,40713,1,8,0:0:0:0:
155,119,40930,1,0,0:0:0:0:
356,132,41147,1,8,0:0:0:0:
356,132,41220,1,8,0:0:0:0:
356,132,41292,1,8,0:0:0:0:
353,137,41365,1,8,0:0:0:0:
300,136,41582,1,8,0:0:0:0:
174,166,41800,1,0,0:0:0:0:
233,253,42234,1,0,0:0:0:0:
233,253,42669,1,8,0:0:0:0:
172,130,42778,1,8,0:0:0:0:
100,127,42887,1,8,0:0:0:0:
100,127,43104,1,8,0:0:0:0:
314,167,43213,1,8,0:0:0:0:
314,167,43321,1,0,0:0:0:0:
314,167,43539,1,8,0:0:0:0:
198,122,43974,1,0,0:0:0:0:
222,202,44408,1,8,0:0:0:0:
222,202,44517,1,8,0:0:0:0:
222,202,44626,1,8,0:0:0:0:
296,266,44843,1,0,0:0:0:0:
271,256,44952,1,8,0:0:0:0:
94,181,45060,1,8,0:0:0:0:
283,165,45278,1,0,0:0:0:0:
283,165,45713,1,0,0:0:0:0:
283,165,46147,1,8,0:0:0:0:
211,154,46256,1,8,0:0:0:0:
211,154,46365,1,8,0:0:0:0:
207,234,46582,1,8,0:0:0:0:
207,234,46691,1,8,0:0:0:0:
155,208,46800,1,0,0:0:0:0:
318,225,47017,1,8,0:0:0:0:
318,225,47452,1,0,0:0:0:0:
188,200,47560,1,0,0:0:0:0:
217,122,47887,1,8,0:0:0:0:
163,101,47995,1,8,0:0:0:0:
217,122,48104,1,8,0:0:0:0:
163,101,48321,1,0,0:0:0:0:
308,278,48430,1,8,0:0:0:0:
249,202,48539,1,8,0:0:0:0:
317,142,48756,1,8,0:0:0:0:
328,237,48901,1,0,0:0:0:0:
328,237,49046,1,0,0:0:0:0:
328,237,49191,1,8,0:0:0:0:
328,237,49336,1,0,0:0:0:0:
324,225,49481,1,0,0:0:0:0:
236,267,49626,1,8,0:0:0:0:
236,267,49771,1,8,0:0:0:0:
150,157,49916,1,0,0:0:0:0:
150,157,50060,1,8,0:0:0:0:
228,117,50278,1,0,0:0:0:0:
166,77,50495,1,8,0:0:0:0:
166,77,50604,1,8,0:0:0:0:
148,66,50713,1,0,0:0:0:0:
143,33,50821,1,8,0:0:0:0:
152,78,50930,1,0,0:0:0:0:
151,78,51147,1,8,0:0:0:0:
396,169,51365,1,0,0:0:0:0:
233,88,51474,1,0,0:0:0:0:
319,166,51582,1,8,0:0:0:0:
311,165,51691,1,0,0:0:0:0:
311,165,51800,1,8,0:0:0:0:
312,162,51908,1,8,0:0:0:0:
311,164,52017,1,0,0:0:0:0:
217,180,52234,1,0,0:0:0:0:
217,180,52669,1,0,0:0:0:0:
191,228,53104,1,8,0:0:0:0:
150,174,53213,1,8,0:0:0:0:
191,228,53321,1,8,0:0:0:0:
150,174,53539,1,8,0:0:0:0:
150,174,53647,1,8,0:0:0:0:
141,132,53756,1,0,0:0:0:0:
141,132,53974,1,8,0:0:0:0:
214,139,54408,1,0,0:0:0:0:
214,191,54517,1,0,0:0:0:0:
214,191,54843,1,8,0:0:0:0:
274,253,55060,1,0,0:0:0:0:
307,174,55278,1,8,0:0:0:0:
307,174,55387,1,8,0:0:0:0:
211,132,55495,1,8,0:0:0:0:
211,132,55713,1,0,0:0:0:0:
143,252,56147,1,0,0:0:0:0:
143,252,56582,1,8,0:0:0:0:
240,246,56691,1,8,0:0:0:0:
158,118,56800,1,8,0:0:0:0:
112,127,57017,1,8,0:0:0:0:
112,127,57126,1,8,0:0:0:0:
105,103,57234,1,0,0:0:0:0:
105,103,57452,1,8,0:0:0:0:
105,103,57887,1,0,0:0:0:0:
105,103,58321,1,8,0:0:0:0:
228,163,58430,1,8,0:0:0:0:
228,163,58539,1,8,0:0:0:0:
228,163,58756,1,0,0:0:0:0:
325,230,58865,1,8,0:0:0:0:
228,163,58974,1,8,0:0:0:0:
308,279,59191,1,0,0:0:0:0:
170,236,59626,1,0,0:0:0:0:
170,236,60060,1,8,0:0:0:0:
174,221,60169,1,8,0:0:0:0:
174,218,60278,1,8,0:0:0:0:
174,218,60495,1,8,0:0:0:0:
232,146,60604,1,8,0:0:0:0:
164,122,60713,1,0,0:0:0:0:
164,122,60930,1,8,0:0:0:0:
272,242,61365,1,0,0:0:0:0:
425,309,61474,1,0,0:0:0:0:
309,142,61800,1,8,0:0:0:0:
309,142,61908,1,8,0:0:0:0:
226,117,62017,1,8,0:0:0:0:
162,105,62234,1,0,0:0:0:0:
127,101,62343,1,8,0:0:0:0:
162,105,62452,1,8,0:0:0:0:
321,227,62669,1,0,0:0:0:0:
287,243,62814,1,8,0:0:0:0:
287,243,62959,1,8,0:0:0:0:
262,230,63104,1,0,0:0:0:0:
254,226,63249,1,8,0:0:0:0:
254,226,63394,1,8,0:0:0:0:
254,226,63539,1,0,0:0:0:0:
254,226,63684,1,0,0:0:0:0:
254,226,63829,1,8,0:0:0:0:
254,226,63974,1,0,0:0:0:0:
282,135,64191,1,8,0:0:0:0:
218,202,64408,1,0,0:0:0:0:
362,182,64517,1,0,0:0:0:0:
358,188,64626,1,8,0:0:0:0:
352,192,64734,1,0,0:0:0:0:
351,192,64843,1,8,0:0:0:0:
347,195,65060,1,0,0:0:0:0:
254,207,65278,1,8,0:0:0:0:
254,207,65387,1,8,0:0:0:0:
254,207,65495,1,0,0:0:0:0:
254,207,65604,1,8,0:0:0:0:
254,207,65713,1,0,0:0:0:0:
254,207,65821,1,0,0:0:0:0:
254,207,65930,1,8,0:0:0:0:
294,245,66147,1,0,0:0:0:0:
196,180,66582,1,0,0:0:0:0:
196,180,67017,1,8,0:0:0:0:
196,180,67126,1,8,0:0:0:0:
306,171,67234,1,8,0:0:0:0:
298,178,67452,1,8,0:0:0:0:
297,178,67560,1,8,0:0:0:0:
297,178,67669,1,0,0:0:0:0:
281,234,67887,1,8,0:0:0:0:
265,202,68321,1,0,0:0:0:0:
265,202,68430,1,0,0:0:0:0:
247,182,68756,1,8,0:0:0:0:
247,182,68865,1,8,0:0:0:0:
247,182,68974,1,8,0:0:0:0:
201,205,69191,1,0,0:0:0:0:
201,205,69300,1,8,0:0:0:0:
201,205,69408,1,8,0:0:0:0:
217,170,69626,1,0,0:0:0:0:
327,175,70060,1,8,0:0:0:0:
327,175,70205,1,8,0:0:0:0:
327,175,70350,1,8,0:0:0:0:
234,184,70495,1,0,0:0:0:0:
234,184,70640,1,0,0:0:0:0:
234,184,70785,1,0,0:0:0:0:
297,283,70930,1,0,0:0:0:0:
297,283,71365,1,8,0:0:0:0:
411,148,71800,1,0,0:0:0:0:
426,144,71945,1,0,0:0:0:0:
370,193,72089,1,0,0:0:0:0:
340,194,72234,1,8,0:0:0:0:
340,194,72379,1,8,0:0:0:0:
340,194,72524,1,8,0:0:0:0:
340,194,72669,1,8,0:0:0:0:
219,211,73104,1,0,0:0:0:0:
219,211,73539,1,8,0:0:0:0:
219,211,73684,1,8,0:0:0:0:
219,211,73829,1,8,0:0:0:0:
295,239,73974,1,0,0:0:0:0:
295,239,74118,1,0,0:0:0:0:
295,239,74263,1,0,0:0:0:0:
208,131,74408,1,8,0:0:0:0:
329,220,74698,1,8,0:0:0:0:
204,211,74843,1,8,0:0:0:0:
228,276,75278,1,8,0:0:0:0:
228,276,75604,1,8,0:0:0:0:
228,276,75713,1,0,0:0:0:0:
401,197,75930,1,8,0:0:0:0:
214,107,76365,1,0,0:0:0:0:
214,107,76474,1,0,0:0:0:0:
214,107,76582,1,0,0:0:0:0:
175,158,77017,1,8,0:0:0:0:
175,158,77234,1,8,0:0:0:0:
175,158,77452,1,0,0:0:0:0:
175,158,77669,1,0,0:0:0:0:
175,158,77887,1,8,0:0:0:0:
175,158,78321,1,0,0:0:0:0:
354,238,80278,1,8,0:0:0:0:
354,238,80495,1,8,0:0:0:0:
354,238,80713,1,8,0:0:0:0:
354,238,80930,1,8,0:0:0:0:
183,277,81365,1,0,0:0:0:0:
171,196,81800,1,8,0:0:0:0:
299,180,82234,1,0,0:0:0:0:
154,169,82452,1,0,0:0:0:0:
252,105,82669,1,8,0:0:0:0:
141,59,82778,1,8,0:0:0:0:
155,79,82886,1,0,0:0:0:0:
141,59,83104,1,8,0:0:0:0:
141,59,83321,1,8,0:0:0:0:
204,185,83430,1,8,0:0:0:0:
310,278,83539,1,8,0:0:0:0:
310,278,83756,1,0,0:0:0:0:
352,95,84191,1,0,0:0:0:0:
352,95,84408,1,8,0:0:0:0:
122,58,84626,1,0,0:0:0:0:
146,78,84843,1,8,0:0:0:0:
146,78,84952,1,8,0:0:0:0:
165,42,85060,1,8,0:0:0:0:
165,42,85278,1,0,0:0:0:0:
181,174,85713,1,8,0:0:0:0:
181,174,85930,1,8,0:0:0:0:
228,164,86147,1,0,0:0:0:0:
228,164,86256,1,0,0:0:0:0:
228,164,86365,1,8,0:0:0:0:
197,236,86582,1,0,0:0:0:0:
197,236,86800,1,0,0:0:0:0:
197,236,86908,1,0,0:0:0:0:
197,236,87017,1,0,0:0:0:0:
244,149,87234,1,8,0:0:0:0:
244,149,87669,1,8,0:0:0:0:
244,149,87886,1,0,0:0:0:0:
165,82,88104,1,8,0:0:0:0:
165,82,88321,1,0,0:0:0:0:
165,82,88430,1,0,0:0:0:0:
107,56,88539,1,0,0:0:0:0:
107,56,88756,1,8,0:0:0:0:
125,180,89082,1,8,0:0:0:0:
315,124,89191,1,8,0:0:0:0:
125,180,89517,1,8,0:0:0:0:
315,124,89626,1,8,0:0:0:0:
267,241,89843,1,0,0:0:0:0:
215,175,90060,1,8,0:0:0:0:
198,200,90278,1,8,0:0:0:0:
198,200,90495,1,0,0:0:0:0:
198,200,90713,1,8,0:0:0:0:
198,200,91147,1,8,0:0:0:0:
198,200,91365,1,0,0:0:0:0:
284,102,91473,1,0,0:0:0:0:
284,102,91582,1,0,0:0:0:0:
88,105,91800,1,8,0:0:0:0:
88,105,92017,1,0,0:0:0:0:
130,124,92234,1,8,0:0:0:0:
256,192,92452,12,0,93974,0:0:0:0:
409,154,94191,5,4,0:0:0:0:
345,168,94408,1,12,0:0:0:0:
289,178,94626,1,12,0:0:0:0:
271,186,94843,1,4,0:0:0:0:
266,195,95060,1,0,0:0:0:0:
265,199,95169,1,0,0:0:0:0:
267,199,95278,1,8,0:0:0:0:
366,231,95713,1,4,0:0:0:0:
194,169,95930,1,8,0:0:0:0:
194,169,96039,1,8,0:0:0:0:
157,120,96147,1,8,0:0:0:0:
157,120,96365,1,0,0:0:0:0:
266,84,96582,1,8,0:0:0:0:
266,84,96691,1,0,0:0:0:0:
235,68,96800,1,0,0:0:0:0:
175,127,97017,1,8,0:0:0:0:
175,127,97234,1,8,0:0:0:0:
287,152,97307,1,8,0:0:0:0:
287,152,97379,1,8,0:0:0:0:
287,152,97452,1,8,0:0:0:0:
239,191,97669,1,0,0:0:0:0:
248,189,97887,1,0,0:0:0:0:
380,103,98321,1,8,0:0:0:0:
355,101,98466,1,0,0:0:0:0:
355,101,98611,1,0,0:0:0:0:
284,112,98756,1,8,0:0:0:0:
233,192,98901,1,0,0:0:0:0:
209,120,99046,1,0,0:0:0:0:
206,189,99191,1,8,0:0:0:0:
239,247,99626,1,8,0:0:0:0:
239,247,99734,1,8,0:0:0:0:
324,218,99843,1,0,0:0:0:0:
324,218,99952,1,8,0:0:0:0:
290,158,100060,1,8,0:0:0:0:
290,158,100278,1,0,0:0:0:0:
290,158,100495,1,0,0:0:0:0:
328,257,100568,1,0,0:0:0:0:
118,114,100640,1,0,0:0:0:0:
176,118,100713,1,0,0:0:0:0:
223,82,100930,1,8,0:0:0:0:
424,96,101147,1,0,0:0:0:0:
183,104,101365,1,0,0:0:0:0:
193,151,101474,1,0,0:0:0:0:
299,197,101800,1,8,0:0:0:0:
227,94,102017,1,0,0:0:0:0:
186,221,102126,1,0,0:0:0:0:
186,221,102343,1,0,0:0:0:0:
222,76,102452,1,0,0:0:0:0:
186,221,102669,1,0,0:0:0:0:
266,235,102887,1,8,0:0:0:0:
266,235,102995,1,8,0:0:0:0:
150,143,103104,1,8,0:0:0:0:
114,124,103321,1,0,0:0:0:0:
180,250,103539,1,8,0:0:0:0:
121,137,103647,1,0,0:0:0:0:
180,250,103756,1,0,0:0:0:0:
318,175,103974,1,8,0:0:0:0:
245,104,104191,1,8,0:0:0:0:
245,104,104263,1,8,0:0:0:0:
245,104,104336,1,8,0:0:0:0:
245,104,104408,1,8,0:0:0:0:
340,73,104626,1,0,0:0:0:0:
323,92,104843,1,0,0:0:0:0:
320,124,105278,1,8,0:0:0:0:
313,131,105423,1,0,0:0:0:0:
313,131,105568,1,0,0:0:0:0:
307,133,105713,1,8,0:0:0:0:
256,177,105858,1,0,0:0:0:0:
256,177,106003,1,0,0:0:0:0:
259,173,106147,1,8,0:0:0:0:
213,162,106582,1,8,0:0:0:0:
111,97,106691,1,8,0:0:0:0:
213,162,106800,1,0,0:0:0:0:
108,91,106908,1,8,0:0:0:0:
108,91,107017,1,8,0:0:0:0:
85,76,107234,1,0,0:0:0:0:
273,81,107452,1,0,0:0:0:0:
278,228,107524,1,0,0:0:0:0:
175,196,107597,1,0,0:0:0:0:
278,228,107669,1,0,0:0:0:0:
390,138,108104,1,0,0:0:0:0:
390,138,108321,1,8,0:0:0:0:
390,138,108539,1,8,0:0:0:0:
315,218,108756,1,8,0:0:0:0:
236,174,108974,1,0,0:0:0:0:
236,174,109082,1,0,0:0:0:0:
169,133,109191,1,8,0:0:0:0:
372,265,109626,1,4,0:0:0:0:
264,265,110495,1,8,0:0:0:0:
138,213,111365,1,0,0:0:0:0:
138,213,111800,1,0,0:0:0:0:
138,213,112234,1,8,0:0:0:0:
318,145,113104,1,0,0:0:0:0:
233,183,113974,1,8,0:0:0:0:
233,183,114843,1,0,0:0:0:0:
233,183,115278,1,0,0:0:0:0:
233,183,115387,1,0,0:0:0:0:
198,123,115713,1,8,0:0:0:0:
198,123,115821,1,8,0:0:0:0:
306,240,115930,1,8,0:0:0:0:
306,240,116147,1,0,0:0:0:0:
221,184,116256,1,8,0:0:0:0:
203,196,116365,1,8,0:0:0:0:
221,184,116582,1,8,0:0:0:0:
266,119,116727,1,0,0:0:0:0:
304,94,116872,1,0,0:0:0:0:
368,163,117017,1,8,0:0:0:0:
302,170,117162,1,0,0:0:0:0:
296,189,117307,1,0,0:0:0:0:
259,190,117452,1,8,0:0:0:0:
259,190,117597,1,8,0:0:0:0:
187,192,117742,1,0,0:0:0:0:
187,192,117887,1,8,0:0:0:0:
239,136,118104,1,0,0:0:0:0:
408,162,118321,1,8,0:0:0:0:
381,185,118430,1,8,0:0:0:0:
344,192,118539,1,0,0:0:0:0:
313,193,118647,1,8,0:0:0:0:
305,193,118756,1,8,0:0:0:0:
250,192,118974,1,0,0:0:0:0:
215,175,119191,1,0,0:0:0:0:
207,178,119300,1,0,0:0:0:0:
206,177,119408,1,8,0:0:0:0:
206,178,119517,1,0,0:0:0:0:
200,172,119626,1,8,0:0:0:0:
199,172,119734,1,8,0:0:0:0:
200,172,119843,1,0,0:0:0:0:
319,293,120060,1,0,0:0:0:0:
208,291,120495,1,0,0:0:0:0:
313,193,120930,1,8,0:0:0:0:
313,193,121039,1,8,0:0:0:0:
179,197,121147,1,8,0:0:0:0:
187,118,121365,1,8,0:0:0:0:
187,118,121474,1,8,0:0:0:0:
136,156,121582,1,0,0:0:0:0:
136,156,121800,1,8,0:0:0:0:
314,192,122234,1,0,0:0:0:0:
314,192,122343,1,0,0:0:0:0:
241,143,122669,1,8,0:0:0:0:
241,143,122778,1,8,0:0:0:0:
169,117,122887,1,8,0:0:0:0:
241,143,123104,1,0,0:0:0:0:
216,105,123213,1,8,0:0:0:0:
216,105,123321,1,8,0:0:0:0:
216,105,123539,1,0,0:0:0:0:
388,166,123974,1,8,0:0:0:0:
388,166,124118,1,8,0:0:0:0:
381,173,124263,1,8,0:0:0:0:
339,184,124408,1,0,0:0:0:0:
224,180,124517,1,0,0:0:0:0:
224,180,124626,1,0,0:0:0:0:
330,69,124843,1,8,0:0:0:0:
330,69,124952,1,8,0:0:0:0:
90,163,125060,1,0,0:0:0:0:
90,163,125278,1,8,0:0:0:0:
240,159,125713,1,0,0:0:0:0:
240,159,125858,1,0,0:0:0:0:
240,159,126003,1,0,0:0:0:0:
234,155,126147,1,8,0:0:0:0:
234,155,126256,1,8,0:0:0:0:
234,155,126365,1,8,0:0:0:0:
235,152,126582,1,0,0:0:0:0:
322,97,126691,1,0,0:0:0:0:
322,97,126800,1,8,0:0:0:0:
299,97,127017,1,0,0:0:0:0:
250,195,127452,1,8,0:0:0:0:
250,195,127597,1,8,0:0:0:0:
187,156,127742,1,8,0:0:0:0:
176,153,127887,1,0,0:0:0:0:
164,177,128032,1,0,0:0:0:0:
164,177,128176,1,0,0:0:0:0:
303,208,128321,1,8,0:0:0:0:
303,208,128430,1,8,0:0:0:0:
105,213,128539,1,0,0:0:0:0:
253,235,128756,1,8,0:0:0:0:
210,127,129191,1,0,0:0:0:0:
154,148,129300,1,0,0:0:0:0:
210,127,129626,1,8,0:0:0:0:
296,122,129734,1,8,0:0:0:0:
296,122,129843,1,8,0:0:0:0:
110,177,130060,1,0,0:0:0:0:
158,82,130169,1,8,0:0:0:0:
170,146,130278,1,8,0:0:0:0:
170,146,130495,1,0,0:0:0:0:
170,146,130930,1,0,0:0:0:0:
170,146,131365,1,8,0:0:0:0:
205,175,131474,1,8,0:0:0:0:
205,175,131582,1,8,0:0:0:0:
223,214,131800,1,8,0:0:0:0:
223,214,131908,1,8,0:0:0:0:
163,177,132017,1,0,0:0:0:0:
163,177,132234,1,8,0:0:0:0:
292,159,132452,1,8,0:0:0:0:
292,159,132669,1,0,0:0:0:0:
131,86,133104,1,8,0:0:0:0:
131,86,133213,1,8,0:0:0:0:
223,87,133321,1,8,0:0:0:0:
223,87,133539,1,0,0:0:0:0:
139,63,133647,1,8,0:0:0:0:
139,62,133756,1,8,0:0:0:0:
152,52,133974,1,0,0:0:0:0:
243,165,135713,1,12,0:0:0:0:
306,241,137452,1,0,0:0:0:0:
225,234,139191,1,0,0:0:0:0:
224,235,140930,1,8,0:0:0:0:
224,235,141800,1,0,0:0:0:0:
224,235,142669,1,0,0:0:0:0:
222,239,144408,1,8,0:0:0:0:
279,192,145278,1,0,0:0:0:0:
279,192,146147,1,8,0:0:0:0:
279,192,147887,1,8,0:0:0:0:
279,192,148756,1,0,0:0:0:0:
143,190,149626,1,4,0:0:0:0:
222,195,150060,1,8,0:0:0:0:
222,195,150278,1,0,0:0:0:0:
183,129,150387,1,0,0:0:0:0:
174,123,150495,1,8,0:0:0:0:
175,122,150713,1,0,0:0:0:0:
177,122,150930,1,8,0:0:0:0:
178,122,151147,1,8,0:0:0:0:
125,90,151256,1,8,0:0:0:0:
176,72,151365,1,0,0:0:0:0:
318,162,151691,1,0,0:0:0:0:
218,151,151800,1,8,0:0:0:0:
218,151,152017,1,0,0:0:0:0:
218,151,152234,1,8,0:0:0:0:
198,209,152343,1,8,0:0:0:0:
201,203,152452,1,0,0:0:0:0:
201,203,152669,1,8,0:0:0:0:
201,203,152778,1,8,0:0:0:0:
160,69,152887,1,0,0:0:0:0:
166,78,152995,1,0,0:0:0:0:
166,78,153104,1,8,0:0:0:0:
276,140,153430,1,8,0:0:0:0:
244,212,153539,1,0,0:0:0:0:
288,235,153756,1,8,0:0:0:0:
288,235,153974,1,0,0:0:0:0:
288,235,154082,1,0,0:0:0:0:
196,129,154191,1,8,0:0:0:0:
196,129,154408,1,0,0:0:0:0:
196,129,154626,1,8,0:0:0:0:
147,166,154734,1,8,0:0:0:0:
196,129,154843,1,0,0:0:0:0:
147,166,155169,1,0,0:0:0:0:
137,164,155278,1,8,0:0:0:0:
137,164,155495,1,0,0:0:0:0:
137,164,155713,1,8,0:0:0:0:
151,180,155930,1,0,0:0:0:0:
145,148,156039,1,0,0:0:0:0:
151,181,156147,1,8,0:0:0:0:
210,164,156256,1,8,0:0:0:0:
172,135,156365,1,8,0:0:0:0:
172,135,156474,1,8,0:0:0:0:
294,144,156582,1,0,0:0:0:0:
294,144,156800,1,8,0:0:0:0:
219,141,156908,1,8,0:0:0:0:
262,197,157017,1,8,0:0:0:0:
219,141,157234,1,8,0:0:0:0:
262,197,157452,1,0,0:0:0:0:
262,197,157669,1,8,0:0:0:0:
262,197,157778,1,8,0:0:0:0:
159,153,157887,1,0,0:0:0:0:
159,153,158104,1,8,0:0:0:0:
159,153,158321,1,0,0:0:0:0:
220,208,158539,1,8,0:0:0:0:
220,208,158647,1,8,0:0:0:0:
243,132,158756,1,8,0:0:0:0:
243,132,158974,1,8,0:0:0:0:
289,208,159191,1,0,0:0:0:0:
289,208,159408,1,8,0:0:0:0:
154,112,159517,1,8,0:0:0:0:
113,89,159626,1,0,0:0:0:0:
113,89,159843,1,8,0:0:0:0:
182,212,160060,1,0,0:0:0:0:
229,275,160169,1,0,0:0:0:0:
365,203,160278,1,8,0:0:0:0:
365,203,160387,1,0,0:0:0:0:
181,172,160495,1,8,0:0:0:0:
204,161,160604,1,8,0:0:0:0:
204,161,160713,1,0,0:0:0:0:
277,127,160930,1,8,0:0:0:0:
210,56,161039,1,8,0:0:0:0:
210,56,161147,1,0,0:0:0:0:
166,105,161256,1,8,0:0:0:0:
93,54,161365,1,0,0:0:0:0:
93,54,161474,1,0,0:0:0:0:
140,62,161582,1,8,0:0:0:0:
147,75,161800,1,4,0:0:0:0:
308,202,162017,1,0,0:0:0:0:
217,145,162343,1,8,0:0:0:0:
188,146,162452,1,8,0:0:0:0:
252,156,162669,1,0,0:0:0:0:
209,179,162887,1,0,0:0:0:0:
209,179,162995,1,0,0:0:0:0:
146,158,163104,1,8,0:0:0:0:
336,84,163539,1,12,0:0:0:0:
165,123,163756,1,0,0:0:0:0:
165,123,163865,1,0,0:0:0:0:
122,80,163974,1,8,0:0:0:0:
122,80,164191,1,0,0:0:0:0:
326,180,164408,1,8,0:0:0:0:
326,180,164517,1,0,0:0:0:0:
213,126,164734,1,0,0:0:0:0:
173,101,164843,1,8,0:0:0:0:
173,101,165060,1,0,0:0:0:0:
307,157,165278,1,8,0:0:0:0:
179,190,165350,1,8,0:0:0:0:
146,170,165423,1,8,0:0:0:0:
253,60,165495,1,8,0:0:0:0:
191,58,165713,1,0,0:0:0:0:
233,251,165930,1,8,0:0:0:0:
353,180,166147,1,0,0:0:0:0:
353,180,166220,1,0,0:0:0:0:
340,170,166292,1,0,0:0:0:0:
353,180,166365,1,0,0:0:0:0:
124,82,166582,1,8,0:0:0:0:
100,155,167017,1,0,0:0:0:0:
244,142,167234,1,8,0:0:0:0:
147,106,167343,1,8,0:0:0:0:
164,100,167452,1,0,0:0:0:0:
267,149,167669,1,8,0:0:0:0:
283,173,167887,1,0,0:0:0:0:
287,180,167995,1,8,0:0:0:0:
285,188,168213,1,8,0:0:0:0:
282,193,168321,1,0,0:0:0:0:
195,190,168539,1,8,0:0:0:0:
205,253,168756,1,0,0:0:0:0:
284,253,168974,1,8,0:0:0:0:
213,194,169082,1,0,0:0:0:0:
176,127,169191,1,8,0:0:0:0:
176,127,169300,1,0,0:0:0:0:
135,95,169408,1,8,0:0:0:0:
307,68,169626,1,8,0:0:0:0:
307,68,169734,1,8,0:0:0:0:
182,32,169843,1,8,0:0:0:0:
307,68,169952,1,8,0:0:0:0:
160,72,170060,1,0,0:0:0:0:
364,198,170278,1,8,0:0:0:0:
364,198,170387,1,8,0:0:0:0:
157,79,170495,1,8,0:0:0:0:
212,180,170713,1,0,0:0:0:0:
244,203,170821,1,0,0:0:0:0:
197,167,170930,1,8,0:0:0:0:
197,167,171147,1,0,0:0:0:0:
171,130,171365,1,8,0:0:0:0:
156,114,171474,1,0,0:0:0:0:
156,114,171691,1,0,0:0:0:0:
141,104,171800,1,8,0:0:0:0:
271,163,172017,1,0,0:0:0:0:
303,242,172234,1,0,0:0:0:0:
224,221,172343,1,8,0:0:0:0:
186,178,172452,1,0,0:0:0:0:
148,139,172560,1,8,0:0:0:0:
148,139,172669,1,0,0:0:0:0:
228,238,172887,1,8,0:0:0:0:
348,139,173104,1,0,0:0:0:0:
348,139,173176,1,0,0:0:0:0:
348,139,173249,1,0,0:0:0:0:
328,142,173321,1,0,0:0:0:0:
258,134,173539,1,8,0:0:0:0:
339,234,173974,1,0,0:0:0:0:
118,92,174191,1,8,0:0:0:0:
107,80,174300,1,8,0:0:0:0:
103,75,174408,1,0,0:0:0:0:
105,75,174626,1,8,0:0:0:0:
204,155,174843,1,0,0:0:0:0:
204,155,174952,1,8,0:0:0:0:
148,138,175169,1,8,0:0:0:0:
117,110,175278,1,0,0:0:0:0:
117,110,175495,1,8,0:0:0:0:
247,127,175713,1,0,0:0:0:0:
259,235,175821,1,8,0:0:0:0:
135,182,175930,1,8,0:0:0:0:
127,150,176039,1,0,0:0:0:0:
170,191,176147,1,8,0:0:0:0:
193,121,176365,1,0,0:0:0:0:
282,159,176582,1,8,0:0:0:0:
306,159,176691,1,8,0:0:0:0:
340,207,176800,1,0,0:0:0:0:
340,207,176908,1,0,0:0:0:0:
340,207,177017,1,8,0:0:0:0:
340,207,177126,1,0,0:0:0:0:
340,207,177234,1,8,0:0:0:0:
238,186,177452,1,4,0:0:0:0:
228,231,177887,1,8,0:0:0:0:
228,231,178104,1,0,0:0:0:0:
198,116,178213,1,0,0:0:0:0:
108,94,178321,1,8,0:0:0:0:
108,94,178539,1,0,0:0:0:0:
113,95,178756,1,8,0:0:0:0:
108,94,178974,1,8,0:0:0:0:
108,94,179082,1,8,0:0:0:0:
272,90,179191,1,0,0:0:0:0:
272,90,179408,1,0,0:0:0:0:
199,93,179517,1,0,0:0:0:0:
199,93,179626,1,8,0:0:0:0:
187,164,179843,1,0,0:0:0:0:
187,164,180060,1,8,0:0:0:0:
233,215,180169,1,8,0:0:0:0:
207,243,180278,1,0,0:0:0:0:
117,183,180387,1,0,0:0:0:0:
207,243,180495,1,8,0:0:0:0:
374,231,180713,1,0,0:0:0:0:
374,231,180930,1,8,0:0:0:0:
374,231,181365,1,0,0:0:0:0:
265,107,181582,1,8,0:0:0:0:
265,107,181691,1,8,0:0:0:0:
147,109,181800,1,0,0:0:0:0:
245,138,182017,1,8,0:0:0:0:
245,138,182234,1,0,0:0:0:0:
187,184,182452,1,0,0:0:0:0:
187,184,182560,1,0,0:0:0:0:
129,155,182669,1,8,0:0:0:0:
129,155,182887,1,8,0:0:0:0:
129,155,182995,1,8,0:0:0:0:
109,92,183104,1,0,0:0:0:0:
109,92,183321,1,8,0:0:0:0:
343,138,183539,1,0,0:0:0:0:
343,138,183647,1,0,0:0:0:0:
201,105,183756,1,8,0:0:0:0:
313,181,183865,1,0,0:0:0:0:
312,186,183974,1,8,0:0:0:0:
276,204,184191,1,8,0:0:0:0:
119,64,184300,1,8,0:0:0:0:
170,52,184408,1,0,0:0:0:0:
196,176,184843,1,8,0:0:0:0:
174,256,185060,1,0,0:0:0:0:
202,262,185169,1,0,0:0:0:0:
202,262,185278,1,0,0:0:0:0:
351,295,185495,1,0,0:0:0:0:
351,295,185713,1,8,0:0:0:0:
351,295,185930,1,8,0:0:0:0:
351,295,186039,1,8,0:0:0:0:
229,163,186147,1,0,0:0:0:0:
229,163,186365,1,8,0:0:0:0:
229,163,186582,1,0,0:0:0:0:
135,105,186691,1,0,0:0:0:0:
135,105,186800,1,8,0:0:0:0:
135,105,187017,1,0,0:0:0:0:
225,156,187234,1,0,0:0:0:0:
215,229,187452,1,8,0:0:0:0:
315,161,187669,1,8,0:0:0:0:
315,161,187778,1,8,0:0:0:0:
175,92,187887,1,0,0:0:0:0:
156,68,187995,1,0,0:0:0:0:
137,58,188104,1,0,0:0:0:0:
163,80,188321,1,8,0:0:0:0:
266,151,188539,1,0,0:0:0:0:
266,151,188647,1,0,0:0:0:0:
196,109,188756,1,8,0:0:0:0:
196,109,188865,1,8,0:0:0:0:
185,115,188974,1,0,0:0:0:0:
148,136,189082,1,0,0:0:0:0:
185,115,189191,1,8,0:0:0:0:
110,139,189408,1,8,0:0:0:0:
106,161,189626,1,0,0:0:0:0:
249,204,190060,1,8,0:0:0:0:
249,204,190278,1,0,0:0:0:0:
249,204,190387,1,0,0:0:0:0:
199,112,190495,1,8,0:0:0:0:
100,115,190604,1,8,0:0:0:0:
181,101,190713,1,0,0:0:0:0:
181,101,190930,1,8,0:0:0:0:
181,101,191147,1,8,0:0:0:0:
280,123,191365,1,4,0:0:0:0:
245,219,191800,1,8,0:0:0:0:
245,219,192017,1,0,0:0:0:0:
245,219,192126,1,0,0:0:0:0:
243,108,192234,1,8,0:0:0:0:
211,108,192452,1,0,0:0:0:0:
143,79,192560,1,8,0:0:0:0:
113,131,192778,1,8,0:0:0:0:
118,113,192887,1,0,0:0:0:0:
135,111,193104,1,8,0:0:0:0:
279,160,193176,1,8,0:0:0:0:
279,160,193249,1,8,0:0:0:0:
279,160,193321,1,8,0:0:0:0:
248,221,193539,1,0,0:0:0:0:
248,221,193756,1,8,0:0:0:0:
196,94,193974,1,0,0:0:0:0:
196,94,194046,1,0,0:0:0:0:
196,94,194118,1,0,0:0:0:0:
196,94,194191,1,0,0:0:0:0:
373,189,194408,1,8,0:0:0:0:
100,192,194626,1,0,0:0:0:0:
100,192,194843,1,8,0:0:0:0:
275,243,195278,1,0,0:0:0:0:
178,78,195495,1,8,0:0:0:0:
92,99,195604,1,8,0:0:0:0:
243,137,195713,1,0,0:0:0:0:
248,244,195930,1,8,0:0:0:0:
209,177,196039,1,0,0:0:0:0:
209,177,196256,1,0,0:0:0:0:
152,143,196365,1,8,0:0:0:0:
152,143,196582,1,0,0:0:0:0:
278,220,196800,1,8,0:0:0:0:
436,187,196908,1,0,0:0:0:0:
436,187,197017,1,8,0:0:0:0:
418,188,197126,1,0,0:0:0:0:
368,180,197234,1,8,0:0:0:0:
368,180,197452,1,8,0:0:0:0:
225,143,197560,1,0,0:0:0:0:
187,122,197669,1,8,0:0:0:0:
368,180,197778,1,8,0:0:0:0:
173,103,197887,1,0,0:0:0:0:
173,103,198104,1,8,0:0:0:0:
173,103,198213,1,8,0:0:0:0:
155,85,198321,1,8,0:0:0:0:
155,85,198756,1,0,0:0:0:0:
264,246,198974,1,8,0:0:0:0:
264,246,199082,1,8,0:0:0:0:
173,144,199191,1,8,0:0:0:0:
173,144,199408,1,0,0:0:0:0:
173,144,199626,1,8,0:0:0:0:
219,113,199843,1,8,0:0:0:0:
219,113,199952,1,8,0:0:0:0:
172,62,200060,1,0,0:0:0:0:
172,62,200278,1,8,0:0:0:0:
152,89,200387,1,8,0:0:0:0:
152,89,200495,1,8,0:0:0:0:
269,149,200713,1,8,0:0:0:0:
204,212,200930,1,0,0:0:0:0:
315,257,201003,1,0,0:0:0:0:
315,257,201075,1,0,0:0:0:0:
85,175,201147,1,0,0:0:0:0:
326,102,201365,1,8,0:0:0:0:
204,66,201582,1,8,0:0:0:0:
170,115,201800,1,0,0:0:0:0:
203,230,202234,1,0,0:0:0:0:
203,230,202452,1,8,0:0:0:0:
329,184,202669,1,0,0:0:0:0:
329,184,202778,1,0,0:0:0:0:
239,135,202887,1,8,0:0:0:0:
110,122,202995,1,0,0:0:0:0:
108,103,203104,1,8,0:0:0:0:
108,103,203321,1,0,0:0:0:0:
108,103,203539,1,0,0:0:0:0:
250,145,204626,1,8,0:0:0:0:
250,145,204734,1,8,0:0:0:0:
250,145,204843,1,8,0:0:0:0:
171,147,205278,1,8,0:0:0:0:
312,184,205713,1,8,0:0:0:0:
312,184,206147,1,0,0:0:0:0:
304,185,206474,1,8,0:0:0:0:
304,185,206800,1,0,0:0:0:0:
304,185,207017,1,0,0:0:0:0:
203,180,208756,1,8,0:0:0:0:
203,180,209191,1,8,0:0:0:0:
203,180,209626,1,0,0:0:0:0:
203,180,209952,1,0,0:0:0:0:
203,180,210278,1,8,0:0:0:0:
203,180,210495,1,8,0:0:0:0:
281,173,211365,1,0,0:0:0:0:
267,170,212234,1,8,0:0:0:0:
267,170,212669,1,8,0:0:0:0:
267,170,213104,1,0,0:0:0:0:
267,170,213430,1,8,0:0:0:0:
267,170,213756,1,0,0:0:0:0:
120,109,213974,1,0,0:0:0:0:
160,180,214843,1,0,0:0:0:0:
206,205,215713,1,8,0:0:0:0:
188,189,216147,1,8,0:0:0:0:
188,189,216582,1,0,0:0:0:0:
188,189,216908,1,0,0:0:0:0:
188,189,217234,1,8,0:0:0:0:
188,189,217452,1,8,0:0:0:0:
229,175,218321,1,0,0:0:0:0:
229,175,219191,1,0,0:0:0:0:
175,158,219300,1,0,0:0:0:0:
122,133,219408,1,8,0:0:0:0:
122,133,221364,1,8,0:0:0:0:
