osu file format v14

[General]
AudioFilename: audio.mp3
AudioLeadIn: 0
PreviewTime: 176800
Countdown: 0
SampleSet: Normal
StackLeniency: 0.7
Mode: 1
LetterboxInBreaks: 0
WidescreenStoryboard: 1

[Editor]
Bookmarks: 61,27887,69626,95713,109626,133974,149626,163539,201800,204626,221364
DistanceSpacing: 0.8
BeatDivisor: 4
GridSize: 4
TimelineZoom: 1

[Metadata]
Title:Otome Kaibou feat. Hatsune Miku (TeddyLoid Allies Remix)
TitleUnicode:乙女解剖 feat. 初音ミク (TeddyLoid Alllies Remix)
Artist:DECO*27
ArtistUnicode:DECO*27
Creator:Chromoxx
Version:Muzukashii
Source:
Tags:midnaait jerry vocaloid japanese deco27 おとめかいぼう はつねみく otoiro yuma saito girl dissection
BeatmapID:2410049
BeatmapSetID:1150556

[Difficulty]
HPDrainRate:6
CircleSize:5
OverallDifficulty:5
ApproachRate:5
SliderMultiplier:1.4
SliderTickRate:1

[Events]
//Background and Video events
Video,0,"otome kaibou.mp4" S,0,0,,0.67 MY,0,0,,128
0,0,"otome+kaibou.jpg",0,250
//Break Periods
//Storyboard Layer 0 (Background)
//Storyboard Layer 1 (Fail)
//Storyboard Layer 2 (Pass)
//Storyboard Layer 3 (Foreground)
//Storyboard Layer 4 (Overlay)
//Storyboard Sound Samples

[TimingPoints]
61,434.782608695652,4,1,0,70,1,0
27832,-100,4,1,0,80,0,0
69843,-100,4,1,0,70,0,0
95658,-100,4,1,0,90,0,0
95713,-100,4,1,0,90,0,1
107887,-100,4,1,0,80,0,0
134191,-100,4,1,0,70,0,0
149571,-100,4,1,0,80,0,0
163430,-100,4,1,0,90,0,0
163539,-100,4,1,0,90,0,1
202017,-100,4,1,0,80,0,1
204408,-100,4,1,0,70,0,1
205278,-100,4,1,0,70,0,0
220930,434.782608695652,4,1,0,70,1,8

[HitObjects]
387,218,61,5,8,0:0:0:0:
222,143,1800,1,8,0:0:0:0:
216,144,3539,1,0,0:0:0:0:
216,144,5278,1,8,0:0:0:0:
216,144,6147,1,0,0:0:0:0:
227,188,7017,1,8,0:0:0:0:
227,191,8756,1,0,0:0:0:0:
227,184,9626,1,0,0:0:0:0:
227,184,10495,1,8,0:0:0:0:
281,218,12234,1,0,0:0:0:0:
268,196,13104,1,0,0:0:0:0:
165,89,13539,1,8,0:0:0:0:
140,182,13974,1,0,0:0:0:0:
268,227,14843,1,8,0:0:0:0:
396,163,15278,1,0,0:0:0:0:
264,149,15495,1,0,0:0:0:0:
336,254,15713,1,8,0:0:0:0:
206,222,16147,1,8,0:0:0:0:
206,222,16582,1,0,0:0:0:0:
115,166,16800,1,0,0:0:0:0:
115,166,17017,1,0,0:0:0:0:
206,222,17452,1,8,0:0:0:0:
273,124,18321,1,0,0:0:0:0:
273,124,18756,1,8,0:0:0:0:
273,124,18974,1,8,0:0:0:0:
273,124,19191,1,0,0:0:0:0:
273,124,19626,1,0,0:0:0:0:
172,139,20060,1,8,0:0:0:0:
306,215,20278,1,8,0:0:0:0:
306,215,20495,1,8,0:0:0:0:
205,197,20930,1,0,0:0:0:0:
205,197,21800,1,8,0:0:0:0:
205,197,22234,1,0,0:0:0:0:
205,197,22452,1,0,0:0:0:0:
348,237,22669,1,8,0:0:0:0:
227,92,22887,1,0,0:0:0:0:
273,248,23321,1,8,0:0:0:0:
273,248,23539,1,0,0:0:0:0:
273,248,23756,1,8,0:0:0:0:
273,248,24191,1,8,0:0:0:0:
273,248,24408,1,0,0:0:0:0:
257,155,26365,1,0,0:0:0:0:
287,243,26582,1,8,0:0:0:0:
287,243,26800,1,8,0:0:0:0:
157,236,27017,1,0,0:0:0:0:
157,236,27234,1,8,0:0:0:0:
157,236,27343,1,8,0:0:0:0:
157,236,27452,1,8,0:0:0:0:
210,63,27887,1,4,0:0:0:0:
288,160,28321,1,8,0:0:0:0:
199,200,28539,1,0,0:0:0:0:
288,160,28756,1,0,0:0:0:0:
288,160,28974,1,8,0:0:0:0:
288,160,29408,1,8,0:0:0:0:
344,88,29517,1,8,0:0:0:0:
166,45,29626,1,8,0:0:0:0:
142,73,29843,1,0,0:0:0:0:
142,73,30060,1,0,0:0:0:0:
142,73,30495,1,8,0:0:0:0:
170,45,31147,1,0,0:0:0:0:
170,45,31256,1,0,0:0:0:0:
170,45,31365,1,0,0:0:0:0:
296,249,31582,1,8,0:0:0:0:
201,185,31691,1,8,0:0:0:0:
296,249,31800,1,8,0:0:0:0:
201,185,32017,1,8,0:0:0:0:
338,188,32234,1,0,0:0:0:0:
268,165,32669,1,0,0:0:0:0:
268,165,32778,1,0,0:0:0:0:
212,124,32887,1,0,0:0:0:0:
212,124,33104,1,8,0:0:0:0:
212,124,33321,1,0,0:0:0:0:
212,124,33539,1,0,0:0:0:0:
181,99,33647,1,0,0:0:0:0:
188,134,33974,1,8,0:0:0:0:
268,212,34191,1,0,0:0:0:0:
268,212,34517,1,0,0:0:0:0:
268,212,34843,1,0,0:0:0:0:
180,215,35060,1,8,0:0:0:0:
386,246,35278,1,0,0:0:0:0:
386,246,35713,1,0,0:0:0:0:
386,246,35930,1,8,0:0:0:0:
302,267,36365,1,8,0:0:0:0:
302,267,36474,1,8,0:0:0:0:
302,267,36582,1,8,0:0:0:0:
246,105,36800,1,0,0:0:0:0:
246,105,37017,1,0,0:0:0:0:
246,105,37452,1,8,0:0:0:0:
240,246,38104,1,0,0:0:0:0:
271,226,38213,1,0,0:0:0:0:
219,131,38321,1,0,0:0:0:0:
240,246,38539,1,8,0:0:0:0:
240,246,38647,1,8,0:0:0:0:
168,252,38756,1,8,0:0:0:0:
121,102,38974,1,8,0:0:0:0:
121,102,39191,1,0,0:0:0:0:
219,123,39408,1,0,0:0:0:0:
319,127,39626,1,8,0:0:0:0:
319,127,39734,1,8,0:0:0:0:
261,159,39843,1,8,0:0:0:0:
329,238,40495,1,0,0:0:0:0:
230,220,40713,1,8,0:0:0:0:
230,220,41147,1,8,0:0:0:0:
230,220,41256,1,8,0:0:0:0:
230,220,41365,1,8,0:0:0:0:
177,190,41800,1,0,0:0:0:0:
210,272,42669,1,8,0:0:0:0:
173,113,42887,1,0,0:0:0:0:
313,255,43104,1,8,0:0:0:0:
139,243,43213,1,8,0:0:0:0:
85,128,43321,1,8,0:0:0:0:
241,217,43539,1,8,0:0:0:0:
228,229,43974,1,0,0:0:0:0:
217,219,44408,1,8,0:0:0:0:
77,80,44517,1,8,0:0:0:0:
106,82,44626,1,8,0:0:0:0:
333,116,44843,1,8,0:0:0:0:
264,89,45278,1,0,0:0:0:0:
264,89,46147,1,8,0:0:0:0:
264,89,46365,1,0,0:0:0:0:
20,118,46582,1,8,0:0:0:0:
31,120,46691,1,8,0:0:0:0:
38,121,46800,1,8,0:0:0:0:
245,166,47017,1,8,0:0:0:0:
208,188,47452,1,0,0:0:0:0:
208,188,47560,1,0,0:0:0:0:
244,41,47887,1,8,0:0:0:0:
144,30,47995,1,8,0:0:0:0:
244,41,48104,1,8,0:0:0:0:
174,57,48321,1,8,0:0:0:0:
330,135,48756,1,0,0:0:0:0:
229,196,49191,1,0,0:0:0:0:
229,196,49336,1,0,0:0:0:0:
229,196,49481,1,0,0:0:0:0:
229,196,49626,1,0,0:0:0:0:
224,227,50060,1,0,0:0:0:0:
224,227,50495,1,8,0:0:0:0:
224,227,50604,1,8,0:0:0:0:
224,227,50713,1,8,0:0:0:0:
196,76,50930,1,0,0:0:0:0:
196,76,51147,1,8,0:0:0:0:
259,208,51365,1,0,0:0:0:0:
259,208,51474,1,0,0:0:0:0:
259,208,51582,1,0,0:0:0:0:
168,123,51800,1,8,0:0:0:0:
333,134,52234,1,0,0:0:0:0:
333,134,53104,1,8,0:0:0:0:
333,134,53321,1,0,0:0:0:0:
95,217,53539,1,8,0:0:0:0:
95,217,53647,1,8,0:0:0:0:
95,217,53756,1,8,0:0:0:0:
259,229,53974,1,8,0:0:0:0:
259,229,54408,1,0,0:0:0:0:
167,122,54517,1,0,0:0:0:0:
167,122,54843,1,8,0:0:0:0:
167,122,54952,1,8,0:0:0:0:
349,160,55060,1,8,0:0:0:0:
349,160,55278,1,8,0:0:0:0:
260,161,55713,1,0,0:0:0:0:
260,161,56582,1,8,0:0:0:0:
260,161,56800,1,0,0:0:0:0:
335,196,57017,1,8,0:0:0:0:
335,196,57126,1,8,0:0:0:0:
335,196,57234,1,8,0:0:0:0:
186,113,57452,1,8,0:0:0:0:
186,113,57887,1,0,0:0:0:0:
322,141,58321,1,8,0:0:0:0:
322,141,58430,1,8,0:0:0:0:
306,159,58539,1,8,0:0:0:0:
322,141,58756,1,8,0:0:0:0:
85,175,59191,1,0,0:0:0:0:
101,179,60060,1,8,0:0:0:0:
101,179,60278,1,0,0:0:0:0:
328,137,60495,1,8,0:0:0:0:
328,137,60604,1,8,0:0:0:0:
328,137,60713,1,8,0:0:0:0:
236,221,60930,1,8,0:0:0:0:
236,221,61365,1,0,0:0:0:0:
236,221,61474,1,0,0:0:0:0:
368,161,61800,1,8,0:0:0:0:
368,161,61908,1,8,0:0:0:0:
368,161,62017,1,8,0:0:0:0:
261,195,62234,1,8,0:0:0:0:
253,103,62669,1,0,0:0:0:0:
253,103,63104,1,0,0:0:0:0:
253,103,63249,1,0,0:0:0:0:
253,103,63394,1,0,0:0:0:0:
253,103,63539,1,0,0:0:0:0:
401,50,63974,1,0,0:0:0:0:
317,214,64408,1,8,0:0:0:0:
222,242,64517,1,8,0:0:0:0:
317,214,64626,1,8,0:0:0:0:
219,209,64843,1,0,0:0:0:0:
176,143,65060,1,8,0:0:0:0:
176,143,65278,1,0,0:0:0:0:
142,104,65387,1,0,0:0:0:0:
142,104,65495,1,0,0:0:0:0:
142,105,65713,1,8,0:0:0:0:
223,216,66147,1,0,0:0:0:0:
223,216,67017,1,8,0:0:0:0:
223,216,67234,1,0,0:0:0:0:
346,186,67452,1,8,0:0:0:0:
346,186,67560,1,8,0:0:0:0:
346,186,67669,1,8,0:0:0:0:
256,105,67887,1,8,0:0:0:0:
256,105,68321,1,0,0:0:0:0:
155,86,68430,1,0,0:0:0:0:
155,86,68756,1,8,0:0:0:0:
160,126,68865,1,8,0:0:0:0:
308,205,68974,1,8,0:0:0:0:
308,205,69191,1,8,0:0:0:0:
313,186,69626,1,4,0:0:0:0:
259,84,70060,1,8,0:0:0:0:
259,84,70205,1,8,0:0:0:0:
259,84,70350,1,8,0:0:0:0:
383,245,70495,1,8,0:0:0:0:
316,57,71365,1,8,0:0:0:0:
301,153,71800,1,0,0:0:0:0:
301,153,71945,1,0,0:0:0:0:
301,153,72089,1,0,0:0:0:0:
301,153,72234,1,0,0:0:0:0:
237,249,73104,1,0,0:0:0:0:
364,170,73539,1,8,0:0:0:0:
364,170,73684,1,8,0:0:0:0:
364,170,73829,1,8,0:0:0:0:
364,170,73974,1,8,0:0:0:0:
197,131,74843,1,8,0:0:0:0:
273,181,75278,1,0,0:0:0:0:
266,220,75604,1,0,0:0:0:0:
266,220,75713,1,0,0:0:0:0:
68,149,75930,1,8,0:0:0:0:
375,204,76365,1,8,0:0:0:0:
375,204,76582,1,0,0:0:0:0:
375,204,77017,1,8,0:0:0:0:
342,182,77452,1,0,0:0:0:0:
342,182,77669,1,0,0:0:0:0:
342,182,77887,1,8,0:0:0:0:
342,182,78321,1,0,0:0:0:0:
278,235,80278,1,8,0:0:0:0:
215,115,80495,1,8,0:0:0:0:
215,115,80713,1,8,0:0:0:0:
215,115,80930,1,8,0:0:0:0:
278,235,81365,1,8,0:0:0:0:
278,235,81800,1,4,0:0:0:0:
268,227,82669,1,8,0:0:0:0:
396,163,83104,1,0,0:0:0:0:
264,149,83321,1,0,0:0:0:0:
336,254,83539,1,8,0:0:0:0:
206,222,83973,1,8,0:0:0:0:
206,222,84408,1,0,0:0:0:0:
279,244,84626,1,0,0:0:0:0:
279,244,84843,1,0,0:0:0:0:
206,222,85278,1,8,0:0:0:0:
273,124,86147,1,0,0:0:0:0:
273,124,86582,1,8,0:0:0:0:
273,124,86800,1,8,0:0:0:0:
273,124,87017,1,0,0:0:0:0:
273,124,87452,1,0,0:0:0:0:
172,139,87886,1,8,0:0:0:0:
269,223,88104,1,8,0:0:0:0:
269,223,88321,1,8,0:0:0:0:
205,197,88756,1,0,0:0:0:0:
205,197,89626,1,8,0:0:0:0:
205,197,90060,1,0,0:0:0:0:
205,197,90278,1,0,0:0:0:0:
348,237,90495,1,8,0:0:0:0:
227,92,90713,1,0,0:0:0:0:
273,248,91147,1,8,0:0:0:0:
273,248,91365,1,0,0:0:0:0:
273,248,91582,1,8,0:0:0:0:
273,248,92017,1,8,0:0:0:0:
273,248,92234,1,0,0:0:0:0:
214,154,94191,1,0,0:0:0:0:
214,154,94408,1,8,0:0:0:0:
214,154,94626,1,8,0:0:0:0:
214,154,94843,1,0,0:0:0:0:
180,144,95060,1,8,0:0:0:0:
180,144,95169,1,8,0:0:0:0:
178,128,95278,1,8,0:0:0:0:
180,144,95713,1,4,0:0:0:0:
276,242,96147,1,8,0:0:0:0:
276,242,96365,1,0,0:0:0:0:
276,242,96582,1,0,0:0:0:0:
193,163,96691,1,0,0:0:0:0:
198,168,96800,1,0,0:0:0:0:
221,167,97017,1,8,0:0:0:0:
221,167,97126,1,8,0:0:0:0:
233,125,97234,1,8,0:0:0:0:
155,259,97452,1,8,0:0:0:0:
172,213,97669,1,0,0:0:0:0:
172,213,97887,1,0,0:0:0:0:
325,174,98321,1,8,0:0:0:0:
325,174,98466,1,8,0:0:0:0:
325,174,98611,1,8,0:0:0:0:
325,174,98756,1,8,0:0:0:0:
232,258,99191,1,0,0:0:0:0:
232,258,99626,1,8,0:0:0:0:
217,93,99843,1,0,0:0:0:0:
217,93,99952,1,0,0:0:0:0:
232,258,100060,1,0,0:0:0:0:
272,166,100278,1,8,0:0:0:0:
272,166,100495,1,8,0:0:0:0:
272,166,100713,1,8,0:0:0:0:
395,233,101147,1,0,0:0:0:0:
144,171,101365,1,0,0:0:0:0:
256,147,101474,1,0,0:0:0:0:
320,272,101800,1,8,0:0:0:0:
155,186,102017,1,0,0:0:0:0:
179,239,102669,1,8,0:0:0:0:
227,254,103104,1,0,0:0:0:0:
227,254,103321,1,8,0:0:0:0:
227,254,103539,1,0,0:0:0:0:
227,254,103647,1,0,0:0:0:0:
230,142,103756,1,0,0:0:0:0:
230,142,103974,1,8,0:0:0:0:
230,142,104082,1,8,0:0:0:0:
101,111,104191,1,8,0:0:0:0:
173,141,104408,1,0,0:0:0:0:
173,141,104626,1,8,0:0:0:0:
173,141,104843,1,8,0:0:0:0:
310,156,105278,1,0,0:0:0:0:
310,156,105423,1,0,0:0:0:0:
310,156,105568,1,0,0:0:0:0:
310,156,105713,1,0,0:0:0:0:
321,244,106147,1,8,0:0:0:0:
321,244,106582,1,0,0:0:0:0:
321,244,106800,1,8,0:0:0:0:
321,244,106908,1,8,0:0:0:0:
209,216,107017,1,8,0:0:0:0:
321,244,107234,1,0,0:0:0:0:
166,91,107452,1,0,0:0:0:0:
170,94,107669,1,0,0:0:0:0:
257,173,108104,1,0,0:0:0:0:
287,82,108322,1,8,0:0:0:0:
287,82,108539,1,8,0:0:0:0:
279,84,108757,1,0,0:0:0:0:
169,93,108974,1,8,0:0:0:0:
169,93,109082,1,8,0:0:0:0:
169,93,109191,1,8,0:0:0:0:
219,215,109626,1,4,0:0:0:0:
39,160,110495,1,8,0:0:0:0:
277,197,111365,1,0,0:0:0:0:
277,197,111800,1,0,0:0:0:0:
277,197,112234,1,8,0:0:0:0:
111,208,113104,1,0,0:0:0:0:
111,208,113974,1,8,0:0:0:0:
111,208,114843,1,0,0:0:0:0:
111,208,115278,1,0,0:0:0:0:
111,208,115387,1,0,0:0:0:0:
277,159,115713,1,8,0:0:0:0:
277,159,115821,1,8,0:0:0:0:
224,150,115930,1,8,0:0:0:0:
224,150,116147,1,8,0:0:0:0:
224,150,116582,1,0,0:0:0:0:
221,70,117017,1,0,0:0:0:0:
221,70,117162,1,0,0:0:0:0:
221,70,117307,1,0,0:0:0:0:
221,70,117452,1,0,0:0:0:0:
221,70,117887,1,0,0:0:0:0:
302,156,118321,1,8,0:0:0:0:
196,210,118430,1,8,0:0:0:0:
302,156,118539,1,8,0:0:0:0:
302,156,118756,1,0,0:0:0:0:
302,156,118974,1,8,0:0:0:0:
167,103,119191,1,0,0:0:0:0:
167,103,119300,1,0,0:0:0:0:
167,103,119408,1,0,0:0:0:0:
167,103,119626,1,8,0:0:0:0:
269,247,120060,1,0,0:0:0:0:
269,247,120930,1,8,0:0:0:0:
269,247,121147,1,0,0:0:0:0:
318,118,121365,1,8,0:0:0:0:
318,118,121474,1,8,0:0:0:0:
318,118,121582,1,8,0:0:0:0:
210,210,121800,1,8,0:0:0:0:
210,210,122234,1,0,0:0:0:0:
167,150,122343,1,0,0:0:0:0:
167,150,122669,1,8,0:0:0:0:
167,150,122778,1,8,0:0:0:0:
145,100,122887,1,8,0:0:0:0:
145,100,123104,1,8,0:0:0:0:
277,167,123539,1,0,0:0:0:0:
243,236,123974,1,8,0:0:0:0:
243,236,124118,1,8,0:0:0:0:
243,236,124263,1,8,0:0:0:0:
243,236,124408,1,8,0:0:0:0:
218,94,124843,1,0,0:0:0:0:
218,94,125278,1,8,0:0:0:0:
262,140,125713,1,0,0:0:0:0:
262,140,125858,1,0,0:0:0:0:
262,140,126003,1,0,0:0:0:0:
262,140,126147,1,0,0:0:0:0:
262,140,126582,1,8,0:0:0:0:
279,213,127017,1,0,0:0:0:0:
298,227,127452,1,8,0:0:0:0:
298,227,127597,1,8,0:0:0:0:
298,227,127742,1,8,0:0:0:0:
298,228,127887,1,8,0:0:0:0:
298,227,128321,1,0,0:0:0:0:
298,227,128756,1,8,0:0:0:0:
214,119,129191,1,0,0:0:0:0:
214,119,129300,1,0,0:0:0:0:
148,143,129626,1,8,0:0:0:0:
136,162,129734,1,8,0:0:0:0:
148,143,129843,1,8,0:0:0:0:
136,162,130060,1,8,0:0:0:0:
136,162,130495,1,0,0:0:0:0:
136,162,131365,1,8,0:0:0:0:
320,138,131582,1,0,0:0:0:0:
193,158,131800,1,8,0:0:0:0:
193,158,131908,1,8,0:0:0:0:
193,158,132017,1,8,0:0:0:0:
285,260,132234,1,8,0:0:0:0:
285,260,132669,1,0,0:0:0:0:
208,176,133104,1,8,0:0:0:0:
208,176,133213,1,8,0:0:0:0:
199,173,133321,1,8,0:0:0:0:
199,173,133539,1,8,0:0:0:0:
199,173,133974,1,0,0:0:0:0:
273,208,135713,1,12,0:0:0:0:
237,221,137452,1,0,0:0:0:0:
336,195,139191,1,0,0:0:0:0:
215,160,140930,1,8,0:0:0:0:
334,184,141800,1,0,0:0:0:0:
305,250,142669,1,0,0:0:0:0:
214,187,144408,1,8,0:0:0:0:
336,175,145278,1,0,0:0:0:0:
247,195,146147,1,8,0:0:0:0:
209,189,147887,1,8,0:0:0:0:
209,189,148756,1,0,0:0:0:0:
238,128,149626,1,4,0:0:0:0:
168,207,150495,1,8,0:0:0:0:
168,207,150930,1,0,0:0:0:0:
168,207,151147,1,0,0:0:0:0:
287,196,151365,1,8,0:0:0:0:
287,196,151800,1,8,0:0:0:0:
287,196,152234,1,0,0:0:0:0:
287,196,152452,1,0,0:0:0:0:
287,196,152669,1,8,0:0:0:0:
168,99,152778,1,8,0:0:0:0:
287,196,152887,1,8,0:0:0:0:
287,196,153104,1,0,0:0:0:0:
204,111,153974,1,8,0:0:0:0:
204,111,154408,1,0,0:0:0:0:
204,111,154626,1,0,0:0:0:0:
204,111,154843,1,8,0:0:0:0:
250,207,155278,1,8,0:0:0:0:
250,207,155713,1,0,0:0:0:0:
250,207,155930,1,0,0:0:0:0:
237,98,156147,1,8,0:0:0:0:
193,92,156256,1,8,0:0:0:0:
125,78,156365,1,8,0:0:0:0:
125,78,156582,1,0,0:0:0:0:
122,128,157452,1,8,0:0:0:0:
186,162,157887,1,0,0:0:0:0:
186,162,158104,1,0,0:0:0:0:
284,175,158321,1,8,0:0:0:0:
284,175,158539,1,8,0:0:0:0:
284,175,158647,1,8,0:0:0:0:
188,176,158756,1,8,0:0:0:0:
211,225,158974,1,8,0:0:0:0:
211,225,159191,1,0,0:0:0:0:
313,251,159408,1,0,0:0:0:0:
313,251,159517,1,0,0:0:0:0:
104,86,159626,1,0,0:0:0:0:
104,86,159843,1,0,0:0:0:0:
261,142,160060,2,12,L|310:143,16,35
111,229,162017,1,0,0:0:0:0:
262,222,162452,1,8,0:0:0:0:
242,169,162887,1,8,0:0:0:0:
242,169,162995,1,8,0:0:0:0:
154,126,163104,1,8,0:0:0:0:
154,126,163539,1,4,0:0:0:0:
355,168,163974,1,8,0:0:0:0:
355,168,164408,1,0,0:0:0:0:
207,109,164517,1,0,0:0:0:0:
154,159,164734,1,8,0:0:0:0:
173,200,164843,1,8,0:0:0:0:
244,239,165060,1,0,0:0:0:0:
424,179,165278,1,12,0:0:0:0:
424,179,165495,1,12,0:0:0:0:
420,183,165713,1,4,0:0:0:0:
245,170,166147,1,0,0:0:0:0:
245,170,166256,1,0,0:0:0:0:
245,170,166365,1,0,0:0:0:0:
261,84,166474,1,0,0:0:0:0:
156,122,166582,1,0,0:0:0:0:
327,199,167017,1,12,0:0:0:0:
256,227,167452,1,0,0:0:0:0:
256,227,167887,1,8,0:0:0:0:
256,227,167995,1,8,0:0:0:0:
186,126,168213,1,0,0:0:0:0:
186,126,168321,1,0,0:0:0:0:
324,214,168539,1,8,0:0:0:0:
324,214,168756,1,0,0:0:0:0:
319,108,168974,1,12,0:0:0:0:
319,108,169191,1,12,0:0:0:0:
319,108,169408,1,12,0:0:0:0:
242,154,169626,1,8,0:0:0:0:
242,154,169734,1,8,0:0:0:0:
242,154,169843,1,8,0:0:0:0:
139,98,169952,1,8,0:0:0:0:
242,154,170060,1,8,0:0:0:0:
155,166,170495,1,4,0:0:0:0:
280,229,170930,1,8,0:0:0:0:
280,229,171365,1,0,0:0:0:0:
280,229,171474,1,0,0:0:0:0:
159,128,171691,1,8,0:0:0:0:
164,134,171800,1,8,0:0:0:0:
400,191,172017,1,0,0:0:0:0:
350,193,172234,1,8,0:0:0:0:
350,193,172343,1,8,0:0:0:0:
350,193,172452,1,8,0:0:0:0:
350,193,172560,1,8,0:0:0:0:
350,193,172669,1,8,0:0:0:0:
313,253,173104,1,4,0:0:0:0:
306,246,173974,1,12,0:0:0:0:
225,211,174408,1,0,0:0:0:0:
213,146,174843,1,8,0:0:0:0:
213,146,174952,1,8,0:0:0:0:
159,105,175169,1,0,0:0:0:0:
159,105,175278,1,0,0:0:0:0:
273,87,175495,1,8,0:0:0:0:
273,87,175713,1,0,0:0:0:0:
195,187,175930,1,8,0:0:0:0:
195,187,176039,1,8,0:0:0:0:
248,195,176147,1,8,0:0:0:0:
248,195,176365,1,8,0:0:0:0:
248,195,176582,1,8,0:0:0:0:
261,214,177452,1,4,0:0:0:0:
152,178,177887,1,8,0:0:0:0:
152,178,178321,1,0,0:0:0:0:
152,178,178539,1,0,0:0:0:0:
152,178,178756,1,8,0:0:0:0:
152,178,178974,1,8,0:0:0:0:
152,178,179191,1,0,0:0:0:0:
252,225,179626,1,8,0:0:0:0:
252,225,179843,1,0,0:0:0:0:
165,137,180060,1,8,0:0:0:0:
165,137,180278,1,8,0:0:0:0:
165,137,180495,1,0,0:0:0:0:
245,100,180713,1,8,0:0:0:0:
165,137,180930,1,0,0:0:0:0:
245,100,181365,1,0,0:0:0:0:
341,159,181800,1,8,0:0:0:0:
245,100,182017,1,8,0:0:0:0:
233,263,182234,1,0,0:0:0:0:
233,263,182452,1,0,0:0:0:0:
233,263,182669,1,8,0:0:0:0:
233,263,183104,1,0,0:0:0:0:
241,134,183321,1,8,0:0:0:0:
241,134,183539,1,0,0:0:0:0:
241,134,183756,1,0,0:0:0:0:
241,134,183974,1,8,0:0:0:0:
314,180,184191,1,8,0:0:0:0:
314,180,184300,1,8,0:0:0:0:
150,170,184408,1,8,0:0:0:0:
364,147,184843,1,0,0:0:0:0:
364,147,185278,1,8,0:0:0:0:
364,147,185495,1,8,0:0:0:0:
364,147,185713,1,0,0:0:0:0:
364,147,185930,1,8,0:0:0:0:
222,88,186147,1,0,0:0:0:0:
222,88,186582,1,8,0:0:0:0:
204,178,186800,1,0,0:0:0:0:
204,178,187017,1,8,0:0:0:0:
204,178,187452,1,0,0:0:0:0:
204,178,187669,1,8,0:0:0:0:
259,150,187887,1,0,0:0:0:0:
259,150,188104,1,0,0:0:0:0:
289,184,188321,1,8,0:0:0:0:
289,184,188539,1,0,0:0:0:0:
289,184,188756,1,8,0:0:0:0:
289,184,188974,1,8,0:0:0:0:
289,184,189191,1,0,0:0:0:0:
142,119,189626,1,8,0:0:0:0:
241,110,190495,1,8,0:0:0:0:
211,221,191365,1,4,0:0:0:0:
331,209,191800,1,8,0:0:0:0:
331,209,192234,1,0,0:0:0:0:
331,209,192452,1,0,0:0:0:0:
331,209,192669,1,8,0:0:0:0:
331,209,192887,1,8,0:0:0:0:
201,131,193104,1,4,0:0:0:0:
201,131,193539,1,12,0:0:0:0:
206,216,193974,1,0,0:0:0:0:
206,216,194082,1,0,0:0:0:0:
216,273,194191,1,0,0:0:0:0:
206,216,194300,1,0,0:0:0:0:
206,216,194408,1,0,0:0:0:0:
275,186,194843,1,8,0:0:0:0:
281,175,195278,1,0,0:0:0:0:
282,175,195713,1,8,0:0:0:0:
210,132,195821,1,8,0:0:0:0:
206,128,196039,1,8,0:0:0:0:
200,124,196147,1,8,0:0:0:0:
198,190,196365,1,8,0:0:0:0:
228,109,196582,1,0,0:0:0:0:
298,208,196800,1,12,0:0:0:0:
298,208,197017,1,12,0:0:0:0:
298,208,197234,1,12,0:0:0:0:
298,208,197452,1,12,0:0:0:0:
298,208,197669,1,12,0:0:0:0:
298,208,197887,1,4,0:0:0:0:
295,189,198321,1,0,0:0:0:0:
259,181,198756,1,8,0:0:0:0:
128,150,199191,1,0,0:0:0:0:
128,150,199408,1,0,0:0:0:0:
128,150,199626,1,8,0:0:0:0:
128,150,199843,1,8,0:0:0:0:
128,150,200060,1,0,0:0:0:0:
287,127,200278,1,8,0:0:0:0:
287,127,200387,1,8,0:0:0:0:
287,127,200495,1,8,0:0:0:0:
242,168,200713,1,8,0:0:0:0:
315,208,200930,1,4,0:0:0:0:
315,208,201365,1,12,0:0:0:0:
315,208,201800,1,4,0:0:0:0:
254,229,202669,1,8,0:0:0:0:
254,229,203321,1,0,0:0:0:0:
184,122,203539,1,0,0:0:0:0:
171,61,204626,1,8,0:0:0:0:
130,164,204734,1,8,0:0:0:0:
158,243,204843,1,8,0:0:0:0:
158,243,205278,1,12,0:0:0:0:
210,270,206147,1,0,0:0:0:0:
210,270,206474,1,8,0:0:0:0:
210,270,206800,1,0,0:0:0:0:
224,147,207017,1,0,0:0:0:0:
296,214,208756,1,8,0:0:0:0:
267,235,209626,1,0,0:0:0:0:
172,139,209952,1,0,0:0:0:0:
176,135,210278,1,8,0:0:0:0:
164,137,210495,1,8,0:0:0:0:
175,159,211365,1,0,0:0:0:0:
186,216,212234,1,8,0:0:0:0:
186,216,213104,1,0,0:0:0:0:
186,216,213430,1,8,0:0:0:0:
186,216,213756,1,0,0:0:0:0:
186,216,213974,1,0,0:0:0:0:
299,210,214843,1,8,0:0:0:0:
193,237,215713,1,8,0:0:0:0:
305,243,216582,1,0,0:0:0:0:
305,243,216908,1,0,0:0:0:0:
193,237,217234,1,8,0:0:0:0:
201,124,217452,1,8,0:0:0:0:
324,157,218321,1,0,0:0:0:0:
202,115,219191,1,8,0:0:0:0:
202,115,219300,1,8,0:0:0:0:
202,115,219408,1,8,0:0:0:0:
234,190,221364,1,8,0:0:0:0:
