osu file format v14

[General]
AudioFilename: audio.mp3
AudioLeadIn: 0
PreviewTime: 176800
Countdown: 0
SampleSet: Normal
StackLeniency: 0.7
Mode: 1
LetterboxInBreaks: 0
WidescreenStoryboard: 1

[Editor]
Bookmarks: 61,27887,69626,95713,109626,133974,149626,163539,201800,204626,221364
DistanceSpacing: 0.8
BeatDivisor: 4
GridSize: 4
TimelineZoom: 1

[Metadata]
Title:Otome Kaibou feat. Hatsune Miku (TeddyLoid Allies Remix)
TitleUnicode:乙女解剖 feat. 初音ミク (TeddyLoid Alllies Remix)
Artist:DECO*27
ArtistUnicode:DECO*27
Creator:Chromoxx
Version:Kantan
Source:
Tags:midnaait jerry vocaloid japanese deco27 おとめかいぼう はつねみく otoiro yuma saito girl dissection
BeatmapID:2410343
BeatmapSetID:1150556

[Difficulty]
HPDrainRate:8
CircleSize:5
OverallDifficulty:3
ApproachRate:5
SliderMultiplier:1.4
SliderTickRate:1

[Events]
//Background and Video events
Video,0,"otome kaibou.mp4" S,0,0,,0.67 MY,0,0,,128
0,0,"otome+kaibou.jpg",0,250
//Break Periods
//Storyboard Layer 0 (Background)
//Storyboard Layer 1 (Fail)
//Storyboard Layer 2 (Pass)
//Storyboard Layer 3 (Foreground)
//Storyboard Layer 4 (Overlay)
//Storyboard Sound Samples

[TimingPoints]
61,434.782608695652,4,1,0,70,1,0
27832,-100,4,1,0,80,0,0
69843,-100,4,1,0,70,0,0
95658,-100,4,1,0,90,0,0
95713,-100,4,1,0,90,0,1
107887,-100,4,1,0,80,0,0
134191,-100,4,1,0,70,0,0
149571,-100,4,1,0,80,0,0
163430,-100,4,1,0,90,0,0
163539,-100,4,1,0,90,0,1
202017,-100,4,1,0,80,0,1
204408,-100,4,1,0,70,0,1
205278,-100,4,1,0,70,0,0
220930,434.782608695652,4,1,0,70,1,8

[HitObjects]
345,189,61,5,8,0:0:0:0:
273,235,1800,1,8,0:0:0:0:
135,191,3539,1,0,0:0:0:0:
120,167,5278,1,8,0:0:0:0:
120,167,6147,1,0,0:0:0:0:
95,176,7017,1,8,0:0:0:0:
95,177,8756,1,0,0:0:0:0:
95,177,9626,1,0,0:0:0:0:
95,177,10495,1,8,0:0:0:0:
215,214,12234,1,0,0:0:0:0:
143,215,13974,1,0,0:0:0:0:
268,123,14843,1,8,0:0:0:0:
204,181,15713,1,0,0:0:0:0:
118,209,16582,1,8,0:0:0:0:
113,87,17017,1,8,0:0:0:0:
220,147,17452,1,0,0:0:0:0:
187,55,18321,1,8,0:0:0:0:
263,176,19191,1,0,0:0:0:0:
209,130,20930,1,8,0:0:0:0:
209,130,21800,1,0,0:0:0:0:
201,124,22669,1,8,0:0:0:0:
333,210,23104,1,0,0:0:0:0:
195,160,23539,1,8,0:0:0:0:
284,225,24408,1,0,0:0:0:0:
200,130,26147,1,8,0:0:0:0:
137,106,27887,1,4,0:0:0:0:
133,111,28756,1,8,0:0:0:0:
202,76,29626,1,0,0:0:0:0:
193,219,30060,1,0,0:0:0:0:
193,219,30495,1,8,0:0:0:0:
107,226,31365,1,0,0:0:0:0:
102,198,32234,1,8,0:0:0:0:
146,170,32669,1,0,0:0:0:0:
217,228,33104,1,8,0:0:0:0:
258,196,34843,1,0,0:0:0:0:
147,138,35713,1,8,0:0:0:0:
281,259,36582,1,0,0:0:0:0:
281,259,37017,1,0,0:0:0:0:
281,259,37452,1,8,0:0:0:0:
123,200,38321,1,0,0:0:0:0:
123,200,39191,1,8,0:0:0:0:
123,200,39626,1,0,0:0:0:0:
267,152,40495,1,8,0:0:0:0:
188,197,41800,1,0,0:0:0:0:
175,217,42669,1,8,0:0:0:0:
175,214,43974,1,0,0:0:0:0:
175,214,44408,1,8,0:0:0:0:
144,187,45278,1,0,0:0:0:0:
106,131,46147,1,8,0:0:0:0:
228,178,47452,1,0,0:0:0:0:
272,58,47887,1,0,0:0:0:0:
117,188,48756,1,8,0:0:0:0:
202,199,49626,1,8,0:0:0:0:
202,199,50495,1,8,0:0:0:0:
202,199,50930,1,8,0:0:0:0:
202,199,51365,1,8,0:0:0:0:
107,187,52234,1,0,0:0:0:0:
179,72,53104,1,8,0:0:0:0:
111,122,53974,1,0,0:0:0:0:
188,197,55713,1,8,0:0:0:0:
175,217,56582,1,0,0:0:0:0:
175,214,57887,1,8,0:0:0:0:
175,214,58321,1,0,0:0:0:0:
144,187,59191,1,8,0:0:0:0:
106,131,60060,1,0,0:0:0:0:
228,178,61365,1,8,0:0:0:0:
228,178,61800,1,8,0:0:0:0:
117,188,62669,1,0,0:0:0:0:
202,199,63539,1,0,0:0:0:0:
202,199,64408,1,0,0:0:0:0:
202,199,64843,1,0,0:0:0:0:
202,199,65278,1,0,0:0:0:0:
107,187,66147,1,8,0:0:0:0:
179,72,67017,1,0,0:0:0:0:
111,122,67887,1,8,0:0:0:0:
262,169,69626,1,4,0:0:0:0:
172,121,71365,1,8,0:0:0:0:
222,173,73104,1,0,0:0:0:0:
229,161,74843,1,0,0:0:0:0:
291,146,76582,1,8,0:0:0:0:
208,130,78321,1,8,0:0:0:0:
143,215,81800,1,0,0:0:0:0:
268,123,82669,1,8,0:0:0:0:
204,181,83539,1,0,0:0:0:0:
118,209,84408,1,8,0:0:0:0:
113,87,84843,1,8,0:0:0:0:
220,147,85278,1,0,0:0:0:0:
187,55,86147,1,8,0:0:0:0:
263,176,87017,1,0,0:0:0:0:
209,130,88756,1,8,0:0:0:0:
209,130,89626,1,0,0:0:0:0:
201,124,90495,1,8,0:0:0:0:
333,210,90930,1,0,0:0:0:0:
195,160,91365,1,8,0:0:0:0:
284,225,92234,1,0,0:0:0:0:
214,228,93974,1,8,0:0:0:0:
181,207,95713,1,4,0:0:0:0:
44,185,96582,1,8,0:0:0:0:
167,98,97234,1,0,0:0:0:0:
167,98,97887,1,0,0:0:0:0:
167,98,98321,1,8,0:0:0:0:
240,121,99191,1,0,0:0:0:0:
189,221,99626,1,8,0:0:0:0:
193,252,100060,1,8,0:0:0:0:
193,252,100495,1,0,0:0:0:0:
159,104,101800,1,8,0:0:0:0:
233,201,102669,1,0,0:0:0:0:
233,201,103539,1,8,0:0:0:0:
233,201,104191,1,0,0:0:0:0:
233,201,104843,1,0,0:0:0:0:
233,201,105278,1,8,0:0:0:0:
108,73,106147,1,0,0:0:0:0:
286,106,106582,1,8,0:0:0:0:
286,106,107017,1,8,0:0:0:0:
286,106,107452,1,0,0:0:0:0:
208,145,109626,1,0,0:0:0:0:
289,240,110495,1,8,0:0:0:0:
208,145,111365,1,0,0:0:0:0:
244,180,113104,1,8,0:0:0:0:
244,180,113974,1,0,0:0:0:0:
183,165,114843,1,8,0:0:0:0:
156,115,116582,1,0,0:0:0:0:
205,179,117452,1,0,0:0:0:0:
168,279,118321,1,0,0:0:0:0:
168,279,118756,1,0,0:0:0:0:
263,141,119191,1,0,0:0:0:0:
147,93,120060,1,8,0:0:0:0:
147,93,120930,1,0,0:0:0:0:
148,141,121800,1,8,0:0:0:0:
87,225,123539,1,0,0:0:0:0:
78,220,124408,1,8,0:0:0:0:
202,150,125713,1,0,0:0:0:0:
225,204,126365,1,0,0:0:0:0:
86,216,127017,1,0,0:0:0:0:
86,216,127887,1,8,0:0:0:0:
220,122,128756,1,0,0:0:0:0:
306,200,129191,1,0,0:0:0:0:
296,199,129843,1,8,0:0:0:0:
225,187,130495,1,0,0:0:0:0:
170,63,131365,1,8,0:0:0:0:
155,65,132669,1,0,0:0:0:0:
153,82,133321,1,0,0:0:0:0:
153,82,133974,1,0,0:0:0:0:
229,158,135713,1,8,0:0:0:0:
184,180,137452,1,0,0:0:0:0:
163,168,139191,1,0,0:0:0:0:
232,132,140930,1,8,0:0:0:0:
162,100,141800,1,0,0:0:0:0:
162,100,142669,1,0,0:0:0:0:
180,156,144408,1,8,0:0:0:0:
180,156,145278,1,0,0:0:0:0:
180,156,146147,1,8,0:0:0:0:
222,212,147887,1,8,0:0:0:0:
271,205,149626,1,0,0:0:0:0:
342,218,150495,1,8,0:0:0:0:
289,217,151365,1,0,0:0:0:0:
162,154,151800,1,8,0:0:0:0:
162,154,152234,1,0,0:0:0:0:
90,219,153104,1,8,0:0:0:0:
110,232,153974,1,0,0:0:0:0:
189,131,154843,1,8,0:0:0:0:
189,131,155278,1,0,0:0:0:0:
189,131,155713,1,8,0:0:0:0:
161,164,156582,1,0,0:0:0:0:
159,167,158321,1,0,0:0:0:0:
159,167,159191,1,8,0:0:0:0:
159,167,159626,1,8,0:0:0:0:
265,112,160060,2,4,L|306:111,16,35
240,169,163539,1,4,0:0:0:0:
219,211,164408,1,8,0:0:0:0:
188,111,165278,1,0,0:0:0:0:
188,111,165713,1,8,0:0:0:0:
188,111,166147,1,0,0:0:0:0:
101,209,167017,1,8,0:0:0:0:
131,233,167887,1,0,0:0:0:0:
131,233,168756,1,8,0:0:0:0:
131,233,169191,1,8,0:0:0:0:
131,233,169626,1,8,0:0:0:0:
257,129,170060,1,8,0:0:0:0:
166,189,170495,1,0,0:0:0:0:
259,209,171365,1,8,0:0:0:0:
141,131,172234,1,0,0:0:0:0:
141,131,172669,1,8,0:0:0:0:
141,131,173104,1,0,0:0:0:0:
235,128,173974,1,8,0:0:0:0:
235,128,174843,1,0,0:0:0:0:
289,239,175278,1,0,0:0:0:0:
191,139,175713,1,8,0:0:0:0:
153,136,177452,1,0,0:0:0:0:
141,138,178321,1,8,0:0:0:0:
256,270,178756,1,0,0:0:0:0:
256,270,179191,1,8,0:0:0:0:
164,185,180060,1,0,0:0:0:0:
100,167,180930,1,8,0:0:0:0:
137,128,181800,1,0,0:0:0:0:
167,174,182234,1,8,0:0:0:0:
167,174,182669,1,0,0:0:0:0:
167,174,183539,1,8,0:0:0:0:
341,110,183974,1,8,0:0:0:0:
182,186,184408,1,0,0:0:0:0:
178,189,185278,1,8,0:0:0:0:
186,173,186147,1,0,0:0:0:0:
122,185,187887,1,8,0:0:0:0:
122,185,188756,1,0,0:0:0:0:
170,215,189626,1,8,0:0:0:0:
170,215,190060,1,0,0:0:0:0:
170,215,190495,1,8,0:0:0:0:
152,175,191365,1,0,0:0:0:0:
152,175,192234,1,8,0:0:0:0:
236,145,193104,1,0,0:0:0:0:
236,145,193539,1,8,0:0:0:0:
236,145,193974,1,0,0:0:0:0:
236,145,194843,1,8,0:0:0:0:
167,167,195713,1,0,0:0:0:0:
229,211,196582,1,8,0:0:0:0:
229,211,197017,1,8,0:0:0:0:
229,211,197452,1,8,0:0:0:0:
229,211,197887,1,8,0:0:0:0:
229,211,198321,1,0,0:0:0:0:
97,83,199191,1,8,0:0:0:0:
110,134,200060,1,0,0:0:0:0:
235,163,200495,1,0,0:0:0:0:
235,163,200930,1,8,0:0:0:0:
235,163,201365,1,8,0:0:0:0:
144,198,201800,1,0,0:0:0:0:
269,144,203539,1,0,0:0:0:0:
108,68,205278,1,8,0:0:0:0:
193,116,207017,1,0,0:0:0:0:
158,114,208756,1,8,0:0:0:0:
211,174,210495,1,8,0:0:0:0:
211,174,211365,1,0,0:0:0:0:
211,174,212234,1,8,0:0:0:0:
128,147,213974,1,0,0:0:0:0:
238,143,214843,1,0,0:0:0:0:
126,154,215713,1,8,0:0:0:0:
126,154,217452,1,8,0:0:0:0:
225,150,218321,1,0,0:0:0:0:
202,203,219191,1,0,0:0:0:0:
187,112,221364,1,8,0:0:0:0:
