osu file format v14

[General]
AudioFilename: audio.mp3
AudioLeadIn: 0
PreviewTime: 176800
Countdown: 0
SampleSet: Normal
StackLeniency: 0.7
Mode: 1
LetterboxInBreaks: 0
WidescreenStoryboard: 1

[Editor]
Bookmarks: 61,27887,69626,95713,109626,133974,149626,163539,201800,204626,221364
DistanceSpacing: 0.8
BeatDivisor: 4
GridSize: 4
TimelineZoom: 1

[Metadata]
Title:Otome Kaibou feat. Hatsune Miku (TeddyLoid Allies Remix)
TitleUnicode:乙女解剖 feat. 初音ミク (TeddyLoid Alllies Remix)
Artist:DECO*27
ArtistUnicode:DECO*27
Creator:Chromoxx
Version:Inner Oni
Source:
Tags:midnaait jerry vocaloid japanese deco27 おとめかいぼう はつねみく otoiro yuma saito girl dissection
BeatmapID:2401693
BeatmapSetID:1150556

[Difficulty]
HPDrainRate:6
CircleSize:5
OverallDifficulty:6.5
ApproachRate:5
SliderMultiplier:1.4
SliderTickRate:1

[Events]
//Background and Video events
Video,0,"otome kaibou.mp4" S,0,0,,0.67 MY,0,0,,128
0,0,"otome+kaibou.jpg",0,250
//Break Periods
//Storyboard Layer 0 (Background)
//Storyboard Layer 1 (Fail)
//Storyboard Layer 2 (Pass)
//Storyboard Layer 3 (Foreground)
//Storyboard Layer 4 (Overlay)
//Storyboard Sound Samples

[TimingPoints]
61,434.782608695652,4,1,0,70,1,0
27832,-100,4,1,0,80,0,0
69843,-100,4,1,0,70,0,0
95658,-100,4,1,0,90,0,0
95713,-100,4,1,0,90,0,1
107887,-100,4,1,0,80,0,0
134191,-100,4,1,0,70,0,0
149571,-100,4,1,0,80,0,0
163430,-100,4,1,0,90,0,0
163539,-100,4,1,0,90,0,1
202017,-100,4,1,0,80,0,1
204408,-100,4,1,0,70,0,1
205278,-100,4,1,0,70,0,0
220930,434.782608695652,4,1,0,70,1,8

[HitObjects]
155,176,61,5,8,0:0:0:0:
277,293,1800,1,8,0:0:0:0:
251,239,3539,1,0,0:0:0:0:
275,292,5278,1,8,0:0:0:0:
160,276,6147,1,0,0:0:0:0:
160,276,7017,1,8,0:0:0:0:
283,271,7452,1,0,0:0:0:0:
283,271,7669,1,8,0:0:0:0:
246,267,8321,1,8,0:0:0:0:
205,200,8756,1,0,0:0:0:0:
246,267,9191,1,0,0:0:0:0:
246,267,9408,1,8,0:0:0:0:
246,267,9626,1,0,0:0:0:0:
161,209,10060,1,0,0:0:0:0:
282,191,10495,2,0,L|322:193,10,35
248,199,11800,1,8,0:0:0:0:
248,199,12234,1,0,0:0:0:0:
248,199,13104,1,0,0:0:0:0:
169,242,13321,1,0,0:0:0:0:
169,242,13539,1,8,0:0:0:0:
169,242,13756,1,8,0:0:0:0:
169,242,13974,1,0,0:0:0:0:
334,272,14300,1,0,0:0:0:0:
149,221,14408,1,8,0:0:0:0:
221,260,14626,1,0,0:0:0:0:
207,256,14843,1,8,0:0:0:0:
215,224,14952,1,0,0:0:0:0:
199,248,15060,1,0,0:0:0:0:
229,241,15278,1,8,0:0:0:0:
228,165,15495,1,8,0:0:0:0:
122,178,15604,1,8,0:0:0:0:
122,158,15713,1,0,0:0:0:0:
264,240,16039,1,0,0:0:0:0:
264,240,16147,1,8,0:0:0:0:
212,247,16365,1,0,0:0:0:0:
212,247,16582,1,8,0:0:0:0:
212,247,16691,1,8,0:0:0:0:
212,242,16800,1,0,0:0:0:0:
212,242,17017,1,8,0:0:0:0:
244,222,17234,1,8,0:0:0:0:
244,222,17343,1,8,0:0:0:0:
244,222,17452,1,8,0:0:0:0:
361,251,17778,1,8,0:0:0:0:
324,240,17887,1,0,0:0:0:0:
194,256,18104,1,8,0:0:0:0:
194,256,18321,1,0,0:0:0:0:
186,193,18430,1,8,0:0:0:0:
186,193,18539,1,8,0:0:0:0:
180,192,18756,1,0,0:0:0:0:
178,186,18974,1,0,0:0:0:0:
177,186,19082,1,0,0:0:0:0:
179,184,19191,1,8,0:0:0:0:
179,184,19517,1,8,0:0:0:0:
178,186,19626,1,0,0:0:0:0:
230,232,19843,1,8,0:0:0:0:
243,229,20060,1,0,0:0:0:0:
243,229,20169,1,0,0:0:0:0:
240,230,20278,1,8,0:0:0:0:
275,190,20495,1,0,0:0:0:0:
272,197,20713,1,0,0:0:0:0:
272,197,20821,1,0,0:0:0:0:
256,233,20930,1,0,0:0:0:0:
272,196,21256,1,0,0:0:0:0:
71,152,21365,1,8,0:0:0:0:
237,223,21691,1,0,0:0:0:0:
201,241,21800,1,8,0:0:0:0:
198,218,22017,1,0,0:0:0:0:
155,251,22234,1,8,0:0:0:0:
155,251,22452,1,8,0:0:0:0:
188,211,22560,1,8,0:0:0:0:
182,272,22669,1,0,0:0:0:0:
307,276,22887,1,8,0:0:0:0:
253,292,23104,1,0,0:0:0:0:
261,261,23321,1,8,0:0:0:0:
261,261,23430,1,8,0:0:0:0:
261,261,23539,1,8,0:0:0:0:
296,245,23756,1,8,0:0:0:0:
220,243,23974,1,0,0:0:0:0:
217,291,24082,1,0,0:0:0:0:
217,291,24191,1,8,0:0:0:0:
236,245,24408,1,0,0:0:0:0:
256,192,24626,12,8,26147,0:0:0:0:
243,121,26365,5,0,0:0:0:0:
129,75,26582,1,8,0:0:0:0:
129,75,26800,1,8,0:0:0:0:
129,75,27017,1,0,0:0:0:0:
229,197,27234,5,0,0:0:0:0:
203,222,27343,1,0,0:0:0:0:
194,267,27452,1,8,0:0:0:0:
239,268,27597,1,0,0:0:0:0:
101,142,27669,1,8,0:0:0:0:
359,254,27887,1,4,0:0:0:0:
290,257,28104,1,8,0:0:0:0:
290,257,28213,1,8,0:0:0:0:
157,187,28321,1,8,0:0:0:0:
157,187,28539,1,0,0:0:0:0:
187,190,28647,1,0,0:0:0:0:
200,192,28756,1,8,0:0:0:0:
181,219,28974,1,0,0:0:0:0:
181,219,29082,1,8,0:0:0:0:
186,222,29300,1,8,0:0:0:0:
286,147,29408,1,0,0:0:0:0:
286,147,29481,1,0,0:0:0:0:
286,147,29553,1,0,0:0:0:0:
286,147,29626,1,8,0:0:0:0:
349,251,29843,1,0,0:0:0:0:
349,251,30060,1,0,0:0:0:0:
349,240,30495,1,8,0:0:0:0:
303,236,30930,1,0,0:0:0:0:
303,236,31147,1,0,0:0:0:0:
303,236,31256,1,0,0:0:0:0:
200,257,31365,1,8,0:0:0:0:
201,286,31582,1,8,0:0:0:0:
302,290,31655,1,8,0:0:0:0:
163,159,31727,1,8,0:0:0:0:
146,149,31800,1,0,0:0:0:0:
146,149,32017,1,0,0:0:0:0:
296,176,32234,1,8,0:0:0:0:
225,248,32452,1,0,0:0:0:0:
186,249,32560,1,8,0:0:0:0:
186,249,32669,1,0,0:0:0:0:
228,74,32742,1,0,0:0:0:0:
228,74,32814,1,0,0:0:0:0:
209,98,32887,1,8,0:0:0:0:
95,167,33104,1,8,0:0:0:0:
310,276,33176,1,8,0:0:0:0:
109,245,33249,1,8,0:0:0:0:
257,292,33321,1,0,0:0:0:0:
281,169,33539,1,0,0:0:0:0:
281,169,33647,1,0,0:0:0:0:
261,124,33974,1,8,0:0:0:0:
227,250,34191,1,0,0:0:0:0:
178,245,34517,1,0,0:0:0:0:
152,89,34843,1,4,0:0:0:0:
297,221,35060,1,8,0:0:0:0:
340,240,35133,1,8,0:0:0:0:
250,274,35205,1,8,0:0:0:0:
210,108,35278,1,8,0:0:0:0:
188,96,35495,1,0,0:0:0:0:
250,126,35604,1,0,0:0:0:0:
177,213,35713,1,8,0:0:0:0:
171,274,35930,1,0,0:0:0:0:
182,255,36039,1,8,0:0:0:0:
187,222,36256,1,8,0:0:0:0:
252,251,36365,1,0,0:0:0:0:
106,96,36437,1,0,0:0:0:0:
106,96,36510,1,0,0:0:0:0:
106,96,36582,1,8,0:0:0:0:
110,93,36800,1,0,0:0:0:0:
106,96,37017,1,0,0:0:0:0:
272,196,37452,1,8,0:0:0:0:
215,257,37669,1,0,0:0:0:0:
213,265,38104,1,8,0:0:0:0:
213,265,38213,1,8,0:0:0:0:
178,213,38321,1,8,0:0:0:0:
346,152,38539,1,0,0:0:0:0:
346,152,38611,1,0,0:0:0:0:
229,104,38684,1,0,0:0:0:0:
171,105,38756,1,0,0:0:0:0:
165,117,38974,1,0,0:0:0:0:
387,283,39082,1,0,0:0:0:0:
214,200,39191,1,8,0:0:0:0:
269,51,39408,1,0,0:0:0:0:
269,51,39517,1,8,0:0:0:0:
319,143,39626,1,0,0:0:0:0:
319,143,39698,1,0,0:0:0:0:
319,143,39771,1,0,0:0:0:0:
319,143,39843,1,8,0:0:0:0:
165,221,40278,1,0,0:0:0:0:
250,265,40495,1,0,0:0:0:0:
245,269,40604,1,8,0:0:0:0:
244,269,40713,1,8,0:0:0:0:
336,259,40821,1,0,0:0:0:0:
374,242,40930,1,8,0:0:0:0:
177,230,41039,1,0,0:0:0:0:
304,185,41147,1,8,0:0:0:0:
204,135,41220,1,8,0:0:0:0:
180,124,41292,1,8,0:0:0:0:
246,202,41365,1,0,0:0:0:0:
246,202,41437,1,0,0:0:0:0:
205,177,41510,1,0,0:0:0:0:
206,151,41582,1,8,0:0:0:0:
291,138,41800,1,4,0:0:0:0:
216,240,42234,1,0,0:0:0:0:
290,211,42669,1,8,0:0:0:0:
290,211,42778,1,8,0:0:0:0:
180,255,42887,1,0,0:0:0:0:
120,130,43104,1,8,0:0:0:0:
149,105,43176,1,8,0:0:0:0:
135,139,43249,1,8,0:0:0:0:
219,138,43321,1,0,0:0:0:0:
206,231,43539,1,8,0:0:0:0:
255,124,43974,1,0,0:0:0:0:
258,257,44191,1,0,0:0:0:0:
175,91,44408,1,8,0:0:0:0:
175,91,44481,1,8,0:0:0:0:
175,91,44553,1,8,0:0:0:0:
175,91,44626,1,0,0:0:0:0:
226,241,44843,1,8,0:0:0:0:
115,162,44916,1,8,0:0:0:0:
115,162,44988,1,8,0:0:0:0:
115,162,45060,1,8,0:0:0:0:
159,179,45278,1,0,0:0:0:0:
207,244,45713,1,0,0:0:0:0:
202,105,46147,1,8,0:0:0:0:
202,105,46256,1,8,0:0:0:0:
152,77,46365,1,0,0:0:0:0:
336,128,46582,1,8,0:0:0:0:
336,128,46655,1,8,0:0:0:0:
336,128,46727,1,8,0:0:0:0:
336,128,46800,1,0,0:0:0:0:
265,110,47017,1,8,0:0:0:0:
216,254,47452,1,0,0:0:0:0:
206,267,47560,1,0,0:0:0:0:
138,148,47669,1,0,0:0:0:0:
189,50,47887,1,8,0:0:0:0:
189,50,47959,1,8,0:0:0:0:
189,50,48032,1,8,0:0:0:0:
203,47,48104,1,0,0:0:0:0:
336,83,48321,1,8,0:0:0:0:
336,83,48394,1,8,0:0:0:0:
336,83,48466,1,8,0:0:0:0:
336,83,48539,1,8,0:0:0:0:
183,139,48756,1,0,0:0:0:0:
187,139,48901,1,8,0:0:0:0:
188,137,49046,1,8,0:0:0:0:
202,205,49191,1,0,0:0:0:0:
202,205,49336,1,0,0:0:0:0:
202,205,49481,1,8,0:0:0:0:
310,138,49626,1,0,0:0:0:0:
282,145,49734,1,0,0:0:0:0:
282,145,49843,1,8,0:0:0:0:
171,60,50060,1,8,0:0:0:0:
171,60,50133,1,8,0:0:0:0:
171,60,50205,1,8,0:0:0:0:
174,55,50278,1,0,0:0:0:0:
396,152,50495,1,8,0:0:0:0:
396,152,50604,1,8,0:0:0:0:
396,152,50713,1,8,0:0:0:0:
396,152,50821,1,0,0:0:0:0:
394,143,50930,1,8,0:0:0:0:
303,219,51147,1,8,0:0:0:0:
208,128,51365,1,0,0:0:0:0:
184,255,51437,1,8,0:0:0:0:
171,273,51510,1,8,0:0:0:0:
152,208,51582,1,0,0:0:0:0:
198,152,51691,1,0,0:0:0:0:
245,245,51800,1,8,0:0:0:0:
304,158,51872,1,0,0:0:0:0:
304,158,51945,1,0,0:0:0:0:
313,149,52017,1,8,0:0:0:0:
239,193,52234,1,0,0:0:0:0:
358,222,52452,1,8,0:0:0:0:
224,185,52669,1,0,0:0:0:0:
169,189,53104,1,8,0:0:0:0:
258,249,53213,1,8,0:0:0:0:
231,258,53321,1,0,0:0:0:0:
231,258,53539,1,8,0:0:0:0:
231,258,53611,1,8,0:0:0:0:
187,61,53684,1,8,0:0:0:0:
187,61,53756,1,0,0:0:0:0:
227,76,53974,1,8,0:0:0:0:
170,164,54191,1,8,0:0:0:0:
346,232,54408,1,0,0:0:0:0:
346,232,54517,1,0,0:0:0:0:
267,253,54626,1,0,0:0:0:0:
233,170,54843,1,8,0:0:0:0:
272,142,55060,1,0,0:0:0:0:
331,262,55278,1,8,0:0:0:0:
128,263,55350,1,8,0:0:0:0:
331,262,55423,1,8,0:0:0:0:
142,220,55495,1,8,0:0:0:0:
181,220,55713,1,0,0:0:0:0:
219,183,56147,1,0,0:0:0:0:
250,226,56582,1,8,0:0:0:0:
250,226,56691,1,8,0:0:0:0:
193,202,56800,1,0,0:0:0:0:
226,203,57017,1,8,0:0:0:0:
136,209,57089,1,8,0:0:0:0:
226,203,57162,1,8,0:0:0:0:
160,240,57234,1,0,0:0:0:0:
210,128,57452,1,8,0:0:0:0:
319,226,57887,1,0,0:0:0:0:
319,226,58104,1,0,0:0:0:0:
319,226,58321,1,8,0:0:0:0:
228,84,58394,1,8,0:0:0:0:
228,84,58466,1,8,0:0:0:0:
228,84,58539,1,0,0:0:0:0:
228,84,58756,1,8,0:0:0:0:
228,84,58829,1,8,0:0:0:0:
228,84,58901,1,8,0:0:0:0:
228,84,58974,1,8,0:0:0:0:
229,91,59191,1,0,0:0:0:0:
261,255,59626,1,0,0:0:0:0:
254,115,60060,1,8,0:0:0:0:
227,127,60169,1,8,0:0:0:0:
227,127,60278,1,0,0:0:0:0:
102,139,60495,1,8,0:0:0:0:
130,141,60568,1,8,0:0:0:0:
130,141,60640,1,8,0:0:0:0:
130,141,60713,1,0,0:0:0:0:
107,145,60930,1,8,0:0:0:0:
337,199,61365,1,0,0:0:0:0:
223,247,61474,1,0,0:0:0:0:
223,247,61582,1,0,0:0:0:0:
256,71,61800,1,8,0:0:0:0:
256,71,61872,1,8,0:0:0:0:
256,71,61945,1,8,0:0:0:0:
256,71,62017,1,0,0:0:0:0:
256,71,62234,1,8,0:0:0:0:
256,71,62307,1,8,0:0:0:0:
255,76,62379,1,8,0:0:0:0:
255,76,62452,1,8,0:0:0:0:
217,128,62669,1,0,0:0:0:0:
291,189,62814,1,8,0:0:0:0:
291,189,62959,1,8,0:0:0:0:
237,201,63104,1,0,0:0:0:0:
172,228,63249,1,0,0:0:0:0:
172,228,63394,1,8,0:0:0:0:
270,235,63539,1,0,0:0:0:0:
226,230,63647,1,0,0:0:0:0:
184,191,63756,1,8,0:0:0:0:
267,158,63974,1,8,0:0:0:0:
267,158,64046,1,8,0:0:0:0:
267,158,64118,1,8,0:0:0:0:
267,158,64191,1,0,0:0:0:0:
97,66,64408,1,8,0:0:0:0:
97,66,64517,1,8,0:0:0:0:
97,66,64626,1,8,0:0:0:0:
97,66,64734,1,0,0:0:0:0:
97,66,64843,1,8,0:0:0:0:
99,122,65060,1,8,0:0:0:0:
331,142,65278,1,0,0:0:0:0:
331,142,65350,1,8,0:0:0:0:
331,142,65423,1,8,0:0:0:0:
331,142,65495,1,0,0:0:0:0:
193,74,65604,1,0,0:0:0:0:
331,142,65713,1,8,0:0:0:0:
331,142,65785,1,0,0:0:0:0:
331,142,65858,1,0,0:0:0:0:
331,142,65930,1,8,0:0:0:0:
168,231,66147,1,0,0:0:0:0:
284,223,66365,1,8,0:0:0:0:
168,231,66582,1,0,0:0:0:0:
292,264,67017,1,8,0:0:0:0:
292,264,67126,1,8,0:0:0:0:
180,212,67234,1,0,0:0:0:0:
256,100,67452,1,8,0:0:0:0:
256,100,67524,1,8,0:0:0:0:
256,100,67597,1,8,0:0:0:0:
256,100,67669,1,0,0:0:0:0:
118,127,67887,1,8,0:0:0:0:
139,129,68104,1,8,0:0:0:0:
219,149,68321,1,0,0:0:0:0:
219,149,68430,1,0,0:0:0:0:
205,213,68539,1,0,0:0:0:0:
205,213,68756,1,8,0:0:0:0:
235,121,68829,1,8,0:0:0:0:
263,108,68901,1,8,0:0:0:0:
263,108,68974,1,0,0:0:0:0:
270,100,69191,1,8,0:0:0:0:
270,100,69263,1,8,0:0:0:0:
270,100,69336,1,8,0:0:0:0:
270,100,69408,1,8,0:0:0:0:
275,105,69626,1,4,0:0:0:0:
318,242,70060,1,8,0:0:0:0:
219,176,70205,1,8,0:0:0:0:
219,176,70350,1,8,0:0:0:0:
202,235,70495,1,0,0:0:0:0:
202,235,70640,1,0,0:0:0:0:
202,235,70785,1,0,0:0:0:0:
121,193,70930,1,8,0:0:0:0:
230,171,71220,1,8,0:0:0:0:
183,319,71365,1,8,0:0:0:0:
162,183,71800,1,0,0:0:0:0:
162,183,71945,1,0,0:0:0:0:
162,183,72089,1,0,0:0:0:0:
263,159,72234,1,8,0:0:0:0:
263,159,72379,1,8,0:0:0:0:
263,159,72524,1,8,0:0:0:0:
175,208,72669,1,0,0:0:0:0:
316,103,72959,1,0,0:0:0:0:
316,103,73104,1,0,0:0:0:0:
168,98,73539,1,8,0:0:0:0:
200,268,73684,1,0,0:0:0:0:
200,268,73829,1,0,0:0:0:0:
292,248,73974,1,8,0:0:0:0:
292,248,74118,1,8,0:0:0:0:
292,248,74263,1,8,0:0:0:0:
234,171,74408,1,0,0:0:0:0:
179,127,74553,1,8,0:0:0:0:
186,136,74698,1,8,0:0:0:0:
186,136,74843,1,0,0:0:0:0:
205,267,75278,1,8,0:0:0:0:
205,267,75604,1,8,0:0:0:0:
205,267,75713,1,0,0:0:0:0:
248,91,75930,1,8,0:0:0:0:
147,167,76365,1,8,0:0:0:0:
116,148,76474,1,8,0:0:0:0:
141,230,76582,1,0,0:0:0:0:
141,230,76908,1,0,0:0:0:0:
255,211,77017,1,8,0:0:0:0:
255,211,77234,1,8,0:0:0:0:
274,217,77452,1,0,0:0:0:0:
272,202,77669,1,0,0:0:0:0:
272,202,77887,1,8,0:0:0:0:
226,188,78321,1,4,0:0:0:0:
256,192,78539,12,0,80060,0:0:0:0:
271,87,80278,5,8,0:0:0:0:
271,87,80332,1,8,0:0:0:0:
161,70,80495,1,8,0:0:0:0:
161,70,80550,1,8,0:0:0:0:
161,70,80713,1,8,0:0:0:0:
161,70,80767,1,8,0:0:0:0:
22,118,80930,1,8,0:0:0:0:
22,118,80984,1,8,0:0:0:0:
158,202,81147,5,0,0:0:0:0:
284,248,81365,1,8,0:0:0:0:
158,202,81582,1,8,0:0:0:0:
284,248,81800,1,0,0:0:0:0:
334,272,82126,1,0,0:0:0:0:
149,221,82234,1,8,0:0:0:0:
221,260,82452,1,0,0:0:0:0:
207,256,82669,1,8,0:0:0:0:
215,224,82778,1,0,0:0:0:0:
199,248,82886,1,0,0:0:0:0:
229,241,83104,1,8,0:0:0:0:
228,165,83321,1,8,0:0:0:0:
122,178,83430,1,8,0:0:0:0:
122,158,83539,1,0,0:0:0:0:
264,240,83865,1,0,0:0:0:0:
264,240,83973,1,8,0:0:0:0:
212,247,84191,1,0,0:0:0:0:
212,247,84408,1,8,0:0:0:0:
212,247,84517,1,8,0:0:0:0:
212,242,84626,1,0,0:0:0:0:
212,242,84843,1,8,0:0:0:0:
244,222,85060,1,8,0:0:0:0:
244,222,85169,1,8,0:0:0:0:
244,222,85278,1,8,0:0:0:0:
361,251,85604,1,8,0:0:0:0:
324,240,85713,1,0,0:0:0:0:
194,256,85930,1,8,0:0:0:0:
194,256,86147,1,0,0:0:0:0:
186,193,86256,1,8,0:0:0:0:
186,193,86365,1,8,0:0:0:0:
180,192,86582,1,0,0:0:0:0:
178,186,86800,1,0,0:0:0:0:
177,186,86908,1,0,0:0:0:0:
179,184,87017,1,8,0:0:0:0:
179,184,87343,1,8,0:0:0:0:
178,186,87452,1,0,0:0:0:0:
230,232,87669,1,8,0:0:0:0:
243,229,87886,1,0,0:0:0:0:
243,229,87995,1,0,0:0:0:0:
240,230,88104,1,8,0:0:0:0:
275,190,88321,1,0,0:0:0:0:
272,197,88539,1,0,0:0:0:0:
272,197,88647,1,0,0:0:0:0:
256,233,88756,1,0,0:0:0:0:
272,196,89082,1,0,0:0:0:0:
71,152,89191,1,8,0:0:0:0:
237,223,89517,1,0,0:0:0:0:
201,241,89626,1,8,0:0:0:0:
198,218,89843,1,0,0:0:0:0:
155,251,90060,1,8,0:0:0:0:
155,251,90278,1,8,0:0:0:0:
188,211,90386,1,8,0:0:0:0:
182,272,90495,1,0,0:0:0:0:
307,276,90713,1,8,0:0:0:0:
253,292,90930,1,0,0:0:0:0:
261,261,91147,1,8,0:0:0:0:
261,261,91256,1,8,0:0:0:0:
261,261,91365,1,8,0:0:0:0:
296,245,91582,1,8,0:0:0:0:
220,243,91800,1,0,0:0:0:0:
217,291,91908,1,0,0:0:0:0:
217,291,92017,1,8,0:0:0:0:
236,245,92234,1,0,0:0:0:0:
256,192,92452,12,4,93974,0:0:0:0:
322,218,94191,5,4,0:0:0:0:
271,139,94408,1,12,0:0:0:0:
187,128,94626,1,12,0:0:0:0:
170,148,94843,1,4,0:0:0:0:
191,167,95060,1,0,0:0:0:0:
212,189,95169,1,0,0:0:0:0:
212,189,95278,1,8,0:0:0:0:
221,41,95423,1,0,0:0:0:0:
221,41,95495,1,8,0:0:0:0:
360,189,95713,1,4,0:0:0:0:
218,100,95930,1,0,0:0:0:0:
218,100,96039,1,0,0:0:0:0:
218,100,96147,1,8,0:0:0:0:
218,100,96365,1,0,0:0:0:0:
212,105,96582,1,8,0:0:0:0:
209,114,96691,1,8,0:0:0:0:
198,133,96800,1,0,0:0:0:0:
145,178,97017,1,8,0:0:0:0:
145,178,97089,1,8,0:0:0:0:
145,178,97162,1,8,0:0:0:0:
145,178,97234,1,0,0:0:0:0:
140,241,97343,1,0,0:0:0:0:
140,241,97452,1,8,0:0:0:0:
252,259,97669,1,0,0:0:0:0:
252,259,97887,1,0,0:0:0:0:
283,139,98104,1,8,0:0:0:0:
340,121,98321,1,8,0:0:0:0:
340,121,98394,1,8,0:0:0:0:
386,268,98466,1,0,0:0:0:0:
340,121,98611,1,8,0:0:0:0:
277,162,98756,1,0,0:0:0:0:
277,162,98829,1,0,0:0:0:0:
163,259,98901,1,8,0:0:0:0:
277,162,99046,1,8,0:0:0:0:
146,137,99191,1,0,0:0:0:0:
422,131,99408,1,0,0:0:0:0:
422,131,99481,1,0,0:0:0:0:
422,131,99553,1,0,0:0:0:0:
422,131,99626,1,8,0:0:0:0:
341,185,99734,1,8,0:0:0:0:
235,253,99843,1,0,0:0:0:0:
106,177,99952,1,8,0:0:0:0:
130,141,100060,1,0,0:0:0:0:
257,87,100278,1,0,0:0:0:0:
142,46,100387,1,8,0:0:0:0:
212,85,100495,1,0,0:0:0:0:
212,85,100568,1,8,0:0:0:0:
212,85,100640,1,8,0:0:0:0:
212,85,100713,1,0,0:0:0:0:
144,134,100821,1,0,0:0:0:0:
263,103,100930,1,8,0:0:0:0:
213,289,101147,1,0,0:0:0:0:
213,289,101365,1,0,0:0:0:0:
142,270,101474,1,0,0:0:0:0:
139,139,101582,1,0,0:0:0:0:
392,105,101800,1,8,0:0:0:0:
392,105,101872,1,8,0:0:0:0:
392,105,101945,1,8,0:0:0:0:
369,119,102017,1,0,0:0:0:0:
204,94,102126,1,0,0:0:0:0:
230,132,102234,1,8,0:0:0:0:
234,138,102307,1,8,0:0:0:0:
234,138,102379,1,8,0:0:0:0:
234,138,102452,1,8,0:0:0:0:
234,138,102669,1,4,0:0:0:0:
305,177,102887,1,0,0:0:0:0:
305,177,102959,1,0,0:0:0:0:
305,177,103032,1,0,0:0:0:0:
305,177,103104,1,8,0:0:0:0:
305,177,103321,1,0,0:0:0:0:
354,213,103539,1,8,0:0:0:0:
354,213,103647,1,8,0:0:0:0:
354,213,103756,1,0,0:0:0:0:
354,213,103865,1,0,0:0:0:0:
180,100,103974,1,8,0:0:0:0:
180,100,104046,1,8,0:0:0:0:
180,100,104118,1,8,0:0:0:0:
180,100,104191,1,0,0:0:0:0:
157,196,104300,1,0,0:0:0:0:
157,196,104408,1,8,0:0:0:0:
238,262,104626,1,0,0:0:0:0:
238,262,104843,1,0,0:0:0:0:
194,184,105060,1,8,0:0:0:0:
348,127,105278,1,8,0:0:0:0:
348,127,105350,1,8,0:0:0:0:
348,127,105423,1,0,0:0:0:0:
348,127,105568,1,8,0:0:0:0:
348,127,105713,1,0,0:0:0:0:
316,141,105785,1,0,0:0:0:0:
305,138,105858,1,8,0:0:0:0:
281,140,106003,1,8,0:0:0:0:
328,262,106147,1,0,0:0:0:0:
332,230,106365,1,0,0:0:0:0:
138,122,106437,1,0,0:0:0:0:
138,122,106510,1,0,0:0:0:0:
138,122,106582,1,8,0:0:0:0:
195,150,106691,1,8,0:0:0:0:
195,150,106800,1,0,0:0:0:0:
195,150,106908,1,8,0:0:0:0:
195,150,107017,1,0,0:0:0:0:
33,219,107234,1,0,0:0:0:0:
33,219,107343,1,8,0:0:0:0:
260,85,107452,1,0,0:0:0:0:
254,80,107524,1,8,0:0:0:0:
260,85,107597,1,8,0:0:0:0:
253,79,107669,1,0,0:0:0:0:
264,206,108104,1,0,0:0:0:0:
124,103,108321,1,8,0:0:0:0:
122,94,108539,1,8,0:0:0:0:
173,151,108756,1,8,0:0:0:0:
173,151,108974,1,0,0:0:0:0:
218,264,109082,1,0,0:0:0:0:
173,151,109191,1,8,0:0:0:0:
270,171,109626,1,4,0:0:0:0:
296,190,110495,1,8,0:0:0:0:
278,210,111365,1,0,0:0:0:0:
187,104,111800,1,0,0:0:0:0:
187,104,112234,1,8,0:0:0:0:
187,104,113104,1,0,0:0:0:0:
289,235,113974,1,8,0:0:0:0:
289,235,114843,1,0,0:0:0:0:
195,198,115278,1,0,0:0:0:0:
195,198,115387,1,0,0:0:0:0:
164,150,115713,1,8,0:0:0:0:
290,112,115785,1,8,0:0:0:0:
250,77,115858,1,8,0:0:0:0:
173,37,115930,1,0,0:0:0:0:
178,69,116147,1,8,0:0:0:0:
119,77,116220,1,8,0:0:0:0:
178,69,116292,1,8,0:0:0:0:
119,77,116365,1,8,0:0:0:0:
319,236,116582,1,0,0:0:0:0:
319,236,116727,1,8,0:0:0:0:
237,240,116872,1,8,0:0:0:0:
237,240,117017,1,0,0:0:0:0:
237,240,117162,1,0,0:0:0:0:
114,156,117307,1,8,0:0:0:0:
229,126,117452,1,0,0:0:0:0:
162,91,117560,1,0,0:0:0:0:
127,76,117669,1,8,0:0:0:0:
363,207,117887,1,8,0:0:0:0:
363,207,117959,1,8,0:0:0:0:
330,189,118032,1,8,0:0:0:0:
326,184,118104,1,0,0:0:0:0:
241,73,118321,1,8,0:0:0:0:
241,73,118430,1,8,0:0:0:0:
241,73,118539,1,8,0:0:0:0:
241,73,118647,1,0,0:0:0:0:
241,73,118756,1,8,0:0:0:0:
241,73,118974,1,8,0:0:0:0:
329,114,119191,1,0,0:0:0:0:
329,114,119263,1,8,0:0:0:0:
329,114,119336,1,8,0:0:0:0:
329,114,119408,1,0,0:0:0:0:
269,174,119517,1,0,0:0:0:0:
329,114,119626,1,8,0:0:0:0:
329,114,119698,1,0,0:0:0:0:
329,114,119771,1,0,0:0:0:0:
329,114,119843,1,8,0:0:0:0:
284,258,120060,1,0,0:0:0:0:
226,111,120278,1,8,0:0:0:0:
272,250,120495,1,0,0:0:0:0:
292,264,120930,1,8,0:0:0:0:
292,264,121039,1,8,0:0:0:0:
180,212,121147,1,0,0:0:0:0:
256,100,121365,1,8,0:0:0:0:
256,100,121437,1,8,0:0:0:0:
256,100,121510,1,8,0:0:0:0:
256,100,121582,1,0,0:0:0:0:
118,127,121800,1,8,0:0:0:0:
139,129,122017,1,8,0:0:0:0:
219,149,122234,1,0,0:0:0:0:
219,149,122343,1,0,0:0:0:0:
205,213,122452,1,0,0:0:0:0:
205,213,122669,1,8,0:0:0:0:
235,121,122742,1,8,0:0:0:0:
263,108,122814,1,8,0:0:0:0:
263,108,122887,1,0,0:0:0:0:
270,100,123104,1,8,0:0:0:0:
270,100,123176,1,8,0:0:0:0:
270,100,123249,1,8,0:0:0:0:
270,100,123321,1,8,0:0:0:0:
275,105,123539,1,4,0:0:0:0:
318,242,123973,1,8,0:0:0:0:
219,176,124118,1,8,0:0:0:0:
219,176,124263,1,8,0:0:0:0:
202,235,124408,1,0,0:0:0:0:
202,235,124517,1,0,0:0:0:0:
202,235,124626,1,0,0:0:0:0:
121,193,124843,1,8,0:0:0:0:
230,171,124916,1,8,0:0:0:0:
275,74,124988,1,8,0:0:0:0:
275,74,125060,1,0,0:0:0:0:
183,319,125278,1,8,0:0:0:0:
162,183,125713,1,0,0:0:0:0:
162,183,125858,1,0,0:0:0:0:
162,183,126002,1,0,0:0:0:0:
263,159,126147,1,8,0:0:0:0:
263,159,126220,1,8,0:0:0:0:
263,159,126292,1,8,0:0:0:0:
175,208,126365,1,0,0:0:0:0:
316,103,126582,1,8,0:0:0:0:
208,83,126655,1,8,0:0:0:0:
208,83,126727,1,8,0:0:0:0:
208,83,126800,1,8,0:0:0:0:
316,103,127017,1,0,0:0:0:0:
168,98,127452,1,8,0:0:0:0:
200,268,127597,1,0,0:0:0:0:
200,268,127742,1,0,0:0:0:0:
292,248,127887,1,8,0:0:0:0:
292,248,127995,1,8,0:0:0:0:
292,248,128104,1,0,0:0:0:0:
234,171,128321,1,8,0:0:0:0:
179,127,128394,1,8,0:0:0:0:
186,136,128466,1,8,0:0:0:0:
69,99,128539,1,8,0:0:0:0:
186,136,128756,1,0,0:0:0:0:
119,224,129191,1,8,0:0:0:0:
140,215,129300,1,0,0:0:0:0:
140,215,129517,1,0,0:0:0:0:
140,215,129626,1,8,0:0:0:0:
278,284,129698,1,8,0:0:0:0:
325,95,129771,1,8,0:0:0:0:
325,95,129843,1,0,0:0:0:0:
249,98,130060,1,8,0:0:0:0:
238,105,130133,1,8,0:0:0:0:
238,105,130205,1,8,0:0:0:0:
238,105,130278,1,8,0:0:0:0:
253,193,130495,1,0,0:0:0:0:
326,220,130930,1,0,0:0:0:0:
273,236,131365,1,8,0:0:0:0:
273,236,131474,1,8,0:0:0:0:
119,156,131582,1,0,0:0:0:0:
309,121,131800,1,8,0:0:0:0:
179,124,131872,1,8,0:0:0:0:
191,129,131945,1,8,0:0:0:0:
179,124,132017,1,0,0:0:0:0:
179,124,132234,1,8,0:0:0:0:
187,229,132452,1,8,0:0:0:0:
187,229,132669,1,0,0:0:0:0:
244,122,133104,1,8,0:0:0:0:
244,122,133176,1,8,0:0:0:0:
244,122,133249,1,8,0:0:0:0:
244,122,133321,1,0,0:0:0:0:
244,122,133539,1,8,0:0:0:0:
244,122,133611,1,8,0:0:0:0:
244,122,133684,1,8,0:0:0:0:
244,122,133756,1,8,0:0:0:0:
244,122,133974,1,0,0:0:0:0:
228,84,135713,1,12,0:0:0:0:
195,180,137452,1,0,0:0:0:0:
108,174,137506,1,0,0:0:0:0:
232,224,139191,1,0,0:0:0:0:
124,182,139300,1,0,0:0:0:0:
248,82,139408,1,8,0:0:0:0:
261,262,140930,1,8,0:0:0:0:
168,108,140984,1,8,0:0:0:0:
178,244,141800,1,0,0:0:0:0:
247,140,141854,1,0,0:0:0:0:
190,126,142669,1,0,0:0:0:0:
181,227,142742,1,0,0:0:0:0:
150,131,142814,1,8,0:0:0:0:
257,203,144408,1,8,0:0:0:0:
257,203,144481,1,8,0:0:0:0:
151,122,144553,1,0,0:0:0:0:
190,128,145278,1,8,0:0:0:0:
190,128,145350,1,8,0:0:0:0:
190,128,145423,1,8,0:0:0:0:
201,126,146147,1,0,0:0:0:0:
190,144,146220,1,0,0:0:0:0:
190,144,146292,1,8,0:0:0:0:
337,169,147887,1,8,0:0:0:0:
125,111,147941,1,8,0:0:0:0:
282,183,148756,1,0,0:0:0:0:
201,196,149626,1,12,0:0:0:0:
222,287,149952,1,0,0:0:0:0:
142,197,150060,1,8,0:0:0:0:
224,208,150278,1,0,0:0:0:0:
224,208,150387,1,0,0:0:0:0:
199,163,150495,1,8,0:0:0:0:
126,153,150604,1,0,0:0:0:0:
235,91,150821,1,0,0:0:0:0:
235,91,150930,1,8,0:0:0:0:
306,214,151147,1,8,0:0:0:0:
155,204,151256,1,8,0:0:0:0:
142,135,151365,1,0,0:0:0:0:
277,214,151691,1,0,0:0:0:0:
216,205,151800,1,8,0:0:0:0:
260,126,152017,1,0,0:0:0:0:
260,126,152126,1,0,0:0:0:0:
218,104,152234,1,8,0:0:0:0:
347,161,152452,1,0,0:0:0:0:
347,161,152524,1,0,0:0:0:0:
347,161,152597,1,0,0:0:0:0:
347,161,152669,1,8,0:0:0:0:
204,171,152778,1,8,0:0:0:0:
347,161,152887,1,0,0:0:0:0:
270,225,152995,1,0,0:0:0:0:
192,213,153104,1,8,0:0:0:0:
236,186,153430,1,0,0:0:0:0:
194,185,153539,1,8,0:0:0:0:
194,185,153756,1,0,0:0:0:0:
194,185,153865,1,0,0:0:0:0:
206,121,153974,1,8,0:0:0:0:
206,121,154082,1,0,0:0:0:0:
206,121,154300,1,0,0:0:0:0:
195,98,154408,1,8,0:0:0:0:
195,98,154626,1,8,0:0:0:0:
274,265,154734,1,8,0:0:0:0:
195,98,154843,1,0,0:0:0:0:
199,253,155169,1,0,0:0:0:0:
199,253,155278,1,8,0:0:0:0:
321,167,155495,1,0,0:0:0:0:
321,167,155604,1,0,0:0:0:0:
178,126,155713,1,8,0:0:0:0:
232,170,155930,1,0,0:0:0:0:
232,170,156003,1,0,0:0:0:0:
232,170,156075,1,0,0:0:0:0:
232,170,156147,1,8,0:0:0:0:
217,44,156256,1,8,0:0:0:0:
284,46,156365,1,0,0:0:0:0:
305,87,156474,1,8,0:0:0:0:
343,148,156582,1,0,0:0:0:0:
298,239,156800,1,0,0:0:0:0:
298,239,156908,1,0,0:0:0:0:
176,189,157017,1,8,0:0:0:0:
176,189,157234,1,8,0:0:0:0:
193,207,157452,1,0,0:0:0:0:
193,207,157669,1,0,0:0:0:0:
165,253,157778,1,0,0:0:0:0:
125,207,157887,1,8,0:0:0:0:
125,207,158104,1,8,0:0:0:0:
125,207,158321,1,0,0:0:0:0:
244,247,158539,1,8,0:0:0:0:
232,64,158647,1,8,0:0:0:0:
232,64,158756,1,8,0:0:0:0:
244,247,158974,1,8,0:0:0:0:
61,122,159191,1,0,0:0:0:0:
152,157,159408,1,8,0:0:0:0:
152,157,159517,1,8,0:0:0:0:
152,157,159626,1,8,0:0:0:0:
293,126,159734,1,8,0:0:0:0:
227,185,159843,1,0,0:0:0:0:
375,270,160060,1,8,0:0:0:0:
281,257,160169,1,8,0:0:0:0:
239,161,160278,1,0,0:0:0:0:
161,138,160387,1,8,0:0:0:0:
161,138,160495,1,8,0:0:0:0:
205,46,160604,1,0,0:0:0:0:
205,46,160713,1,8,0:0:0:0:
205,46,160821,1,0,0:0:0:0:
205,46,160930,1,8,0:0:0:0:
205,46,161039,1,8,0:0:0:0:
302,164,161147,1,0,0:0:0:0:
241,206,161256,1,8,0:0:0:0:
127,259,161365,1,8,0:0:0:0:
127,259,161474,1,0,0:0:0:0:
154,242,161582,1,8,0:0:0:0:
275,323,161800,1,4,0:0:0:0:
162,255,162017,1,0,0:0:0:0:
212,232,162343,1,0,0:0:0:0:
246,164,162452,1,8,0:0:0:0:
189,161,162669,1,0,0:0:0:0:
301,81,162887,1,0,0:0:0:0:
213,66,162959,1,0,0:0:0:0:
301,81,163032,1,0,0:0:0:0:
190,56,163104,1,8,0:0:0:0:
132,122,163539,1,4,0:0:0:0:
328,252,163756,1,0,0:0:0:0:
328,252,163865,1,0,0:0:0:0:
186,228,163974,1,8,0:0:0:0:
186,228,164191,1,0,0:0:0:0:
186,228,164300,1,0,0:0:0:0:
234,161,164408,1,8,0:0:0:0:
305,114,164517,1,0,0:0:0:0:
219,172,164734,1,0,0:0:0:0:
338,290,164843,1,8,0:0:0:0:
149,121,165060,1,8,0:0:0:0:
330,122,165278,1,0,0:0:0:0:
300,146,165350,1,0,0:0:0:0:
300,146,165423,1,0,0:0:0:0:
297,150,165495,1,8,0:0:0:0:
229,246,165604,1,8,0:0:0:0:
224,177,165713,1,0,0:0:0:0:
224,177,165785,1,0,0:0:0:0:
224,177,165858,1,0,0:0:0:0:
224,177,165930,1,0,0:0:0:0:
231,72,166147,1,8,0:0:0:0:
231,72,166220,1,8,0:0:0:0:
231,72,166292,1,8,0:0:0:0:
231,72,166365,1,8,0:0:0:0:
9,139,166474,1,8,0:0:0:0:
231,72,166582,1,0,0:0:0:0:
319,221,166800,1,0,0:0:0:0:
184,245,167017,1,12,0:0:0:0:
123,103,167234,1,8,0:0:0:0:
123,103,167343,1,8,0:0:0:0:
76,93,167452,1,0,0:0:0:0:
145,173,167669,1,8,0:0:0:0:
145,173,167778,1,8,0:0:0:0:
233,130,167887,1,0,0:0:0:0:
194,139,167995,1,8,0:0:0:0:
194,139,168213,1,8,0:0:0:0:
162,95,168321,1,0,0:0:0:0:
154,73,168539,1,8,0:0:0:0:
179,260,168647,1,8,0:0:0:0:
221,203,168756,1,0,0:0:0:0:
309,157,168974,1,8,0:0:0:0:
309,157,169028,1,8,0:0:0:0:
94,138,169191,1,8,0:0:0:0:
94,138,169245,1,8,0:0:0:0:
104,141,169408,1,8,0:0:0:0:
104,141,169463,1,8,0:0:0:0:
271,63,169626,1,8,0:0:0:0:
271,63,169734,1,8,0:0:0:0:
271,63,169843,1,8,0:0:0:0:
206,49,169952,1,8,0:0:0:0:
187,90,170060,1,0,0:0:0:0:
167,145,170278,1,8,0:0:0:0:
247,94,170387,1,8,0:0:0:0:
217,205,170495,1,4,0:0:0:0:
309,202,170713,1,0,0:0:0:0:
309,202,170821,1,0,0:0:0:0:
167,145,170930,1,8,0:0:0:0:
228,117,171147,1,0,0:0:0:0:
228,117,171256,1,0,0:0:0:0:
222,251,171365,1,8,0:0:0:0:
222,251,171474,1,0,0:0:0:0:
201,259,171691,1,0,0:0:0:0:
201,259,171800,1,8,0:0:0:0:
189,147,172017,1,0,0:0:0:0:
301,100,172234,1,8,0:0:0:0:
215,76,172307,1,8,0:0:0:0:
130,54,172379,1,8,0:0:0:0:
130,54,172452,1,0,0:0:0:0:
363,231,172560,1,0,0:0:0:0:
233,30,172669,1,8,0:0:0:0:
190,82,172742,1,0,0:0:0:0:
233,30,172814,1,0,0:0:0:0:
107,109,172887,1,8,0:0:0:0:
321,117,173104,1,0,0:0:0:0:
321,117,173176,1,0,0:0:0:0:
321,117,173249,1,0,0:0:0:0:
321,117,173321,1,8,0:0:0:0:
130,207,173539,1,8,0:0:0:0:
155,236,173611,1,8,0:0:0:0:
130,207,173684,1,8,0:0:0:0:
176,223,173756,1,0,0:0:0:0:
224,211,173974,1,12,0:0:0:0:
172,265,174191,1,8,0:0:0:0:
196,255,174300,1,8,0:0:0:0:
11,121,174408,1,0,0:0:0:0:
202,118,174626,1,8,0:0:0:0:
176,107,174734,1,8,0:0:0:0:
184,93,174843,1,0,0:0:0:0:
184,93,174952,1,8,0:0:0:0:
184,93,175169,1,8,0:0:0:0:
184,93,175278,1,0,0:0:0:0:
184,93,175495,1,8,0:0:0:0:
267,105,175713,1,0,0:0:0:0:
267,105,175785,1,8,0:0:0:0:
267,105,175858,1,8,0:0:0:0:
267,105,175930,1,0,0:0:0:0:
168,150,176039,1,0,0:0:0:0:
175,154,176147,1,8,0:0:0:0:
262,183,176365,1,8,0:0:0:0:
235,260,176582,1,8,0:0:0:0:
136,202,176691,1,8,0:0:0:0:
124,202,176800,1,0,0:0:0:0:
95,236,176908,1,0,0:0:0:0:
113,266,177017,1,8,0:0:0:0:
130,274,177126,1,0,0:0:0:0:
141,264,177234,1,8,0:0:0:0:
141,264,177343,1,8,0:0:0:0:
241,234,177452,1,4,0:0:0:0:
218,274,177778,1,0,0:0:0:0:
218,274,177887,1,8,0:0:0:0:
163,139,178104,1,0,0:0:0:0:
211,156,178213,1,0,0:0:0:0:
224,162,178321,1,8,0:0:0:0:
224,162,178430,1,0,0:0:0:0:
153,198,178539,1,0,0:0:0:0:
153,198,178756,1,8,0:0:0:0:
263,199,178974,1,8,0:0:0:0:
263,199,179082,1,8,0:0:0:0:
190,117,179191,1,0,0:0:0:0:
190,117,179408,1,0,0:0:0:0:
110,220,179517,1,0,0:0:0:0:
110,220,179626,1,8,0:0:0:0:
218,225,179843,1,0,0:0:0:0:
218,225,180060,1,8,0:0:0:0:
204,162,180169,1,8,0:0:0:0:
288,168,180278,1,0,0:0:0:0:
288,168,180387,1,0,0:0:0:0:
288,168,180495,1,8,0:0:0:0:
288,168,180604,1,0,0:0:0:0:
288,168,180713,1,8,0:0:0:0:
288,168,180821,1,8,0:0:0:0:
288,168,180930,1,8,0:0:0:0:
259,311,181147,1,8,0:0:0:0:
327,238,181256,1,8,0:0:0:0:
139,147,181365,1,0,0:0:0:0:
224,253,181582,1,8,0:0:0:0:
224,253,181691,1,8,0:0:0:0:
150,270,181800,1,0,0:0:0:0:
155,220,181908,1,8,0:0:0:0:
155,220,182017,1,8,0:0:0:0:
244,177,182234,1,0,0:0:0:0:
244,177,182452,1,0,0:0:0:0:
244,177,182560,1,0,0:0:0:0:
193,156,182669,1,8,0:0:0:0:
285,302,182887,1,8,0:0:0:0:
285,302,182995,1,8,0:0:0:0:
143,171,183104,1,0,0:0:0:0:
183,258,183321,1,8,0:0:0:0:
200,271,183539,1,0,0:0:0:0:
304,222,183647,1,8,0:0:0:0:
206,268,183756,1,0,0:0:0:0:
84,200,183865,1,0,0:0:0:0:
84,200,183974,1,8,0:0:0:0:
198,113,184082,1,0,0:0:0:0:
198,113,184191,1,8,0:0:0:0:
196,214,184300,1,8,0:0:0:0:
196,214,184408,1,0,0:0:0:0:
187,270,184734,1,0,0:0:0:0:
108,160,184843,1,8,0:0:0:0:
109,170,185060,1,8,0:0:0:0:
161,168,185169,1,8,0:0:0:0:
280,204,185278,1,0,0:0:0:0:
280,204,185495,1,0,0:0:0:0:
280,204,185713,1,8,0:0:0:0:
255,216,185930,1,0,0:0:0:0:
255,216,186039,1,0,0:0:0:0:
189,179,186147,1,0,0:0:0:0:
158,150,186256,1,0,0:0:0:0:
158,150,186365,1,8,0:0:0:0:
221,286,186582,1,0,0:0:0:0:
221,286,186800,1,8,0:0:0:0:
210,155,186908,1,8,0:0:0:0:
123,176,187017,1,8,0:0:0:0:
192,190,187234,1,0,0:0:0:0:
192,190,187452,1,8,0:0:0:0:
192,190,187669,1,8,0:0:0:0:
255,178,187778,1,8,0:0:0:0:
123,176,187887,1,0,0:0:0:0:
187,227,187995,1,0,0:0:0:0:
167,194,188104,1,8,0:0:0:0:
200,175,188321,1,0,0:0:0:0:
200,175,188539,1,0,0:0:0:0:
246,178,188647,1,0,0:0:0:0:
193,247,188756,1,8,0:0:0:0:
149,143,188865,1,8,0:0:0:0:
144,139,188974,1,0,0:0:0:0:
144,139,189082,1,0,0:0:0:0:
141,134,189191,1,8,0:0:0:0:
141,133,189300,1,0,0:0:0:0:
141,133,189408,1,8,0:0:0:0:
146,230,189626,1,0,0:0:0:0:
271,288,189843,1,0,0:0:0:0:
226,242,189952,1,0,0:0:0:0:
160,129,190060,1,8,0:0:0:0:
160,128,190278,1,0,0:0:0:0:
149,130,190495,1,8,0:0:0:0:
149,129,190604,1,8,0:0:0:0:
176,93,190713,1,0,0:0:0:0:
176,93,190821,1,0,0:0:0:0:
295,135,190930,1,8,0:0:0:0:
215,194,191039,1,0,0:0:0:0:
215,194,191147,1,8,0:0:0:0:
195,151,191256,1,8,0:0:0:0:
202,123,191365,1,4,0:0:0:0:
274,195,191691,1,0,0:0:0:0:
213,171,191800,1,8,0:0:0:0:
214,171,192017,1,0,0:0:0:0:
214,171,192126,1,0,0:0:0:0:
175,150,192234,1,8,0:0:0:0:
188,141,192343,1,0,0:0:0:0:
167,165,192560,1,0,0:0:0:0:
166,192,192669,1,8,0:0:0:0:
166,192,192887,1,8,0:0:0:0:
166,192,192995,1,8,0:0:0:0:
301,209,193104,1,0,0:0:0:0:
249,83,193176,1,0,0:0:0:0:
232,81,193249,1,0,0:0:0:0:
201,79,193321,1,8,0:0:0:0:
35,74,193430,1,8,0:0:0:0:
358,130,193539,1,0,0:0:0:0:
358,130,193611,1,0,0:0:0:0:
358,130,193684,1,0,0:0:0:0:
358,130,193756,1,0,0:0:0:0:
276,187,193974,1,8,0:0:0:0:
276,187,194046,1,8,0:0:0:0:
276,187,194118,1,8,0:0:0:0:
276,187,194191,1,8,0:0:0:0:
143,183,194300,1,8,0:0:0:0:
143,159,194408,1,0,0:0:0:0:
297,221,194626,1,8,0:0:0:0:
216,242,194843,1,0,0:0:0:0:
216,242,195060,1,8,0:0:0:0:
147,236,195169,1,8,0:0:0:0:
138,250,195278,1,8,0:0:0:0:
173,162,195495,1,8,0:0:0:0:
105,114,195604,1,8,0:0:0:0:
192,88,195713,1,0,0:0:0:0:
359,170,195930,1,8,0:0:0:0:
359,170,196039,1,0,0:0:0:0:
359,170,196256,1,0,0:0:0:0:
359,170,196365,1,8,0:0:0:0:
359,170,196474,1,8,0:0:0:0:
359,170,196582,1,0,0:0:0:0:
264,112,196800,1,8,0:0:0:0:
264,112,196854,1,8,0:0:0:0:
264,112,197017,1,8,0:0:0:0:
264,112,197071,1,8,0:0:0:0:
264,112,197234,1,8,0:0:0:0:
264,112,197289,1,8,0:0:0:0:
264,112,197452,1,8,0:0:0:0:
264,112,197506,1,8,0:0:0:0:
162,199,197669,1,8,0:0:0:0:
173,192,197724,1,8,0:0:0:0:
360,255,197887,1,0,0:0:0:0:
159,106,198104,1,8,0:0:0:0:
159,106,198213,1,8,0:0:0:0:
157,137,198321,1,0,0:0:0:0:
262,247,198647,1,0,0:0:0:0:
209,212,198756,1,8,0:0:0:0:
135,236,198974,1,8,0:0:0:0:
135,236,199082,1,8,0:0:0:0:
162,251,199191,1,0,0:0:0:0:
162,251,199408,1,0,0:0:0:0:
162,251,199626,1,8,0:0:0:0:
219,190,199734,1,8,0:0:0:0:
219,190,199843,1,8,0:0:0:0:
307,112,200060,1,0,0:0:0:0:
307,112,200133,1,0,0:0:0:0:
320,233,200205,1,0,0:0:0:0:
183,88,200278,1,8,0:0:0:0:
137,153,200387,1,8,0:0:0:0:
224,46,200495,1,0,0:0:0:0:
229,153,200568,1,8,0:0:0:0:
359,66,200640,1,8,0:0:0:0:
359,66,200713,1,0,0:0:0:0:
433,235,200930,1,0,0:0:0:0:
204,47,201003,1,0,0:0:0:0:
204,47,201075,1,0,0:0:0:0:
204,49,201147,1,8,0:0:0:0:
234,116,201365,1,8,0:0:0:0:
234,116,201437,1,8,0:0:0:0:
234,116,201510,1,8,0:0:0:0:
234,116,201582,1,0,0:0:0:0:
235,122,201800,1,8,0:0:0:0:
215,198,202234,1,0,0:0:0:0:
126,133,202452,1,8,0:0:0:0:
148,122,202669,1,0,0:0:0:0:
141,167,202778,1,0,0:0:0:0:
157,132,202887,1,8,0:0:0:0:
297,199,202995,1,0,0:0:0:0:
181,235,203104,1,8,0:0:0:0:
220,233,203321,1,0,0:0:0:0:
205,137,203539,1,0,0:0:0:0:
349,161,204626,1,8,0:0:0:0:
349,161,204734,1,8,0:0:0:0:
264,133,204843,1,8,0:0:0:0:
200,259,205278,1,8,0:0:0:0:
200,259,205713,1,8,0:0:0:0:
200,259,206147,1,0,0:0:0:0:
200,259,206474,1,8,0:0:0:0:
175,200,206800,1,0,0:0:0:0:
175,200,207017,1,0,0:0:0:0:
231,115,208756,1,8,0:0:0:0:
231,115,209191,1,8,0:0:0:0:
231,115,209626,1,0,0:0:0:0:
231,115,209952,1,0,0:0:0:0:
231,115,210278,1,8,0:0:0:0:
231,115,210495,1,8,0:0:0:0:
264,130,211147,1,8,0:0:0:0:
264,130,211365,1,0,0:0:0:0:
355,248,211800,1,0,0:0:0:0:
231,196,212234,1,8,0:0:0:0:
231,196,212669,1,8,0:0:0:0:
231,196,213104,1,0,0:0:0:0:
231,196,213430,1,8,0:0:0:0:
231,196,213756,1,0,0:0:0:0:
231,196,213974,1,0,0:0:0:0:
301,248,214843,1,0,0:0:0:0:
231,235,215713,1,8,0:0:0:0:
231,235,216147,1,8,0:0:0:0:
231,235,216582,1,0,0:0:0:0:
231,235,216908,1,0,0:0:0:0:
231,235,217234,1,8,0:0:0:0:
231,235,217452,1,8,0:0:0:0:
224,183,218321,1,0,0:0:0:0:
168,116,219191,1,0,0:0:0:0:
168,116,219263,1,0,0:0:0:0:
168,116,219336,1,8,0:0:0:0:
168,116,219408,1,8,0:0:0:0:
228,173,221365,1,8,0:0:0:0:
