osu file format v14

[General]
AudioFilename: audio.mp3
AudioLeadIn: 0
PreviewTime: 176800
Countdown: 0
SampleSet: Normal
StackLeniency: 0.7
Mode: 1
LetterboxInBreaks: 0
WidescreenStoryboard: 1

[Editor]
Bookmarks: 61,27887,69626,95713,109626,133974,149626,163539,201800,204626,221364
DistanceSpacing: 0.8
BeatDivisor: 4
GridSize: 4
TimelineZoom: 1

[Metadata]
Title:Otome Kaibou feat. Hatsune Miku (TeddyLoid Allies Remix)
TitleUnicode:乙女解剖 feat. 初音ミク (TeddyLoid Alllies Remix)
Artist:DECO*27
ArtistUnicode:DECO*27
Creator:Chromoxx
Version:Futsuu
Source:
Tags:midnaait jerry vocaloid japanese deco27 おとめかいぼう はつねみく otoiro yuma saito girl dissection
BeatmapID:2410311
BeatmapSetID:1150556

[Difficulty]
HPDrainRate:7
CircleSize:5
OverallDifficulty:4
ApproachRate:5
SliderMultiplier:1.4
SliderTickRate:1

[Events]
//Background and Video events
Video,0,"otome kaibou.mp4" S,0,0,,0.67 MY,0,0,,128
0,0,"otome+kaibou.jpg",0,250
//Break Periods
//Storyboard Layer 0 (Background)
//Storyboard Layer 1 (Fail)
//Storyboard Layer 2 (Pass)
//Storyboard Layer 3 (Foreground)
//Storyboard Layer 4 (Overlay)
//Storyboard Sound Samples

[TimingPoints]
61,434.782608695652,4,1,0,70,1,0
27832,-100,4,1,0,80,0,0
69843,-100,4,1,0,70,0,0
95658,-100,4,1,0,90,0,0
95713,-100,4,1,0,90,0,1
107887,-100,4,1,0,80,0,0
134191,-100,4,1,0,70,0,0
149571,-100,4,1,0,80,0,0
163430,-100,4,1,0,90,0,0
163539,-100,4,1,0,90,0,1
202017,-100,4,1,0,80,0,1
204408,-100,4,1,0,70,0,1
205278,-100,4,1,0,70,0,0
220930,434.782608695652,4,1,0,70,1,8

[HitObjects]
351,189,61,5,8,0:0:0:0:
232,177,1800,1,8,0:0:0:0:
136,205,3539,1,0,0:0:0:0:
238,159,5278,1,8,0:0:0:0:
238,159,6147,1,0,0:0:0:0:
178,171,7017,1,8,0:0:0:0:
208,184,8756,1,0,0:0:0:0:
207,190,9626,1,0,0:0:0:0:
190,190,10495,1,8,0:0:0:0:
190,190,12234,1,0,0:0:0:0:
193,172,13104,1,0,0:0:0:0:
269,207,13974,1,0,0:0:0:0:
253,208,15713,1,8,0:0:0:0:
239,208,16582,1,0,0:0:0:0:
236,214,17017,1,0,0:0:0:0:
236,214,17452,1,8,0:0:0:0:
236,214,18321,1,0,0:0:0:0:
166,213,19191,1,8,0:0:0:0:
290,224,20060,1,8,0:0:0:0:
191,251,20930,1,0,0:0:0:0:
258,184,21800,1,8,0:0:0:0:
258,184,22669,1,0,0:0:0:0:
258,184,23104,1,0,0:0:0:0:
258,184,23539,1,8,0:0:0:0:
180,216,23974,1,8,0:0:0:0:
258,184,24408,1,0,0:0:0:0:
315,245,26147,1,8,0:0:0:0:
261,225,27887,1,4,0:0:0:0:
187,197,28756,1,8,0:0:0:0:
269,235,29408,1,8,0:0:0:0:
244,181,29843,1,0,0:0:0:0:
244,181,30060,1,0,0:0:0:0:
175,186,30495,1,8,0:0:0:0:
175,186,31365,1,0,0:0:0:0:
363,270,31800,1,8,0:0:0:0:
233,258,32017,1,8,0:0:0:0:
233,258,32234,1,0,0:0:0:0:
233,258,32669,1,8,0:0:0:0:
295,177,32887,1,8,0:0:0:0:
295,177,33321,1,0,0:0:0:0:
295,177,33539,1,0,0:0:0:0:
174,157,34191,1,0,0:0:0:0:
295,177,34517,1,0,0:0:0:0:
83,102,34843,1,0,0:0:0:0:
199,238,35713,1,8,0:0:0:0:
241,280,36365,1,8,0:0:0:0:
241,280,36800,1,0,0:0:0:0:
241,280,37017,1,0,0:0:0:0:
241,280,37452,1,8,0:0:0:0:
121,234,38321,1,0,0:0:0:0:
289,285,38539,1,0,0:0:0:0:
215,170,38756,1,8,0:0:0:0:
215,170,39191,1,0,0:0:0:0:
215,170,39626,1,8,0:0:0:0:
215,170,39843,1,8,0:0:0:0:
60,152,41800,1,0,0:0:0:0:
252,181,42669,1,8,0:0:0:0:
252,181,43539,1,0,0:0:0:0:
252,181,43974,1,0,0:0:0:0:
252,181,44408,1,8,0:0:0:0:
166,117,44626,1,8,0:0:0:0:
166,117,44843,1,0,0:0:0:0:
344,144,45278,1,8,0:0:0:0:
272,152,46147,1,0,0:0:0:0:
172,110,47017,1,8,0:0:0:0:
190,232,47452,1,8,0:0:0:0:
190,232,47887,1,0,0:0:0:0:
190,232,48104,1,0,0:0:0:0:
174,92,48321,1,8,0:0:0:0:
174,92,48756,1,0,0:0:0:0:
250,67,49626,1,8,0:0:0:0:
250,67,50060,1,8,0:0:0:0:
250,67,50495,1,0,0:0:0:0:
320,184,50713,1,0,0:0:0:0:
320,184,50930,1,0,0:0:0:0:
215,186,51365,1,8,0:0:0:0:
152,75,51582,1,8,0:0:0:0:
152,75,51800,1,8,0:0:0:0:
286,194,52234,1,0,0:0:0:0:
286,194,53104,1,8,0:0:0:0:
364,236,53539,1,8,0:0:0:0:
283,242,53974,1,0,0:0:0:0:
224,154,54408,1,0,0:0:0:0:
201,270,54843,1,8,0:0:0:0:
131,83,55060,1,0,0:0:0:0:
131,83,55278,1,8,0:0:0:0:
131,83,55713,1,0,0:0:0:0:
282,138,56582,1,8,0:0:0:0:
241,160,57452,1,0,0:0:0:0:
241,160,57887,1,0,0:0:0:0:
232,152,58321,1,8,0:0:0:0:
232,152,58539,1,8,0:0:0:0:
232,152,58756,1,0,0:0:0:0:
232,152,59191,1,8,0:0:0:0:
172,106,60060,1,0,0:0:0:0:
172,106,60930,1,8,0:0:0:0:
172,106,61365,1,8,0:0:0:0:
172,106,61800,1,0,0:0:0:0:
172,106,62017,1,0,0:0:0:0:
172,106,62234,1,8,0:0:0:0:
172,106,62669,1,0,0:0:0:0:
228,172,63539,1,8,0:0:0:0:
228,172,63974,1,8,0:0:0:0:
221,206,64408,1,0,0:0:0:0:
311,197,64626,1,0,0:0:0:0:
126,57,64843,1,0,0:0:0:0:
207,213,65278,1,8,0:0:0:0:
290,72,65495,1,8,0:0:0:0:
290,72,65713,1,8,0:0:0:0:
140,128,66147,1,0,0:0:0:0:
318,208,67017,1,8,0:0:0:0:
217,184,67452,1,8,0:0:0:0:
260,113,67887,1,0,0:0:0:0:
264,190,68321,1,0,0:0:0:0:
264,190,68756,1,8,0:0:0:0:
264,190,68974,1,0,0:0:0:0:
264,190,69191,1,8,0:0:0:0:
175,172,69626,1,4,0:0:0:0:
212,95,71365,1,8,0:0:0:0:
241,200,73104,1,0,0:0:0:0:
236,193,74843,1,0,0:0:0:0:
72,187,75278,1,0,0:0:0:0:
72,187,75713,1,8,0:0:0:0:
214,184,76582,1,8,0:0:0:0:
296,132,78321,1,0,0:0:0:0:
114,91,80278,5,8,0:0:0:0:
114,91,80495,1,8,0:0:0:0:
114,91,80713,1,8,0:0:0:0:
114,91,80930,1,8,0:0:0:0:
269,207,81800,1,4,0:0:0:0:
253,208,83539,1,8,0:0:0:0:
239,208,84408,1,0,0:0:0:0:
236,214,84843,1,0,0:0:0:0:
236,214,85278,1,8,0:0:0:0:
236,214,86147,1,0,0:0:0:0:
166,213,87017,1,8,0:0:0:0:
352,222,87887,1,8,0:0:0:0:
191,251,88756,1,0,0:0:0:0:
258,184,89626,1,8,0:0:0:0:
258,184,90495,1,0,0:0:0:0:
258,184,90930,1,0,0:0:0:0:
258,184,91365,1,8,0:0:0:0:
180,216,91800,1,8,0:0:0:0:
258,184,92234,1,0,0:0:0:0:
242,187,93974,5,8,0:0:0:0:
242,187,95713,1,4,0:0:0:0:
283,269,96582,1,8,0:0:0:0:
148,100,97234,1,8,0:0:0:0:
296,103,97669,1,0,0:0:0:0:
296,103,97887,1,0,0:0:0:0:
169,93,98321,1,8,0:0:0:0:
212,236,98539,1,0,0:0:0:0:
212,236,98756,1,8,0:0:0:0:
155,218,99191,1,0,0:0:0:0:
307,246,99626,1,8,0:0:0:0:
335,110,99843,1,0,0:0:0:0:
211,162,100278,1,8,0:0:0:0:
211,162,100495,1,8,0:0:0:0:
211,162,100713,1,8,0:0:0:0:
300,223,101147,1,0,0:0:0:0:
300,223,101365,1,0,0:0:0:0:
350,217,101800,1,8,0:0:0:0:
219,109,102669,1,0,0:0:0:0:
219,109,103539,1,8,0:0:0:0:
219,109,104191,1,8,0:0:0:0:
219,109,104626,1,0,0:0:0:0:
219,109,104843,1,0,0:0:0:0:
213,109,105278,1,8,0:0:0:0:
204,229,105495,1,0,0:0:0:0:
204,229,105713,1,8,0:0:0:0:
173,207,106147,1,0,0:0:0:0:
173,207,106582,1,8,0:0:0:0:
288,264,106800,1,0,0:0:0:0:
288,264,107234,1,8,0:0:0:0:
288,264,107452,1,8,0:0:0:0:
288,264,107669,1,8,0:0:0:0:
190,106,109626,1,0,0:0:0:0:
190,106,110495,1,8,0:0:0:0:
268,119,111365,1,0,0:0:0:0:
268,119,111800,1,0,0:0:0:0:
268,119,112234,1,8,0:0:0:0:
136,181,113104,1,0,0:0:0:0:
123,167,113974,1,8,0:0:0:0:
123,167,114843,1,0,0:0:0:0:
260,180,115278,1,0,0:0:0:0:
260,180,115713,1,8,0:0:0:0:
352,304,115930,1,0,0:0:0:0:
183,103,116147,1,8,0:0:0:0:
183,103,116582,1,0,0:0:0:0:
197,241,117452,1,8,0:0:0:0:
197,241,117887,1,8,0:0:0:0:
197,241,118321,1,0,0:0:0:0:
197,241,118539,1,0,0:0:0:0:
197,241,118756,1,0,0:0:0:0:
197,241,119191,1,8,0:0:0:0:
197,241,119408,1,8,0:0:0:0:
197,241,119626,1,8,0:0:0:0:
197,241,120060,1,0,0:0:0:0:
237,175,120930,1,8,0:0:0:0:
179,130,121365,1,8,0:0:0:0:
179,130,121800,1,0,0:0:0:0:
179,130,122234,1,0,0:0:0:0:
179,130,122669,1,8,0:0:0:0:
179,130,122887,1,0,0:0:0:0:
179,130,123104,1,8,0:0:0:0:
142,118,123539,1,0,0:0:0:0:
118,153,124408,1,8,0:0:0:0:
254,183,125278,1,8,0:0:0:0:
254,183,125713,1,0,0:0:0:0:
254,183,126147,1,8,0:0:0:0:
180,177,127017,1,0,0:0:0:0:
178,145,127887,1,8,0:0:0:0:
246,89,128756,1,8,0:0:0:0:
246,89,129191,1,0,0:0:0:0:
297,180,129626,1,8,0:0:0:0:
297,180,130495,1,0,0:0:0:0:
243,174,131365,1,8,0:0:0:0:
135,102,132234,1,0,0:0:0:0:
265,145,132669,1,0,0:0:0:0:
265,145,133104,1,8,0:0:0:0:
304,287,133321,1,0,0:0:0:0:
265,145,133539,1,8,0:0:0:0:
265,145,133974,1,0,0:0:0:0:
264,192,135713,1,12,0:0:0:0:
284,135,137452,1,0,0:0:0:0:
217,116,139191,1,0,0:0:0:0:
159,114,140930,1,8,0:0:0:0:
188,128,141800,1,0,0:0:0:0:
195,155,142669,1,0,0:0:0:0:
255,184,144408,1,0,0:0:0:0:
206,156,145278,1,0,0:0:0:0:
206,156,146147,1,8,0:0:0:0:
199,153,147887,1,8,0:0:0:0:
187,150,148756,1,0,0:0:0:0:
226,172,149626,1,4,0:0:0:0:
226,172,150495,1,8,0:0:0:0:
272,153,150930,1,0,0:0:0:0:
272,153,151365,1,8,0:0:0:0:
185,220,152234,1,0,0:0:0:0:
185,220,152669,1,0,0:0:0:0:
367,142,152887,1,0,0:0:0:0:
248,61,153104,1,8,0:0:0:0:
217,174,153974,1,0,0:0:0:0:
217,174,154408,1,8,0:0:0:0:
217,174,154843,1,0,0:0:0:0:
217,174,155713,1,8,0:0:0:0:
211,168,156147,1,8,0:0:0:0:
211,168,156365,1,8,0:0:0:0:
211,168,156582,1,0,0:0:0:0:
261,159,157452,1,8,0:0:0:0:
244,150,157887,1,8,0:0:0:0:
247,216,158104,1,0,0:0:0:0:
247,216,158321,1,8,0:0:0:0:
247,216,158756,1,8,0:0:0:0:
228,84,158974,1,8,0:0:0:0:
228,84,159191,1,8,0:0:0:0:
228,84,159626,1,8,0:0:0:0:
145,165,160060,2,4,L|189:164,16,35
239,240,162017,1,0,0:0:0:0:
271,220,162452,1,8,0:0:0:0:
245,149,163104,1,8,0:0:0:0:
184,129,163539,1,4,0:0:0:0:
227,234,163974,1,8,0:0:0:0:
227,234,164408,1,0,0:0:0:0:
227,234,164734,1,8,0:0:0:0:
227,234,165060,1,8,0:0:0:0:
242,76,165278,1,0,0:0:0:0:
242,76,165713,1,8,0:0:0:0:
284,171,166147,1,0,0:0:0:0:
284,171,166365,1,8,0:0:0:0:
284,171,166582,1,0,0:0:0:0:
267,161,167017,1,8,0:0:0:0:
221,172,167452,1,0,0:0:0:0:
292,215,167887,1,8,0:0:0:0:
292,215,168213,1,0,0:0:0:0:
292,215,168539,1,0,0:0:0:0:
292,215,168756,1,8,0:0:0:0:
191,137,169191,1,8,0:0:0:0:
171,181,169408,1,8,0:0:0:0:
191,137,169626,1,0,0:0:0:0:
245,224,170495,1,0,0:0:0:0:
245,224,170930,1,8,0:0:0:0:
245,224,171365,1,0,0:0:0:0:
245,224,171691,1,8,0:0:0:0:
245,224,172017,1,8,0:0:0:0:
159,148,172234,1,4,0:0:0:0:
245,224,172669,1,8,0:0:0:0:
278,91,172887,1,8,0:0:0:0:
278,91,173104,1,0,0:0:0:0:
170,86,173539,1,0,0:0:0:0:
170,86,173974,1,8,0:0:0:0:
170,86,174408,1,0,0:0:0:0:
294,184,174843,1,8,0:0:0:0:
294,184,175169,1,0,0:0:0:0:
285,179,175495,1,0,0:0:0:0:
285,179,175713,1,8,0:0:0:0:
278,175,176147,1,8,0:0:0:0:
272,174,176582,1,8,0:0:0:0:
183,195,177452,1,4,0:0:0:0:
183,195,178321,1,8,0:0:0:0:
224,142,178756,1,0,0:0:0:0:
224,142,179191,1,8,0:0:0:0:
224,142,179626,1,8,0:0:0:0:
224,142,180060,1,0,0:0:0:0:
224,142,180495,1,0,0:0:0:0:
224,142,180713,1,0,0:0:0:0:
279,230,180930,1,8,0:0:0:0:
279,230,181800,1,0,0:0:0:0:
206,138,182234,1,8,0:0:0:0:
279,230,182669,1,0,0:0:0:0:
279,230,183104,1,0,0:0:0:0:
279,230,183539,1,8,0:0:0:0:
176,193,183974,1,8,0:0:0:0:
176,193,184191,1,8,0:0:0:0:
176,193,184408,1,0,0:0:0:0:
294,155,184843,1,8,0:0:0:0:
234,84,185278,1,0,0:0:0:0:
358,155,185495,1,0,0:0:0:0:
234,84,185713,1,0,0:0:0:0:
190,134,186147,1,8,0:0:0:0:
190,134,186582,1,0,0:0:0:0:
190,134,187017,1,8,0:0:0:0:
289,255,187887,1,0,0:0:0:0:
214,95,188321,1,8,0:0:0:0:
182,213,188756,1,0,0:0:0:0:
216,127,188974,1,0,0:0:0:0:
214,95,189191,1,8,0:0:0:0:
214,95,189626,1,0,0:0:0:0:
214,95,190060,1,8,0:0:0:0:
308,199,190495,1,0,0:0:0:0:
196,225,191365,1,4,0:0:0:0:
160,226,191800,1,8,0:0:0:0:
233,270,192234,1,0,0:0:0:0:
263,226,192560,1,8,0:0:0:0:
236,139,192887,1,8,0:0:0:0:
263,226,193104,1,0,0:0:0:0:
236,139,193539,1,8,0:0:0:0:
112,145,193974,1,0,0:0:0:0:
112,145,194191,1,8,0:0:0:0:
112,145,194408,1,0,0:0:0:0:
330,242,194843,1,8,0:0:0:0:
330,242,195278,1,0,0:0:0:0:
319,230,195713,1,8,0:0:0:0:
165,121,196039,1,0,0:0:0:0:
165,121,196365,1,0,0:0:0:0:
165,121,196582,1,8,0:0:0:0:
183,106,197017,1,8,0:0:0:0:
198,242,197234,1,8,0:0:0:0:
233,184,197452,1,8,0:0:0:0:
198,242,198321,1,0,0:0:0:0:
306,92,198756,1,8,0:0:0:0:
306,92,199191,1,0,0:0:0:0:
306,92,199517,1,8,0:0:0:0:
306,92,199843,1,8,0:0:0:0:
306,92,200060,1,0,0:0:0:0:
229,164,200495,1,8,0:0:0:0:
171,94,200713,1,0,0:0:0:0:
171,94,200930,1,8,0:0:0:0:
171,94,201365,1,8,0:0:0:0:
171,94,201800,1,0,0:0:0:0:
334,209,203321,1,0,0:0:0:0:
334,209,203539,1,0,0:0:0:0:
261,110,205278,1,8,0:0:0:0:
255,107,206147,1,0,0:0:0:0:
255,107,206800,1,0,0:0:0:0:
171,164,207017,1,0,0:0:0:0:
296,201,208756,1,8,0:0:0:0:
296,201,209626,1,0,0:0:0:0:
296,201,210278,1,8,0:0:0:0:
296,201,210495,1,8,0:0:0:0:
225,107,211365,1,0,0:0:0:0:
208,163,212234,1,8,0:0:0:0:
208,171,213104,1,0,0:0:0:0:
208,171,213756,1,0,0:0:0:0:
208,171,213974,1,0,0:0:0:0:
278,176,214843,1,0,0:0:0:0:
217,198,215713,1,8,0:0:0:0:
217,198,216582,1,0,0:0:0:0:
217,198,217234,1,8,0:0:0:0:
217,198,217452,1,8,0:0:0:0:
217,198,218321,1,0,0:0:0:0:
217,198,219191,1,8,0:0:0:0:
210,184,221364,1,8,0:0:0:0:
