osu file format v14

[General]
AudioFilename: audio.mp3
AudioLeadIn: 0
PreviewTime: 68472
Countdown: 0
SampleSet: Soft
StackLeniency: 0.7
Mode: 0
LetterboxInBreaks: 0
WidescreenStoryboard: 0

[Editor]
Bookmarks: 1140,13678,28006,42335,56663,69200,96066,110394,124723,137260,164126,180245,194573,207111,219424
DistanceSpacing: 1.1
BeatDivisor: 4
GridSize: 16
TimelineZoom: 1.5

[Metadata]
Title:Otome Dissection feat. Hatsune Miku
TitleUnicode:乙女解剖 feat. 初音ミク
Artist:DECO*27
ArtistUnicode:DECO*27
Creator:YelloJello
Version:celerih's Insane
Source:
Tags:thicc bish celerih hhjkl deco 27 kaidou kaibou vocaloid japanese novelty
BeatmapID:2038244
BeatmapSetID:913720

[Difficulty]
HPDrainRate:5
CircleSize:4
OverallDifficulty:8.3
ApproachRate:8.7
SliderMultiplier:1.8
SliderTickRate:1

[Events]
//Background and Video events
0,0,"Celerih.jpg",0,0
//Break Periods
//Storyboard Layer 0 (Background)
//Storyboard Layer 1 (Fail)
//Storyboard Layer 2 (Pass)
//Storyboard Layer 3 (Foreground)
//Storyboard Layer 4 (Overlay)
//Storyboard Sound Samples

[TimingPoints]
1140,447.761194029851,4,2,1,70,1,0
13229,-71.4285714285714,4,2,1,70,0,0
13257,-71.4285714285714,4,2,2,100,0,0
13565,-71.4285714285714,4,2,1,5,0,0
13677,-83.3333333333333,4,2,1,70,0,0
20393,-62.5,4,2,1,70,0,0
20729,-62.5,4,2,1,5,0,0
20841,-83.3333333333333,4,2,1,70,0,0
28005,-125,4,2,1,70,0,0
35057,-125,4,2,1,5,0,0
35169,-125,4,2,1,70,0,0
42334,-100,4,2,1,70,0,0
54871,-100,4,2,2,70,0,0
55542,-100,4,2,1,70,0,0
68751,-62.5,4,2,1,70,0,0
68779,-62.5,4,2,2,100,0,0
69087,-62.5,4,2,1,5,0,0
69199,-71.4285714285714,4,2,1,70,0,1
83108,-71.4285714285714,4,2,2,100,0,1
83304,-71.4285714285714,4,2,1,70,0,1
96065,-100,4,2,1,70,0,0
110393,-100,4,2,2,70,0,0
111289,-100,4,2,1,70,0,0
136811,-62.5,4,2,1,70,0,0
136839,-62.5,4,2,2,100,0,0
137147,-62.5,4,2,1,5,0,0
137259,-71.4285714285714,4,2,1,70,0,1
151167,-71.4285714285714,4,2,2,100,0,1
151363,-71.4285714285714,4,2,1,70,0,1
164125,-83.3333333333333,4,2,1,70,0,0
178341,-83.3333333333333,4,2,1,5,0,0
178453,-250,4,2,1,70,0,0
180244,-100,4,2,1,70,0,0
194125,-58.8235294117647,4,2,1,70,0,0
194153,-58.8235294117647,4,2,2,70,0,0
194460,-58.8235294117647,4,2,1,5,0,0
194572,-66.6666666666667,4,2,1,70,0,1
206662,-58.8235294117647,4,2,1,70,0,1
206998,-58.8235294117647,4,2,1,5,0,1
207110,-83.3333333333333,4,2,1,70,0,0

[Colours]
Combo1 : 100,140,155
Combo2 : 255,213,128
Combo3 : 238,153,102

[HitObjects]
176,110,468,5,2,0:0:0:0:
174,137,692,1,0,0:0:0:0:
173,163,916,1,0,0:0:0:0:
348,313,1140,6,0,L|354:349,3,30,2|2|2|2,0:0|0:0|0:0|0:0,0:0:0:0:
452,208,1587,2,0,L|454:148,1,45,2|0,0:0|0:0,0:0:0:0:
465,216,1811,2,0,L|467:156,1,45,0|0,0:0|0:0,0:0:0:0:
481,146,2035,2,0,L|479:242,1,90,2|2,0:0|0:0,0:0:0:0:
308,147,2483,1,2,0:0:0:0:
373,81,2707,6,0,B|369:122|346:185|328:140|303:202|297:254,1,180,2|2,0:0|0:0,0:0:0:0:
376,318,3378,1,0,0:0:0:0:
242,81,3602,5,2,0:0:0:0:
259,167,3826,1,2,0:0:0:0:
229,75,4050,5,2,0:0:0:0:
274,180,4274,1,2,0:0:0:0:
323,32,4498,1,2,0:0:0:0:
161,188,4722,6,0,L|116:183,3,30,2|0|0|0,0:0|0:0|0:0|0:0,0:0:0:0:
70,104,5169,2,0,L|14:111,1,45,2|0,0:0|0:0,0:0:0:0:
61,94,5393,2,0,L|5:101,1,45,0|0,0:0|0:0,0:0:0:0:
14,79,5617,1,2,0:0:0:0:
147,151,5841,1,2,0:0:0:0:
163,144,5953,1,0,0:0:0:0:
176,132,6065,1,2,0:0:0:0:
134,60,6289,6,0,P|145:129|160:248,1,180,2|2,0:0|0:0,0:0:0:0:
69,350,6960,1,0,0:0:0:0:
76,179,7184,2,0,P|72:147|67:115,1,45,2|0,0:0|0:0,0:0:0:0:
47,253,7408,5,2,0:0:0:0:
81,336,7632,1,2,0:0:0:0:
164,302,7856,1,2,0:0:0:0:
130,219,8080,2,0,P|134:171|141:121,1,90,2|0,0:0|0:0,0:0:0:0:
360,13,8640,5,0,0:0:0:0:
344,18,8751,2,0,P|329:65|317:127,1,90,2|0,0:0|0:0,0:0:0:0:
452,179,9199,2,0,P|421:137|397:89,1,90,2|0,0:0|0:0,0:0:0:0:
456,39,9647,1,2,0:0:0:0:
352,182,9871,6,0,P|338:272|315:370,1,180,2|2,0:0|0:0,0:0:0:0:
399,369,10542,1,0,0:0:0:0:
218,215,10766,1,2,0:0:0:0:
213,197,10878,1,0,0:0:0:0:
211,179,10990,1,0,0:0:0:0:
278,122,11214,2,0,P|245:88|206:62,1,90,2|0,0:0|0:0,0:0:0:0:
207,46,11550,1,0,0:0:0:0:
211,28,11662,1,2,0:0:0:0:
363,155,11886,6,0,L|359:200,2,30
387,181,12110,2,0,P|381:130|378:85,1,90,2|2,0:0|0:0,0:0:0:0:
175,35,12557,1,2,0:0:0:0:
239,137,12781,1,2,0:0:0:0:
63,296,13005,5,2,0:0:0:0:
70,323,13117,1,0,0:0:0:0:
85,343,13229,2,2,B|86:302|76:233|49:273|40:213|41:161,1,188.999994232178,2|0,0:0|0:0,0:0:0:0:
209,41,13677,6,0,P|266:56|328:67,1,107.999996704102,6|0,3:2|0:0,0:0:0:0:
372,13,14013,1,0,0:0:0:0:
304,84,14125,2,0,P|318:188|332:307,1,215.999993408203,8|0,0:0|3:0,0:0:0:0:
143,158,14908,1,0,2:0:0:0:
125,162,15020,1,8,0:0:0:0:
234,291,15244,6,0,P|191:268|134:245,1,107.999996704102,0|0,0:0|3:0,0:0:0:0:
293,77,15692,2,0,P|297:102|301:143,1,53.9999983520508,0|0,0:0|0:0,0:0:0:0:
311,63,15916,5,8,0:0:0:0:
292,230,16140,1,0,0:0:0:0:
124,211,16363,1,0,3:0:0:0:
143,44,16587,1,0,0:0:0:0:
272,226,16811,2,0,P|256:200|250:171,1,53.9999983520508,8|0,0:0|0:0,0:0:0:0:
359,206,17035,2,0,P|359:175|350:147,1,53.9999983520508,0|0,0:0|0:0,0:0:0:0:
312,384,17259,6,0,P|317:325|328:268,1,107.999996704102,0|0,3:0|0:0,0:0:0:0:
276,202,17595,1,0,0:0:0:0:
346,280,17707,2,0,P|426:277|426:155,1,215.999993408203,8|0,0:0|3:0,0:0:0:0:
236,23,18490,1,0,0:0:0:0:
245,37,18602,1,8,0:0:0:0:
99,132,18826,6,0,P|119:83|170:87,1,107.999996704102,0|0,0:0|3:0,0:0:0:0:
111,287,19274,2,0,P|122:254|135:224,1,53.9999983520508,0|0,0:0|0:0,0:0:0:0:
125,216,19498,2,0,P|102:269|81:330,1,107.999996704102,8|0,0:0|0:0,0:0:0:0:
21,267,19834,1,0,0:0:0:0:
98,327,19945,2,0,P|88:353|78:387,1,53.9999983520508,0|0,3:0|0:0,0:0:0:0:
217,329,20169,1,0,0:0:0:0:
213,318,20244,1,0,0:0:0:0:
205,310,20319,1,0,0:0:0:0:
187,320,20393,6,0,B|232:326|319:306|264:277|342:262|419:270,1,216,8|0,0:0|0:0,0:0:0:0:
486,368,20841,6,0,P|435:352|371:340,1,107.999996704102,0|0,3:0|0:0,0:0:0:0:
300,371,21177,1,0,0:0:0:0:
386,327,21289,2,0,P|402:220|427:103,1,215.999993408203,8|0,0:0|3:0,0:0:0:0:
222,234,22072,1,0,0:0:0:0:
227,250,22184,1,8,0:0:0:0:
307,146,22408,6,0,P|296:91|276:18,1,107.999996704102,0|0,0:0|3:0,0:0:0:0:
128,127,22856,2,0,P|97:120|62:113,1,53.9999983520508,0|0,0:0|0:0,0:0:0:0:
170,67,23080,5,8,0:0:0:0:
3,86,23304,1,0,0:0:0:0:
22,254,23528,1,0,3:0:0:0:
189,235,23751,1,0,0:0:0:0:
24,100,23975,2,0,P|8:126|2:155,1,53.9999983520508,8|0,0:0|0:0,0:0:0:0:
111,116,24199,2,0,P|111:147|102:175,1,53.9999983520508,0|0,0:0|0:0,0:0:0:0:
14,303,24423,6,0,P|26:253|78:246,1,107.999996704102,0|0,3:0|0:0,0:0:0:0:
124,318,24759,1,0,0:0:0:0:
83,226,24871,2,0,P|65:132|34:3,1,215.999993408203,8|0,0:0|3:0,0:0:0:0:
237,95,25654,1,0,0:0:0:0:
230,111,25766,1,8,0:0:0:0:
294,220,25990,1,0,0:0:0:0:
312,74,26214,5,8,0:3:0:0:
241,343,26438,1,8,0:3:0:0:
141,172,26662,1,8,0:3:0:0:
410,243,26886,1,8,0:3:0:0:
407,226,26998,1,8,0:3:0:0:
222,45,27334,5,2,3:1:0:0:
261,238,27557,1,2,3:1:0:0:
266,206,27669,1,2,3:1:0:0:
271,174,27781,1,2,0:1:0:0:
276,142,27893,1,2,0:1:0:0:
280,109,28005,5,2,3:2:0:0:
257,126,28453,1,2,3:2:0:0:
233,143,28901,2,0,P|197:135|144:128,1,72,2|2,3:2|0:0,0:0:0:0:
115,62,29348,1,2,3:2:0:0:
100,78,29572,6,0,P|114:14|197:24,1,144,2|2,0:0|0:0,0:0:0:0:
274,101,30244,1,2,3:2:0:0:
281,82,30468,1,2,0:2:0:0:
479,275,30916,1,2,0:0:0:0:
417,230,31140,1,2,3:2:0:0:
350,258,31363,1,2,0:0:0:0:
284,218,31587,5,2,3:2:0:0:
275,190,32035,1,2,3:2:0:0:
268,162,32483,2,0,P|273:124|277:66,1,72,2|2,3:2|0:0,0:0:0:0:
179,96,32931,2,0,P|170:58|160:1,1,72,2|2,3:2|0:0,0:0:0:0:
378,62,33602,5,2,0:0:0:0:
450,93,33826,1,2,3:2:0:0:
510,42,34050,1,2,0:0:0:0:
285,42,34722,2,0,P|228:27|174:20,1,108,2|0,3:2|0:0,0:0:0:0:
103,5,35169,5,2,3:2:0:0:
31,79,35319,1,2,0:0:0:0:
77,16,35468,1,2,0:0:0:0:
138,181,35617,5,2,3:2:0:0:
112,89,35766,1,2,0:0:0:0:
162,163,35916,1,2,0:0:0:0:
17,255,36065,5,2,3:2:0:0:
48,139,36214,1,0,0:0:0:0:
44,236,36363,1,2,0:0:0:0:
159,312,36513,5,2,3:2:0:0:
172,292,36662,1,2,0:0:0:0:
79,351,36811,1,2,0:0:0:0:
255,347,36960,5,2,3:2:0:0:
277,324,37072,1,2,0:0:0:0:
306,310,37184,1,2,0:0:0:0:
337,304,37296,1,0,0:0:0:0:
369,307,37408,1,2,3:2:0:0:
383,329,37632,1,2,0:0:0:0:
489,133,37856,5,2,3:2:0:0:
485,165,37968,1,2,0:0:0:0:
480,197,38080,1,2,0:0:0:0:
476,229,38192,1,2,0:0:0:0:
473,261,38304,1,2,3:2:0:0:
491,283,38528,2,0,P|498:322|501:364,1,72,2|0,0:0|3:0,0:0:0:0:
309,226,38975,6,0,P|312:204|321:174,1,36,2|0,3:2|0:0,0:0:0:0:
295,241,39199,1,2,3:2:0:0:
315,340,39423,1,2,3:2:0:0:
414,320,39647,1,2,3:2:0:0:
394,221,39871,1,2,3:2:0:0:
288,352,40095,6,0,P|264:340|227:327,1,36,2|0,3:2|0:0,0:0:0:0:
325,281,40319,1,2,3:2:0:0:
315,270,40431,1,0,3:0:0:0:
309,256,40542,1,2,3:2:0:0:
347,115,40766,6,0,L|343:92,1,18,2|0,0:0|0:0,0:0:0:0:
219,43,41214,2,0,L|223:20,1,18,2|0,0:0|0:0,0:0:0:0:
360,127,41662,2,0,L|356:104,1,18,2|0,0:0|0:0,0:0:0:0:
475,14,41886,2,0,P|467:56|459:110,1,72,10|2,0:0|0:1,0:0:0:0:
309,263,42334,6,0,P|321:312|334:382,1,90,2|0,3:2|0:0,0:0:0:0:
395,310,42669,1,8,0:3:0:0:
315,358,42781,2,0,P|225:367|133:382,1,180,2|2,3:1|3:2,0:0:0:0:
61,345,43453,1,2,0:0:0:0:
127,164,43677,1,10,0:0:0:0:
63,114,43901,2,0,P|51:64|38:21,1,90,2|0,0:0|3:0,0:0:0:0:
17,211,44348,5,2,0:0:0:0:
81,263,44572,1,10,0:0:0:0:
158,226,44796,2,0,P|203:213|261:200,1,90,8|0,0:3|3:0,0:0:0:0:
300,254,45132,1,8,0:3:0:0:
240,180,45244,2,0,P|225:158|203:129,1,45,2|0,3:0|0:0,0:0:0:0:
273,95,45468,2,0,P|279:62|285:35,1,45,10|0,0:0|0:0,0:0:0:0:
220,8,45692,1,2,0:0:0:0:
120,161,45916,6,0,P|127:211|142:270,1,90,2|0,3:2|0:0,0:0:0:0:
210,232,46251,1,8,0:3:0:0:
127,269,46363,2,0,P|81:253|36:244,1,90,10|8,0:0|0:3,0:0:0:0:
147,374,46811,1,2,3:2:0:0:
164,368,46923,1,8,0:3:0:0:
181,366,47035,2,0,P|202:372|228:376,1,45,2|0,0:0|0:0,0:0:0:0:
363,273,47259,1,10,0:0:0:0:
303,221,47483,2,0,P|292:267|285:315,1,90,2|0,0:0|3:0,0:0:0:0:
487,149,47931,6,0,L|498:91,1,45,2|8,0:0|0:3,0:0:0:0:
359,29,48154,2,0,P|354:53|350:81,1,45,10|0,0:0|0:0,0:0:0:0:
288,126,48378,1,8,0:3:0:0:
267,121,48490,2,0,P|262:91|258:64,1,45,0|0,0:0|3:0,0:0:0:0:
176,48,48714,1,8,0:3:0:0:
159,48,48826,2,0,P|163:19|169:-3,1,45,0|0,0:0|0:0,0:0:0:0:
110,106,49050,1,10,0:0:0:0:
84,90,49162,1,0,0:0:0:0:
56,110,49274,1,0,0:0:0:0:
26,90,49386,1,0,0:0:0:0:
6,135,49498,5,2,3:2:0:0:
47,249,49647,1,2,0:0:0:0:
33,146,49796,1,2,0:0:0:0:
138,306,49945,5,10,0:0:0:0:
203,206,50095,1,2,0:0:0:0:
132,280,50244,1,2,0:0:0:0:
129,156,50393,5,2,3:2:0:0:
266,104,50542,1,2,0:0:0:0:
139,128,50692,1,2,0:0:0:0:
283,244,50841,6,0,P|288:269|292:311,1,60,10|2,0:0|0:0,0:0:0:0:
340,166,51140,1,2,0:0:0:0:
408,336,51289,5,2,3:2:0:0:
398,296,51401,1,2,0:0:0:0:
404,256,51513,1,2,0:1:0:0:
417,217,51625,1,8,0:3:0:0:
442,185,51737,1,10,0:0:0:0:
461,209,51960,1,8,0:3:0:0:
312,57,52184,5,2,3:2:0:0:
263,64,52296,1,8,0:3:0:0:
213,70,52408,1,2,3:2:0:0:
218,55,52520,1,0,0:0:0:0:
272,89,52632,5,10,0:0:0:0:
223,96,52744,1,2,0:0:0:0:
173,102,52856,1,2,0:0:0:0:
387,97,53080,6,0,P|432:82|487:70,1,90,0|2,3:0|0:0,0:0:0:0:
429,6,53416,1,8,0:3:0:0:
487,89,53528,2,0,L|460:205,1,90,10|8,0:0|0:3,0:0:0:0:
451,326,53975,1,2,3:2:0:0:
472,342,54087,1,8,0:3:0:0:
497,349,54199,1,2,0:0:0:0:
348,222,54423,5,10,3:0:0:0:
318,242,54535,1,8,0:3:0:0:
285,226,54647,1,8,0:3:0:0:
264,255,54759,2,0,L|262:313,1,45,8|4,0:3|0:0,0:0:0:0:
192,359,55542,6,0,L|184:307,1,45,8|8,0:3|0:3,0:0:0:0:
177,312,55710,1,8,0:3:0:0:
167,314,55766,1,8,0:1:0:0:
25,365,55990,1,8,0:1:0:0:
70,249,56214,1,8,3:1:0:0:
67,222,56326,1,8,0:1:0:0:
58,196,56438,1,8,0:1:0:0:
15,69,56662,6,0,B|57:109|57:109|106:89|106:89|178:107,1,180,4|10,3:2|0:0,0:0:0:0:
232,54,57334,1,0,3:0:0:0:
303,146,57557,2,0,P|345:130|389:118,1,90,10|0,0:0|0:0,0:0:0:0:
504,268,58005,1,10,0:0:0:0:
468,175,58229,1,2,3:2:0:0:
478,161,58453,6,0,B|469:111|469:111|509:66|509:66|481:-3,1,180,0|2,3:0|0:1,0:0:0:0:
408,39,59125,1,0,3:0:0:0:
278,122,59348,2,0,B|234:131|163:120|217:93|149:78|94:80,1,180,10|2,0:0|0:1,0:0:0:0:
56,133,60020,1,2,0:0:0:0:
1,320,60244,6,0,B|47:338|47:338|99:315|99:315|172:311,1,180,0|2,3:0|0:1,0:0:0:0:
244,351,60916,1,0,3:0:0:0:
330,254,61140,2,0,P|339:200|353:138,1,90,10|0,0:0|0:0,0:0:0:0:
492,281,61587,1,2,0:1:0:0:
448,359,61811,1,0,3:0:0:0:
464,352,62035,6,0,B|420:317|420:317|361:335|361:335|267:297,1,180,2|2,3:2|0:1,0:0:0:0:
351,125,62819,1,0,3:0:0:0:
361,149,62931,1,8,0:0:0:0:
474,248,63378,2,0,P|482:201|497:144,1,90,2|2,0:1|0:0,0:0:0:0:
457,88,63714,1,2,0:0:0:0:
471,169,63826,6,0,P|416:167|346:69,1,180,10|10,0:0|0:0,0:0:0:0:
297,194,64498,1,2,0:0:0:0:
356,59,64722,2,0,P|397:39|434:12,1,90,10|2,0:0|0:0,0:0:0:0:
248,118,65169,2,0,P|222:80|203:38,1,90,10|0,0:0|0:0,0:0:0:0:
422,147,65617,5,8,3:0:0:0:
381,338,65841,1,8,0:0:0:0:
189,297,66065,1,8,3:0:0:0:
230,106,66289,1,8,0:0:0:0:
390,319,66513,5,8,3:0:0:0:
341,259,66625,1,8,0:0:0:0:
314,262,66737,1,8,0:0:0:0:
287,264,66848,1,8,0:0:0:0:
314,182,66960,5,8,3:0:0:0:
265,242,67072,1,8,0:0:0:0:
238,239,67184,1,8,0:0:0:0:
211,235,67296,2,0,L|151:226,1,45,8|0,0:0|0:0,0:0:0:0:
101,157,67632,6,0,P|89:135|69:104,1,45,10|0,0:0|0:0,0:0:0:0:
222,223,67856,2,0,P|242:210|274:204,1,45,10|0,0:0|0:0,0:0:0:0:
66,339,68080,2,0,P|58:317|60:295,1,45,10|0,0:0|0:0,0:0:0:0:
222,375,68304,1,10,0:0:0:0:
84,152,68528,5,2,0:0:0:0:
97,196,68640,1,0,0:0:0:0:
134,221,68751,2,2,B|140:169|118:96|103:133|86:75|85:-2,1,216,2|0,0:0|0:0,0:0:0:0:
60,215,69199,6,0,P|49:275|38:364,1,125.999996154785,6|0,3:2|0:0,0:0:0:0:
137,365,69535,1,0,0:0:0:0:
29,315,69647,2,0,P|13:247|157:202,1,251.999992309571,10|2,0:0|3:2,0:0:0:0:
300,365,70319,2,0,P|289:325|282:286,1,62.9999980773926,2|0,0:0|0:0,0:0:0:0:
340,218,70542,2,0,P|331:284|325:350,1,125.999996154785,10|2,0:0|0:0,0:0:0:0:
467,192,70990,6,0,P|488:122|510:63,1,125.999996154785,0|2,0:0|0:0,0:0:0:0:
441,182,71326,2,0,P|448:224|455:265,1,62.9999980773926,0|8,0:0|0:0,0:0:0:0:
276,85,71662,2,0,P|248:71|209:53,1,62.9999980773926,2|0,0:0|0:0,0:0:0:0:
283,8,71886,2,0,P|334:12|345:84,1,125.999996154785,2|2,3:2|0:0,0:0:0:0:
303,156,72222,1,0,0:0:0:0:
365,90,72334,2,0,P|432:75|504:70,1,125.999996154785,10|0,0:0|0:0,0:0:0:0:
257,313,72781,6,0,P|195:295|117:279,1,125.999996154785,2|0,3:2|0:0,0:0:0:0:
86,341,73117,1,0,0:0:0:0:
163,269,73229,2,0,P|174:200|187:143,1,125.999996154785,10|0,0:0|0:0,0:0:0:0:
108,66,73565,1,2,0:0:0:0:
206,158,73677,2,0,P|268:158|281:98,1,125.999996154785,2|2,3:2|0:0,0:0:0:0:
193,177,74013,2,0,P|204:210|212:241,1,62.9999980773926,0|10,0:0|0:0,0:0:0:0:
480,252,74348,2,0,P|415:244|411:178,1,125.999996154785,2|0,0:0|0:0,0:0:0:0:
133,14,74796,6,0,P|149:74|160:136,1,125.999996154785,2|8,0:0|0:0,0:0:0:0:
181,334,75244,2,0,P|144:326|102:321,1,62.9999980773926,2|8,0:0|0:3,0:0:0:0:
103,305,75468,1,2,3:2:0:0:
135,286,75580,1,0,0:0:0:0:
171,277,75692,1,2,0:0:0:0:
208,273,75804,1,0,0:0:0:0:
245,276,75916,1,10,0:0:0:0:
348,139,76140,2,0,P|383:129|411:116,1,62.9999980773926,2|0,0:0|0:0,0:0:0:0:
461,219,76363,6,0,P|459:159|397:142,1,125.999996154785,0|0,3:0|0:0,0:0:0:0:
460,64,76699,1,0,0:0:0:0:
383,152,76811,2,0,P|256:123|130:100,1,251.999992309571,10|2,0:0|3:2,0:0:0:0:
4,264,77483,2,0,P|35:249|82:234,1,62.9999980773926,2|0,0:0|0:0,0:0:0:0:
240,318,77707,1,10,0:0:0:0:
142,374,77931,2,0,P|149:314|158:250,1,125.999996154785,2|0,0:0|3:0,0:0:0:0:
26,90,78378,5,2,0:0:0:0:
54,123,78490,1,0,0:0:0:0:
69,164,78602,1,8,0:0:0:0:
143,24,78826,1,2,0:0:0:0:
344,99,79050,2,0,P|410:79|486:64,1,125.999996154785,0|0,3:0|0:0,0:0:0:0:
337,84,79386,2,0,P|300:77|262:70,1,62.9999980773926,0|10,0:0|0:0,0:0:0:0:
288,359,79722,6,0,P|304:282|465:278,1,251.999992309571,2|2,0:0|0:0,0:0:0:0:
426,345,80281,1,0,0:0:0:0:
466,251,80393,2,0,P|478:190|493:124,1,125.999996154785,10|2,0:0|0:0,0:0:0:0:
329,15,80841,1,0,3:0:0:0:
452,268,81065,1,2,0:0:0:0:
214,150,81289,2,0,P|202:92|179:16,1,125.999996154785,10|0,0:0|0:0,0:0:0:0:
63,337,81737,6,0,P|50:315|24:289,1,62.9999980773926,8|0,0:3|0:0,0:0:0:0:
223,279,81960,2,0,P|246:258|256:227,1,62.9999980773926,2|0,0:1|0:0,0:0:0:0:
118,85,82184,2,0,P|100:111|93:146,1,62.9999980773926,8|0,0:3|0:0,0:0:0:0:
153,326,82408,1,8,0:3:0:0:
139,313,82520,1,8,0:3:0:0:
203,166,82856,5,4,0:1:0:0:
194,175,82931,1,2,0:0:0:0:
190,187,83005,1,2,0:0:0:0:
207,207,83080,2,2,P|216:137|220:62,1,125.999996154785,8|0,0:1|0:0,0:0:0:0:
172,3,83416,1,0,0:0:0:0:
240,122,83528,6,0,P|252:203|259:272,1,125.999996154785,6|0,3:2|0:0,0:0:0:0:
195,313,83863,1,0,0:0:0:0:
272,229,83975,2,0,B|326:220|418:243|364:274|456:291|530:281,1,251.999992309571,10|2,0:0|3:2,0:0:0:0:
480,103,84647,2,0,P|441:113|400:130,1,62.9999980773926,2|0,0:0|0:0,0:0:0:0:
364,71,84871,2,0,P|427:33|484:6,1,125.999996154785,10|2,0:0|0:0,0:0:0:0:
100,123,85319,6,0,P|113:64|124:-17,1,125.999996154785,0|2,0:0|0:0,0:0:0:0:
128,127,85654,2,0,P|134:163|140:201,1,62.9999980773926,0|8,0:0|0:0,0:0:0:0:
33,369,85990,2,0,P|23:333|10:294,1,62.9999980773926,2|0,0:0|0:0,0:0:0:0:
58,243,86214,2,0,P|104:294|146:344,1,125.999996154785,2|2,3:2|0:0,0:0:0:0:
224,369,86550,1,0,0:0:0:0:
149,323,86662,2,0,P|139:252|128:192,1,125.999996154785,10|2,0:0|0:0,0:0:0:0:
504,380,87110,6,0,P|451:354|385:330,1,125.999996154785,2|0,3:2|0:0,0:0:0:0:
310,360,87445,1,0,0:0:0:0:
386,311,87557,2,0,P|400:247|420:181,1,125.999996154785,10|0,0:0|0:0,0:0:0:0:
487,149,87893,1,0,0:0:0:0:
389,188,88005,2,0,P|331:177|334:112,1,125.999996154785,2|2,3:2|0:0,0:0:0:0:
375,318,88453,1,10,0:0:0:0:
179,93,88677,2,0,P|237:82|234:17,1,125.999996154785,2|0,0:0|0:0,0:0:0:0:
42,266,89125,6,0,P|68:332|86:395,1,125.999996154785,2|8,0:0|0:0,0:0:0:0:
262,257,89572,2,0,P|273:215|284:181,1,62.9999980773926,2|8,0:0|0:3,0:0:0:0:
349,159,89796,2,0,P|371:226|399:287,1,125.999996154785,2|2,3:2|0:0,0:0:0:0:
365,152,90132,2,0,P|380:114|397:83,1,62.9999980773926,0|10,0:0|0:0,0:0:0:0:
170,83,90468,2,0,P|145:51|116:22,1,62.9999980773926,2|0,0:0|0:0,0:0:0:0:
267,29,90692,6,0,P|245:92|228:158,1,125.999996154785,0|0,3:0|0:0,0:0:0:0:
280,225,91028,1,0,0:0:0:0:
214,143,91140,2,0,P|200:73|364:75,1,251.999992309571,10|2,0:0|3:2,0:0:0:0:
280,249,91811,1,2,0:0:0:0:
306,284,91923,1,0,0:0:0:0:
319,325,92035,1,10,0:0:0:0:
47,155,92259,6,0,P|32:94|9:19,1,125.999996154785,2|0,0:0|3:0,0:0:0:0:
192,266,92707,2,0,P|182:298|172:350,1,62.9999980773926,2|0,0:0|0:0,0:0:0:0:
269,374,92931,2,0,P|346:355|407:344,1,125.999996154785,8|2,0:0|0:0,0:0:0:0:
368,138,93378,2,0,P|379:67|396:-1,1,125.999996154785,0|2,3:0|0:0,0:0:0:0:
385,146,93714,2,0,P|415:138|449:132,1,62.9999980773926,0|8,0:0|0:0,0:0:0:0:
201,303,94050,2,0,P|192:266|181:224,1,62.9999980773926,2|0,0:0|0:0,0:0:0:0:
124,366,94274,5,4,3:2:0:0:
126,290,94386,1,0,0:0:0:0:
176,233,94498,1,2,0:0:0:0:
251,225,94610,1,0,0:0:0:0:
312,268,94722,1,14,0:2:0:0:
442,14,94945,5,2,0:0:0:0:
471,46,95057,1,0,0:0:0:0:
512,63,95169,1,6,0:2:0:0:
256,142,95393,2,0,P|245:111|226:71,1,62.9999980773926,6|0,0:2|0:0,0:0:0:0:
371,359,95617,5,6,0:2:0:0:
28,266,96065,6,0,P|79:277|140:284,1,90,2|0,0:0|0:0,0:0:0:0:
159,340,96401,1,0,0:0:0:0:
114,267,96513,2,0,P|137:198|228:218,1,180,2|2,0:0|0:0,0:0:0:0:
345,338,97296,1,2,0:0:0:0:
362,346,97408,1,0,0:0:0:0:
394,225,97632,6,0,P|348:244|290:259,1,90,2|0,0:0|0:0,0:0:0:0:
259,205,97968,1,0,0:0:0:0:
306,275,98080,2,0,P|299:302|289:339,1,45,2|0,0:0|0:0,0:0:0:0:
406,363,98304,2,0,P|444:353|510:342,1,90,2|2,0:0|0:0,0:0:0:0:
315,247,98751,2,0,P|353:257|419:268,1,90,2|2,0:0|0:0,0:0:0:0:
466,228,99087,1,0,0:0:0:0:
402,280,99199,2,0,P|382:317|361:365,1,90,2|2,0:0|0:0,0:0:0:0:
318,176,99647,6,0,P|312:134|298:60,1,90,2|0,0:0|0:0,0:0:0:0:
235,120,99983,1,0,0:0:0:0:
315,73,100095,2,0,B|352:69|420:82|383:100|441:116|492:111,1,180,2|2,0:0|0:0,0:0:0:0:
237,38,100878,1,2,0:0:0:0:
243,19,100990,1,0,0:0:0:0:
184,123,101214,6,0,P|198:173|209:235,1,90,2|0,0:0|0:0,0:0:0:0:
112,123,101662,1,2,0:0:0:0:
52,29,101886,1,2,0:0:0:0:
66,18,101998,1,2,0:0:0:0:
15,121,102222,1,2,0:0:0:0:
27,134,102334,2,0,P|19:177|11:230,1,90,2|2,0:0|0:0,0:0:0:0:
176,352,102781,2,0,P|219:345|275:338,1,90,2|0,0:0|0:0,0:0:0:0:
428,235,103229,6,0,P|443:281|455:331,1,90,2|0,0:0|0:0,0:0:0:0:
511,366,103565,1,0,0:0:0:0:
435,322,103677,2,0,P|343:295|234:272,1,180,2|2,0:0|0:0,0:0:0:0:
395,161,104460,1,2,0:0:0:0:
406,171,104572,1,0,0:0:0:0:
484,96,104796,6,0,P|439:69|388:45,1,90,2|0,0:0|0:0,0:0:0:0:
330,79,105132,1,0,0:0:0:0:
392,43,105244,2,0,P|401:16|412:-11,1,45,2|0,0:0|0:0,0:0:0:0:
493,40,105468,2,0,P|502:92|506:157,1,90,2|2,0:0|0:0,0:0:0:0:
391,208,105916,2,0,P|382:260|378:325,1,90,2|2,0:0|0:0,0:0:0:0:
441,342,106251,1,0,0:0:0:0:
362,300,106363,2,0,P|316:283|261:272,1,90,2|2,0:0|0:0,0:0:0:0:
190,126,106811,6,0,P|173:75|149:13,1,90,2|0,0:0|0:0,0:0:0:0:
227,8,107147,1,0,0:0:0:0:
146,48,107259,2,0,P|146:143|228:147,1,180,2|0,0:0|0:0,0:0:0:0:
362,58,108042,1,2,0:0:0:0:
358,42,108154,1,0,0:0:0:0:
319,144,108378,6,0,P|310:190|301:252,1,90,2|2,0:0|0:0,0:0:0:0:
197,253,108826,1,2,0:0:0:0:
176,146,109050,1,2,0:0:0:0:
282,126,109274,1,8,0:3:0:0:
270,120,109386,2,0,P|265:95|258:60,1,45,8|8,0:3|0:1,0:0:0:0:
40,185,109722,1,8,0:1:0:0:
150,90,109945,5,8,0:1:0:0:
146,121,110057,1,8,0:1:0:0:
143,152,110169,1,8,0:3:0:0:
140,183,110281,1,0,0:2:0:0:
137,214,110393,5,4,0:0:0:0:
256,192,111289,12,2,112072,0:0:0:0:
466,107,112184,6,0,P|475:60|490:5,1,90,6|2,3:2|0:0,0:0:0:0:
451,121,112520,2,0,P|455:145|458:175,1,45,8|10,0:3|0:0,0:0:0:0:
356,354,112968,1,0,0:0:0:0:
339,346,113080,1,0,3:0:0:0:
182,240,113304,1,2,0:0:0:0:
234,293,113528,2,0,P|287:280|353:268,1,90,10|2,0:0|0:0,0:0:0:0:
381,322,113863,1,0,0:0:0:0:
317,255,113975,6,0,P|322:206|334:138,1,90,2|0,3:2|0:0,0:0:0:0:
388,130,114311,1,8,0:3:0:0:
310,168,114423,2,0,P|263:159|249:110,1,90,10|2,0:0|0:0,0:0:0:0:
124,254,114871,1,2,3:2:0:0:
114,240,114983,1,8,0:3:0:0:
206,333,115207,1,0,0:0:0:0:
192,343,115319,2,0,P|200:288|211:233,1,90,10|2,0:0|0:0,0:0:0:0:
70,158,115766,5,0,3:0:0:0:
54,156,115878,2,0,P|89:128|137:118,1,90,0|8,0:0|3:0,0:0:0:0:
188,70,116214,1,8,0:0:0:0:
202,86,116326,2,0,P|207:111|209:130,1,45,0|10,0:0|0:3,0:0:0:0:
279,70,116550,1,0,0:0:0:0:
296,57,116662,2,0,P|306:33|311:15,1,45,0|8,3:0|0:3,0:0:0:0:
336,135,116886,1,0,0:0:0:0:
351,149,116998,2,0,P|377:144|407:140,1,45,0|10,0:0|0:0,0:0:0:0:
420,61,117222,1,0,0:0:0:0:
447,76,117334,1,0,0:0:0:0:
471,49,117445,1,0,0:0:0:0:
512,61,117557,5,2,3:2:0:0:
487,198,117707,1,2,0:0:0:0:
489,84,117856,1,2,0:0:0:0:
364,140,118005,5,10,0:0:0:0:
289,37,118154,1,2,0:0:0:0:
366,111,118304,1,2,0:0:0:0:
199,158,118453,5,2,3:2:0:0:
308,256,118602,1,2,0:0:0:0:
230,154,118751,1,2,0:0:0:0:
169,364,118901,5,10,0:0:0:0:
227,232,119050,1,2,0:0:0:0:
198,354,119199,1,2,0:0:0:0:
75,280,119348,5,2,3:2:0:0:
69,240,119460,1,2,0:0:0:0:
64,199,119572,1,2,0:0:0:0:
60,158,119684,1,8,0:3:0:0:
54,117,119796,1,10,0:0:0:0:
33,99,120020,1,8,0:3:0:0:
234,179,120244,5,2,3:2:0:0:
272,191,120356,1,8,0:3:0:0:
311,184,120468,1,2,3:2:0:0:
337,153,120580,1,2,0:0:0:0:
342,112,120692,1,10,0:0:0:0:
322,87,120916,2,0,P|334:53|342:-4,1,90,2|0,0:0|3:0,0:0:0:0:
418,125,121363,5,2,0:0:0:0:
438,148,121475,1,8,0:3:0:0:
466,161,121587,1,10,0:0:0:0:
282,189,121811,2,0,P|241:173|174:160,1,90,8|2,0:3|3:2,0:0:0:0:
295,176,122147,2,0,P|315:167|339:159,1,45,8|2,0:3|0:0,0:0:0:0:
168,52,122483,1,8,3:1:0:0:
43,137,122707,1,8,0:3:0:0:
60,142,122819,2,0,P|63:173|69:208,1,45,8|2,0:3|0:0,0:0:0:0:
237,218,123826,6,0,B|228:154|228:154|256:109|256:109|246:29,1,180,4|0,3:0|3:0,0:0:0:0:
224,26,124386,1,0,0:0:0:0:
227,57,124498,1,0,3:0:0:0:
229,88,124610,1,0,0:0:0:0:
232,119,124722,6,0,B|284:92|284:92|345:118|345:118|426:101,1,180,4|6,0:1|0:0,0:0:0:0:
436,29,125393,1,0,0:0:0:0:
508,113,125617,2,0,P|498:160|488:221,1,90,8|0,0:1|0:0,0:0:0:0:
465,367,126065,1,2,3:2:0:0:
510,298,126289,1,2,0:0:0:0:
353,199,126513,5,8,3:1:0:0:
386,130,126848,1,0,3:0:0:0:
380,110,126960,1,14,0:0:0:0:
416,250,127184,1,0,0:0:0:0:
332,211,127408,2,0,P|294:198|244:185,1,90,8|2,0:1|0:0,0:0:0:0:
165,318,127856,2,0,P|202:305|253:292,1,90,10|2,0:0|0:0,0:0:0:0:
135,164,128304,5,10,3:2:0:0:
69,120,128640,1,0,3:0:0:0:
54,126,128751,1,14,0:0:0:0:
127,75,128975,1,0,0:0:0:0:
18,13,129199,2,0,P|27:54|35:102,1,90,8|0,0:1|0:0,0:0:0:0:
137,171,129647,2,0,P|152:128|171:88,1,90,10|2,3:2|0:0,0:0:0:0:
372,34,130095,5,2,3:2:0:0:
283,20,130431,1,0,3:0:0:0:
266,30,130542,1,2,0:1:0:0:
439,31,130878,1,0,0:0:0:0:
456,13,130990,1,8,0:1:0:0:
491,92,131214,1,0,3:0:0:0:
394,188,131438,2,0,P|398:135|403:81,1,90,8|2,0:1|0:1,0:0:0:0:
211,189,131886,6,0,P|235:284|252:372,1,180,10|10,0:0|0:0,0:0:0:0:
313,299,132557,1,0,0:0:0:0:
142,251,132781,2,0,P|101:230|40:207,1,90,10|2,0:0|0:0,0:0:0:0:
288,129,133229,2,0,P|332:113|388:100,1,90,10|8,2:0|0:3,0:0:0:0:
147,95,133677,5,8,3:0:0:0:
167,323,133901,1,8,0:0:0:0:
395,303,134125,1,8,3:0:0:0:
375,74,134348,1,8,0:0:0:0:
155,337,134572,5,8,3:0:0:0:
206,281,134684,1,8,0:0:0:0:
203,254,134796,1,8,3:0:0:0:
200,227,134908,1,8,0:0:0:0:
275,264,135020,5,8,3:0:0:0:
224,208,135132,1,8,0:0:0:0:
227,181,135244,1,8,3:0:0:0:
230,153,135356,2,0,L|234:89,1,45,8|0,0:0|0:0,0:0:0:0:
453,82,135692,6,0,P|452:59|436:26,1,45,10|0,0:0|0:0,0:0:0:0:
384,206,135916,2,0,P|409:210|446:225,1,45,10|0,0:0|0:0,0:0:0:0:
271,143,136140,2,0,P|252:157|238:178,1,45,10|0,0:0|0:0,0:0:0:0:
314,20,136363,1,10,0:0:0:0:
434,329,136587,5,2,0:0:0:0:
425,342,136662,1,0,0:0:0:0:
415,353,136737,1,0,0:0:0:0:
404,360,136811,2,2,B|397:286|415:232|437:274|460:207|454:127,1,216,2|0,0:0|0:0,0:0:0:0:
215,24,137259,6,0,P|153:35|84:55,1,125.999996154785,4|0,3:2|0:0,0:0:0:0:
17,20,137595,1,0,0:0:0:0:
84,65,137707,2,0,P|218:90|338:121,1,251.999992309571,10|2,0:0|3:2,0:0:0:0:
471,353,138378,2,0,P|440:337|400:326,1,62.9999980773926,2|0,0:0|0:0,0:0:0:0:
388,255,138602,2,0,P|453:243|513:235,1,125.999996154785,10|2,0:0|0:0,0:0:0:0:
227,326,139050,6,0,P|217:257|200:180,1,125.999996154785,0|2,0:0|0:0,0:0:0:0:
249,324,139386,2,0,P|260:357|267:384,1,62.9999980773926,0|8,0:0|0:0,0:0:0:0:
66,215,139722,1,2,0:0:0:0:
165,14,139945,2,0,P|216:18|218:87,1,125.999996154785,2|2,3:2|0:0,0:0:0:0:
291,140,140281,1,0,0:0:0:0:
200,91,140393,2,0,P|214:145|228:220,1,125.999996154785,10|2,0:0|0:0,0:0:0:0:
466,362,140841,6,0,P|444:297|419:235,1,125.999996154785,2|0,3:2|0:0,0:0:0:0:
484,180,141177,1,0,0:0:0:0:
400,254,141289,2,0,P|343:237|347:177,1,125.999996154785,10|0,0:0|0:0,0:0:0:0:
263,204,141625,1,0,0:0:0:0:
365,177,141737,2,0,P|353:125|343:48,1,125.999996154785,2|2,3:2|0:0,0:0:0:0:
347,188,142072,2,0,P|358:221|366:252,1,62.9999980773926,0|10,0:0|0:0,0:0:0:0:
140,139,142408,6,0,P|165:64|177:12,1,125.999996154785,2|0,0:0|0:0,0:0:0:0:
21,351,142856,2,0,P|42:288|106:299,1,125.999996154785,2|8,0:0|0:0,0:0:0:0:
309,351,143304,2,0,P|301:320|285:270,1,62.9999980773926,0|0,0:0|0:0,0:0:0:0:
344,167,143528,1,2,3:2:0:0:
435,337,143751,1,2,0:0:0:0:
455,305,143863,1,0,0:0:0:0:
486,283,143975,1,10,0:0:0:0:
208,346,144199,2,0,P|173:336|142:329,1,62.9999980773926,2|0,0:0|0:0,0:0:0:0:
95,246,144423,6,0,P|146:207|191:161,1,125.999996154785,2|0,3:2|0:0,0:0:0:0:
135,97,144759,1,0,0:0:0:0:
214,177,144871,2,0,B|277:178|366:149|299:124|403:95|448:98,1,251.999992309571,10|2,0:0|3:2,0:0:0:0:
112,9,145542,2,0,P|145:18|192:34,1,62.9999980773926,2|0,0:0|0:0,0:0:0:0:
210,95,145766,2,0,P|193:157|176:245,1,125.999996154785,10|2,0:0|0:0,0:0:0:0:
424,372,146214,5,0,3:0:0:0:
367,173,146438,1,2,0:0:0:0:
342,200,146550,1,0,0:0:0:0:
325,233,146662,1,8,0:0:0:0:
429,17,146886,1,2,0:0:0:0:
158,149,147110,2,0,P|172:215|184:285,1,125.999996154785,0|0,3:0|0:0,0:0:0:0:
178,141,147445,2,0,P|185:100|194:58,1,62.9999980773926,0|10,0:0|0:0,0:0:0:0:
7,310,147781,6,0,B|61:304|154:329|102:353|188:377|269:365,1,251.999992309571,2|2,0:0|0:0,0:0:0:0:
333,321,148341,1,0,0:0:0:0:
247,355,148453,2,0,P|185:319|202:266,1,125.999996154785,10|2,0:0|0:0,0:0:0:0:
384,65,148901,1,0,3:0:0:0:
80,229,149125,1,2,0:0:0:0:
345,374,149348,2,0,P|354:303|371:230,1,125.999996154785,10|0,0:0|0:0,0:0:0:0:
179,109,149796,6,0,P|183:75|206:44,1,62.9999980773926,8|0,0:3|0:0,0:0:0:0:
338,208,150020,2,0,P|314:228|297:259,1,62.9999980773926,2|0,0:1|0:0,0:0:0:0:
393,47,150244,2,0,P|358:32|322:30,1,62.9999980773926,8|0,0:3|0:0,0:0:0:0:
216,212,150468,1,8,0:3:0:0:
211,195,150580,1,8,0:3:0:0:
434,157,150916,5,4,0:1:0:0:
440,167,150990,1,2,0:0:0:0:
451,174,151065,1,2,0:0:0:0:
474,161,151140,2,2,P|407:137|334:118,1,125.999996154785,8|0,0:1|0:0,0:0:0:0:
330,28,151475,1,0,0:0:0:0:
340,134,151587,6,0,P|322:195|308:275,1,125.999996154785,6|0,3:2|0:0,0:0:0:0:
382,319,151923,1,0,0:0:0:0:
292,260,152035,2,0,P|168:223|30:194,1,251.999992309571,10|2,0:0|3:2,0:0:0:0:
239,28,152707,2,0,P|271:32|302:38,1,62.9999980773926,2|0,0:0|0:0,0:0:0:0:
339,105,152931,2,0,P|277:124|211:153,1,125.999996154785,10|2,0:0|0:0,0:0:0:0:
473,314,153378,6,0,P|485:241|496:183,1,125.999996154785,0|2,0:0|0:0,0:0:0:0:
447,317,153714,2,0,P|441:355|430:399,1,62.9999980773926,0|8,0:0|0:0,0:0:0:0:
208,128,154050,1,2,0:0:0:0:
401,203,154274,2,0,P|341:210|260:227,1,125.999996154785,2|2,3:2|0:0,0:0:0:0:
222,288,154610,1,0,0:0:0:0:
267,207,154722,2,0,P|286:148|301:72,1,125.999996154785,10|2,0:0|0:0,0:0:0:0:
60,214,155169,6,0,P|76:276|90:340,1,125.999996154785,2|0,3:2|0:0,0:0:0:0:
26,378,155505,1,0,0:0:0:0:
107,330,155617,2,0,P|155:324|189:386,1,125.999996154785,10|0,0:0|0:0,0:0:0:0:
296,151,156065,2,0,P|286:98|263:20,1,125.999996154785,2|2,3:2|0:0,0:0:0:0:
26,309,156513,1,10,0:0:0:0:
165,231,156737,6,0,P|173:167|187:97,1,125.999996154785,2|0,0:0|0:0,0:0:0:0:
475,253,157184,2,0,P|414:258|399:322,1,125.999996154785,2|8,0:0|0:0,0:0:0:0:
487,95,157632,2,0,P|479:58|468:20,1,62.9999980773926,2|0,0:0|0:0,0:0:0:0:
390,70,157856,2,0,P|372:130|357:210,1,125.999996154785,2|2,3:2|0:0,0:0:0:0:
361,70,158192,2,0,P|355:42|343:10,1,62.9999980773926,0|10,0:0|0:0,0:0:0:0:
129,260,158528,2,0,P|140:222|148:182,1,62.9999980773926,2|0,0:0|0:0,0:0:0:0:
66,115,158751,6,0,P|85:64|154:68,1,125.999996154785,2|0,3:2|0:0,0:0:0:0:
218,3,159087,1,0,0:0:0:0:
147,85,159199,2,0,P|162:176|178:350,1,251.999992309571,10|2,0:0|3:2,0:0:0:0:
391,145,159871,2,0,P|382:172|370:215,1,62.9999980773926,2|0,0:0|0:0,0:0:0:0:
497,314,160095,2,0,P|476:246|461:181,1,125.999996154785,10|2,0:0|0:0,0:0:0:0:
193,340,160542,6,0,P|252:348|333:365,1,125.999996154785,0|2,3:0|0:0,0:0:0:0:
186,319,160878,2,0,P|155:332|123:341,1,62.9999980773926,0|8,0:0|0:0,0:0:0:0:
49,144,161214,2,0,P|30:74|9:6,1,125.999996154785,2|0,0:0|3:0,0:0:0:0:
279,180,161662,2,0,P|289:149|306:108,1,62.9999980773926,2|0,0:0|0:0,0:0:0:0:
141,13,161886,1,8,0:0:0:0:
166,175,162110,1,2,0:0:0:0:
174,184,162184,1,2,0:0:0:0:
180,194,162259,1,2,0:0:0:0:
185,205,162334,5,0,3:0:0:0:
156,229,162445,1,0,0:0:0:0:
133,259,162557,1,2,0:0:0:0:
118,293,162669,1,0,0:0:0:0:
111,330,162781,1,10,0:0:0:0:
347,300,163005,1,2,0:0:0:0:
320,273,163117,1,0,0:0:0:0:
308,237,163229,5,2,3:2:0:0:
316,222,163304,1,2,0:0:0:0:
329,211,163378,1,2,0:0:0:0:
344,204,163453,1,2,0:0:0:0:
360,202,163528,1,2,0:0:0:0:
376,204,163621,1,2,0:0:0:0:
410,228,163677,5,10,0:0:0:0:
376,160,163789,1,0,0:0:0:0:
308,126,163901,1,0,0:0:0:0:
232,122,164013,1,0,0:0:0:0:
174,174,164125,6,0,B|231:180|298:162|262:143|336:121|408:124,1,215.999993408203,4|8,3:2|0:0,0:0:0:0:
449,185,164796,1,0,0:0:0:0:
157,22,165020,1,0,3:0:0:0:
294,102,165356,5,0,0:0:0:0:
308,87,165468,1,8,0:0:0:0:
279,70,165580,1,0,0:0:0:0:
246,67,165692,1,0,0:0:0:0:
214,75,165804,1,0,0:0:0:0:
193,100,165916,5,0,3:0:0:0:
199,175,166028,1,0,0:0:0:0:
210,249,166140,1,0,0:0:0:0:
255,232,166251,5,0,0:0:0:0:
251,285,166363,2,0,L|269:266,1,26.9999991760254,8|0,0:0|0:0,0:0:0:0:
249,335,166475,1,0,0:0:0:0:
415,181,166699,1,0,0:0:0:0:
421,155,166811,5,0,3:0:0:0:
381,173,166923,1,0,0:0:0:0:
337,169,167035,1,0,0:0:0:0:
302,143,167147,1,0,0:0:0:0:
292,100,167259,5,8,0:0:0:0:
340,276,167408,1,0,0:0:0:0:
320,118,167557,1,0,0:0:0:0:
111,193,167707,5,0,3:0:0:0:
130,225,167819,1,0,0:0:0:0:
163,242,167931,1,0,0:0:0:0:
200,245,168042,1,0,0:0:0:0:
235,234,168154,1,8,0:0:0:0:
244,257,168266,2,0,P|235:286|227:324,1,53.9999983520508,0|0,0:0|0:0,0:0:0:0:
367,138,168490,1,0,0:0:0:0:
383,162,168602,5,0,3:0:0:0:
390,109,168714,1,0,0:0:0:0:
356,68,168826,1,0,0:0:0:0:
305,53,168938,1,0,0:0:0:0:
254,69,169050,2,0,P|262:94|273:119,1,53.9999983520508,8|0,0:0|0:0,0:0:0:0:
422,15,169274,1,0,0:0:0:0:
450,60,169386,1,0,0:0:0:0:
493,92,169498,2,0,P|501:61|511:29,1,53.9999983520508,0|0,3:0|0:0,0:0:0:0:
236,251,169722,5,0,0:0:0:0:
263,278,169834,1,0,0:0:0:0:
287,347,169945,5,8,0:0:0:0:
250,324,170057,1,0,0:0:0:0:
212,324,170169,1,0,0:0:0:0:
181,333,170281,1,0,0:0:0:0:
161,352,170393,1,0,3:0:0:0:
139,368,170505,1,0,0:0:0:0:
112,372,170617,1,0,0:0:0:0:
77,356,170729,1,0,0:0:0:0:
97,272,170841,5,8,0:0:0:0:
131,257,170953,1,0,0:0:0:0:
131,294,171065,1,0,0:0:0:0:
7,34,171401,5,0,0:0:0:0:
29,53,171513,2,0,B|67:57|124:52|88:26|149:14|199:15,1,161.999995056153,0|0,0:0|0:0,0:0:0:0:
268,108,171960,1,0,0:0:0:0:
301,135,172072,1,0,0:0:0:0:
331,144,172184,1,0,3:0:0:0:
480,347,172520,1,0,0:0:0:0:
496,363,172632,5,8,0:0:0:0:
490,320,172744,1,0,0:0:0:0:
487,276,172856,1,0,0:0:0:0:
484,232,172968,1,0,0:0:0:0:
482,188,173080,5,0,3:0:0:0:
471,196,173136,2,0,B|420:202|351:192|399:166|329:152|287:156,1,188.999994232178,0|8,0:0|0:0,0:0:0:0:
93,360,173975,2,0,P|140:334|206:309,1,107.999996704102,0|0,3:0|0:0,0:0:0:0:
249,362,174311,1,0,0:0:0:0:
186,296,174423,1,8,0:0:0:0:
201,273,174535,1,0,0:0:0:0:
212,248,174647,1,0,0:0:0:0:
217,221,174759,1,0,0:0:0:0:
215,194,174871,5,0,3:0:0:0:
184,203,174983,1,0,0:0:0:0:
141,194,175095,1,0,0:0:0:0:
111,148,175207,1,0,0:0:0:0:
129,80,175319,1,0,0:0:0:0:
50,253,175542,1,0,0:0:0:0:
67,292,175654,1,0,0:0:0:0:
80,333,175766,5,0,0:0:0:0:
110,263,175878,1,0,0:0:0:0:
110,187,175990,1,0,0:0:0:0:
85,115,176102,1,0,0:0:0:0:
29,63,176214,1,0,0:0:0:0:
289,241,176438,1,0,0:0:0:0:
225,200,176550,1,0,0:0:0:0:
149,200,176662,6,0,P|131:172|130:130,1,53.9999983520508,8|0,0:0|0:0,0:0:0:0:
378,109,176886,2,0,P|368:141|345:159,1,53.9999983520508,8|0,0:0|0:0,0:0:0:0:
203,36,177110,2,0,P|215:9|245:-1,1,53.9999983520508,8|0,0:0|0:0,0:0:0:0:
262,256,177334,1,8,0:0:0:0:
245,243,177445,1,8,0:0:0:0:
150,137,177781,2,0,P|154:168|158:207,1,53.9999983520508,8|0,0:3|0:0,0:0:0:0:
114,253,178005,2,0,P|124:165|138:63,1,161.999995056153,2|0,0:0|0:0,0:0:0:0:
44,44,178453,6,0,B|34:115|58:205|80:154|104:249|100:307,1,270,0|0,0:0|0:0,0:0:0:0:
175,122,180244,6,0,L|181:65,3,30,2|0|0|0,3:2|0:0|0:0|0:0,0:0:0:0:
257,197,180692,2,0,L|263:261,1,45,2|0,3:2|0:0,0:0:0:0:
268,183,180916,2,0,L|274:247,1,45,0|0,0:0|0:0,0:0:0:0:
292,243,181140,2,0,L|285:150,1,90,2|2,3:2|0:0,0:0:0:0:
385,278,181587,1,2,3:2:0:0:
352,352,181811,6,0,P|359:256|368:159,1,180,2|2,0:0|0:0,0:0:0:0:
506,35,182483,1,0,3:0:0:0:
474,134,182707,1,2,0:0:0:0:
260,32,182931,5,2,3:2:0:0:
276,125,183154,1,2,0:0:0:0:
369,108,183378,1,2,3:2:0:0:
353,15,183602,1,2,0:0:0:0:
261,142,183826,6,0,L|255:182,3,30,2|0|0|0,3:2|0:0|0:0|0:0,0:0:0:0:
166,286,184274,2,0,P|158:238|150:185,1,90,2|0,3:2|0:0,0:0:0:0:
98,150,184610,1,2,0:0:0:0:
167,195,184722,2,0,P|209:186|265:179,1,90,2|2,3:2|0:0,0:0:0:0:
195,39,185169,1,2,3:2:0:0:
118,73,185393,6,0,B|160:76|224:62|183:42|244:21|312:30,1,180,2|2,0:0|0:0,0:0:0:0:
350,93,186065,1,0,3:0:0:0:
331,226,186289,1,2,0:0:0:0:
394,306,186513,2,0,P|403:260|414:212,1,90,2|2,3:2|0:0,0:0:0:0:
512,370,186960,2,0,P|503:324|492:276,1,90,2|2,3:2|0:0,0:0:0:0:
294,340,187408,6,0,L|239:333,3,30,2|0|0|0,3:2|0:0|0:0|0:0,0:0:0:0:
186,266,187856,2,0,L|180:215,1,45,2|0,3:2|0:0,0:0:0:0:
202,276,188080,2,0,L|196:225,1,45
158,200,188304,2,0,L|172:306,1,90,2|2,3:2|0:0,0:0:0:0:
65,114,188751,2,0,P|74:84|83:60,1,45,2|0,3:2|0:0,0:0:0:0:
24,12,188975,6,0,P|33:113|39:222,1,180,2|2,0:0|0:0,0:0:0:0:
284,133,189647,1,0,3:0:0:0:
144,349,189871,2,0,P|157:296|169:255,1,90,2|0,0:0|3:0,0:0:0:0:
105,211,190207,1,0,0:0:0:0:
184,273,190319,2,0,P|226:257|292:244,1,90,0|2,0:0|3:2,0:0:0:0:
490,378,190766,6,0,B|447:380|371:370|423:345|358:331|314:336,1,180,2|2,0:0|0:0,0:0:0:0:
427,201,191438,1,2,3:2:0:0:
361,127,191662,2,0,P|355:94|346:54,1,45,2|0,0:0|0:0,0:0:0:0:
287,36,191886,2,0,P|248:47|190:61,1,90,0|2,0:0|0:0,0:0:0:0:
251,234,192334,2,0,P|270:273|298:349,1,90,2|0,3:2|0:0,0:0:0:0:
70,161,192781,6,0,P|62:132|71:106,1,45,10|0,0:0|0:0,0:0:0:0:
289,195,193005,2,0,P|281:224|260:242,1,45,8|0,0:0|0:0,0:0:0:0:
203,71,193229,2,0,P|229:56|245:57,1,45,8|0,0:0|0:0,0:0:0:0:
146,255,193453,1,8,0:0:0:0:
135,229,193565,1,8,0:0:0:0:
414,325,193901,1,2,0:0:0:0:
461,328,194013,1,0,0:0:0:0:
499,357,194125,6,2,B|447:362|369:349|406:322|330:305|271:307,1,229.500004377365,10|0,0:1|0:0,0:0:0:0:
94,378,194572,6,0,P|84:315|56:238,1,135.000005149842,6|0,3:2|0:0,0:0:0:0:
0,159,194908,1,0,0:0:0:0:
89,246,195020,2,0,P|226:222|367:207,1,270.000010299683,10|2,0:0|3:2,0:0:0:0:
468,27,195692,2,0,P|433:9|389:-4,1,67.5000025749208,2|0,0:0|0:0,0:0:0:0:
368,184,195916,2,0,P|439:169|507:161,1,135.000005149842,10|2,0:0|0:0,0:0:0:0:
107,95,196363,6,0,P|78:33|-4:43,1,135.000005149842,0|2,0:0|0:0,0:0:0:0:
126,115,196699,2,0,P|138:151|146:181,1,67.5000025749208,0|8,0:0|0:0,0:0:0:0:
354,355,197035,1,2,0:0:0:0:
302,22,197259,2,0,P|287:77|271:153,1,135.000005149842,2|2,3:2|0:0,0:0:0:0:
188,92,197595,1,0,0:0:0:0:
290,167,197707,2,0,P|359:142|431:121,1,135.000005149842,10|2,0:0|0:0,0:0:0:0:
141,355,198154,6,0,P|119:290|56:298,1,135.000005149842,2|0,3:2|0:0,0:0:0:0:
19,371,198490,1,0,0:0:0:0:
74,263,198602,2,0,P|64:204|47:122,1,135.000005149842,10|0,0:0|0:0,0:0:0:0:
0,50,198938,1,0,0:0:0:0:
75,139,199050,2,0,P|119:148|134:71,1,135.000005149842,2|2,3:2|0:0,0:0:0:0:
78,165,199386,2,0,P|89:198|96:239,1,67.5000025749208,0|10,0:0|0:0,0:0:0:0:
358,378,199722,6,0,P|379:301|401:241,1,135.000005149842,2|0,0:0|0:0,0:0:0:0:
139,88,200169,2,0,P|166:14|220:17,1,135.000005149842,2|8,0:0|0:0,0:0:0:0:
58,327,200617,2,0,P|88:313|124:303,1,67.5000025749208,2|0,0:0|0:0,0:0:0:0:
262,116,200841,1,2,3:2:0:0:
363,355,201065,1,2,0:0:0:0:
335,325,201177,1,0,0:0:0:0:
297,310,201289,1,10,0:0:0:0:
470,237,201513,2,0,P|488:200|506:172,1,67.5000025749208,2|0,0:0|0:0,0:0:0:0:
465,91,201737,6,0,P|412:102|333:121,1,135.000005149842,2|0,3:2|0:0,0:0:0:0:
270,38,202072,1,0,0:0:0:0:
336,146,202184,2,0,P|300:251|146:230,1,270.000010299683,10|2,0:0|3:2,0:0:0:0:
396,357,202856,2,0,P|426:342|463:328,1,67.5000025749208,2|0,0:0|0:0,0:0:0:0:
326,193,203080,2,0,P|259:181|183:171,1,135.000005149842,10|2,0:0|0:0,0:0:0:0:
463,138,203528,6,0,P|479:62|494:2,1,135.000005149842,0|2,3:0|0:0,0:0:0:0:
441,153,203863,2,0,P|451:186|461:230,1,67.5000025749208,0|8,0:0|0:0,0:0:0:0:
131,142,204199,2,0,P|101:85|26:92,1,135.000005149842,2|0,0:0|3:0,0:0:0:0:
279,70,204647,2,0,P|312:54|353:41,1,67.5000025749208,2|0,0:0|0:0,0:0:0:0:
362,210,204871,2,0,P|331:281|306:361,1,135.000005149842,8|2,0:0|0:0,0:0:0:0:
168,30,205319,5,0,3:0:0:0:
281,206,205542,1,2,0:0:0:0:
244,176,205654,1,0,0:0:0:0:
198,161,205766,1,10,0:0:0:0:
440,352,205990,1,2,0:0:0:0:
450,278,206102,1,0,0:0:0:0:
492,216,206214,1,2,3:2:0:0:
345,35,206438,2,0,P|336:79|332:121,1,67.5000025749208,2|0,0:0|0:0,0:0:0:0:
473,304,206662,6,0,B|473:237|459:172|440:206|420:145|418:60,1,229.500004377365,10|0,0:0|0:0,0:0:0:0:
367,266,207110,6,0,P|319:253|239:239,1,107.999996704102,6|0,3:2|0:0,0:0:0:0:
195,282,207445,1,0,0:0:0:0:
247,223,207557,2,0,P|262:104|277:5,1,215.999993408203,8|0,0:0|3:0,0:0:0:0:
89,211,208341,1,0,0:0:0:0:
94,226,208453,1,8,0:0:0:0:
5,116,208677,6,0,P|17:68|29:10,1,107.999996704102,0|0,0:0|3:0,0:0:0:0:
221,170,209125,2,0,P|214:201|207:236,1,53.9999983520508,0|0,0:0|0:0,0:0:0:0:
158,127,209348,5,8,0:0:0:0:
177,294,209572,1,0,0:0:0:0:
345,275,209796,1,0,3:0:0:0:
326,108,210020,1,0,0:0:0:0:
189,281,210244,2,0,P|199:253|200:228,1,53.9999983520508,8|0,0:0|0:0,0:0:0:0:
105,288,210468,2,0,P|89:262|83:238,1,53.9999983520508,0|0,0:0|0:0,0:0:0:0:
169,43,210692,6,0,P|157:96|147:148,1,107.999996704102,0|0,3:0|0:0,0:0:0:0:
74,122,211028,1,0,0:0:0:0:
159,164,211140,2,0,B|204:170|287:150|237:123|319:108|365:115,1,215.999993408203,8|0,0:0|3:0,0:0:0:0:
508,258,211923,1,0,0:0:0:0:
512,273,212035,1,8,0:0:0:0:
461,126,212259,6,0,P|468:75|480:15,1,107.999996704102,0|0,0:0|3:0,0:0:0:0:
277,163,212707,2,0,P|304:169|328:178,1,53.9999983520508,0|0,0:0|0:0,0:0:0:0:
214,113,212931,5,8,0:0:0:0:
222,290,213154,1,0,0:0:0:0:
400,281,213378,1,0,3:0:0:0:
391,103,213602,1,0,0:0:0:0:
244,281,213826,2,0,P|258:305|266:331,1,53.9999983520508,8|0,0:0|0:0,0:0:0:0:
152,262,214050,2,0,P|133:282|120:306,1,53.9999983520508,0|0,0:0|0:0,0:0:0:0:
297,115,214274,6,0,P|283:152|275:183,1,53.9999983520508,0|0,3:0|0:0,0:0:0:0:
170,85,214498,2,0,P|191:118|205:146,1,53.9999983520508,0|0,0:0|0:0,0:0:0:0:
324,111,214722,2,0,P|302:144|288:172,1,53.9999983520508,8|0,0:0|0:0,0:0:0:0:
147,95,214945,2,0,P|174:123|194:148,1,53.9999983520508,0|0,0:0|0:0,0:0:0:0:
341,298,215169,6,0,P|350:264|363:233,1,53.9999983520508,0|0,3:0|0:0,0:0:0:0:
230,198,215393,2,0,P|239:223|245:249,1,53.9999983520508,0|0,0:0|0:0,0:0:0:0:
442,343,215617,2,0,P|431:314|420:276,1,53.9999983520508,8|0,0:0|0:0,0:0:0:0:
129,182,215841,2,0,P|150:220|166:259,1,53.9999983520508,0|0,0:0|0:0,0:0:0:0:
372,44,216065,6,0,P|359:97|348:163,1,107.999996704102,0|0,3:0|0:0,0:0:0:0:
407,231,216401,1,0,0:0:0:0:
321,153,216513,2,0,P|344:99|416:109,1,107.999996704102,8|0,0:0|0:0,0:0:0:0:
357,348,216960,5,0,3:0:0:0:
384,123,217184,1,0,0:0:0:0:
159,95,217408,1,8,0:0:0:0:
132,321,217632,1,0,0:0:0:0:
398,107,217856,6,0,P|416:165|428:220,1,107.999996704102,0|0,3:0|0:0,0:0:0:0:
495,164,218192,1,0,0:0:0:0:
414,228,218304,2,0,P|373:190|322:191,1,107.999996704102,8|0,0:0|0:0,0:0:0:0:
123,321,218751,6,0,P|117:289|89:258,1,53.9999983520508,4|0,0:0|0:0,0:0:0:0:
404,136,218975,2,0,P|382:155|365:191,1,53.9999983520508,4|0,0:0|0:0,0:0:0:0:
162,87,219199,2,0,P|190:74|213:55,1,53.9999983520508,4|0,0:0|0:0,0:0:0:0:
341,327,219423,2,0,P|318:349|309:384,1,53.9999983520508,4|0,0:0|0:0,0:0:0:0:
