osu file format v14

[General]
AudioFilename: audio.mp3
AudioLeadIn: 0
PreviewTime: -1
Countdown: 1
SampleSet: Soft
StackLeniency: 0.7
Mode: 1
LetterboxInBreaks: 0
SkinPreference:Rufoel
WidescreenStoryboard: 0

[Editor]
DistanceSpacing: 1.5
BeatDivisor: 4
GridSize: 32
TimelineZoom: 2.999999

[Metadata]
Title:Nisoku Hokou
TitleUnicode:Nisoku Hokou(二息歩行) Hatsune Miku
Artist:DECO*27
ArtistUnicode:DECO*27
Creator:Rufoel
Version:Inner Oni
Source:
Tags:Hatsune Miku , DECO*27
BeatmapID:950760
BeatmapSetID:442082

[Difficulty]
HPDrainRate:6
CircleSize:6
OverallDifficulty:5
ApproachRate:6
SliderMultiplier:1.4
SliderTickRate:1

[Events]
//Background and Video events
0,0,"two_breaths_walking_by_kiiakiia.jpg",0,0
//Break Periods
//Storyboard Layer 0 (Background)
//Storyboard Layer 1 (Fail)
//Storyboard Layer 2 (Pass)
//Storyboard Layer 3 (Foreground)
//Storyboard Sound Samples

[TimingPoints]
10941.7940074906,333.333333333333,4,2,0,100,1,0
31941,-111.111111111111,4,2,0,100,0,0
32275,-125,4,2,0,100,0,0
32608,-142.857142857143,4,2,0,100,0,0
32941,-166.666666666667,4,2,0,100,0,0
33275,-200,4,2,0,100,0,0
44275,-80,4,2,0,100,0,1
56275,-100,4,2,0,100,0,0
87941,-133.333333333333,4,2,0,100,0,0
98941,-100,4,2,0,100,0,0
113941,-80,4,2,0,100,0,1
131025,-100,4,2,0,100,0,0
157608,-80,4,2,0,100,0,1

[HitObjects]
256,192,275,5,0,0:0:0:0:
256,192,1275,1,0,0:0:0:0:
256,192,1608,1,8,0:0:0:0:
256,192,2608,1,8,0:0:0:0:
256,192,2941,1,0,0:0:0:0:
256,192,3941,1,0,0:0:0:0:
256,192,4275,1,0,0:0:0:0:
256,192,4775,1,0,0:0:0:0:
256,192,4941,1,8,0:0:0:0:
256,192,5275,1,0,0:0:0:0:
256,192,5608,1,12,0:0:0:0:
256,192,6608,1,0,0:0:0:0:
256,192,6775,1,8,0:0:0:0:
256,192,6941,1,0,0:0:0:0:
256,192,7941,1,0,0:0:0:0:
256,192,8275,1,0,0:0:0:0:
256,192,9275,1,8,0:0:0:0:
256,192,9608,1,0,0:0:0:0:
256,192,10108,1,0,0:0:0:0:
256,192,10275,1,8,0:0:0:0:
256,192,10608,1,8,0:0:0:0:
256,192,10941,12,0,20441,0:0:0:0:
256,192,21441,5,0,0:0:0:0:
256,192,21525,1,0,0:0:0:0:
256,192,21608,1,0,0:0:0:0:
256,192,21941,1,8,0:0:0:0:
256,192,22275,1,8,0:0:0:0:
256,192,22608,1,0,0:0:0:0:
256,192,22941,1,0,0:0:0:0:
256,192,23275,1,8,0:0:0:0:
256,192,23608,1,12,0:0:0:0:
256,192,24108,1,0,0:0:0:0:
256,192,24191,1,8,0:0:0:0:
256,192,24275,1,8,0:0:0:0:
256,192,24608,1,0,0:0:0:0:
256,192,24941,1,8,0:0:0:0:
256,192,25275,1,8,0:0:0:0:
256,192,25608,1,0,0:0:0:0:
256,192,25941,1,8,0:0:0:0:
256,192,26275,1,0,0:0:0:0:
256,192,26608,1,0,0:0:0:0:
256,192,26691,1,8,0:0:0:0:
256,192,26775,1,0,0:0:0:0:
288,256,26858,1,8,0:0:0:0:
256,192,26941,1,0,0:0:0:0:
256,192,27275,1,8,0:0:0:0:
256,192,27608,5,0,0:0:0:0:
256,192,27941,1,0,0:0:0:0:
256,192,28108,1,8,0:0:0:0:
256,192,28191,1,0,0:0:0:0:
256,192,28275,1,0,0:0:0:0:
416,352,28608,1,0,0:0:0:0:
256,192,28941,1,12,0:0:0:0:
256,192,29441,1,0,0:0:0:0:
256,192,29525,1,8,0:0:0:0:
256,192,29608,1,0,0:0:0:0:
256,192,29941,1,0,0:0:0:0:
256,192,30275,1,8,0:0:0:0:
256,192,30608,1,8,0:0:0:0:
256,192,30941,1,0,0:0:0:0:
256,192,31275,1,0,0:0:0:0:
256,192,31608,1,8,0:0:0:0:
256,192,31941,1,0,0:0:0:0:
256,192,32275,1,12,0:0:0:0:
256,192,32941,1,4,0:0:0:0:
256,192,33608,1,4,0:0:0:0:
256,192,34275,1,8,0:0:0:0:
256,192,34608,1,8,0:0:0:0:
256,192,35275,1,0,0:0:0:0:
256,192,35608,1,8,0:0:0:0:
256,192,35941,1,8,0:0:0:0:
256,192,36275,1,0,0:0:0:0:
256,192,36608,1,0,0:0:0:0:
256,192,36941,1,8,0:0:0:0:
256,192,37275,1,0,0:0:0:0:
256,192,37608,1,12,0:0:0:0:
256,192,38275,1,0,0:0:0:0:
256,192,38941,1,8,0:0:0:0:
256,192,39608,1,0,0:0:0:0:
256,192,40275,1,0,0:0:0:0:
256,192,40608,1,0,0:0:0:0:
256,192,40775,1,8,0:0:0:0:
256,192,41108,1,8,0:0:0:0:
256,192,41191,1,8,0:0:0:0:
256,192,41275,1,8,0:0:0:0:
256,192,41358,1,8,0:0:0:0:
256,192,41441,1,0,0:0:0:0:
256,192,41608,1,0,0:0:0:0:
256,192,41941,1,8,0:0:0:0:
256,192,42608,1,0,0:0:0:0:
256,192,42941,12,0,44274,0:0:0:0:
256,192,44608,5,4,0:0:0:0:
256,192,44941,1,12,0:0:0:0:
256,192,45275,1,4,0:0:0:0:
256,192,45608,1,4,0:0:0:0:
256,192,45941,1,0,0:0:0:0:
256,192,46025,1,0,0:0:0:0:
256,192,46108,1,0,0:0:0:0:
256,192,46191,1,0,0:0:0:0:
256,192,46275,1,8,0:0:0:0:
256,192,46608,1,0,0:0:0:0:
256,192,46691,1,8,0:0:0:0:
256,192,46775,1,0,0:0:0:0:
256,192,46858,1,8,0:0:0:0:
256,192,46941,1,0,0:0:0:0:
256,192,47275,1,4,0:0:0:0:
256,192,47608,1,12,0:0:0:0:
256,192,47941,1,4,0:0:0:0:
256,192,48275,1,12,0:0:0:0:
256,192,48608,1,8,0:0:0:0:
256,192,48691,1,8,0:0:0:0:
256,192,48775,1,8,0:0:0:0:
256,192,48858,1,8,0:0:0:0:
256,192,48941,1,0,0:0:0:0:
256,192,49275,1,8,0:0:0:0:
256,192,49358,1,0,0:0:0:0:
256,192,49441,1,8,0:0:0:0:
256,192,49525,1,0,0:0:0:0:
256,192,49608,1,8,0:0:0:0:
256,192,49941,1,12,0:0:0:0:
256,192,50275,1,4,0:0:0:0:
256,192,50608,1,4,0:0:0:0:
256,192,50941,1,4,0:0:0:0:
256,192,51275,1,0,0:0:0:0:
256,192,51358,1,8,0:0:0:0:
256,192,51441,1,8,0:0:0:0:
256,192,51525,1,8,0:0:0:0:
256,192,51608,1,0,0:0:0:0:
256,192,51941,1,8,0:0:0:0:
256,192,52025,1,0,0:0:0:0:
256,192,52108,1,0,0:0:0:0:
256,192,52191,1,0,0:0:0:0:
256,192,52275,1,8,0:0:0:0:
256,192,52608,1,12,0:0:0:0:
256,192,52941,1,4,0:0:0:0:
256,192,53275,1,4,0:0:0:0:
256,192,53608,1,12,0:0:0:0:
256,192,53941,1,8,0:0:0:0:
256,192,54025,1,0,0:0:0:0:
256,192,54108,1,0,0:0:0:0:
256,192,54191,1,0,0:0:0:0:
256,192,54275,1,8,0:0:0:0:
256,192,54608,1,0,0:0:0:0:
256,192,54691,1,8,0:0:0:0:
256,192,54775,1,8,0:0:0:0:
256,192,54858,1,8,0:0:0:0:
256,192,54941,1,0,0:0:0:0:
256,192,55275,1,4,0:0:0:0:
256,192,55608,1,12,0:0:0:0:
256,192,55941,1,4,0:0:0:0:
256,192,56275,1,8,0:0:0:0:
256,192,56441,1,8,0:0:0:0:
256,192,56525,5,0,0:0:0:0:
256,192,56608,1,0,0:0:0:0:
256,192,56775,5,0,0:0:0:0:
256,192,57108,1,0,0:0:0:0:
256,192,57275,1,8,0:0:0:0:
256,192,57358,1,8,0:0:0:0:
256,192,57441,1,0,0:0:0:0:
256,192,57525,1,8,0:0:0:0:
256,192,57608,1,0,0:0:0:0:
256,192,57775,1,0,0:0:0:0:
256,192,58108,1,8,0:0:0:0:
256,192,58275,1,0,0:0:0:0:
256,192,58358,1,0,0:0:0:0:
256,192,58441,1,8,0:0:0:0:
256,192,58608,1,8,0:0:0:0:
256,192,58941,1,0,0:0:0:0:
256,192,59108,1,0,0:0:0:0:
256,192,59191,1,0,0:0:0:0:
256,192,59275,1,8,0:0:0:0:
256,192,59358,1,0,0:0:0:0:
256,192,59441,1,8,0:0:0:0:
256,192,59608,1,0,0:0:0:0:
256,192,59775,1,8,0:0:0:0:
256,192,60025,1,0,0:0:0:0:
256,192,60108,1,8,0:0:0:0:
256,192,60275,1,8,0:0:0:0:
256,192,60441,1,0,0:0:0:0:
256,192,60608,1,0,0:0:0:0:
256,192,60775,1,8,0:0:0:0:
256,192,60858,1,0,0:0:0:0:
256,192,60941,1,8,0:0:0:0:
256,192,61025,1,8,0:0:0:0:
320,192,61108,1,0,0:0:0:0:
224,192,61275,1,8,0:0:0:0:
256,192,61608,1,0,0:0:0:0:
256,192,61775,1,0,0:0:0:0:
320,192,61858,1,8,0:0:0:0:
256,192,61941,1,8,0:0:0:0:
256,192,62108,1,0,0:0:0:0:
352,192,62275,1,8,0:0:0:0:
320,160,62358,1,8,0:0:0:0:
352,128,62441,1,8,0:0:0:0:
384,160,62525,1,8,0:0:0:0:
256,192,62608,1,0,0:0:0:0:
256,192,62775,1,0,0:0:0:0:
352,192,62941,1,8,0:0:0:0:
256,192,63025,1,0,0:0:0:0:
256,192,63108,1,0,0:0:0:0:
352,192,63275,1,8,0:0:0:0:
256,192,63441,1,0,0:0:0:0:
352,192,63608,1,8,0:0:0:0:
256,192,63775,1,0,0:0:0:0:
256,256,63858,1,0,0:0:0:0:
288,224,63941,1,8,0:0:0:0:
352,128,64108,1,8,0:0:0:0:
256,192,64275,1,0,0:0:0:0:
320,192,64358,1,8,0:0:0:0:
320,192,64441,1,8,0:0:0:0:
256,192,64608,1,0,0:0:0:0:
352,192,64775,1,8,0:0:0:0:
256,192,64941,1,8,0:0:0:0:
256,192,65025,1,0,0:0:0:0:
320,192,65108,1,8,0:0:0:0:
256,192,65275,1,0,0:0:0:0:
352,192,65441,1,8,0:0:0:0:
256,192,65775,1,0,0:0:0:0:
256,192,66108,1,0,0:0:0:0:
256,192,66441,1,0,0:0:0:0:
352,192,66608,1,8,0:0:0:0:
256,192,66775,1,0,0:0:0:0:
352,192,66941,1,8,0:0:0:0:
352,192,67275,1,8,0:0:0:0:
256,192,67358,1,0,0:0:0:0:
256,192,67441,1,0,0:0:0:0:
256,192,67608,1,0,0:0:0:0:
256,192,67691,1,0,0:0:0:0:
352,192,67775,1,8,0:0:0:0:
352,192,67941,1,8,0:0:0:0:
416,96,68108,1,8,0:0:0:0:
384,192,68275,1,8,0:0:0:0:
256,192,68608,1,4,0:0:0:0:
256,192,68941,1,0,0:0:0:0:
256,192,69025,1,8,0:0:0:0:
256,192,69108,1,0,0:0:0:0:
256,192,69608,1,0,0:0:0:0:
256,192,69941,1,8,0:0:0:0:
256,192,70275,1,8,0:0:0:0:
256,192,70608,1,0,0:0:0:0:
256,192,70941,1,8,0:0:0:0:
256,192,71025,1,8,0:0:0:0:
256,192,71108,1,8,0:0:0:0:
256,192,71275,1,0,0:0:0:0:
256,192,71608,1,12,0:0:0:0:
256,192,72275,1,0,0:0:0:0:
256,192,72358,1,0,0:0:0:0:
256,192,72441,1,8,0:0:0:0:
256,192,72608,1,8,0:0:0:0:
256,192,72775,1,0,0:0:0:0:
256,192,72941,1,8,0:0:0:0:
256,192,73275,1,0,0:0:0:0:
256,192,73608,1,8,0:0:0:0:
256,192,73941,1,0,0:0:0:0:
256,192,74275,1,0,0:0:0:0:
256,192,74358,1,8,0:0:0:0:
256,192,74441,1,0,0:0:0:0:
288,96,74608,1,0,0:0:0:0:
256,192,74941,1,8,0:0:0:0:
256,192,75275,1,8,0:0:0:0:
256,192,75608,1,8,0:0:0:0:
256,192,75691,1,0,0:0:0:0:
256,192,75775,1,0,0:0:0:0:
256,192,75941,1,0,0:0:0:0:
256,192,76108,1,8,0:0:0:0:
256,192,76275,1,8,0:0:0:0:
256,192,76358,1,8,0:0:0:0:
256,192,76441,1,0,0:0:0:0:
256,192,76608,1,8,0:0:0:0:
224,96,76775,1,0,0:0:0:0:
256,192,76858,1,0,0:0:0:0:
256,192,76941,1,8,0:0:0:0:
256,192,77108,1,0,0:0:0:0:
256,192,77275,1,8,0:0:0:0:
256,192,77608,1,8,0:0:0:0:
256,192,77691,1,8,0:0:0:0:
256,192,77775,1,0,0:0:0:0:
256,192,77941,1,8,0:0:0:0:
256,192,78275,1,0,0:0:0:0:
256,192,78441,1,8,0:0:0:0:
256,192,78608,1,0,0:0:0:0:
256,192,78941,1,8,0:0:0:0:
256,192,79025,1,8,0:0:0:0:
256,192,79108,1,0,0:0:0:0:
256,192,79191,1,0,0:0:0:0:
256,192,79275,1,8,0:0:0:0:
256,192,79608,1,0,0:0:0:0:
256,192,79691,1,8,0:0:0:0:
256,192,79775,1,8,0:0:0:0:
256,192,79858,1,0,0:0:0:0:
256,192,79941,1,8,0:0:0:0:
256,192,80025,1,0,0:0:0:0:
256,192,80108,1,8,0:0:0:0:
256,192,80191,1,8,0:0:0:0:
256,192,80275,1,8,0:0:0:0:
256,192,80608,1,8,0:0:0:0:
256,192,80941,1,0,0:0:0:0:
256,192,81025,1,8,0:0:0:0:
256,192,81108,1,8,0:0:0:0:
256,192,81191,1,0,0:0:0:0:
256,192,81275,1,0,0:0:0:0:
256,192,81358,1,0,0:0:0:0:
256,192,81441,1,8,0:0:0:0:
256,192,81525,1,8,0:0:0:0:
256,192,81608,1,0,0:0:0:0:
256,192,81941,1,4,0:0:0:0:
256,192,82275,1,12,0:0:0:0:
256,192,82608,1,0,0:0:0:0:
256,192,82775,1,8,0:0:0:0:
256,192,82941,1,0,0:0:0:0:
256,192,83025,1,8,0:0:0:0:
256,192,83108,1,8,0:0:0:0:
256,192,83191,1,0,0:0:0:0:
256,192,83275,1,0,0:0:0:0:
256,192,83358,1,0,0:0:0:0:
256,192,83441,1,0,0:0:0:0:
256,192,83525,1,0,0:0:0:0:
192,192,83608,1,8,0:0:0:0:
256,192,83941,1,8,0:0:0:0:
448,96,84275,1,8,0:0:0:0:
256,192,84608,1,0,0:0:0:0:
480,160,84941,1,8,0:0:0:0:
416,160,85025,1,8,0:0:0:0:
352,160,85108,1,8,0:0:0:0:
256,192,85191,1,0,0:0:0:0:
256,192,85275,1,0,0:0:0:0:
256,192,85358,1,0,0:0:0:0:
320,192,85441,1,8,0:0:0:0:
256,192,85525,1,0,0:0:0:0:
320,192,85608,1,8,0:0:0:0:
352,192,85941,1,8,0:0:0:0:
256,192,86275,1,0,0:0:0:0:
256,192,86608,1,0,0:0:0:0:
256,192,86941,1,0,0:0:0:0:
320,192,87025,1,8,0:0:0:0:
256,192,87108,1,0,0:0:0:0:
256,128,87191,1,8,0:0:0:0:
256,192,87275,1,0,0:0:0:0:
480,192,87608,1,12,0:0:0:0:
256,192,88275,1,0,0:0:0:0:
256,192,88441,1,8,0:0:0:0:
256,192,88608,1,0,0:0:0:0:
256,192,88691,1,0,0:0:0:0:
256,192,88775,1,0,0:0:0:0:
256,192,88858,1,8,0:0:0:0:
256,192,89275,1,8,0:0:0:0:
256,192,89441,1,0,0:0:0:0:
256,192,89608,1,0,0:0:0:0:
256,192,89691,1,8,0:0:0:0:
256,192,89775,1,8,0:0:0:0:
256,192,89858,1,0,0:0:0:0:
256,192,90275,1,0,0:0:0:0:
256,192,90441,1,0,0:0:0:0:
256,192,90608,1,8,0:0:0:0:
256,192,90691,1,0,0:0:0:0:
256,192,90775,1,0,0:0:0:0:
256,192,90858,1,8,0:0:0:0:
256,192,91275,1,8,0:0:0:0:
256,192,91441,1,8,0:0:0:0:
256,192,91608,1,0,0:0:0:0:
256,192,91691,1,8,0:0:0:0:
256,192,91775,1,0,0:0:0:0:
256,192,91858,1,8,0:0:0:0:
256,192,92275,1,0,0:0:0:0:
256,192,92358,1,8,0:0:0:0:
256,192,92441,1,0,0:0:0:0:
256,192,92608,1,8,0:0:0:0:
256,192,92691,1,0,0:0:0:0:
256,192,92775,1,8,0:0:0:0:
256,192,92941,1,0,0:0:0:0:
256,192,93025,1,8,0:0:0:0:
256,192,93108,1,0,0:0:0:0:
256,192,93275,1,8,0:0:0:0:
256,192,93441,1,0,0:0:0:0:
256,192,93608,1,0,0:0:0:0:
256,192,93691,1,8,0:0:0:0:
256,192,93775,1,8,0:0:0:0:
256,192,94275,1,0,0:0:0:0:
256,192,94608,1,8,0:0:0:0:
256,192,94941,1,8,0:0:0:0:
256,192,95025,1,8,0:0:0:0:
256,192,95108,1,8,0:0:0:0:
256,192,95608,1,0,0:0:0:0:
256,192,95941,1,8,0:0:0:0:
256,192,96275,1,8,0:0:0:0:
256,192,96608,1,0,0:0:0:0:
256,192,96941,1,0,0:0:0:0:
256,192,97275,1,8,0:0:0:0:
256,192,97608,1,8,0:0:0:0:
256,192,97691,1,8,0:0:0:0:
256,192,97775,1,0,0:0:0:0:
256,192,97858,1,8,0:0:0:0:
256,192,97941,1,8,0:0:0:0:
256,192,98275,1,0,0:0:0:0:
256,192,98608,1,0,0:0:0:0:
256,192,98941,1,0,0:0:0:0:
256,192,99025,1,0,0:0:0:0:
256,192,99108,1,8,0:0:0:0:
256,192,99191,1,8,0:0:0:0:
256,192,99275,1,8,0:0:0:0:
256,192,99358,1,0,0:0:0:0:
256,192,99441,1,8,0:0:0:0:
256,192,99525,1,0,0:0:0:0:
256,192,99608,1,8,0:0:0:0:
256,192,99691,1,8,0:0:0:0:
256,192,99775,1,8,0:0:0:0:
256,192,99858,1,0,0:0:0:0:
256,192,99941,1,8,0:0:0:0:
256,192,100108,1,0,0:0:0:0:
256,192,100275,1,0,0:0:0:0:
256,192,100441,1,8,0:0:0:0:
256,192,100525,1,8,0:0:0:0:
256,192,100608,1,8,0:0:0:0:
256,192,100775,1,0,0:0:0:0:
256,192,100941,1,8,0:0:0:0:
256,192,101275,1,4,0:0:0:0:
256,192,101608,1,8,0:0:0:0:
256,192,101691,1,8,0:0:0:0:
256,192,101775,1,8,0:0:0:0:
256,192,101858,1,0,0:0:0:0:
256,192,101941,1,8,0:0:0:0:
256,192,102025,1,8,0:0:0:0:
256,192,102108,1,8,0:0:0:0:
256,192,102191,1,0,0:0:0:0:
256,192,102275,1,0,0:0:0:0:
256,192,102358,1,8,0:0:0:0:
256,192,102441,1,8,0:0:0:0:
256,192,102525,1,8,0:0:0:0:
256,192,102608,1,0,0:0:0:0:
256,192,102691,1,0,0:0:0:0:
256,192,102775,1,0,0:0:0:0:
256,192,102858,1,8,0:0:0:0:
256,192,102941,1,0,0:0:0:0:
256,192,103025,1,0,0:0:0:0:
256,192,103108,1,0,0:0:0:0:
256,192,103275,1,8,0:0:0:0:
256,192,103441,1,8,0:0:0:0:
256,192,103941,1,4,0:0:0:0:
256,192,104275,1,4,0:0:0:0:
256,192,104775,1,0,0:0:0:0:
256,192,104858,1,8,0:0:0:0:
256,192,104941,1,0,0:0:0:0:
256,192,105108,1,0,0:0:0:0:
256,192,105275,1,0,0:0:0:0:
192,96,105441,1,0,0:0:0:0:
256,192,106108,1,8,0:0:0:0:
256,192,106191,1,0,0:0:0:0:
256,192,106275,1,8,0:0:0:0:
256,192,106441,1,8,0:0:0:0:
256,192,106608,1,8,0:0:0:0:
256,192,106775,1,8,0:0:0:0:
256,192,107441,1,0,0:0:0:0:
256,192,107608,1,8,0:0:0:0:
256,192,107775,1,8,0:0:0:0:
256,192,107941,1,8,0:0:0:0:
256,192,108108,1,0,0:0:0:0:
256,192,108275,1,0,0:0:0:0:
256,192,108358,1,8,0:0:0:0:
256,192,108441,1,8,0:0:0:0:
256,192,108525,1,8,0:0:0:0:
256,192,108608,1,8,0:0:0:0:
256,192,108691,1,8,0:0:0:0:
256,192,108775,1,0,0:0:0:0:
256,192,108941,1,0,0:0:0:0:
256,192,109108,1,8,0:0:0:0:
256,256,109191,1,0,0:0:0:0:
256,192,109275,1,0,0:0:0:0:
256,192,109441,1,8,0:0:0:0:
224,256,109608,1,0,0:0:0:0:
256,224,109691,1,0,0:0:0:0:
288,256,109775,1,8,0:0:0:0:
320,224,109858,1,8,0:0:0:0:
288,192,109941,1,8,0:0:0:0:
256,224,110025,1,0,0:0:0:0:
256,224,110108,1,0,0:0:0:0:
224,192,110191,1,8,0:0:0:0:
256,224,110275,1,0,0:0:0:0:
256,224,110358,1,0,0:0:0:0:
192,224,110441,1,8,0:0:0:0:
224,256,110525,1,8,0:0:0:0:
288,256,110608,1,8,0:0:0:0:
256,224,110691,1,0,0:0:0:0:
256,224,110775,1,0,0:0:0:0:
256,224,110858,1,0,0:0:0:0:
256,288,110941,1,8,0:0:0:0:
256,224,111025,1,8,0:0:0:0:
256,224,111108,1,0,0:0:0:0:
256,224,111191,1,0,0:0:0:0:
256,288,111275,1,8,0:0:0:0:
256,224,111358,1,8,0:0:0:0:
256,224,111441,1,0,0:0:0:0:
256,288,111525,1,8,0:0:0:0:
256,224,111608,1,0,0:0:0:0:
256,288,111691,1,8,0:0:0:0:
256,224,111775,1,0,0:0:0:0:
256,224,111941,1,0,0:0:0:0:
256,224,112108,1,0,0:0:0:0:
256,224,112275,1,8,0:0:0:0:
256,224,112358,1,8,0:0:0:0:
256,224,112441,1,8,0:0:0:0:
256,224,112608,1,8,0:0:0:0:
256,224,112941,1,0,0:0:0:0:
256,224,113275,1,8,0:0:0:0:
256,224,113608,1,0,0:0:0:0:
256,224,113941,1,8,0:0:0:0:
256,224,114275,1,0,0:0:0:0:
256,224,114608,1,8,0:0:0:0:
256,224,114941,1,0,0:0:0:0:
256,224,115025,1,8,0:0:0:0:
256,224,115108,1,8,0:0:0:0:
256,224,115275,1,0,0:0:0:0:
256,224,115441,1,8,0:0:0:0:
256,224,115608,1,8,0:0:0:0:
256,224,115691,1,8,0:0:0:0:
256,224,115775,1,8,0:0:0:0:
256,128,115858,1,0,0:0:0:0:
256,224,115941,1,0,0:0:0:0:
256,224,116108,1,0,0:0:0:0:
256,224,116275,1,8,0:0:0:0:
256,224,116441,1,8,0:0:0:0:
256,224,116608,1,0,0:0:0:0:
256,224,116691,1,8,0:0:0:0:
256,224,116775,1,0,0:0:0:0:
256,224,116858,1,8,0:0:0:0:
256,224,116941,1,8,0:0:0:0:
256,224,117108,1,8,0:0:0:0:
256,224,117275,1,0,0:0:0:0:
256,224,117441,1,8,0:0:0:0:
256,224,117525,1,8,0:0:0:0:
256,224,117608,1,8,0:0:0:0:
256,224,117691,1,0,0:0:0:0:
256,224,117775,1,8,0:0:0:0:
256,224,117941,1,8,0:0:0:0:
256,224,118108,1,8,0:0:0:0:
256,224,118275,1,8,0:0:0:0:
256,224,118441,1,0,0:0:0:0:
256,224,118608,1,0,0:0:0:0:
256,224,118691,1,8,0:0:0:0:
256,224,118775,1,8,0:0:0:0:
256,224,118858,1,0,0:0:0:0:
256,224,118941,1,8,0:0:0:0:
256,224,119275,1,4,0:0:0:0:
256,224,119608,1,12,0:0:0:0:
256,224,119941,1,4,0:0:0:0:
256,224,120275,1,0,0:0:0:0:
256,224,120358,1,8,0:0:0:0:
256,224,120441,1,8,0:0:0:0:
256,224,120525,1,0,0:0:0:0:
256,224,120608,1,8,0:0:0:0:
256,224,120691,1,8,0:0:0:0:
256,224,120775,1,8,0:0:0:0:
256,224,120941,1,8,0:0:0:0:
256,224,121025,1,8,0:0:0:0:
256,224,121108,1,0,0:0:0:0:
256,224,121191,1,8,0:0:0:0:
256,224,121275,1,0,0:0:0:0:
256,224,121358,1,8,0:0:0:0:
256,224,121441,1,0,0:0:0:0:
256,224,121525,1,8,0:0:0:0:
256,224,121608,1,8,0:0:0:0:
256,224,121775,1,0,0:0:0:0:
256,224,121941,1,8,0:0:0:0:
256,224,122108,1,8,0:0:0:0:
256,224,122275,1,0,0:0:0:0:
256,224,122441,1,8,0:0:0:0:
256,224,122608,1,0,0:0:0:0:
256,224,122775,1,8,0:0:0:0:
256,224,122941,1,8,0:0:0:0:
256,224,123025,1,8,0:0:0:0:
256,224,123108,1,8,0:0:0:0:
256,224,123191,5,0,0:0:0:0:
256,224,123275,1,0,0:0:0:0:
256,224,123441,1,8,0:0:0:0:
256,224,123608,1,0,0:0:0:0:
256,224,123691,1,0,0:0:0:0:
256,224,123775,1,0,0:0:0:0:
256,224,123858,1,8,0:0:0:0:
416,320,123941,1,0,0:0:0:0:
256,224,124108,1,8,0:0:0:0:
256,224,124275,5,0,0:0:0:0:
256,224,124358,1,8,0:0:0:0:
256,224,124441,1,8,0:0:0:0:
256,224,124608,1,0,0:0:0:0:
256,224,124775,1,8,0:0:0:0:
256,224,124941,1,8,0:0:0:0:
256,224,125108,1,0,0:0:0:0:
256,224,125275,1,8,0:0:0:0:
256,224,125358,1,0,0:0:0:0:
256,224,125441,1,0,0:0:0:0:
256,224,125608,1,8,0:0:0:0:
256,224,125691,1,0,0:0:0:0:
256,224,125775,1,8,0:0:0:0:
256,224,125858,1,0,0:0:0:0:
256,224,125941,1,8,0:0:0:0:
256,224,126025,1,0,0:0:0:0:
256,224,126108,1,0,0:0:0:0:
256,224,126191,1,0,0:0:0:0:
256,224,126275,1,8,0:0:0:0:
256,224,126358,1,0,0:0:0:0:
256,224,126441,1,0,0:0:0:0:
256,224,126525,1,8,0:0:0:0:
256,224,126608,1,0,0:0:0:0:
256,224,126691,1,8,0:0:0:0:
256,224,126775,1,8,0:0:0:0:
256,224,126858,1,0,0:0:0:0:
256,224,126941,1,8,0:0:0:0:
256,224,127025,1,8,0:0:0:0:
256,224,127108,1,0,0:0:0:0:
256,224,127191,1,8,0:0:0:0:
256,224,127275,1,8,0:0:0:0:
256,224,127525,1,0,0:0:0:0:
256,224,127858,1,0,0:0:0:0:
256,224,128191,1,0,0:0:0:0:
256,224,128275,1,8,0:0:0:0:
256,224,128358,1,8,0:0:0:0:
256,224,128441,1,8,0:0:0:0:
256,224,128525,1,0,0:0:0:0:
256,224,128608,1,8,0:0:0:0:
256,224,128691,1,8,0:0:0:0:
256,224,128775,1,0,0:0:0:0:
256,224,128858,1,0,0:0:0:0:
256,224,128941,1,8,0:0:0:0:
256,224,129025,1,0,0:0:0:0:
256,224,129108,1,0,0:0:0:0:
256,224,129191,1,8,0:0:0:0:
320,192,129275,1,8,0:0:0:0:
352,224,129358,1,0,0:0:0:0:
256,224,129441,1,0,0:0:0:0:
352,224,129525,1,0,0:0:0:0:
256,224,129608,1,0,0:0:0:0:
256,224,129691,1,0,0:0:0:0:
256,224,129775,1,0,0:0:0:0:
320,192,129858,1,8,0:0:0:0:
256,224,129941,1,8,0:0:0:0:
256,224,130025,1,0,0:0:0:0:
192,224,130108,1,8,0:0:0:0:
192,224,130191,1,8,0:0:0:0:
192,224,130275,1,8,0:0:0:0:
192,224,130358,1,8,0:0:0:0:
256,224,130441,1,0,0:0:0:0:
256,224,130525,1,0,0:0:0:0:
192,224,130608,1,8,0:0:0:0:
192,224,130691,1,8,0:0:0:0:
256,224,130775,1,0,0:0:0:0:
256,224,130858,1,0,0:0:0:0:
192,224,130941,1,8,0:0:0:0:
256,224,131275,1,0,0:0:0:0:
256,224,131441,1,8,0:0:0:0:
256,224,131608,1,8,0:0:0:0:
256,224,131775,1,0,0:0:0:0:
256,224,131941,1,8,0:0:0:0:
256,224,132108,1,8,0:0:0:0:
256,224,132275,1,8,0:0:0:0:
256,224,132358,1,8,0:0:0:0:
256,224,132441,1,0,0:0:0:0:
256,224,132608,1,0,0:0:0:0:
256,224,132691,1,8,0:0:0:0:
256,224,132775,1,8,0:0:0:0:
256,224,132941,1,8,0:0:0:0:
256,224,133025,1,8,0:0:0:0:
256,224,133108,1,0,0:0:0:0:
256,224,133275,1,0,0:0:0:0:
256,224,133441,1,8,0:0:0:0:
256,224,133608,1,8,0:0:0:0:
256,224,133775,1,0,0:0:0:0:
256,224,133941,1,0,0:0:0:0:
256,224,134108,1,0,0:0:0:0:
256,224,134275,1,8,0:0:0:0:
256,224,134358,1,8,0:0:0:0:
256,224,134441,1,8,0:0:0:0:
256,224,134525,1,0,0:0:0:0:
256,224,134608,1,8,0:0:0:0:
256,224,134691,1,8,0:0:0:0:
256,224,134775,1,8,0:0:0:0:
256,224,134858,1,0,0:0:0:0:
256,224,134941,1,8,0:0:0:0:
256,224,135025,1,8,0:0:0:0:
256,224,135108,1,8,0:0:0:0:
256,224,135191,1,0,0:0:0:0:
256,224,135275,1,8,0:0:0:0:
256,224,135358,1,8,0:0:0:0:
256,224,135441,1,8,0:0:0:0:
256,224,135608,1,8,0:0:0:0:
256,224,135941,1,4,0:0:0:0:
256,224,136275,1,12,0:0:0:0:
256,224,136608,1,12,0:0:0:0:
256,224,136941,1,4,0:0:0:0:
256,224,137275,1,4,0:0:0:0:
256,224,137608,1,4,0:0:0:0:
256,224,137941,1,12,0:0:0:0:
256,224,138275,1,12,0:0:0:0:
256,224,138608,1,8,0:0:0:0:
256,224,138691,1,0,0:0:0:0:
256,224,138775,1,8,0:0:0:0:
256,224,138858,1,8,0:0:0:0:
256,224,138941,1,0,0:0:0:0:
256,224,139108,1,8,0:0:0:0:
256,224,139275,1,0,0:0:0:0:
256,224,139441,1,0,0:0:0:0:
256,224,139525,1,8,0:0:0:0:
256,224,139608,1,8,0:0:0:0:
256,224,139691,1,8,0:0:0:0:
256,224,139775,1,0,0:0:0:0:
256,224,139941,1,0,0:0:0:0:
256,224,140108,1,8,0:0:0:0:
256,224,140275,1,0,0:0:0:0:
256,224,140441,1,0,0:0:0:0:
256,224,140525,1,8,0:0:0:0:
256,224,140608,1,0,0:0:0:0:
256,224,140691,1,8,0:0:0:0:
256,224,140775,1,0,0:0:0:0:
256,224,140858,1,8,0:0:0:0:
256,224,140941,1,8,0:0:0:0:
256,224,141025,1,8,0:0:0:0:
256,224,141108,1,0,0:0:0:0:
256,224,141191,1,8,0:0:0:0:
256,224,141275,1,0,0:0:0:0:
224,128,141441,1,0,0:0:0:0:
256,224,141525,1,8,0:0:0:0:
288,192,141608,1,0,0:0:0:0:
192,224,141775,1,0,0:0:0:0:
256,224,141858,1,8,0:0:0:0:
256,224,141941,1,8,0:0:0:0:
256,224,142025,1,0,0:0:0:0:
256,224,142108,1,8,0:0:0:0:
256,224,142191,1,8,0:0:0:0:
256,224,142275,1,0,0:0:0:0:
256,224,142441,1,8,0:0:0:0:
256,224,142608,1,0,0:0:0:0:
256,224,142775,1,8,0:0:0:0:
256,224,142941,1,0,0:0:0:0:
256,224,143025,1,8,0:0:0:0:
224,192,143108,1,0,0:0:0:0:
256,224,143191,1,8,0:0:0:0:
256,224,143275,1,8,0:0:0:0:
256,224,143441,1,8,0:0:0:0:
256,224,143608,1,8,0:0:0:0:
256,224,143691,1,8,0:0:0:0:
256,224,143775,1,0,0:0:0:0:
288,160,143858,1,0,0:0:0:0:
256,224,143941,1,8,0:0:0:0:
256,224,144025,1,8,0:0:0:0:
256,192,144108,1,0,0:0:0:0:
256,192,144275,1,0,0:0:0:0:
256,224,144441,1,8,0:0:0:0:
256,224,144608,1,8,0:0:0:0:
256,192,144775,1,0,0:0:0:0:
256,192,144941,1,0,0:0:0:0:
256,224,145025,1,8,0:0:0:0:
256,192,145108,1,0,0:0:0:0:
256,224,145191,1,8,0:0:0:0:
256,224,145275,1,8,0:0:0:0:
256,192,145358,1,0,0:0:0:0:
256,192,145441,1,0,0:0:0:0:
256,224,145525,1,8,0:0:0:0:
256,224,145608,1,8,0:0:0:0:
256,224,145691,1,8,0:0:0:0:
256,192,145775,1,0,0:0:0:0:
256,192,145858,1,0,0:0:0:0:
256,192,145941,1,0,0:0:0:0:
256,192,146108,1,0,0:0:0:0:
256,192,146275,1,8,0:0:0:0:
256,192,146441,1,0,0:0:0:0:
256,192,146525,1,8,0:0:0:0:
256,192,146608,1,8,0:0:0:0:
256,192,146691,1,0,0:0:0:0:
256,192,146775,1,8,0:0:0:0:
256,192,146858,1,8,0:0:0:0:
256,192,146941,1,0,0:0:0:0:
256,192,147025,1,0,0:0:0:0:
256,192,147108,1,8,0:0:0:0:
256,192,147191,1,0,0:0:0:0:
256,192,147275,1,0,0:0:0:0:
256,192,147608,1,0,0:0:0:0:
256,192,147941,1,8,0:0:0:0:
256,192,148275,1,0,0:0:0:0:
256,192,148608,1,8,0:0:0:0:
256,192,148941,1,8,0:0:0:0:
256,192,149108,1,0,0:0:0:0:
256,192,149191,1,8,0:0:0:0:
256,192,149275,1,0,0:0:0:0:
256,192,149358,1,8,0:0:0:0:
256,192,149441,1,0,0:0:0:0:
256,192,149608,1,8,0:0:0:0:
256,192,149691,1,8,0:0:0:0:
256,192,149775,1,8,0:0:0:0:
256,192,149941,1,0,0:0:0:0:
256,192,150025,1,0,0:0:0:0:
256,192,150108,1,0,0:0:0:0:
256,192,150275,1,8,0:0:0:0:
256,192,150358,1,8,0:0:0:0:
256,192,150441,1,8,0:0:0:0:
256,192,150608,1,0,0:0:0:0:
256,192,150691,1,0,0:0:0:0:
256,192,150775,1,0,0:0:0:0:
256,192,150941,1,0,0:0:0:0:
256,192,151025,1,8,0:0:0:0:
256,192,151108,1,0,0:0:0:0:
256,192,151191,1,8,0:0:0:0:
256,192,151275,1,0,0:0:0:0:
256,192,151358,1,0,0:0:0:0:
256,192,151441,1,0,0:0:0:0:
256,192,151525,1,8,0:0:0:0:
256,192,151608,1,8,0:0:0:0:
256,192,151691,1,8,0:0:0:0:
256,192,151775,1,0,0:0:0:0:
256,192,151858,1,0,0:0:0:0:
256,192,151941,1,8,0:0:0:0:
256,192,152025,1,8,0:0:0:0:
256,192,152108,1,8,0:0:0:0:
256,192,152191,1,0,0:0:0:0:
256,192,152275,1,0,0:0:0:0:
256,192,152441,1,0,0:0:0:0:
256,192,152525,1,8,0:0:0:0:
256,192,152608,1,8,0:0:0:0:
256,192,152691,1,8,0:0:0:0:
256,192,152775,1,8,0:0:0:0:
256,192,152858,1,8,0:0:0:0:
256,192,152941,1,0,0:0:0:0:
256,192,153108,1,8,0:0:0:0:
256,192,153191,1,0,0:0:0:0:
256,192,153275,1,0,0:0:0:0:
256,192,153358,1,0,0:0:0:0:
256,192,153441,1,0,0:0:0:0:
256,192,153525,1,0,0:0:0:0:
256,192,153608,1,8,0:0:0:0:
256,192,153775,1,8,0:0:0:0:
256,192,153858,1,0,0:0:0:0:
256,192,153941,1,8,0:0:0:0:
256,192,154025,1,0,0:0:0:0:
256,192,154108,1,8,0:0:0:0:
256,192,154191,1,0,0:0:0:0:
256,192,154275,1,8,0:0:0:0:
256,192,154441,1,0,0:0:0:0:
256,192,154525,1,8,0:0:0:0:
256,192,154608,1,0,0:0:0:0:
256,192,154691,1,8,0:0:0:0:
256,192,154775,1,0,0:0:0:0:
256,192,154858,1,8,0:0:0:0:
256,192,154941,1,0,0:0:0:0:
256,192,155108,1,0,0:0:0:0:
256,192,155191,1,0,0:0:0:0:
256,192,155275,1,8,0:0:0:0:
256,192,155358,1,8,0:0:0:0:
256,192,155441,1,8,0:0:0:0:
256,192,155525,1,0,0:0:0:0:
256,192,155608,1,0,0:0:0:0:
256,192,155775,1,8,0:0:0:0:
256,192,155858,1,8,0:0:0:0:
256,192,155941,1,0,0:0:0:0:
256,256,156025,1,0,0:0:0:0:
256,192,156108,1,0,0:0:0:0:
256,192,156191,1,8,0:0:0:0:
256,192,156275,1,8,0:0:0:0:
256,192,156441,1,8,0:0:0:0:
256,192,156525,1,0,0:0:0:0:
256,192,156608,1,8,0:0:0:0:
256,192,156691,1,8,0:0:0:0:
256,192,156775,1,8,0:0:0:0:
256,192,156858,1,0,0:0:0:0:
256,192,156941,1,8,0:0:0:0:
256,192,157108,1,0,0:0:0:0:
256,192,157191,1,8,0:0:0:0:
256,192,157275,1,0,0:0:0:0:
256,192,157358,1,0,0:0:0:0:
256,192,157441,1,0,0:0:0:0:
256,192,157608,1,8,0:0:0:0:
256,192,157941,1,0,0:0:0:0:
256,192,158025,1,8,0:0:0:0:
256,192,158108,1,0,0:0:0:0:
256,192,158191,1,8,0:0:0:0:
256,192,158275,1,0,0:0:0:0:
256,192,158358,1,8,0:0:0:0:
256,192,158441,1,0,0:0:0:0:
256,192,158525,1,8,0:0:0:0:
256,192,158608,1,0,0:0:0:0:
256,192,158691,1,8,0:0:0:0:
256,192,158775,1,8,0:0:0:0:
256,192,158858,1,8,0:0:0:0:
256,192,158941,1,0,0:0:0:0:
256,192,159275,1,4,0:0:0:0:
256,192,159608,1,4,0:0:0:0:
256,192,159941,1,4,0:0:0:0:
256,192,160275,1,0,0:0:0:0:
256,192,160358,1,8,0:0:0:0:
256,192,160441,1,8,0:0:0:0:
256,192,160525,1,8,0:0:0:0:
256,192,160608,1,8,0:0:0:0:
256,192,160691,1,0,0:0:0:0:
256,192,160775,1,8,0:0:0:0:
256,192,160858,1,8,0:0:0:0:
256,192,160941,1,0,0:0:0:0:
256,192,161025,1,8,0:0:0:0:
256,192,161108,1,8,0:0:0:0:
256,192,161191,1,8,0:0:0:0:
256,192,161275,1,8,0:0:0:0:
256,192,161358,1,0,0:0:0:0:
256,192,161441,1,8,0:0:0:0:
256,192,161525,1,8,0:0:0:0:
256,256,161608,1,0,0:0:0:0:
320,0,161941,1,4,0:0:0:0:
512,192,162275,1,12,0:0:0:0:
288,320,162608,1,4,0:0:0:0:
256,192,162941,1,8,0:0:0:0:
256,192,163025,1,0,0:0:0:0:
256,192,163108,1,0,0:0:0:0:
256,192,163191,1,0,0:0:0:0:
256,192,163275,1,0,0:0:0:0:
256,192,163358,1,8,0:0:0:0:
256,192,163441,1,0,0:0:0:0:
256,192,163525,1,0,0:0:0:0:
256,192,163608,1,8,0:0:0:0:
256,192,163691,1,0,0:0:0:0:
256,192,163775,1,0,0:0:0:0:
256,192,163858,1,0,0:0:0:0:
256,192,163941,1,8,0:0:0:0:
256,192,164025,1,0,0:0:0:0:
256,192,164108,1,0,0:0:0:0:
256,192,164191,1,8,0:0:0:0:
256,192,164275,1,0,0:0:0:0:
256,192,164358,1,0,0:0:0:0:
448,224,164608,1,12,0:0:0:0:
256,64,164941,1,12,0:0:0:0:
480,160,165275,1,4,0:0:0:0:
352,224,165608,1,0,0:0:0:0:
256,192,165691,1,8,0:0:0:0:
256,192,165775,1,8,0:0:0:0:
352,160,165858,1,0,0:0:0:0:
256,192,165941,1,8,0:0:0:0:
256,192,166025,1,8,0:0:0:0:
320,192,166108,1,0,0:0:0:0:
352,160,166191,1,0,0:0:0:0:
256,192,166275,1,8,0:0:0:0:
352,160,166358,1,0,0:0:0:0:
256,192,166441,1,8,0:0:0:0:
256,192,166525,1,0,0:0:0:0:
256,192,166608,1,8,0:0:0:0:
352,160,166691,1,0,0:0:0:0:
256,192,166775,1,8,0:0:0:0:
320,192,166858,1,0,0:0:0:0:
256,192,166941,1,8,0:0:0:0:
320,96,167275,1,4,0:0:0:0:
416,160,167608,1,12,0:0:0:0:
448,128,167941,1,4,0:0:0:0:
320,192,168275,1,0,0:0:0:0:
320,192,168358,1,8,0:0:0:0:
320,192,168441,1,8,0:0:0:0:
320,192,168525,1,0,0:0:0:0:
320,192,168608,1,8,0:0:0:0:
320,192,168691,1,8,0:0:0:0:
320,192,168775,1,8,0:0:0:0:
320,192,168858,1,0,0:0:0:0:
320,192,168941,1,0,0:0:0:0:
320,192,169025,1,0,0:0:0:0:
320,192,169108,1,8,0:0:0:0:
320,192,169191,1,0,0:0:0:0:
320,192,169275,1,0,0:0:0:0:
320,192,169358,1,8,0:0:0:0:
320,192,169441,1,0,0:0:0:0:
320,192,169525,1,8,0:0:0:0:
320,192,169608,1,8,0:0:0:0:
320,192,169691,1,0,0:0:0:0:
320,192,169775,1,0,0:0:0:0:
320,192,169858,1,8,0:0:0:0:
320,192,169941,1,8,0:0:0:0:
320,192,170025,1,0,0:0:0:0:
320,192,170108,1,8,0:0:0:0:
320,192,170191,1,0,0:0:0:0:
320,192,170275,1,8,0:0:0:0:
320,192,170358,1,0,0:0:0:0:
320,192,170441,1,8,0:0:0:0:
320,192,170525,1,0,0:0:0:0:
320,192,170608,1,8,0:0:0:0:
320,192,170691,1,0,0:0:0:0:
320,192,170775,1,8,0:0:0:0:
320,192,170858,1,0,0:0:0:0:
320,192,170941,1,8,0:0:0:0:
320,192,171025,1,0,0:0:0:0:
320,192,171108,1,8,0:0:0:0:
320,192,171191,1,0,0:0:0:0:
320,192,171275,1,8,0:0:0:0:
320,192,171358,1,8,0:0:0:0:
320,192,171441,1,8,0:0:0:0:
320,192,171525,1,0,0:0:0:0:
320,192,171608,1,0,0:0:0:0:
320,192,171691,1,0,0:0:0:0:
320,192,171775,1,8,0:0:0:0:
320,192,171858,1,0,0:0:0:0:
320,192,171941,1,0,0:0:0:0:
320,192,172025,1,0,0:0:0:0:
320,192,172108,1,8,0:0:0:0:
320,192,172191,1,0,0:0:0:0:
320,192,172275,1,0,0:0:0:0:
320,192,172358,1,0,0:0:0:0:
320,192,172441,1,8,0:0:0:0:
320,192,172525,1,0,0:0:0:0:
320,192,172608,1,0,0:0:0:0:
320,192,172691,1,0,0:0:0:0:
320,192,172775,1,8,0:0:0:0:
320,192,172858,1,8,0:0:0:0:
320,192,172941,1,8,0:0:0:0:
320,192,173025,1,0,0:0:0:0:
320,192,173108,1,8,0:0:0:0:
320,192,173191,1,8,0:0:0:0:
320,192,173275,1,8,0:0:0:0:
320,192,173358,1,0,0:0:0:0:
320,192,173441,1,8,0:0:0:0:
320,192,173525,1,8,0:0:0:0:
320,192,173608,1,8,0:0:0:0:
256,192,173691,1,0,0:0:0:0:
256,192,173775,1,0,0:0:0:0:
256,192,173858,1,0,0:0:0:0:
256,192,173941,1,8,0:0:0:0:
256,192,174025,1,0,0:0:0:0:
256,192,174108,1,0,0:0:0:0:
256,192,174191,1,0,0:0:0:0:
256,192,174275,1,8,0:0:0:0:
256,192,174358,1,0,0:0:0:0:
256,192,174441,1,0,0:0:0:0:
256,192,174525,1,0,0:0:0:0:
256,192,174608,1,8,0:0:0:0:
256,192,174691,1,0,0:0:0:0:
256,192,174775,1,0,0:0:0:0:
256,192,174858,1,8,0:0:0:0:
256,192,174941,1,8,0:0:0:0:
256,192,175025,1,0,0:0:0:0:
256,192,175108,1,0,0:0:0:0:
256,192,175191,1,8,0:0:0:0:
256,192,175275,1,8,0:0:0:0:
256,192,175358,1,0,0:0:0:0:
256,192,175441,1,0,0:0:0:0:
256,192,175525,1,8,0:0:0:0:
256,192,175608,1,8,0:0:0:0:
288,256,175691,1,0,0:0:0:0:
224,224,175775,1,0,0:0:0:0:
256,192,175858,1,8,0:0:0:0:
256,192,175941,1,8,0:0:0:0:
288,224,176025,1,0,0:0:0:0:
224,224,176108,1,0,0:0:0:0:
256,192,176191,1,8,0:0:0:0:
256,192,176275,1,8,0:0:0:0:
256,192,176358,1,0,0:0:0:0:
256,192,176441,1,8,0:0:0:0:
192,192,176525,1,0,0:0:0:0:
256,192,176608,1,8,0:0:0:0:
256,192,176691,1,0,0:0:0:0:
256,192,176775,1,8,0:0:0:0:
192,160,176858,1,0,0:0:0:0:
256,192,176941,1,8,0:0:0:0:
192,192,177025,1,0,0:0:0:0:
256,192,177108,1,8,0:0:0:0:
192,192,177191,1,0,0:0:0:0:
256,192,177275,1,8,0:0:0:0:
192,192,177358,1,0,0:0:0:0:
256,192,177441,1,8,0:0:0:0:
192,192,177525,1,0,0:0:0:0:
256,192,177608,1,8,0:0:0:0:
192,192,177691,1,0,0:0:0:0:
256,192,177775,1,8,0:0:0:0:
192,192,177858,1,0,0:0:0:0:
256,192,177941,1,8,0:0:0:0:
192,192,178025,1,0,0:0:0:0:
192,192,178108,1,0,0:0:0:0:
256,192,178191,1,8,0:0:0:0:
256,192,178275,1,8,0:0:0:0:
192,192,178358,1,0,0:0:0:0:
192,192,178441,1,0,0:0:0:0:
256,192,178525,1,8,0:0:0:0:
256,192,178608,1,8,0:0:0:0:
192,192,178691,1,0,0:0:0:0:
192,192,178775,1,0,0:0:0:0:
192,192,178858,1,0,0:0:0:0:
256,192,178941,1,8,0:0:0:0:
256,192,179025,1,8,0:0:0:0:
256,192,179108,1,8,0:0:0:0:
192,192,179191,1,0,0:0:0:0:
224,256,179275,1,0,0:0:0:0:
192,224,179358,1,0,0:0:0:0:
192,224,179441,1,0,0:0:0:0:
256,192,179525,1,8,0:0:0:0:
256,192,179608,1,8,0:0:0:0:
256,192,179691,1,8,0:0:0:0:
256,192,179775,1,8,0:0:0:0:
224,288,179858,1,0,0:0:0:0:
256,192,179941,1,8,0:0:0:0:
