osu file format v14

[General]
AudioFilename: audio.ogg
AudioLeadIn: 0
PreviewTime: 129704
Countdown: 0
SampleSet: Soft
StackLeniency: 0.7
Mode: 3
LetterboxInBreaks: 0
SpecialStyle: 0
WidescreenStoryboard: 1

[Editor]
Bookmarks: 19489,24177,61833,82458,132302
DistanceSpacing: 1.4
BeatDivisor: 4
GridSize: 16
TimelineZoom: 2.1

[Metadata]
Title:Mannequin feat. Hatsune Miku
TitleUnicode:マネキン feat. 初音ミク
Artist:DECO*27
ArtistUnicode:DECO*27
Creator:Chrisse
Version:Mirsaaa's Hard
Source:
Tags:Mirsaaa vocaloid japanese j rock j-rock manekin Rockwell OTOIRO vampire status effect girlfriend angel hair animal dilemma cinderella gift parasite U deco27 deco 27 デコ・ニーナ jrock KRHS-95888 KARENT
BeatmapID:4091269
BeatmapSetID:1971513

[Difficulty]
HPDrainRate:7.5
CircleSize:4
OverallDifficulty:7.5
ApproachRate:5
SliderMultiplier:1.4
SliderTickRate:1

[Events]
//Background and Video events
0,0,"bg.jpg",0,0
//Break Periods
//Storyboard Layer 0 (Background)
//Storyboard Layer 1 (Fail)
//Storyboard Layer 2 (Pass)
//Storyboard Layer 3 (Foreground)
//Storyboard Layer 4 (Overlay)
//Storyboard Sound Samples
Sample,4079,0,"soft-hitfinish.wav",30
Sample,4391,0,"soft-hitfinish.wav",40
Sample,47204,0,"Snare Wet.wav",40
Sample,47516,0,"Snare Wet.wav",40
Sample,47829,0,"Snare Wet.wav",40
Sample,48141,0,"Snare Wet.wav",40
Sample,61266,0,"Snare Wet.wav",50
Sample,61891,0,"Snare Wet.wav",50
Sample,70954,0,"Snare Wet.wav",50
Sample,106110,0,"Tom3.wav",50
Sample,108610,0,"Tom3.wav",50
Sample,128454,0,"Snare Wet.wav",30
Sample,128610,0,"Snare Wet.wav",30
Sample,128766,0,"Snare Wet.wav",30
Sample,128922,0,"Snare Wet.wav",30
Sample,129157,0,"Snare Wet.wav",30
Sample,129235,0,"Snare Wet.wav",30
Sample,129313,0,"Snare Wet.wav",30
Sample,129469,0,"Snare Wet.wav",30
Sample,129547,0,"Snare Wet.wav",30
Sample,129625,0,"Snare Wet.wav",30
Sample,129704,0,"E6H_s.wav",50
Sample,130485,0,"A6H_s.wav",50
Sample,146579,0,"Hat open.wav",50
Sample,148922,0,"Hat open.wav",50
Sample,149235,0,"Hat open.wav",50

[TimingPoints]
-296,312.5,4,2,1,50,1,0
52204,-100,4,2,1,50,0,1
80954,-100,4,2,1,50,0,0
131266,-100,4,2,1,50,0,1
159704,-100,4,2,1,50,0,0

[HitObjects]
448,192,641,5,0,0:0:0:50:Low Kick.wav
320,192,719,1,0,0:0:0:50:Low Kick.wav
192,192,797,1,0,0:0:0:50:Low Kick.wav
64,192,875,1,0,0:0:0:50:Low Kick.wav
320,192,954,1,0,0:0:0:50:Snare Wet Strong.wav
448,192,954,1,0,0:0:0:0:
192,192,1110,1,0,0:0:0:50:Low Kick.wav
64,192,1266,1,0,0:0:0:50:Snare Wet Strong.wav
448,192,1266,1,0,0:0:0:0:
320,192,1422,1,0,0:0:0:50:Low Kick.wav
64,192,1579,1,0,0:0:0:50:Snare Wet Strong.wav
192,192,1579,1,0,0:0:0:0:
320,192,1735,1,0,0:0:0:50:Low Kick.wav
64,192,1891,1,0,0:0:0:50:Snare Wet Strong.wav
192,192,1891,1,0,0:0:0:50:Tom1.wav
448,192,1891,1,0,0:0:0:0:
320,192,2204,1,2,0:0:0:0:
192,192,2282,1,0,0:0:0:0:
448,192,2360,1,2,0:0:0:0:
320,192,2438,1,0,0:0:0:0:
192,192,2516,1,0,0:0:0:0:
320,192,2594,1,0,0:0:0:0:
64,192,2672,1,2,0:0:0:0:
192,192,2750,1,0,0:0:0:0:
448,192,2829,1,2,0:0:0:0:
320,192,2907,1,0,0:0:0:0:
64,192,2985,1,0,0:0:0:0:
192,192,3063,1,0,0:0:0:0:
320,192,3141,1,2,0:0:0:0:
192,192,3219,1,0,0:0:0:0:
448,192,3297,1,2,0:0:0:0:
320,192,3375,1,0,0:0:0:0:
192,192,3454,1,0,0:0:0:0:
64,192,3532,1,0,0:0:0:0:
320,192,3610,1,2,0:0:0:0:
448,192,3688,1,0,0:0:0:0:
192,192,3766,1,2,0:0:0:0:
320,192,3844,1,0,0:0:0:0:
64,192,3922,1,0,0:0:0:0:
192,192,4000,1,0,0:0:0:0:
448,192,4079,1,2,0:0:0:0:
320,192,4157,1,0,0:0:0:0:
192,192,4235,1,0,0:0:0:0:
64,192,4313,1,0,0:0:0:0:
192,192,4391,1,2,0:0:0:0:
320,192,4469,1,0,0:0:0:0:
448,192,4547,1,0,0:0:0:0:
320,192,4625,1,0,0:0:0:0:
64,192,4704,128,2,5954:0:0:0:0:
192,192,4704,1,4,0:0:0:0:
448,192,5016,128,0,5329:0:0:0:0:
320,192,5329,128,0,5641:0:0:0:0:
192,192,5641,128,0,5954:0:0:0:0:
448,192,5954,1,0,0:0:0:50:A7H_Bb7H.wav
320,192,6266,1,0,0:0:0:50:A7H.wav
192,192,6579,1,0,0:0:0:50:F7H.wav
320,192,6735,1,2,0:0:0:0:
64,192,6813,1,2,0:0:0:0:
320,192,6891,1,0,0:0:0:50:Snare Wet.wav
448,192,6891,1,0,0:0:0:30:soft-hitfinish.wav
192,192,7047,1,0,0:0:0:0:
320,192,7125,1,0,0:0:0:0:
64,192,7204,1,2,0:0:0:0:
192,192,7204,1,4,0:0:0:0:
448,192,7204,1,0,0:0:0:0:
64,192,7516,128,2,7672:0:0:0:0:
192,192,7516,128,0,7672:0:0:0:50:Snare Wet.wav
320,192,7516,128,0,7672:0:0:0:0:
64,192,7829,1,2,0:0:0:0:
448,192,7829,1,0,0:0:0:0:
320,192,7985,128,0,8141:0:0:0:0:
64,192,8141,1,2,0:0:0:0:
192,192,8141,1,0,0:0:0:50:Snare Wet.wav
320,192,8297,128,0,8454:0:0:0:0:
64,192,8454,1,2,0:0:0:0:
448,192,8454,1,0,0:0:0:0:
320,192,8610,128,0,8766:0:0:0:0:
192,192,8766,1,2,0:0:0:0:
448,192,8766,1,0,0:0:0:50:Snare Wet.wav
64,192,8922,128,0,9079:0:0:0:0:
320,192,9079,1,2,0:0:0:0:
448,192,9079,128,0,9391:0:0:0:0:
192,192,9235,128,0,9391:0:0:0:0:
64,192,9391,1,2,0:0:0:0:
320,192,9391,128,0,9704:0:0:0:50:Snare Wet.wav
64,192,9704,1,2,0:0:0:0:
192,192,9704,1,0,0:0:0:0:
192,192,10016,128,2,10172:0:0:0:0:
320,192,10016,128,0,10172:0:0:0:50:Snare Wet.wav
448,192,10016,128,0,10172:0:0:0:0:
64,192,10329,1,2,0:0:0:0:
192,192,10329,1,0,0:0:0:0:
448,192,10485,128,0,10641:0:0:0:0:
64,192,10641,1,2,0:0:0:0:
320,192,10641,1,0,0:0:0:50:Snare Wet.wav
192,192,10797,128,0,11266:0:0:0:0:
320,192,10954,1,2,0:0:0:0:
448,192,10954,1,0,0:0:0:0:
64,192,11110,128,0,11266:0:0:0:0:
320,192,11266,128,2,11579:0:0:0:0:
448,192,11266,1,0,0:0:0:50:Snare Wet.wav
192,192,11422,128,0,11579:0:0:0:0:
64,192,11579,1,2,0:0:0:0:
448,192,11579,128,0,11735:0:0:0:0:
192,192,11891,1,2,0:0:0:0:
448,192,11891,128,0,12204:0:0:0:50:Snare Wet.wav
64,192,12204,1,2,0:0:0:0:
192,192,12204,1,4,0:0:0:0:
320,192,12204,1,0,0:0:0:0:
192,192,12516,128,2,12672:0:0:0:0:
448,192,12516,1,0,0:0:0:50:Snare Wet.wav
64,192,12829,1,2,0:0:0:0:
320,192,12829,1,0,0:0:0:0:
192,192,12985,128,0,13141:0:0:0:0:
320,192,13141,1,2,0:0:0:0:
448,192,13141,1,0,0:0:0:50:Snare Wet.wav
192,192,13297,128,0,13454:0:0:0:0:
64,192,13454,1,2,0:0:0:0:
448,192,13454,1,0,0:0:0:0:
192,192,13610,128,0,13766:0:0:0:0:
64,192,13766,1,2,0:0:0:0:
320,192,13766,1,0,0:0:0:50:Snare Wet.wav
448,192,13922,128,0,14079:0:0:0:0:
64,192,14079,128,2,14391:0:0:0:0:
192,192,14079,1,0,0:0:0:0:
320,192,14235,128,0,14391:0:0:0:0:
192,192,14391,128,2,14704:0:0:0:0:
448,192,14391,1,0,0:0:0:50:Snare Wet.wav
64,192,14704,1,2,0:0:0:0:
320,192,14704,1,4,0:0:0:0:
448,192,14704,1,0,0:0:0:0:
64,192,15016,128,2,15172:0:0:0:0:
192,192,15016,1,0,0:0:0:50:Snare Wet.wav
320,192,15329,1,2,0:0:0:0:
448,192,15329,1,0,0:0:0:0:
64,192,15485,128,0,15641:0:0:0:0:
192,192,15641,1,2,0:0:0:0:
448,192,15641,1,0,0:0:0:50:Snare Wet.wav
320,192,15797,128,0,16266:0:0:0:0:
64,192,15954,1,2,0:0:0:0:
192,192,15954,1,0,0:0:0:0:
448,192,16110,128,0,16266:0:0:0:0:
64,192,16266,1,2,0:0:0:0:
192,192,16266,128,0,16579:0:0:0:50:Snare Wet.wav
320,192,16422,128,0,16579:0:0:0:0:
64,192,16579,128,2,16735:0:0:0:0:
448,192,16579,1,0,0:0:0:0:
64,192,16891,128,2,17204:0:0:0:0:
320,192,16891,1,0,0:0:0:50:Snare Wet.wav
192,192,17204,1,4,0:0:0:0:
448,192,17204,1,2,0:0:0:0:
320,192,17360,1,0,0:0:0:0:
64,192,17516,1,0,0:0:0:0:
448,192,17672,1,0,0:0:0:0:
192,192,17829,128,0,18141:0:0:0:0:
64,192,17985,1,0,0:0:0:0:
448,192,18141,128,0,18297:0:0:0:0:
320,192,18297,128,0,18454:0:0:0:0:
64,192,18454,1,0,0:0:0:0:
192,192,18610,128,0,18766:0:0:0:0:
64,192,18766,128,0,18922:0:0:0:0:
320,192,18922,128,0,19079:0:0:0:0:
192,192,19079,1,0,0:0:0:0:
448,192,19079,128,0,19391:0:0:0:0:
64,192,19391,128,0,19704:0:0:0:0:
320,192,19391,1,0,0:0:0:0:
192,192,19704,1,0,0:0:0:0:
448,192,19704,1,0,0:0:0:0:
320,192,19860,1,0,0:0:0:0:
64,192,20016,1,0,0:0:0:0:
192,192,20172,1,0,0:0:0:0:
320,192,20329,128,0,20641:0:0:0:0:
448,192,20485,1,0,0:0:0:0:
192,192,20641,128,0,20797:0:0:0:0:
448,192,20797,128,0,21110:0:0:0:0:
64,192,20954,1,0,0:0:0:0:
192,192,21110,128,0,21266:0:0:0:0:
320,192,21266,128,0,21422:0:0:0:0:
64,192,21422,128,0,21579:0:0:0:0:
192,192,21579,128,0,21891:0:0:0:0:
448,192,21579,1,0,0:0:0:0:
64,192,21891,1,0,0:0:0:0:
320,192,21891,128,0,22204:0:0:0:0:
192,192,22204,1,2,0:0:0:0:
448,192,22204,1,0,0:0:0:0:
320,192,22360,1,0,0:0:0:0:
64,192,22516,1,2,0:0:0:0:
192,192,22516,1,0,0:0:0:0:
448,192,22672,1,0,0:0:0:0:
192,192,22829,1,2,0:0:0:0:
320,192,22829,1,0,0:0:0:0:
64,192,22985,1,0,0:0:0:0:
320,192,23141,1,2,0:0:0:0:
448,192,23141,1,0,0:0:0:0:
192,192,23297,1,0,0:0:0:0:
64,192,23454,1,2,0:0:0:0:
448,192,23454,1,0,0:0:0:0:
320,192,23610,1,0,0:0:0:0:
64,192,23766,1,2,0:0:0:0:
192,192,23766,1,0,0:0:0:0:
320,192,23922,1,0,0:0:0:0:
64,192,24079,1,2,0:0:0:0:
448,192,24079,1,0,0:0:0:0:
192,192,24235,1,0,0:0:0:0:
320,192,24391,1,2,0:0:0:0:
448,192,24391,1,0,0:0:0:0:
192,192,24547,1,0,0:0:0:0:
64,192,24704,128,2,24860:0:0:0:0:
448,192,24704,1,0,0:0:0:0:
320,192,24860,1,0,0:0:0:0:
64,192,25016,128,2,25172:0:0:0:0:
448,192,25016,1,0,0:0:0:0:
192,192,25172,1,2,0:0:0:0:
320,192,25172,1,0,0:0:0:0:
64,192,25329,128,2,25485:0:0:0:0:
192,192,25329,1,8,0:0:0:0:
448,192,25329,128,0,25485:0:0:0:0:
320,192,25485,1,2,0:0:0:0:
192,192,25563,1,2,0:0:0:0:
448,192,25641,1,2,0:0:0:0:
320,192,25719,1,2,0:0:0:0:
64,192,25797,128,8,26110:0:0:0:0:
192,192,25797,128,4,26110:0:0:0:0:
320,192,26110,128,8,26266:0:0:0:0:
448,192,26110,128,0,26266:0:0:0:0:
64,192,26266,128,8,26579:0:0:0:0:
192,192,26266,128,0,26579:0:0:0:0:
320,192,26735,1,2,0:0:0:0:
448,192,26735,1,0,0:0:0:0:
64,192,26891,1,8,0:0:0:0:
192,192,26891,1,0,0:0:0:30:soft-hitfinish.wav
448,192,26891,128,0,27204:0:0:0:50:Tom1.wav
64,192,27204,1,2,0:0:0:0:
192,192,27204,1,4,0:0:0:0:
320,192,27204,1,0,0:0:0:0:
448,192,27360,1,0,0:0:0:0:
64,192,27516,1,2,0:0:0:0:
192,192,27516,1,0,0:0:0:50:Snare Wet.wav
320,192,27672,1,0,0:0:0:0:
64,192,27829,1,2,0:0:0:0:
448,192,27829,1,0,0:0:0:0:
192,192,27985,1,0,0:0:0:0:
320,192,28141,1,2,0:0:0:0:
448,192,28141,1,0,0:0:0:50:Snare Wet.wav
64,192,28297,1,0,0:0:0:0:
192,192,28454,1,2,0:0:0:0:
320,192,28454,1,0,0:0:0:0:
448,192,28610,1,0,0:0:0:0:
64,192,28766,1,2,0:0:0:0:
192,192,28766,128,0,28922:0:0:0:50:Snare Wet.wav
320,192,28922,128,0,29079:0:0:0:0:
64,192,29079,128,2,29391:0:0:0:0:
448,192,29079,1,0,0:0:0:0:
320,192,29391,1,2,0:0:0:0:
448,192,29391,128,0,29547:0:0:0:50:Snare Wet.wav
192,192,29547,1,0,0:0:0:0:
320,192,29625,1,0,0:0:0:0:
64,192,29704,1,2,0:0:0:0:
448,192,29704,1,0,0:0:0:0:
192,192,29860,1,0,0:0:0:0:
320,192,30016,1,2,0:0:0:0:
448,192,30016,1,0,0:0:0:50:Snare Wet.wav
64,192,30172,1,0,0:0:0:0:
192,192,30329,1,2,0:0:0:0:
320,192,30329,1,0,0:0:0:0:
448,192,30485,1,0,0:0:0:0:
64,192,30641,1,2,0:0:0:0:
192,192,30641,1,0,0:0:0:50:Snare Wet.wav
320,192,30797,1,0,0:0:0:0:
64,192,30954,1,2,0:0:0:0:
448,192,30954,1,0,0:0:0:0:
192,192,31110,1,0,0:0:0:0:
320,192,31266,1,2,0:0:0:0:
448,192,31266,1,0,0:0:0:50:Snare Wet.wav
64,192,31422,128,0,31579:0:0:0:0:
320,192,31579,1,2,0:0:0:0:
448,192,31579,128,0,31891:0:0:0:0:
64,192,31891,128,2,32047:0:0:0:0:
192,192,31891,1,0,0:0:0:50:Snare Wet.wav
320,192,32047,1,0,0:0:0:0:
192,192,32125,1,0,0:0:0:0:
64,192,32204,1,2,0:0:0:0:
320,192,32204,1,4,0:0:0:0:
448,192,32204,1,0,0:0:0:0:
192,192,32360,1,0,0:0:0:0:
64,192,32516,1,2,0:0:0:0:
448,192,32516,1,0,0:0:0:50:Snare Wet.wav
320,192,32672,1,0,0:0:0:0:
64,192,32829,1,2,0:0:0:0:
192,192,32829,1,0,0:0:0:0:
448,192,32985,1,0,0:0:0:0:
192,192,33141,1,2,0:0:0:0:
320,192,33141,1,0,0:0:0:50:Snare Wet.wav
64,192,33297,1,0,0:0:0:0:
320,192,33454,1,2,0:0:0:0:
448,192,33454,1,0,0:0:0:0:
192,192,33610,1,0,0:0:0:0:
64,192,33766,1,2,0:0:0:0:
448,192,33766,1,0,0:0:0:50:Snare Wet.wav
320,192,33922,1,0,0:0:0:0:
64,192,34079,1,2,0:0:0:0:
192,192,34079,1,0,0:0:0:0:
320,192,34235,1,0,0:0:0:0:
64,192,34391,1,2,0:0:0:0:
448,192,34391,1,0,0:0:0:50:Snare Wet.wav
192,192,34547,1,0,0:0:0:0:
320,192,34704,1,2,0:0:0:0:
448,192,34704,128,0,34860:0:0:0:0:
64,192,34860,1,0,0:0:0:0:
192,192,35016,1,2,0:0:0:0:
448,192,35016,128,0,35172:0:0:0:50:Snare Wet.wav
64,192,35172,1,0,0:0:0:0:
192,192,35329,128,2,35485:0:0:0:0:
320,192,35329,128,0,35485:0:0:0:0:
448,192,35329,1,0,0:0:0:0:
64,192,35485,1,0,0:0:0:0:
320,192,35641,1,2,0:0:0:0:
448,192,35641,1,0,0:0:0:50:Snare Wet.wav
192,192,35797,1,0,0:0:0:0:
64,192,35954,1,2,0:0:0:0:
448,192,35954,1,0,0:0:0:50:Snare Wet.wav
192,192,36032,1,0,0:0:0:0:
320,192,36110,1,0,0:0:0:0:
64,192,36266,1,2,0:0:0:0:
448,192,36266,1,0,0:0:0:50:Snare Wet.wav
320,192,36344,1,0,0:0:0:0:
192,192,36422,1,0,0:0:0:0:
64,192,36579,1,2,0:0:0:0:
448,192,36579,1,0,0:0:0:50:Snare Wet.wav
192,192,36657,1,0,0:0:0:0:
320,192,36735,1,0,0:0:0:0:
64,192,36891,128,2,37204:0:0:0:0:
448,192,36891,1,0,0:0:0:50:Snare Wet.wav
192,192,37204,1,2,0:0:0:0:
320,192,37204,1,4,0:0:0:0:
448,192,37204,1,0,0:0:0:0:
64,192,37360,1,0,0:0:0:0:
448,192,37516,1,0,0:0:0:0:
64,192,37672,1,0,0:0:0:0:
192,192,37829,1,0,0:0:0:0:
448,192,37985,1,0,0:0:0:0:
320,192,38141,1,0,0:0:0:0:
64,192,38297,1,0,0:0:0:0:
192,192,38375,1,0,0:0:0:0:
320,192,38454,1,2,0:0:0:0:
448,192,38454,1,0,0:0:0:0:
64,192,38610,1,0,0:0:0:0:
448,192,38766,1,0,0:0:0:0:
192,192,38922,1,0,0:0:0:0:
64,192,39079,1,0,0:0:0:0:
320,192,39235,1,0,0:0:0:0:
192,192,39391,1,0,0:0:0:0:
448,192,39547,1,0,0:0:0:0:
320,192,39625,1,0,0:0:0:0:
64,192,39704,1,2,0:0:0:0:
192,192,39704,1,0,0:0:0:0:
448,192,39860,1,0,0:0:0:0:
64,192,40016,1,0,0:0:0:0:
320,192,40172,1,0,0:0:0:0:
192,192,40329,1,0,0:0:0:0:
448,192,40485,1,0,0:0:0:0:
64,192,40641,1,0,0:0:0:0:
192,192,40797,1,0,0:0:0:0:
320,192,40875,1,0,0:0:0:0:
64,192,40954,1,2,0:0:0:0:
448,192,40954,1,0,0:0:0:0:
192,192,41110,1,0,0:0:0:0:
320,192,41266,1,0,0:0:0:0:
64,192,41422,1,0,0:0:0:0:
192,192,41500,1,0,0:0:0:0:
320,192,41579,128,0,41735:0:0:0:0:
64,192,41735,128,0,41891:0:0:0:0:
448,192,41891,1,0,0:0:0:0:
448,192,42047,1,2,0:0:0:0:
64,192,42204,1,4,0:0:0:0:
192,192,42204,1,2,0:0:0:0:
320,192,42204,1,0,0:0:0:0:
448,192,42360,1,0,0:0:0:0:
64,192,42516,1,2,0:0:0:0:
320,192,42516,1,0,0:0:0:0:
192,192,42672,1,0,0:0:0:0:
320,192,42829,1,2,0:0:0:0:
448,192,42829,1,0,0:0:0:0:
64,192,42985,1,0,0:0:0:0:
192,192,43141,1,2,0:0:0:0:
448,192,43141,1,0,0:0:0:0:
320,192,43297,1,0,0:0:0:0:
64,192,43454,1,2,0:0:0:0:
192,192,43454,1,0,0:0:0:0:
448,192,43610,1,0,0:0:0:0:
192,192,43766,1,2,0:0:0:0:
320,192,43766,1,0,0:0:0:0:
64,192,43922,1,0,0:0:0:0:
320,192,44079,1,2,0:0:0:0:
448,192,44079,1,0,0:0:0:0:
192,192,44235,1,0,0:0:0:0:
64,192,44391,1,2,0:0:0:0:
448,192,44391,1,0,0:0:0:0:
320,192,44547,1,0,0:0:0:0:
64,192,44704,1,2,0:0:0:0:
192,192,44704,1,0,0:0:0:50:Snare Wet.wav
320,192,44860,1,0,0:0:0:50:Snare Wet.wav
448,192,44860,1,0,0:0:0:0:
64,192,45016,1,2,0:0:0:0:
448,192,45016,1,0,0:0:0:50:Snare Wet.wav
192,192,45172,1,0,0:0:0:50:Snare Wet.wav
320,192,45172,1,0,0:0:0:0:
64,192,45329,1,2,0:0:0:0:
320,192,45329,1,0,0:0:0:50:Snare Wet.wav
192,192,45485,1,0,0:0:0:50:Snare Wet.wav
448,192,45485,1,0,0:0:0:0:
192,192,45641,1,2,0:0:0:0:
320,192,45641,1,0,0:0:0:50:Snare Wet.wav
64,192,45797,1,0,0:0:0:50:Snare Wet.wav
448,192,45797,1,0,0:0:0:0:
64,192,45954,1,2,0:0:0:0:
192,192,45954,1,0,0:0:0:50:Snare Wet.wav
320,192,46110,1,0,0:0:0:50:Snare Wet.wav
448,192,46110,1,0,0:0:0:0:
64,192,46266,1,2,0:0:0:0:
320,192,46266,1,0,0:0:0:50:Snare Wet.wav
192,192,46422,1,0,0:0:0:50:Snare Wet.wav
448,192,46422,1,0,0:0:0:0:
192,192,46579,1,2,0:0:0:0:
320,192,46579,1,0,0:0:0:50:Snare Wet.wav
64,192,46735,1,0,0:0:0:50:Snare Wet.wav
448,192,46735,1,0,0:0:0:0:
64,192,46891,1,2,0:0:0:0:
192,192,46891,1,0,0:0:0:50:Snare Wet.wav
320,192,47047,1,0,0:0:0:50:Snare Wet.wav
448,192,47047,1,0,0:0:0:0:
192,192,47204,1,2,0:0:0:0:
64,192,47282,1,0,0:0:0:40:Snare Wet.wav
320,192,47360,1,0,0:0:0:40:Snare Wet.wav
448,192,47438,1,0,0:0:0:40:Snare Wet.wav
64,192,47516,1,2,0:0:0:0:
192,192,47594,1,0,0:0:0:40:Snare Wet.wav
448,192,47672,1,0,0:0:0:40:Snare Wet.wav
320,192,47750,1,0,0:0:0:40:Snare Wet.wav
192,192,47829,1,2,0:0:0:0:
64,192,47907,1,0,0:0:0:40:Snare Wet.wav
320,192,47985,1,0,0:0:0:40:Snare Wet.wav
448,192,48063,1,0,0:0:0:40:Snare Wet.wav
64,192,48141,1,2,0:0:0:0:
192,192,48219,1,0,0:0:0:40:Snare Wet.wav
320,192,48297,1,0,0:0:0:40:Snare Wet.wav
448,192,48375,1,0,0:0:0:40:Snare Wet.wav
64,192,48454,1,2,0:0:0:0:
192,192,48454,1,0,0:0:0:0:
64,192,48610,1,2,0:0:0:0:
192,192,48610,1,0,0:0:0:0:
320,192,48766,1,2,0:0:0:0:
448,192,48766,1,0,0:0:0:0:
320,192,48922,1,2,0:0:0:0:
448,192,48922,1,0,0:0:0:0:
64,192,49079,1,2,0:0:0:0:
192,192,49079,1,0,0:0:0:0:
64,192,49235,1,2,0:0:0:0:
192,192,49235,1,0,0:0:0:0:
320,192,49391,1,2,0:0:0:0:
448,192,49391,1,0,0:0:0:0:
320,192,49547,1,2,0:0:0:0:
448,192,49547,1,0,0:0:0:0:
64,192,49704,1,4,0:0:0:0:
192,192,49704,1,8,0:0:0:0:
448,192,49704,1,0,0:0:0:0:
320,192,49860,1,0,0:0:0:50:Tom1.wav
192,192,49938,1,0,0:0:0:50:Tom2.wav
64,192,50016,1,2,0:0:0:0:
192,192,50172,1,4,0:0:0:0:
320,192,50172,1,8,0:0:0:0:
448,192,50172,1,0,0:0:0:0:
64,192,50329,1,2,0:0:0:0:
320,192,50329,1,0,0:0:0:0:
192,192,50485,1,8,0:0:0:0:
320,192,50563,1,0,0:0:0:50:Tom2.wav
448,192,50641,1,0,0:0:0:50:Tom3.wav
64,192,50797,1,2,0:0:0:0:
192,192,50797,1,0,0:0:0:0:
64,192,50954,1,8,0:0:0:0:
448,192,50954,128,0,51110:0:0:0:50:Hat open.wav
192,192,51110,128,0,51266:0:0:0:0:
320,192,51266,128,0,51422:0:0:0:0:
64,192,51422,1,0,0:0:0:0:
192,192,51735,1,2,0:0:0:0:
320,192,51891,1,0,0:0:0:50:Tom2.wav
448,192,51891,1,0,0:0:0:0:
64,192,52204,1,4,0:0:0:0:
192,192,52204,1,2,0:0:0:0:
448,192,52204,128,0,52516:0:0:0:0:
64,192,52516,128,2,52672:0:0:0:0:
192,192,52516,128,0,52672:0:0:0:50:Snare Wet.wav
320,192,52516,128,0,52672:0:0:0:0:
448,192,52672,1,0,0:0:0:0:
64,192,52829,1,2,0:0:0:0:
192,192,52829,1,0,0:0:0:0:
320,192,52985,1,0,0:0:0:50:Hat open.wav
64,192,53141,1,2,0:0:0:0:
448,192,53141,1,0,0:0:0:50:Snare Wet.wav
192,192,53297,1,0,0:0:0:0:
320,192,53454,1,2,0:0:0:0:
448,192,53454,1,0,0:0:0:0:
192,192,53610,1,0,0:0:0:50:Hat open.wav
64,192,53766,128,2,54235:0:0:0:0:
448,192,53766,1,0,0:0:0:50:Snare Wet.wav
192,192,54079,128,2,54391:0:0:0:0:
320,192,54079,1,0,0:0:0:0:
448,192,54235,1,0,0:0:0:50:Hat open.wav
64,192,54391,1,2,0:0:0:0:
320,192,54391,1,0,0:0:0:50:Snare Wet.wav
192,192,54547,1,0,0:0:0:0:
64,192,54704,128,2,55016:0:0:0:0:
448,192,54704,1,0,0:0:0:0:
192,192,55016,128,2,55172:0:0:0:0:
320,192,55016,128,0,55172:0:0:0:50:Snare Wet.wav
448,192,55016,128,0,55172:0:0:0:0:
64,192,55172,1,0,0:0:0:50:Hat open.wav
320,192,55329,1,2,0:0:0:0:
448,192,55329,1,0,0:0:0:0:
192,192,55485,1,0,0:0:0:50:Hat open.wav
64,192,55641,1,2,0:0:0:0:
448,192,55641,1,0,0:0:0:50:Snare Wet.wav
320,192,55797,1,0,0:0:0:0:
64,192,55954,1,2,0:0:0:0:
192,192,55954,1,0,0:0:0:0:
448,192,56110,1,0,0:0:0:50:Hat open.wav
192,192,56266,128,2,56579:0:0:0:0:
320,192,56266,1,0,0:0:0:50:Snare Wet.wav
64,192,56422,1,0,0:0:0:0:
320,192,56579,128,2,56891:0:0:0:0:
448,192,56579,1,0,0:0:0:0:
192,192,56735,1,0,0:0:0:50:Hat open.wav
64,192,56891,1,2,0:0:0:0:
448,192,56891,128,0,57204:0:0:0:50:Snare Wet.wav
320,192,57047,1,0,0:0:0:0:
64,192,57204,1,2,0:0:0:0:
192,192,57204,1,4,0:0:0:0:
320,192,57360,128,0,57516:0:0:0:50:Hat open.wav
64,192,57516,128,2,57672:0:0:0:0:
448,192,57516,1,0,0:0:0:50:Snare Wet.wav
192,192,57672,128,0,57829:0:0:0:0:
320,192,57829,1,2,0:0:0:0:
448,192,57829,128,0,57985:0:0:0:0:
64,192,57985,128,0,58141:0:0:0:50:Hat open.wav
192,192,58141,1,2,0:0:0:0:
320,192,58141,128,0,58454:0:0:0:50:Snare Wet.wav
64,192,58454,1,2,0:0:0:0:
192,192,58454,128,4,58610:0:0:0:0:
448,192,58454,1,0,0:0:0:0:
320,192,58610,128,0,58766:0:0:0:50:Hat open.wav
64,192,58766,1,2,0:0:0:0:
448,192,58766,128,0,58922:0:0:0:50:Snare Wet.wav
192,192,58922,128,0,59079:0:0:0:50:Hat open.wav
64,192,59079,128,2,59391:0:0:0:0:
320,192,59079,1,0,0:0:0:0:
320,192,59391,1,2,0:0:0:0:
448,192,59391,1,0,0:0:0:50:Snare Wet.wav
192,192,59547,128,0,59704:0:0:0:0:
64,192,59704,1,2,0:0:0:0:
320,192,59704,1,4,0:0:0:0:
448,192,59704,1,0,0:0:0:0:
192,192,59860,1,0,0:0:0:50:Hat open.wav
320,192,60016,1,2,0:0:0:0:
448,192,60016,128,0,60172:0:0:0:50:Snare Wet.wav
64,192,60172,1,0,0:0:0:0:
192,192,60329,1,2,0:0:0:0:
448,192,60329,1,0,0:0:0:0:
320,192,60485,128,0,60641:0:0:0:50:Hat open.wav
64,192,60641,128,2,60954:0:0:0:0:
192,192,60641,1,0,0:0:0:50:Snare Wet.wav
448,192,60797,1,0,0:0:0:0:
192,192,60954,1,2,0:0:0:0:
320,192,61032,1,0,0:0:0:0:
64,192,61110,1,0,0:0:0:0:
192,192,61188,1,0,0:0:0:0:
448,192,61266,1,2,0:0:0:0:
320,192,61344,1,0,0:0:0:0:
192,192,61422,1,0,0:0:0:0:
64,192,61500,1,0,0:0:0:0:
448,192,61579,1,2,0:0:0:0:
192,192,61657,1,0,0:0:0:0:
320,192,61735,1,0,0:0:0:0:
448,192,61813,1,0,0:0:0:0:
64,192,61891,1,2,0:0:0:0:
192,192,61969,1,0,0:0:0:0:
320,192,62047,1,0,0:0:0:0:
448,192,62125,1,0,0:0:0:0:
64,192,62204,128,2,62516:0:0:0:0:
192,192,62204,1,4,0:0:0:0:
192,192,62516,128,2,62672:0:0:0:0:
320,192,62516,128,0,62672:0:0:0:50:Snare Wet.wav
448,192,62516,128,0,62672:0:0:0:0:
64,192,62672,1,0,0:0:0:0:
320,192,62829,1,2,0:0:0:0:
448,192,62829,1,0,0:0:0:0:
192,192,62985,1,0,0:0:0:50:Hat open.wav
64,192,63141,1,2,0:0:0:0:
448,192,63141,1,0,0:0:0:50:Snare Wet.wav
320,192,63297,1,0,0:0:0:0:
64,192,63454,1,2,0:0:0:0:
192,192,63454,1,0,0:0:0:0:
320,192,63610,1,0,0:0:0:50:Hat open.wav
64,192,63766,1,2,0:0:0:0:
448,192,63766,128,0,64235:0:0:0:50:Snare Wet.wav
192,192,64079,1,2,0:0:0:0:
320,192,64079,128,0,64391:0:0:0:0:
64,192,64235,1,0,0:0:0:50:Hat open.wav
192,192,64391,1,2,0:0:0:0:
448,192,64391,1,0,0:0:0:50:Snare Wet.wav
320,192,64547,1,0,0:0:0:50:Hat open.wav
64,192,64704,1,2,0:0:0:0:
192,192,64704,1,4,0:0:0:0:
448,192,64704,128,0,65016:0:0:0:0:
64,192,65016,128,2,65172:0:0:0:0:
192,192,65016,128,0,65172:0:0:0:50:Snare Wet.wav
320,192,65016,128,0,65172:0:0:0:50:Hat open.wav
448,192,65172,1,0,0:0:0:0:
64,192,65329,1,2,0:0:0:0:
192,192,65329,1,0,0:0:0:0:
320,192,65485,1,0,0:0:0:50:Hat open.wav
64,192,65641,1,2,0:0:0:0:
448,192,65641,1,0,0:0:0:50:Snare Wet.wav
192,192,65797,1,0,0:0:0:0:
320,192,65954,1,2,0:0:0:0:
448,192,65954,1,0,0:0:0:0:
64,192,66110,1,0,0:0:0:50:Hat open.wav
192,192,66266,1,2,0:0:0:0:
320,192,66266,128,0,66579:0:0:0:50:Snare Wet.wav
448,192,66422,1,0,0:0:0:0:
64,192,66579,1,2,0:0:0:0:
192,192,66579,128,0,66891:0:0:0:0:
320,192,66735,1,0,0:0:0:50:Hat open.wav
64,192,66891,128,2,67204:0:0:0:0:
448,192,66891,1,0,0:0:0:50:Snare Wet.wav
192,192,67047,1,0,0:0:0:0:
320,192,67204,1,2,0:0:0:0:
448,192,67204,1,4,0:0:0:0:
192,192,67360,128,0,67516:0:0:0:50:Hat open.wav
64,192,67516,1,2,0:0:0:0:
448,192,67516,128,0,67672:0:0:0:50:Snare Wet.wav
320,192,67672,128,0,67829:0:0:0:50:Hat open.wav
64,192,67829,128,2,67985:0:0:0:0:
192,192,67829,1,0,0:0:0:0:
448,192,67985,128,0,68141:0:0:0:50:Hat open.wav
192,192,68141,1,2,0:0:0:0:
320,192,68141,1,0,0:0:0:50:Snare Wet.wav
192,192,68297,1,0,0:0:0:0:
64,192,68454,1,2,0:0:0:0:
320,192,68454,1,4,0:0:0:0:
448,192,68454,1,0,0:0:0:0:
192,192,68610,128,0,68766:0:0:0:50:Hat open.wav
64,192,68766,128,2,68922:0:0:0:0:
448,192,68766,1,0,0:0:0:50:Snare Wet.wav
320,192,68922,128,0,69079:0:0:0:0:
192,192,69079,1,2,0:0:0:0:
448,192,69079,128,0,69391:0:0:0:0:
64,192,69391,128,2,69547:0:0:0:0:
192,192,69391,1,0,0:0:0:50:Snare Wet.wav
320,192,69547,128,0,69704:0:0:0:0:
64,192,69704,1,2,0:0:0:0:
192,192,69704,1,4,0:0:0:0:
448,192,69704,1,0,0:0:0:0:
320,192,69860,1,0,0:0:0:0:
64,192,70016,128,2,70172:0:0:0:0:
192,192,70016,1,0,0:0:0:50:Snare Wet.wav
320,192,70172,128,0,70329:0:0:0:0:
64,192,70329,1,2,0:0:0:0:
448,192,70329,1,0,0:0:0:0:
192,192,70485,128,0,70641:0:0:0:50:Hat open.wav
320,192,70641,1,2,0:0:0:0:
448,192,70641,128,0,70954:0:0:0:50:Snare Wet.wav
64,192,70797,1,2,0:0:0:0:
192,192,70797,1,0,0:0:0:0:
320,192,70954,1,8,0:0:0:0:
192,192,71032,1,0,0:0:0:0:
448,192,71110,1,2,0:0:0:0:
320,192,71188,1,0,0:0:0:0:
64,192,71266,1,8,0:0:0:0:
192,192,71344,1,0,0:0:0:0:
320,192,71422,1,2,0:0:0:0:
448,192,71500,1,0,0:0:0:0:
64,192,71579,1,0,0:0:0:0:
320,192,71657,1,0,0:0:0:0:
192,192,71735,1,0,0:0:0:0:
64,192,71813,1,0,0:0:0:0:
448,192,71891,1,0,0:0:0:0:
320,192,71969,1,0,0:0:0:0:
192,192,72047,1,0,0:0:0:0:
64,192,72125,1,0,0:0:0:0:
320,192,72204,1,4,0:0:0:0:
448,192,72204,1,0,0:0:0:40:Snare Wet Strong.wav
192,192,72360,1,0,0:0:0:0:
64,192,72516,1,0,0:0:0:40:Snare Wet Strong.wav
448,192,72516,1,0,0:0:0:0:
320,192,72672,1,0,0:0:0:0:
64,192,72829,1,0,0:0:0:40:Snare Wet Strong.wav
192,192,72829,1,0,0:0:0:0:
320,192,72985,1,2,0:0:0:0:
448,192,72985,1,0,0:0:0:0:
64,192,73141,1,0,0:0:0:40:Snare Wet Strong.wav
192,192,73141,1,0,0:0:0:0:
320,192,73297,1,2,0:0:0:0:
448,192,73297,1,0,0:0:0:0:
64,192,73454,1,0,0:0:0:40:Snare Wet Strong.wav
192,192,73454,1,0,0:0:0:0:
448,192,73610,1,0,0:0:0:0:
192,192,73766,1,0,0:0:0:40:Snare Wet Strong.wav
320,192,73766,1,0,0:0:0:0:
64,192,73922,1,0,0:0:0:0:
320,192,74079,1,0,0:0:0:40:Snare Wet Strong.wav
448,192,74079,1,0,0:0:0:0:
64,192,74235,1,2,0:0:0:0:
192,192,74235,1,0,0:0:0:0:
320,192,74391,1,0,0:0:0:40:Snare Wet Strong.wav
448,192,74391,1,0,0:0:0:0:
64,192,74547,1,2,0:0:0:0:
192,192,74547,1,0,0:0:0:0:
64,192,74704,1,4,0:0:0:0:
320,192,74704,1,0,0:0:0:40:Snare Wet Strong.wav
448,192,74704,1,0,0:0:0:0:
192,192,74860,1,0,0:0:0:0:
320,192,75016,1,0,0:0:0:40:Snare Wet Strong.wav
448,192,75016,1,0,0:0:0:0:
64,192,75172,1,0,0:0:0:0:
192,192,75329,1,0,0:0:0:40:Snare Wet Strong.wav
320,192,75329,1,0,0:0:0:0:
64,192,75485,1,2,0:0:0:0:
448,192,75485,1,0,0:0:0:0:
192,192,75641,1,0,0:0:0:50:Snare Wet.wav
320,192,75641,1,0,0:0:0:0:
64,192,75797,1,2,0:0:0:0:
448,192,75797,1,0,0:0:0:0:
192,192,75954,1,0,0:0:0:40:Snare Wet Strong.wav
320,192,75954,1,0,0:0:0:0:
448,192,76110,1,0,0:0:0:0:
64,192,76266,1,0,0:0:0:40:Snare Wet Strong.wav
192,192,76266,1,0,0:0:0:0:
320,192,76422,1,0,0:0:0:0:
64,192,76579,1,0,0:0:0:40:Snare Wet Strong.wav
448,192,76579,1,0,0:0:0:0:
192,192,76735,1,2,0:0:0:0:
320,192,76735,1,0,0:0:0:0:
64,192,76891,1,0,0:0:0:40:Snare Wet Strong.wav
448,192,76891,1,0,0:0:0:0:
192,192,77047,1,2,0:0:0:0:
320,192,77047,1,0,0:0:0:0:
64,192,77204,1,0,0:0:0:40:Snare Wet Strong.wav
448,192,77204,1,0,0:0:0:0:
192,192,77360,1,0,0:0:0:0:
320,192,77516,1,0,0:0:0:40:Snare Wet Strong.wav
448,192,77516,1,0,0:0:0:0:
64,192,77829,1,0,0:0:0:40:Snare Wet Strong.wav
192,192,77829,1,0,0:0:0:0:
320,192,77985,1,2,0:0:0:0:
448,192,77985,1,0,0:0:0:0:
64,192,78141,1,0,0:0:0:40:Snare Wet Strong.wav
192,192,78141,1,0,0:0:0:0:
64,192,78297,1,4,0:0:0:0:
320,192,78297,1,2,0:0:0:0:
448,192,78297,1,0,0:0:0:0:
192,192,78454,1,0,0:0:0:40:Snare Wet Strong.wav
320,192,78454,1,0,0:0:0:0:
448,192,78610,1,0,0:0:0:0:
64,192,78766,1,4,0:0:0:0:
192,192,78766,1,0,0:0:0:40:Snare Wet Strong.wav
320,192,78766,1,0,0:0:0:0:
448,192,78922,1,0,0:0:0:0:
64,192,79079,1,0,0:0:0:40:Snare Wet Strong.wav
192,192,79079,1,0,0:0:0:0:
320,192,79235,1,0,0:0:0:0:
64,192,79391,1,0,0:0:0:40:Snare Wet Strong.wav
448,192,79391,1,0,0:0:0:0:
192,192,79547,1,0,0:0:0:0:
64,192,79704,128,2,80954:0:0:0:0:
320,192,79704,1,0,0:0:0:20:soft-hitfinish.wav
448,192,79704,128,0,80016:0:0:0:0:
192,192,80016,1,2,0:0:0:0:
320,192,80016,128,0,80329:0:0:0:30:soft-hitfinish.wav
192,192,80329,128,2,80641:0:0:0:0:
448,192,80329,1,4,0:0:0:40:soft-hitfinish.wav
320,192,80641,1,2,0:0:0:0:
448,192,80641,128,4,80954:0:0:0:0:
192,192,80954,1,2,0:0:0:0:
320,192,80954,1,0,0:0:0:50:Hat open.wav
320,192,81891,128,0,82047:0:0:0:0:
64,192,82047,128,0,82204:0:0:0:0:
320,192,82204,1,2,0:0:0:0:
448,192,82204,1,0,0:0:0:50:Hat open.wav
64,192,82360,1,2,0:0:0:0:
192,192,82360,1,0,0:0:0:50:Hat open.wav
320,192,82516,1,0,0:0:0:0:
64,192,82672,1,2,0:0:0:0:
192,192,82672,1,0,0:0:0:50:Hat open.wav
320,192,82829,1,2,0:0:0:0:
448,192,82829,1,0,0:0:0:50:Hat open.wav
192,192,82985,1,0,0:0:0:0:
64,192,83141,1,2,0:0:0:0:
320,192,83141,1,0,0:0:0:50:Hat open.wav
192,192,83297,1,2,0:0:0:0:
448,192,83297,1,0,0:0:0:50:Hat open.wav
64,192,83454,1,0,0:0:0:0:
320,192,83610,1,2,0:0:0:0:
448,192,83610,1,0,0:0:0:50:Hat open.wav
64,192,83766,1,2,0:0:0:0:
192,192,83766,1,0,0:0:0:50:Hat open.wav
320,192,83922,1,0,0:0:0:0:
64,192,84079,128,2,84391:0:0:0:0:
192,192,84079,1,0,0:0:0:30:soft-hitfinish.wav
448,192,84079,1,0,0:0:0:0:
192,192,84391,1,2,0:0:0:0:
320,192,84391,1,4,0:0:0:0:
448,192,84391,128,0,84704:0:0:0:0:
64,192,84704,1,0,0:0:0:50:Low Kick.wav
192,192,84704,1,0,0:0:0:0:
320,192,84860,1,0,0:0:0:50:Low Kick.wav
448,192,84860,1,0,0:0:0:0:
64,192,85016,1,0,0:0:0:0:
192,192,85172,1,0,0:0:0:0:
320,192,85329,128,0,85485:0:0:0:0:
448,192,85329,1,0,0:0:0:0:
192,192,85485,1,0,0:0:0:0:
64,192,85641,128,0,85797:0:0:0:0:
192,192,85797,128,0,85954:0:0:0:50:Low Kick.wav
320,192,85797,1,0,0:0:0:0:
448,192,85954,1,0,0:0:0:0:
192,192,86110,1,0,0:0:0:50:Low Kick.wav
320,192,86110,128,0,86266:0:0:0:0:
64,192,86266,1,0,0:0:0:50:Low Kick.wav
448,192,86266,128,0,86422:0:0:0:0:
192,192,86422,128,0,86579:0:0:0:0:
64,192,86579,128,0,86891:0:0:0:0:
320,192,86579,1,0,0:0:0:0:
448,192,86891,128,0,87204:0:0:0:0:
64,192,87204,1,0,0:0:0:50:Low Kick.wav
320,192,87204,1,0,0:0:0:0:
192,192,87360,1,0,0:0:0:50:Low Kick.wav
448,192,87360,1,0,0:0:0:0:
320,192,87516,1,0,0:0:0:0:
64,192,87672,1,0,0:0:0:0:
192,192,87829,128,0,87985:0:0:0:0:
448,192,87829,1,0,0:0:0:0:
64,192,87985,128,0,88141:0:0:0:0:
320,192,88141,128,0,88297:0:0:0:0:
192,192,88297,128,0,88610:0:0:0:50:Low Kick.wav
448,192,88297,1,0,0:0:0:0:
64,192,88454,1,0,0:0:0:0:
320,192,88610,128,0,88766:0:0:0:50:Low Kick.wav
448,192,88610,1,0,0:0:0:0:
64,192,88766,128,0,88922:0:0:0:50:Low Kick.wav
192,192,88766,1,0,0:0:0:0:
448,192,88922,128,0,89079:0:0:0:0:
64,192,89079,1,0,0:0:0:0:
320,192,89079,128,0,89391:0:0:0:0:
192,192,89391,128,0,89704:0:0:0:0:
64,192,89704,1,0,0:0:0:50:Low Kick.wav
320,192,89704,1,0,0:0:0:0:
192,192,89860,1,0,0:0:0:50:Low Kick.wav
448,192,89860,1,0,0:0:0:0:
320,192,90016,1,0,0:0:0:0:
64,192,90172,1,0,0:0:0:0:
192,192,90329,1,0,0:0:0:0:
448,192,90329,128,0,90641:0:0:0:0:
320,192,90485,1,0,0:0:0:0:
64,192,90641,128,0,90797:0:0:0:0:
320,192,90797,128,0,91266:0:0:0:50:Low Kick.wav
448,192,90797,1,0,0:0:0:0:
192,192,90954,1,0,0:0:0:0:
64,192,91110,1,0,0:0:0:50:Low Kick.wav
448,192,91110,1,0,0:0:0:0:
192,192,91266,128,0,91579:0:0:0:50:Low Kick.wav
448,192,91266,1,0,0:0:0:0:
64,192,91422,1,0,0:0:0:0:
320,192,91579,1,0,0:0:0:0:
448,192,91579,128,0,91891:0:0:0:0:
192,192,91735,1,0,0:0:0:0:
64,192,91891,128,0,92204:0:0:0:0:
448,192,92047,1,0,0:0:0:0:
192,192,92204,1,0,0:0:0:50:Low Kick.wav
320,192,92204,128,0,92360:0:0:0:0:
64,192,92360,1,0,0:0:0:50:Low Kick.wav
320,192,92516,128,0,92672:0:0:0:0:
64,192,92672,1,0,0:0:0:0:
192,192,92829,1,0,0:0:0:0:
448,192,92829,128,0,93297:0:0:0:0:
320,192,93141,128,0,93297:0:0:0:0:
64,192,93297,1,0,0:0:0:50:Low Kick.wav
192,192,93297,1,0,0:0:0:0:
64,192,94079,1,0,0:0:0:0:
192,192,94157,1,0,0:0:0:0:
320,192,94235,1,0,0:0:0:0:
64,192,94391,1,0,0:0:0:0:
448,192,94547,1,0,0:0:0:0:
320,192,94625,1,0,0:0:0:0:
64,192,94704,128,2,95016:0:0:0:0:
192,192,94704,128,0,95016:0:0:0:0:
320,192,95016,128,0,95329:0:0:0:40:Snare Wet Strong.wav
448,192,95016,128,0,95329:0:0:0:0:
64,192,95329,1,0,0:0:0:0:
192,192,95485,1,2,0:0:0:0:
320,192,95485,1,0,0:0:0:0:
64,192,95641,1,0,0:0:0:40:Snare Wet Strong.wav
448,192,95641,1,0,0:0:0:0:
320,192,95797,1,0,0:0:0:0:
64,192,95954,1,2,0:0:0:0:
192,192,95954,1,0,0:0:0:0:
320,192,96110,1,0,0:0:0:0:
64,192,96266,1,0,0:0:0:40:Snare Wet Strong.wav
448,192,96266,1,0,0:0:0:0:
192,192,96422,1,0,0:0:0:0:
320,192,96579,1,0,0:0:0:0:
64,192,96735,1,2,0:0:0:0:
192,192,96735,1,0,0:0:0:0:
320,192,96891,1,0,0:0:0:40:Snare Wet Strong.wav
448,192,96891,1,0,0:0:0:0:
192,192,97047,1,0,0:0:0:0:
320,192,97204,128,2,97516:0:0:0:0:
448,192,97204,128,0,97516:0:0:0:0:
64,192,97516,128,0,97829:0:0:0:40:Snare Wet Strong.wav
192,192,97516,128,0,97829:0:0:0:0:
448,192,97829,1,0,0:0:0:0:
64,192,97985,1,2,0:0:0:0:
320,192,97985,1,0,0:0:0:0:
192,192,98141,1,0,0:0:0:40:Snare Wet Strong.wav
448,192,98141,1,0,0:0:0:0:
64,192,98297,1,2,0:0:0:0:
320,192,98297,1,0,0:0:0:0:
192,192,98454,1,0,0:0:0:0:
320,192,98610,1,2,0:0:0:0:
448,192,98610,1,0,0:0:0:0:
64,192,98766,1,0,0:0:0:40:Snare Wet Strong.wav
192,192,98766,1,0,0:0:0:0:
448,192,98922,1,0,0:0:0:0:
320,192,99079,1,0,0:0:0:0:
64,192,99235,1,2,0:0:0:0:
192,192,99235,1,0,0:0:0:0:
320,192,99391,1,0,0:0:0:40:Snare Wet Strong.wav
448,192,99391,1,0,0:0:0:0:
192,192,99547,1,0,0:0:0:0:
64,192,99704,128,2,100016:0:0:0:0:
448,192,99704,128,0,100016:0:0:0:0:
192,192,100016,128,0,100329:0:0:0:40:Snare Wet Strong.wav
320,192,100016,128,0,100329:0:0:0:0:
448,192,100329,1,0,0:0:0:0:
64,192,100485,1,2,0:0:0:0:
192,192,100485,1,0,0:0:0:0:
320,192,100641,1,0,0:0:0:40:Snare Wet Strong.wav
448,192,100641,1,0,0:0:0:0:
192,192,100797,1,0,0:0:0:0:
64,192,100954,1,2,0:0:0:0:
448,192,100954,1,0,0:0:0:0:
320,192,101110,1,0,0:0:0:0:
64,192,101266,1,0,0:0:0:40:Snare Wet Strong.wav
192,192,101266,1,0,0:0:0:0:
448,192,101422,1,0,0:0:0:0:
320,192,101579,1,0,0:0:0:0:
64,192,101735,1,2,0:0:0:0:
192,192,101735,1,0,0:0:0:0:
320,192,101891,1,0,0:0:0:40:Snare Wet Strong.wav
448,192,101891,1,0,0:0:0:0:
64,192,102047,1,0,0:0:0:0:
192,192,102204,128,2,102516:0:0:0:0:
448,192,102204,128,0,102360:0:0:0:0:
320,192,102360,128,0,102516:0:0:0:0:
64,192,102516,128,0,102672:0:0:0:40:Snare Wet Strong.wav
448,192,102516,128,0,102829:0:0:0:0:
192,192,102672,128,0,102829:0:0:0:0:
320,192,102829,1,0,0:0:0:0:
64,192,102985,1,2,0:0:0:0:
192,192,102985,1,0,0:0:0:0:
320,192,103141,1,0,0:0:0:40:Snare Wet Strong.wav
448,192,103141,1,0,0:0:0:0:
192,192,103297,1,0,0:0:0:0:
320,192,103454,1,0,0:0:0:40:Snare Wet Strong.wav
448,192,103454,1,0,0:0:0:0:
64,192,103610,1,2,0:0:0:0:
192,192,103610,1,0,0:0:0:0:
64,192,103766,1,0,0:0:0:40:Snare Wet Strong.wav
448,192,103766,1,0,0:0:0:0:
192,192,103922,1,2,0:0:0:0:
320,192,103922,1,0,0:0:0:0:
320,192,104079,1,0,0:0:0:40:Snare Wet Strong.wav
448,192,104079,1,0,0:0:0:0:
64,192,104235,1,2,0:0:0:0:
192,192,104235,1,0,0:0:0:0:
64,192,104391,128,0,104704:0:0:0:40:Snare Wet Strong.wav
320,192,104391,1,0,0:0:0:0:
192,192,104704,1,4,0:0:0:0:
320,192,104704,1,2,0:0:0:0:
448,192,104704,1,0,0:0:0:0:
64,192,104860,1,2,0:0:0:0:
320,192,104860,1,0,0:0:0:0:
192,192,105016,1,8,0:0:0:0:
448,192,105016,1,0,0:0:0:0:
320,192,105172,1,0,0:0:0:50:Tom1.wav
192,192,105250,1,0,0:0:0:50:Tom2.wav
64,192,105329,1,0,0:0:0:50:Tom3.wav
320,192,105485,1,2,0:0:0:0:
448,192,105485,1,0,0:0:0:0:
64,192,105641,1,8,0:0:0:0:
192,192,105641,1,4,0:0:0:0:
448,192,105641,1,0,0:0:0:0:
192,192,105797,1,2,0:0:0:0:
320,192,105797,1,0,0:0:0:0:
64,192,105954,1,0,0:0:0:50:Tom1.wav
192,192,106032,1,0,0:0:0:50:Tom2.wav
320,192,106110,1,2,0:0:0:0:
64,192,106266,1,8,0:0:0:0:
448,192,106266,1,0,0:0:0:0:
192,192,106422,1,2,0:0:0:0:
320,192,106422,1,0,0:0:0:50:Hat open.wav
192,192,106735,1,2,0:0:0:0:
320,192,106735,1,0,0:0:0:50:Hat open.wav
64,192,106891,1,8,0:0:0:0:
448,192,106891,1,0,0:0:0:0:
64,192,107204,1,4,0:0:0:0:
192,192,107204,1,2,0:0:0:0:
320,192,107204,1,0,0:0:0:0:
192,192,107360,1,2,0:0:0:0:
448,192,107360,1,0,0:0:0:0:
64,192,107516,1,8,0:0:0:0:
320,192,107516,1,0,0:0:0:0:
192,192,107672,1,0,0:0:0:50:Tom1.wav
320,192,107750,1,0,0:0:0:50:Tom2.wav
448,192,107829,1,0,0:0:0:50:Tom3.wav
64,192,107985,1,2,0:0:0:0:
192,192,107985,1,0,0:0:0:0:
64,192,108141,1,8,0:0:0:0:
320,192,108141,1,4,0:0:0:0:
448,192,108141,1,0,0:0:0:0:
192,192,108297,1,2,0:0:0:0:
320,192,108297,1,0,0:0:0:0:
448,192,108454,1,0,0:0:0:50:Tom1.wav
320,192,108532,1,0,0:0:0:50:Tom2.wav
192,192,108610,1,2,0:0:0:0:
64,192,108766,1,8,0:0:0:0:
448,192,108766,1,0,0:0:0:0:
192,192,108922,1,2,0:0:0:0:
320,192,108922,1,0,0:0:0:50:Hat open.wav
64,192,109235,1,8,0:0:0:0:
192,192,109235,1,0,0:0:0:0:
64,192,109391,1,8,0:0:0:0:
192,192,109391,1,0,0:0:0:0:
320,192,109547,1,2,0:0:0:0:
448,192,109547,1,0,0:0:0:0:
64,192,109704,1,8,0:0:0:0:
192,192,109704,128,4,110329:0:0:0:0:
448,192,109704,1,0,0:0:0:0:
320,192,110016,1,8,0:0:0:0:
448,192,110016,1,0,0:0:0:50:Hat open.wav
320,192,110329,1,8,0:0:0:0:
448,192,110329,1,0,0:0:0:50:Hat open.wav
64,192,110485,1,2,0:0:0:0:
320,192,110485,1,0,0:0:0:0:
64,192,110641,1,8,0:0:0:0:
448,192,110641,1,0,0:0:0:50:Hat open.wav
192,192,110797,1,2,0:0:0:0:
448,192,110797,1,0,0:0:0:0:
64,192,110954,1,8,0:0:0:0:
192,192,110954,1,4,0:0:0:0:
320,192,110954,128,0,111579:0:0:0:0:
64,192,111266,1,8,0:0:0:0:
448,192,111266,1,0,0:0:0:50:Hat open.wav
64,192,111579,1,8,0:0:0:0:
192,192,111579,1,0,0:0:0:50:Hat open.wav
192,192,111735,1,2,0:0:0:0:
448,192,111735,1,0,0:0:0:0:
64,192,111891,1,8,0:0:0:0:
448,192,111891,1,0,0:0:0:50:Hat open.wav
64,192,112047,1,2,0:0:0:0:
320,192,112047,1,0,0:0:0:0:
192,192,112204,1,8,0:0:0:0:
320,192,112204,1,4,0:0:0:0:
448,192,112204,1,0,0:0:0:0:
64,192,112360,1,0,0:0:0:50:Tom1.wav
192,192,112438,1,0,0:0:0:50:Tom2.wav
320,192,112516,1,2,0:0:0:0:
448,192,112594,1,2,0:0:0:0:
64,192,112672,1,8,0:0:0:0:
192,192,112672,1,4,0:0:0:0:
448,192,112829,1,0,0:0:0:50:Tom2.wav
320,192,112907,1,0,0:0:0:50:Tom3.wav
192,192,112985,1,2,0:0:0:0:
64,192,113063,1,2,0:0:0:0:
320,192,113141,1,8,0:0:0:0:
448,192,113141,1,0,0:0:0:0:
192,192,113297,1,2,0:0:0:0:
64,192,113454,1,8,0:0:0:0:
448,192,113454,1,4,0:0:0:0:
192,192,113610,1,8,0:0:0:0:
320,192,113688,1,8,0:0:0:0:
64,192,113766,1,8,0:0:0:0:
448,192,113766,1,0,0:0:0:0:
192,192,113844,1,8,0:0:0:0:
320,192,113922,1,8,0:0:0:0:
448,192,114000,1,8,0:0:0:0:
64,192,114079,1,0,0:0:0:50:Tom1.wav
192,192,114157,1,0,0:0:0:50:Tom1.wav
448,192,114235,1,0,0:0:0:50:Tom2.wav
320,192,114313,1,0,0:0:0:50:Tom2.wav
192,192,114391,1,0,0:0:0:50:Tom3.wav
64,192,114469,1,0,0:0:0:50:Tom3.wav
320,192,114547,1,2,0:0:0:0:
192,192,114625,1,2,0:0:0:0:
64,192,114704,1,8,0:0:0:0:
320,192,114704,1,4,0:0:0:0:
448,192,114704,1,0,0:0:0:0:
192,192,114860,1,2,0:0:0:0:
192,192,115016,1,2,0:0:0:0:
64,192,115172,1,8,0:0:0:0:
320,192,115172,1,4,0:0:0:0:
448,192,115172,1,0,0:0:0:0:
192,192,115329,1,2,0:0:0:0:
192,192,115485,1,2,0:0:0:0:
64,192,115641,1,8,0:0:0:0:
320,192,115641,1,0,0:0:0:30:soft-hitfinish.wav
448,192,115641,1,0,0:0:0:0:
192,192,115797,1,2,0:0:0:0:
64,192,115954,1,8,0:0:0:0:
192,192,115954,1,4,0:0:0:0:
448,192,115954,1,0,0:0:0:0:
320,192,116110,1,2,0:0:0:0:
320,192,116266,1,2,0:0:0:0:
64,192,116422,1,8,0:0:0:0:
192,192,116422,1,0,0:0:0:30:soft-hitfinish.wav
64,192,116579,1,8,0:0:0:0:
192,192,116579,1,0,0:0:0:30:soft-hitfinish.wav
448,192,116735,1,0,0:0:0:50:Tom1.wav
320,192,116787,1,0,0:0:0:50:Tom2.wav
192,192,116839,1,2,0:0:0:0:
64,192,116891,1,0,0:0:0:50:Tom3.wav
64,192,117047,1,2,0:0:0:0:
192,192,117204,1,8,0:0:0:0:
320,192,117204,1,4,0:0:0:0:
448,192,117204,128,0,117829:0:0:0:0:
64,192,117829,1,0,0:0:0:30:Tom2.wav
320,192,117933,1,0,0:0:0:30:Tom1.wav
192,192,117985,1,0,0:0:0:30:Tom2.wav
64,192,118037,1,0,0:0:0:30:Tom2.wav
448,192,118141,1,0,0:0:0:30:Tom2.wav
192,192,118245,1,0,0:0:0:30:Tom3.wav
320,192,118349,1,0,0:0:0:30:Tom3.wav
64,192,118454,1,2,0:0:0:0:
192,192,118454,1,0,0:0:0:50:Hat open.wav
448,192,118454,1,0,0:0:0:0:
320,192,118610,1,0,0:0:0:0:
192,192,118766,1,0,0:0:0:0:
448,192,118922,1,0,0:0:0:0:
320,192,119235,1,0,0:0:0:0:
192,192,119391,1,0,0:0:0:0:
448,192,119547,1,0,0:0:0:0:
64,192,119704,128,6,120954:0:0:0:0:
192,192,119704,1,0,0:0:0:50:A#5H_Bb5H_s.wav
448,192,120016,1,0,0:0:0:50:G#5H_Ab5H_s.wav
192,192,120172,1,0,0:0:0:50:A#5H_Bb5H_s.wav
320,192,120485,1,0,0:0:0:50:G#5H_Ab5H_s.wav
448,192,120641,1,0,0:0:0:50:A#5H_Bb5H_s.wav
192,192,120797,1,0,0:0:0:50:G#5H_Ab5H_s.wav
320,192,120954,128,0,122204:0:0:0:50:A#5H_Bb5H_s.wav
448,192,120954,1,0,0:0:0:0:
64,192,121266,1,0,0:0:0:50:C6H_s.wav
192,192,121422,1,0,0:0:0:50:C6H_s.wav
448,192,121735,1,0,0:0:0:40:D#5H_Eb5H_s.wav
64,192,121891,1,0,0:0:0:50:G#5H_Ab5H_s.wav
448,192,122047,1,0,0:0:0:50:A#5H_Bb5H_s.wav
64,192,122204,1,0,0:0:0:50:A#5H_Bb5H_s.wav
192,192,122204,128,0,123454:0:0:0:0:
320,192,122516,1,0,0:0:0:50:G#5H_Ab5H_s.wav
448,192,122672,1,0,0:0:0:50:A#5H_Bb5H_s.wav
64,192,122985,1,0,0:0:0:50:G#5H_Ab5H_s.wav
448,192,123141,1,0,0:0:0:50:A#5H_Bb5H_s.wav
64,192,123297,1,0,0:0:0:50:G#5H_Ab5H_s.wav
320,192,123454,1,0,0:0:0:50:A#5H_Bb5H_s.wav
448,192,123454,128,0,124391:0:0:0:0:
64,192,123766,1,0,0:0:0:50:D#6H_Eb6H_s.wav
192,192,123922,128,0,124391:0:0:0:50:C6H_s.wav
64,192,124391,1,0,0:0:0:50:A#5H_Bb5H_s.wav
320,192,124547,1,0,0:0:0:50:G#5H_Ab5H_s.wav
64,192,124704,1,2,0:0:0:0:
192,192,124704,1,0,0:0:0:50:Snare Wet.wav
448,192,124704,1,0,0:0:0:0:
320,192,124860,128,0,125016:0:0:0:0:
64,192,125016,128,2,125172:0:0:0:0:
192,192,125016,1,0,0:0:0:50:Snare Wet.wav
448,192,125172,128,0,125329:0:0:0:0:
192,192,125329,128,2,125485:0:0:0:0:
320,192,125329,1,0,0:0:0:50:Snare Wet.wav
64,192,125485,128,0,125641:0:0:0:0:
320,192,125641,128,2,125797:0:0:0:0:
448,192,125641,1,0,0:0:0:50:Snare Wet.wav
192,192,125797,128,0,125954:0:0:0:0:
64,192,125954,1,2,0:0:0:0:
448,192,125954,128,0,126110:0:0:0:50:Snare Wet.wav
192,192,126110,128,0,126266:0:0:0:0:
320,192,126266,128,2,126422:0:0:0:0:
448,192,126266,1,0,0:0:0:50:Snare Wet.wav
64,192,126422,128,0,126579:0:0:0:0:
192,192,126579,128,2,126891:0:0:0:0:
320,192,126579,1,0,0:0:0:50:Snare Wet.wav
320,192,126891,1,2,0:0:0:0:
448,192,126891,1,0,0:0:0:50:Snare Wet.wav
64,192,127047,1,0,0:0:0:50:Snare Wet.wav
192,192,127047,1,0,0:0:0:0:
320,192,127204,1,2,0:0:0:0:
448,192,127204,1,0,0:0:0:50:Snare Wet.wav
64,192,127360,1,2,0:0:0:0:
448,192,127360,1,0,0:0:0:50:Snare Wet.wav
64,192,127516,1,2,0:0:0:0:
192,192,127516,1,0,0:0:0:50:Snare Wet.wav
320,192,127672,1,2,0:0:0:0:
448,192,127672,1,0,0:0:0:50:Snare Wet.wav
64,192,127829,1,2,0:0:0:0:
448,192,127829,1,0,0:0:0:50:Snare Wet.wav
192,192,127985,1,2,0:0:0:0:
320,192,127985,1,0,0:0:0:50:Snare Wet.wav
64,192,128141,1,2,0:0:0:0:
320,192,128141,1,0,0:0:0:50:Snare Wet.wav
192,192,128297,1,2,0:0:0:0:
448,192,128297,1,0,0:0:0:50:Snare Wet.wav
320,192,128454,1,2,0:0:0:0:
448,192,128532,1,0,0:0:0:30:Snare Wet.wav
64,192,128610,1,2,0:0:0:0:
192,192,128688,1,0,0:0:0:30:Snare Wet.wav
320,192,128766,1,2,0:0:0:0:
448,192,128844,1,0,0:0:0:30:Snare Wet.wav
192,192,128922,1,2,0:0:0:0:
64,192,129000,1,0,0:0:0:30:Snare Wet.wav
320,192,129079,1,2,0:0:0:0:
448,192,129079,1,0,0:0:0:30:Snare Wet.wav
192,192,129157,1,2,0:0:0:0:
320,192,129235,1,2,0:0:0:0:
448,192,129313,1,2,0:0:0:0:
64,192,129391,1,2,0:0:0:0:
192,192,129391,1,0,0:0:0:30:Snare Wet.wav
320,192,129469,1,2,0:0:0:0:
192,192,129547,1,2,0:0:0:0:
64,192,129625,1,2,0:0:0:0:
320,192,129704,1,8,0:0:0:0:
448,192,129704,128,0,129860:0:0:0:50:Hat open.wav
192,192,129860,128,0,130016:0:0:0:50:E6H_s.wav
320,192,130016,128,0,130172:0:0:0:50:E6H_s.wav
64,192,130172,1,0,0:0:0:50:A6H_s.wav
192,192,130485,128,2,130641:0:0:0:0:
320,192,130641,1,0,0:0:0:50:Tom2.wav
448,192,130641,128,0,130797:0:0:0:70:B6H_s.wav
192,192,130797,128,0,130954:0:0:0:70:B6H_s.wav
64,192,130954,128,0,131266:0:0:0:70:B6H_s.wav
192,192,131266,128,4,131422:0:0:0:0:
320,192,131266,128,2,131422:0:0:0:0:
448,192,131266,128,8,131422:0:0:0:0:
64,192,131422,1,0,0:0:0:0:
320,192,131579,1,2,0:0:0:0:
448,192,131579,1,0,0:0:0:0:
192,192,131735,1,0,0:0:0:50:Hat open.wav
64,192,131891,1,2,0:0:0:0:
448,192,131891,1,8,0:0:0:0:
320,192,132047,1,0,0:0:0:0:
64,192,132204,1,2,0:0:0:0:
192,192,132204,1,0,0:0:0:0:
320,192,132360,1,0,0:0:0:50:Hat open.wav
64,192,132516,1,2,0:0:0:0:
448,192,132516,128,8,132985:0:0:0:0:
192,192,132829,1,2,0:0:0:0:
320,192,132829,128,0,133141:0:0:0:0:
64,192,132985,1,0,0:0:0:50:Hat open.wav
192,192,133141,1,2,0:0:0:0:
448,192,133141,1,8,0:0:0:0:
320,192,133297,1,0,0:0:0:0:
64,192,133454,1,2,0:0:0:0:
448,192,133454,128,0,133766:0:0:0:0:
64,192,133766,128,2,133922:0:0:0:0:
192,192,133766,128,8,133922:0:0:0:0:
320,192,133766,128,0,133922:0:0:0:0:
448,192,133922,1,0,0:0:0:50:Hat open.wav
64,192,134079,1,2,0:0:0:0:
192,192,134079,1,0,0:0:0:0:
320,192,134235,1,0,0:0:0:0:
64,192,134391,1,2,0:0:0:0:
448,192,134391,1,8,0:0:0:0:
192,192,134547,1,0,0:0:0:50:Hat open.wav
320,192,134704,1,2,0:0:0:0:
448,192,134704,1,0,0:0:0:0:
64,192,134860,1,0,0:0:0:50:Hat open.wav
192,192,135016,1,2,0:0:0:0:
320,192,135016,128,8,135329:0:0:0:0:
448,192,135172,1,0,0:0:0:0:
64,192,135329,1,2,0:0:0:0:
192,192,135329,128,0,135641:0:0:0:0:
320,192,135485,1,0,0:0:0:0:
64,192,135641,128,2,135954:0:0:0:0:
448,192,135641,1,8,0:0:0:0:
192,192,135797,1,0,0:0:0:50:Hat open.wav
320,192,135954,1,4,0:0:0:0:
448,192,135954,1,2,0:0:0:0:
192,192,136110,128,0,136266:0:0:0:50:Hat open.wav
64,192,136266,1,2,0:0:0:0:
448,192,136266,128,8,136422:0:0:0:0:
320,192,136422,128,0,136579:0:0:0:50:Hat open.wav
64,192,136579,128,2,136735:0:0:0:0:
192,192,136579,1,0,0:0:0:0:
448,192,136735,128,0,136891:0:0:0:0:
192,192,136891,1,2,0:0:0:0:
320,192,136891,1,8,0:0:0:0:
64,192,137047,1,8,0:0:0:0:
192,192,137047,1,0,0:0:0:0:
64,192,137204,1,4,0:0:0:0:
320,192,137204,128,2,137360:0:0:0:0:
448,192,137204,1,0,0:0:0:0:
192,192,137360,128,0,137516:0:0:0:50:Hat open.wav
64,192,137516,128,2,137672:0:0:0:0:
448,192,137516,1,8,0:0:0:0:
320,192,137672,128,0,137829:0:0:0:50:Hat open.wav
192,192,137829,1,2,0:0:0:0:
448,192,137829,128,0,138141:0:0:0:0:
320,192,137985,1,0,0:0:0:50:Hat open.wav
64,192,138141,1,2,0:0:0:0:
192,192,138141,1,8,0:0:0:0:
320,192,138297,128,0,138454:0:0:0:0:
64,192,138454,1,2,0:0:0:0:
448,192,138454,1,0,0:0:0:50:Hat open.wav
192,192,138610,1,2,0:0:0:0:
448,192,138610,1,0,0:0:0:0:
64,192,138766,1,8,0:0:0:0:
320,192,138766,1,0,0:0:0:50:Hat open.wav
192,192,138922,1,2,0:0:0:0:
320,192,138922,1,0,0:0:0:0:
64,192,139079,1,8,0:0:0:0:
192,192,139079,1,4,0:0:0:0:
448,192,139079,1,0,0:0:0:0:
64,192,139235,1,2,0:0:0:0:
320,192,139235,1,0,0:0:0:0:
192,192,139391,1,8,0:0:0:0:
320,192,139391,1,4,0:0:0:0:
448,192,139391,1,0,0:0:0:0:
64,192,139547,1,2,0:0:0:0:
448,192,139547,1,0,0:0:0:0:
320,192,139704,1,0,0:0:0:0:
192,192,139782,1,0,0:0:0:0:
448,192,139860,1,2,0:0:0:0:
320,192,139938,1,0,0:0:0:0:
64,192,140016,1,10,0:0:0:0:
192,192,140094,1,0,0:0:0:0:
320,192,140172,1,8,0:0:0:0:
448,192,140250,1,0,0:0:0:50:Tom2.wav
64,192,140329,1,6,0:0:0:0:
320,192,140407,1,0,0:0:0:0:
192,192,140485,1,8,0:0:0:0:
64,192,140563,1,8,0:0:0:0:
448,192,140641,1,0,0:0:0:50:Tom1.wav
320,192,140719,1,0,0:0:0:50:Tom1.wav
192,192,140797,1,0,0:0:0:50:Tom2.wav
64,192,140875,1,0,0:0:0:50:Tom3.wav
320,192,140954,1,4,0:0:0:0:
448,192,140954,128,2,141266:0:0:0:0:
64,192,141266,128,8,141422:0:0:0:0:
192,192,141266,128,0,141422:0:0:0:0:
320,192,141266,128,0,141422:0:0:0:0:
448,192,141422,1,0,0:0:0:0:
64,192,141579,1,2,0:0:0:0:
192,192,141579,1,0,0:0:0:0:
320,192,141735,1,2,0:0:0:0:
448,192,141735,1,0,0:0:0:0:
64,192,141891,1,8,0:0:0:0:
448,192,141891,1,0,0:0:0:0:
64,192,142047,1,4,0:0:0:0:
192,192,142047,1,2,0:0:0:0:
320,192,142047,1,0,0:0:0:0:
192,192,142204,1,0,0:0:0:0:
320,192,142360,1,2,0:0:0:0:
448,192,142360,1,0,0:0:0:0:
64,192,142516,128,8,142985:0:0:0:0:
448,192,142516,1,0,0:0:0:0:
192,192,142829,128,2,143141:0:0:0:0:
320,192,142829,1,0,0:0:0:0:
320,192,142985,1,4,0:0:0:0:
448,192,142985,1,8,0:0:0:0:
64,192,143141,1,4,0:0:0:0:
448,192,143141,1,8,0:0:0:0:
192,192,143297,1,0,0:0:0:0:
64,192,143454,128,4,143766:0:0:0:0:
320,192,143454,1,2,0:0:0:0:
448,192,143454,1,0,0:0:0:0:
192,192,143766,1,8,0:0:0:0:
320,192,143766,1,0,0:0:0:0:
448,192,143766,1,0,0:0:0:0:
64,192,143922,1,4,0:0:0:0:
320,192,143922,1,2,0:0:0:0:
448,192,143922,128,0,144235:0:0:0:0:
192,192,144235,1,2,0:0:0:0:
320,192,144235,1,0,0:0:0:0:
64,192,144391,1,8,0:0:0:0:
448,192,144391,1,0,0:0:0:0:
192,192,144547,1,4,0:0:0:0:
320,192,144547,1,2,0:0:0:0:
448,192,144547,1,0,0:0:0:0:
64,192,144704,1,0,0:0:0:0:
192,192,144860,1,2,0:0:0:0:
320,192,144860,1,0,0:0:0:0:
192,192,145016,128,4,145329:0:0:0:0:
320,192,145016,1,8,0:0:0:0:
448,192,145016,1,0,0:0:0:0:
64,192,145172,1,2,0:0:0:0:
320,192,145329,128,0,145641:0:0:0:50:Tom1.wav
448,192,145329,1,0,0:0:0:0:
192,192,145485,1,2,0:0:0:0:
64,192,145641,1,0,0:0:0:50:Tom2.wav
448,192,145641,128,0,145954:0:0:0:0:
320,192,145797,1,0,0:0:0:0:
64,192,145954,1,2,0:0:0:0:
192,192,145954,1,0,0:0:0:30:soft-hitfinish.wav
192,192,146110,1,4,0:0:0:0:
320,192,146110,128,2,146266:0:0:0:0:
448,192,146110,1,0,0:0:0:0:
64,192,146266,128,0,146422:0:0:0:0:
192,192,146422,128,2,146579:0:0:0:0:
320,192,146422,1,0,0:0:0:0:
448,192,146579,128,8,146735:0:0:0:0:
64,192,146735,128,0,146891:0:0:0:0:
192,192,146891,1,2,0:0:0:0:
320,192,146891,1,0,0:0:0:50:Hat open.wav
64,192,147047,1,2,0:0:0:0:
320,192,147047,1,0,0:0:0:0:
448,192,147204,1,0,0:0:0:50:Hat open.wav
192,192,147360,1,8,0:0:0:0:
320,192,147360,128,0,147516:0:0:0:0:
64,192,147516,1,2,0:0:0:0:
448,192,147516,128,0,147672:0:0:0:50:Hat open.wav
192,192,147672,128,0,147829:0:0:0:0:
64,192,147829,1,4,0:0:0:0:
320,192,147829,1,8,0:0:0:0:
448,192,147829,1,0,0:0:0:0:
192,192,147985,1,2,0:0:0:0:
320,192,147985,1,0,0:0:0:0:
64,192,148141,1,4,0:0:0:0:
192,192,148141,1,8,0:0:0:0:
448,192,148141,1,0,0:0:0:0:
320,192,148297,128,0,148454:0:0:0:0:
64,192,148454,1,2,0:0:0:0:
448,192,148454,1,0,0:0:0:30:soft-hitfinish.wav
192,192,148610,1,2,0:0:0:0:
320,192,148766,1,8,0:0:0:0:
448,192,148766,128,0,148922:0:0:0:0:
192,192,148922,128,2,149079:0:0:0:0:
64,192,149079,1,0,0:0:0:0:
448,192,149079,1,0,0:0:0:0:
320,192,149235,128,2,149391:0:0:0:0:
64,192,149391,128,0,149704:0:0:0:0:
192,192,149391,1,0,0:0:0:0:
320,192,149547,1,4,0:0:0:0:
448,192,149547,1,2,0:0:0:0:
192,192,149704,1,0,0:0:0:0:
320,192,149782,1,0,0:0:0:0:
64,192,149860,1,0,0:0:0:30:Tom2.wav
192,192,149938,1,2,0:0:0:0:
448,192,150016,1,0,0:0:0:0:
320,192,150094,1,0,0:0:0:0:
192,192,150172,1,2,0:0:0:0:
64,192,150250,1,0,0:0:0:0:
448,192,150329,1,0,0:0:0:30:soft-hitclap.wav
192,192,150407,1,0,0:0:0:30:soft-hitclap.wav
320,192,150485,1,0,0:0:0:30:soft-hitclap.wav
448,192,150563,1,0,0:0:0:30:soft-hitclap.wav
64,192,150641,1,0,0:0:0:30:soft-hitclap.wav
192,192,150719,1,0,0:0:0:30:soft-hitclap.wav
320,192,150797,1,0,0:0:0:30:soft-hitclap.wav
448,192,150875,1,0,0:0:0:30:soft-hitclap.wav
64,192,150954,1,4,0:0:0:0:
192,192,150954,1,2,0:0:0:0:
320,192,151110,1,0,0:0:0:0:
64,192,151266,1,8,0:0:0:0:
448,192,151266,1,0,0:0:0:50:Hat open.wav
192,192,151422,1,0,0:0:0:0:
320,192,151579,1,8,0:0:0:0:
448,192,151579,1,0,0:0:0:50:Hat open.wav
64,192,151735,1,2,0:0:0:0:
192,192,151735,1,0,0:0:0:0:
320,192,151891,1,8,0:0:0:0:
448,192,151891,1,0,0:0:0:50:Hat open.wav
64,192,152047,1,2,0:0:0:0:
192,192,152047,1,0,0:0:0:0:
192,192,152204,1,4,0:0:0:0:
320,192,152204,1,8,0:0:0:0:
448,192,152204,1,0,0:0:0:0:
64,192,152360,1,0,0:0:0:0:
192,192,152516,1,8,0:0:0:0:
320,192,152516,1,0,0:0:0:50:Hat open.wav
448,192,152672,1,0,0:0:0:0:
64,192,152829,1,8,0:0:0:0:
192,192,152829,1,0,0:0:0:50:Hat open.wav
448,192,152985,1,2,0:0:0:0:
320,192,153063,1,2,0:0:0:0:
64,192,153141,1,8,0:0:0:0:
192,192,153141,1,0,0:0:0:30:soft-hitfinish.wav
320,192,153297,1,2,0:0:0:0:
448,192,153297,1,0,0:0:0:0:
64,192,153454,1,4,0:0:0:0:
192,192,153454,1,8,0:0:0:0:
448,192,153454,1,0,0:0:0:0:
320,192,153610,1,0,0:0:0:0:
64,192,153766,1,8,0:0:0:0:
192,192,153766,1,0,0:0:0:50:Hat open.wav
448,192,153922,1,0,0:0:0:0:
192,192,154079,1,8,0:0:0:0:
320,192,154079,1,0,0:0:0:50:Hat open.wav
64,192,154235,1,2,0:0:0:0:
448,192,154235,1,0,0:0:0:0:
192,192,154391,1,8,0:0:0:0:
320,192,154391,1,0,0:0:0:50:Hat open.wav
64,192,154547,1,2,0:0:0:0:
448,192,154547,1,0,0:0:0:0:
192,192,154704,1,8,0:0:0:0:
320,192,154704,1,0,0:0:0:50:Hat open.wav
64,192,154860,1,0,0:0:0:0:
320,192,155016,1,8,0:0:0:0:
448,192,155016,1,0,0:0:0:50:Hat open.wav
192,192,155172,1,0,0:0:0:0:
64,192,155329,1,8,0:0:0:0:
448,192,155329,1,0,0:0:0:50:Hat open.wav
192,192,155485,1,2,0:0:0:0:
320,192,155563,1,2,0:0:0:0:
64,192,155641,1,8,0:0:0:0:
448,192,155641,1,0,0:0:0:0:
192,192,155719,1,8,0:0:0:0:
320,192,155797,1,8,0:0:0:0:
448,192,155875,1,8,0:0:0:0:
64,192,155954,1,4,0:0:0:0:
192,192,155954,1,2,0:0:0:0:
320,192,156110,1,2,0:0:0:0:
448,192,156110,1,0,0:0:0:0:
64,192,156266,1,8,0:0:0:0:
448,192,156266,1,0,0:0:0:50:Hat open.wav
192,192,156422,1,2,0:0:0:0:
320,192,156422,1,0,0:0:0:0:
320,192,156579,1,8,0:0:0:0:
448,192,156579,1,0,0:0:0:50:Hat open.wav
64,192,156735,1,2,0:0:0:0:
192,192,156735,1,0,0:0:0:0:
320,192,156891,1,8,0:0:0:0:
448,192,156891,1,0,0:0:0:50:Hat open.wav
64,192,157047,1,4,0:0:0:0:
192,192,157047,128,2,157360:0:0:0:0:
448,192,157047,1,0,0:0:0:0:
320,192,157360,1,2,0:0:0:0:
448,192,157360,1,0,0:0:0:0:
64,192,157516,1,4,0:0:0:0:
320,192,157516,1,8,0:0:0:0:
448,192,157516,1,0,0:0:0:0:
192,192,157672,1,0,0:0:0:50:Tom1.wav
320,192,157750,1,0,0:0:0:50:Tom2.wav
64,192,157829,1,2,0:0:0:0:
448,192,157829,1,0,0:0:0:0:
192,192,157985,1,8,0:0:0:0:
192,192,158141,1,8,0:0:0:0:
320,192,158141,128,0,158454:0:0:0:0:
64,192,158454,128,2,158766:0:0:0:0:
192,192,158454,1,0,0:0:0:20:soft-hitfinish.wav
448,192,158454,128,0,159704:0:0:0:0:
192,192,158766,128,2,159079:0:0:0:0:
320,192,158766,1,0,0:0:0:30:soft-hitfinish.wav
64,192,159079,1,2,0:0:0:0:
320,192,159079,128,0,159391:0:0:0:40:soft-hitfinish.wav
64,192,159391,128,4,159704:0:0:0:0:
192,192,159391,1,2,0:0:0:0:
192,192,159704,1,2,0:0:0:0:
320,192,159704,1,0,0:0:0:50:Hat open.wav
192,192,160381,128,0,161370:0:0:0:0:
320,192,161696,128,0,164235:0:0:0:0:
