osu file format v14

[General]
AudioFilename: audio.mp3
AudioLeadIn: 0
PreviewTime: -1
Countdown: 0
SampleSet: None
StackLeniency: 0.7
Mode: 0
LetterboxInBreaks: 0
WidescreenStoryboard: 0

[Editor]
Bookmarks: 2245
DistanceSpacing: 0.7
BeatDivisor: 4
GridSize: 32
TimelineZoom: 0.9

[Metadata]
Title:MKDR feat. Hatsune miku
TitleUnicode:妄想感傷代償連盟 feat. 初音ミク
Artist:DECO*27
ArtistUnicode:DECO*27
Creator:YelloJello
Version:
Source:
Tags:
BeatmapID:2096242
BeatmapSetID:1001377

[Difficulty]
HPDrainRate:5
CircleSize:5.5
OverallDifficulty:8
ApproachRate:9
SliderMultiplier:1.4
SliderTickRate:1

[Events]
//Background and Video events
0,0,"MKDR.jpg",0,0
//Break Periods
//Storyboard Layer 0 (Background)
//Storyboard Layer 1 (Fail)
//Storyboard Layer 2 (Pass)
//Storyboard Layer 3 (Foreground)
//Storyboard Sound Samples

[TimingPoints]
2245,545.454545454546,4,2,1,55,1,0
10972,-66.6666666666667,4,2,1,55,0,0

[HitObjects]
123,118,2245,6,0,P|89:120|56:110,2,70
181,52,3063,2,0,L|178:85,2,23.3333333333333
236,9,3335,2,0,P|270:7|292:14,1,35
360,22,3608,1,0,0:0:0:0:
360,22,3881,2,0,L|397:18,2,35
286,122,4426,5,0,0:0:0:0:
285,121,4699,2,0,L|251:125,1,35
180,177,4972,1,0,0:0:0:0:
186,114,5108,1,0,0:0:0:0:
193,186,5245,2,0,L|196:228,1,35
260,297,5517,2,0,L|263:254,1,35
189,373,5790,1,0,0:0:0:0:
189,373,6063,2,0,L|154:369,2,35
389,266,6608,6,0,P|423:264|456:274,2,70
331,332,7426,2,0,L|328:308,2,23.3333333333333
241,290,7699,2,0,P|231:275|224:259,1,35
215,168,7972,1,0,0:0:0:0:
215,168,8245,2,0,L|218:133,2,35
123,252,8790,5,0,0:0:0:0:
123,251,9063,2,0,P|105:254|88:253,1,35
53,193,9335,2,0,P|59:176|68:161,1,35
139,161,9608,2,0,P|150:174|157:190,1,35
226,104,9881,1,0,0:0:0:0:
226,104,10154,2,0,L|266:104,1,35
171,58,10426,2,0,P|191:40|219:31,1,35
81,64,10699,2,0,P|82:37|95:10,1,35
20,130,10972,6,0,P|25:146|21:182,1,52.5000020027161
0,292,11245,2,0,P|12:279|45:264,1,52.5000020027161
149,229,11517,1,0,0:0:0:0:
147,238,11654,1,0,0:0:0:0:
107,162,11790,1,0,0:0:0:0:
105,153,11926,1,0,0:0:0:0:
199,159,12063,1,0,0:0:0:0:
158,75,12199,1,0,0:0:0:0:
251,81,12335,2,0,B|278:89|278:89|313:86,1,52.5000020027161
430,52,12608,2,0,L|378:56,1,52.5000020027161
333,15,13017,1,0,0:0:0:0:
392,148,13154,6,0,P|395:175|392:200,1,52.5000020027161
320,312,13426,1,0,0:0:0:0:
291,248,13563,1,0,0:0:0:0:
251,306,13699,1,0,0:0:0:0:
246,313,13835,1,0,0:0:0:0:
212,241,13972,2,0,P|209:214|212:189,1,52.5000020027161
211,61,14245,2,0,P|186:58|160:61,1,52.5000020027161
186,125,14517,2,0,P|165:141|149:162,1,52.5000020027161
39,202,14790,2,0,P|63:211|84:227,1,52.5000020027161
117,298,15199,1,0,0:0:0:0:
130,189,15335,6,0,P|122:163|120:120,1,52.5000020027161
120,30,15608,1,0,0:0:0:0:
109,171,15745,2,0,P|106:144|98:119,1,52.5000020027161
395,298,16290,1,0,0:0:0:0:
382,189,16426,2,0,P|390:163|392:120,1,52.5000020027161
392,30,16699,1,0,0:0:0:0:
403,171,16836,2,0,P|406:144|414:119,1,52.5000020027161
255,236,17381,1,0,0:0:0:0:
190,132,17517,6,0,P|215:142|241:141,1,52.5000020027161
311,128,17790,1,0,0:0:0:0:
229,60,17926,1,0,0:0:0:0:
129,96,18063,2,0,P|119:120|120:146,1,52.5000020027161
133,216,18335,1,0,0:0:0:0:
51,148,18472,1,0,0:0:0:0:
34,254,18608,2,0,L|28:313,1,52.5000020027161
162,359,18881,2,0,P|137:351|110:352,1,52.5000020027161
0,384,19154,1,0,0:0:0:0:
40,321,19563,1,0,0:0:0:0:
162,359,19699,6,0,P|187:367|214:366,1,52.5000020027161
269,323,19972,1,0,0:0:0:0:
391,285,20108,2,0,P|366:293|339:292,1,52.5000020027161
284,249,20381,1,0,0:0:0:0:
255,185,20518,1,0,0:0:0:0:
215,243,20654,1,0,0:0:0:0:
182,130,20790,1,0,0:0:0:0:
178,143,20926,1,0,0:0:0:0:
97,203,21063,1,0,0:0:0:0:
101,216,21199,1,0,0:0:0:0:
24,143,21335,1,0,0:0:0:0:
0,247,21472,1,0,0:0:0:0:
9,236,21745,1,0,0:0:0:0:
131,324,21881,6,0,P|108:315|76:312,1,52.5000020027161
0,353,22154,1,0,0:0:0:0:
203,309,22290,2,0,P|193:286|172:261,1,52.5000020027161
276,298,22563,2,0,P|273:324|264:349,2,52.5000020027161
356,268,22972,1,0,0:0:0:0:
360,275,23108,1,0,0:0:0:0:
427,169,23245,1,0,0:0:0:0:
423,176,23381,1,0,0:0:0:0:
477,279,23517,1,0,0:0:0:0:
391,357,23654,1,0,0:0:0:0:
382,346,23926,1,0,0:0:0:0:
314,226,24063,6,0,P|299:187|297:160,1,52.5000020027161
341,70,24335,1,0,0:0:0:0:
322,259,24472,2,0,P|337:220|339:193,1,52.5000020027161
130,346,25017,1,0,0:0:0:0:
198,226,25153,6,0,P|213:187|215:160,1,52.5000020027161
171,70,25425,1,0,0:0:0:0:
190,259,25562,2,0,P|175:220|173:193,1,52.5000020027161
