osu file format v14

[General]
AudioFilename: audio.mp3
AudioLeadIn: 0
PreviewTime: 68526
Countdown: 0
SampleSet: Soft
StackLeniency: 0.6
Mode: 0
LetterboxInBreaks: 0
WidescreenStoryboard: 1

[Editor]
DistanceSpacing: 1.2
BeatDivisor: 4
GridSize: 32
TimelineZoom: 1

[Metadata]
Title:Love Distance Long Affair feat. Topi
TitleUnicode:恋距離遠愛 feat. とぴ
Artist:DECO*27
ArtistUnicode:DECO*27
Creator:CSLM
Version:Normal
Source:
Tags:ラブカレンダー Miou Sugita SIN Takahide Azuchi Yoko Fukuda utaite egomama エゴママ international jpop jrock
BeatmapID:1171311
BeatmapSetID:553171

[Difficulty]
HPDrainRate:3
CircleSize:3
OverallDifficulty:3
ApproachRate:4
SliderMultiplier:1
SliderTickRate:1

[Events]
//Background and Video events
0,0,"BG.png",0,0
Video,0,"5 Hours vid.avi"
//Break Periods
2,100012,108778
2,152955,165349
//Storyboard Layer 0 (Background)
//Storyboard Layer 1 (Fail)
//Storyboard Layer 2 (Pass)
//Storyboard Layer 3 (Foreground)
//Storyboard Sound Samples

[TimingPoints]
384,428.571428571429,4,2,1,40,1,0
384,-125,4,2,1,40,0,0
14098,-111.111111111111,4,2,1,50,0,0
27812,-100,4,2,0,60,0,0
27919,-100,4,2,1,60,0,0
31241,-100,4,2,0,60,0,0
31348,-100,4,2,1,60,0,0
34669,-100,4,2,0,60,0,0
34776,-100,4,2,1,60,0,0
38098,-100,4,2,0,60,0,0
38205,-100,4,2,1,60,0,0
40241,-100,4,2,0,60,0,0
40348,-100,4,2,1,60,0,0
41526,-111.111111111111,4,2,1,50,0,0
55241,-111.111111111111,4,2,0,50,0,0
55348,-111.111111111111,4,2,1,50,0,0
67241,-111.111111111111,4,2,1,30,0,0
68955,-90.9090909090909,4,2,0,70,0,1
69062,-90.9090909090909,4,2,1,70,0,1
75812,-90.9090909090909,4,2,0,70,0,1
75919,-90.9090909090909,4,2,1,70,0,1
82241,-90.9090909090909,4,2,1,70,0,0
82669,-90.9090909090909,4,2,0,70,0,1
82776,-90.9090909090909,4,2,1,70,0,1
89526,-90.9090909090909,4,2,0,70,0,1
89634,-90.9090909090909,4,2,1,70,0,1
95098,-90.9090909090909,4,2,0,70,0,1
95205,-90.9090909090909,4,2,1,70,0,1
96384,-100,4,2,0,60,0,0
110205,-100,4,2,1,60,0,0
113526,-100,4,2,0,60,0,0
113634,-100,4,2,1,60,0,0
116955,-100,4,2,0,60,0,0
117062,-100,4,2,1,60,0,0
120384,-100,4,2,0,60,0,0
120491,-100,4,2,1,60,0,0
122526,-100,4,2,0,60,0,0
122634,-100,4,2,1,60,0,0
123812,-111.111111111111,4,2,0,50,0,0
123919,-111.111111111111,4,2,1,50,0,0
166669,-142.857142857143,4,2,1,40,0,0
178669,-142.857142857143,4,2,1,30,0,0
180384,-83.3333333333333,4,2,0,80,0,1
180491,-83.3333333333333,4,2,1,80,0,1
187241,-83.3333333333333,4,2,0,80,0,1
187348,-83.3333333333333,4,2,1,80,0,1
193669,-83.3333333333333,4,2,1,80,0,0
194098,-83.3333333333333,4,2,0,80,0,1
194205,-83.3333333333333,4,2,1,80,0,1
200955,-83.3333333333333,4,2,0,80,0,1
201062,-83.3333333333333,4,2,1,80,0,1
207384,-83.3333333333333,4,2,1,80,0,0
207812,-90.9090909090909,4,2,0,70,0,1
207919,-90.9090909090909,4,2,1,70,0,1
214669,-90.9090909090909,4,2,0,70,0,1
214776,-90.9090909090909,4,2,1,70,0,1
221098,-90.9090909090909,4,2,1,70,0,0
221526,-90.9090909090909,4,2,0,70,0,1
221634,-90.9090909090909,4,2,1,70,0,1
228384,-90.9090909090909,4,2,0,70,0,1
228491,-90.9090909090909,4,2,1,70,0,1
233955,-90.9090909090909,4,2,0,70,0,1
234062,-90.9090909090909,4,2,1,70,0,1
235241,-100,4,2,0,70,0,0
235348,-100,4,2,1,70,0,0
238669,-100,4,2,0,70,0,0
238776,-100,4,2,1,70,0,0
242098,-100,4,2,0,70,0,0
242205,-100,4,2,1,70,0,0
245526,-100,4,2,0,70,0,0
245634,-100,4,2,1,70,0,0
248955,-100,4,2,0,70,0,0
249062,-100,4,2,1,70,0,0
252384,-100,4,2,0,70,0,0
252491,-100,4,2,1,70,0,0
255812,-100,4,2,0,70,0,0
255919,-100,4,2,1,70,0,0
259241,-100,4,2,0,70,0,0
259348,-100,4,2,1,70,0,0
262669,-200,4,2,1,30,0,0

[Colours]
Combo1 : 248,139,67
Combo2 : 255,255,170
Combo3 : 162,102,170
Combo4 : 222,186,44
Combo5 : 56,179,252

[HitObjects]
480,48,384,6,0,L|475:139,1,80,2|4,0:0|0:3,0:0:0:0:
415,191,1241,2,0,L|412:286,1,80,4|4,0:3|0:3,0:0:0:0:
339,320,2098,2,0,P|296:301|249:303,1,80,4|4,0:3|0:3,0:0:0:0:
222,315,2741,2,0,P|164:319|116:276,1,120,0|4,0:0|0:3,0:0:0:0:
65,210,3812,6,0,P|104:195|154:199,1,80,6|4,0:3|0:3,0:0:0:0:
174,113,4669,2,0,P|210:135|231:173,1,80,4|4,0:3|0:3,0:0:0:0:
317,166,5526,2,0,L|310:257,1,80,4|4,0:3|0:3,0:0:0:0:
311,289,6169,2,0,L|437:285,1,120,0|4,0:0|0:3,0:0:0:0:
489,218,7241,6,0,L|497:138,1,80,6|4,0:3|0:3,0:0:0:0:
451,62,8098,2,0,P|418:50|361:52,1,80,4|4,0:3|0:3,0:0:0:0:
292,84,8955,2,0,L|203:70,1,80,4|4,0:3|0:3,0:0:0:0:
169,64,9598,2,0,P|165:139|179:193,1,120,0|4,0:0|0:3,0:0:0:0:
175,270,10669,6,0,L|267:261,1,80,6|4,0:3|0:3,0:0:0:0:
279,177,11526,2,0,P|319:208|343:284,1,120,4|0,0:3|0:0,0:0:0:0:
387,268,12384,2,0,P|393:217|443:156,1,120,4|0,0:3|0:0,0:0:0:0:
412,123,13241,2,0,P|365:142|293:126,1,120,4|0,0:3|0:0,0:0:0:0:
270,88,14098,22,0,P|227:57|179:47,1,89.999997253418,6|2,0:0|0:0,0:0:0:0:
142,57,14741,1,0,0:0:0:0:
142,57,14955,2,0,L|148:158,1,89.999997253418,2|10,0:0|0:0,0:0:0:0:
161,244,15812,2,0,P|211:249|261:236,1,89.999997253418,6|2,0:0|0:0,0:0:0:0:
290,268,16455,2,0,L|391:263,1,89.999997253418,0|0,0:0|0:0,0:0:0:0:
416,297,17098,1,10,0:0:0:0:
463,210,17526,6,0,P|453:169|463:105,1,89.999997253418,6|2,0:0|0:0,0:0:0:0:
380,58,18384,2,0,P|335:86|289:90,1,89.999997253418,2|10,0:0|0:0,0:0:0:0:
200,78,19241,2,0,L|193:184,1,89.999997253418,6|2,0:0|0:0,0:0:0:0:
147,184,19884,2,0,L|141:286,1,89.999997253418,0|0,0:0|0:0,0:0:0:0:
110,312,20526,1,10,0:0:0:0:
204,341,20955,6,0,P|243:333|297:343,1,89.999997253418,6|2,0:0|0:0,0:0:0:0:
389,360,21812,2,0,P|407:309|405:260,1,89.999997253418,2|10,0:0|0:0,0:0:0:0:
381,177,22669,1,6,0:0:0:0:
337,88,23098,1,2,0:0:0:0:
239,70,23526,1,2,0:0:0:0:
162,132,23955,1,10,0:0:0:0:
180,229,24384,6,0,B|99:214|128:259|48:244,1,134.999995880127,6|0,0:0|0:0,0:0:0:0:
0,233,25241,2,0,L|15:340,1,89.999997253418,2|10,0:0|0:0,0:0:0:0:
58,340,25884,1,0,0:0:0:0:
58,340,26098,2,0,L|120:334,2,44.999998626709,6|0|4,0:0|0:0|0:3,0:0:0:0:
53,241,26955,2,0,L|-1:237,1,44.999998626709,4|4,0:3|0:3,0:0:0:0:
0,188,27384,2,0,L|4:135,1,44.999998626709,2|2,0:0|0:0,0:0:0:0:
23,92,27812,22,0,P|68:98|131:76,1,100,4|8,0:0|0:0,0:0:0:0:
201,9,28669,2,0,P|222:39|221:114,1,100,4|10,0:3|0:0,0:0:0:0:
217,155,29312,2,0,L|378:137,1,150,2|8,0:0|0:0,0:0:0:0:
394,245,30384,2,0,L|331:253,1,50,6|2,0:3|0:0,0:0:0:0:
335,305,30812,2,0,L|277:311,1,50,10|2,0:0|0:0,0:0:0:0:
244,346,31241,6,0,P|190:343|152:314,1,100,4|8,0:0|0:0,0:0:0:0:
123,210,32098,2,0,P|143:160|192:133,1,100,4|10,0:3|0:0,0:0:0:0:
234,125,32741,2,0,B|315:117|293:164|381:155,1,150,2|8,0:0|0:0,0:0:0:0:
453,234,33812,2,0,P|434:274|436:341,1,100,4|10,0:3|0:0,0:0:0:0:
334,378,34669,6,0,P|299:355|235:348,1,100,4|8,0:0|0:0,0:0:0:0:
191,368,35312,2,0,L|186:265,1,100,2|0,0:0|0:0,0:0:0:0:
137,241,35955,1,10,0:0:0:0:
49,173,36384,2,0,P|154:196|215:126,1,200,6|4,0:3|0:3,0:0:0:0:
293,62,37669,1,8,0:0:0:0:
388,116,38098,6,0,P|375:169|386:227,1,100,4|8,0:0|0:0,0:0:0:0:
426,244,38741,2,0,P|439:297|433:353,1,100,0|0,0:0|0:0,0:0:0:0:
399,383,39384,1,8,0:0:0:0:
299,336,39812,2,0,L|310:265,2,50,4|4|4,0:3|0:3|0:0,0:0:0:0:
189,347,40669,2,0,L|131:355,1,50,4|4,0:3|0:3,0:0:0:0:
86,337,41098,2,0,L|92:270,1,50,4|4,0:3|0:3,0:0:0:0:
109,241,41526,22,0,L|102:138,1,89.999997253418,4|8,0:3|0:0,0:0:0:0:
164,73,42384,2,0,B|260:67,1,89.9999972534181,4|8,0:3|0:0,0:0:0:0:
352,68,43241,2,0,P|378:112|382:166,1,89.999997253418,4|8,0:3|0:0,0:0:0:0:
409,192,43884,2,0,L|305:186,1,89.999997253418,0|0,0:0|0:0,0:0:0:0:
285,223,44526,1,8,0:0:0:0:
243,312,44955,5,4,0:3:0:0:
145,293,45384,1,8,0:0:0:0:
59,342,45812,2,0,P|47:291|57:247,1,89.9999972534181,4|8,0:3|0:0,0:0:0:0:
102,168,46669,2,0,P|114:117|101:69,1,89.999997253418,4|8,0:3|0:0,0:0:0:0:
138,42,47312,2,0,L|231:34,1,89.999997253418,0|0,0:0|0:0,0:0:0:0:
276,43,47955,1,8,0:0:0:0:
371,71,48384,6,0,B|388:95|388:95|381:169,1,89.999997253418,4|8,0:3|0:0,0:0:0:0:
316,229,49241,2,0,B|297:248|297:248|301:319,1,89.999997253418,4|8,0:3|0:0,0:0:0:0:
213,357,50098,2,0,P|178:349|119:358,1,89.999997253418,4|8,0:3|0:0,0:0:0:0:
75,362,50741,2,0,L|82:258,1,89.9999972534181,0|0,0:0|0:0,0:0:0:0:
110,232,51384,1,8,0:0:0:0:
89,135,51812,5,6,0:3:0:0:
161,66,52241,1,8,0:0:0:0:
246,116,52669,2,0,L|353:104,1,89.999997253418,4|8,0:3|0:0,0:0:0:0:
414,165,53526,2,0,L|406:224,1,44.999998626709,4|2,0:3|0:0,0:0:0:0:
446,241,53955,2,0,L|450:302,1,44.999998626709,8|2,0:0|0:0,0:0:0:0:
432,332,54384,2,0,P|386:323|333:338,1,89.999997253418,4|10,0:3|0:0,0:0:0:0:
304,361,55026,1,4,0:3:0:0:
304,361,55241,22,0,L|212:354,1,89.999997253418,4|8,0:0|0:0,0:0:0:0:
125,310,56098,2,0,P|113:251|117:213,1,89.999997253418,4|8,0:3|0:0,0:0:0:0:
134,124,56955,2,0,L|233:124,1,89.999997253418,4|8,0:3|0:0,0:0:0:0:
263,94,57598,2,0,P|272:143|271:196,1,89.999997253418,0|0,0:0|0:0,0:0:0:0:
256,230,58241,1,8,0:0:0:0:
194,307,58669,5,4,0:3:0:0:
256,383,59098,1,8,0:0:0:0:
349,351,59526,2,0,P|393:339|452:349,1,89.999997253418,4|8,0:3|0:0,0:0:0:0:
478,253,60384,2,0,L|486:147,1,89.999997253418,4|8,0:3|0:0,0:0:0:0:
436,172,61026,2,0,P|367:166|341:151,1,89.999997253418,0|0,0:0|0:0,0:0:0:0:
325,113,61669,1,8,0:0:0:0:
235,69,62098,6,0,P|176:78|135:105,1,89.999997253418,4|8,0:3|0:0,0:0:0:0:
71,152,62955,2,0,L|78:260,1,89.999997253418,4|8,0:3|0:0,0:0:0:0:
113,333,63812,2,0,P|164:346|212:336,1,89.999997253418,4|8,0:3|0:0,0:0:0:0:
257,259,64669,2,0,P|321:250|361:263,1,89.999997253418,4|8,0:3|0:0,0:0:0:0:
400,337,65526,5,6,0:3:0:0:
495,312,65955,1,8,0:0:0:0:
494,212,66384,1,4,0:3:0:0:
402,174,66812,1,10,0:0:0:0:
344,255,67241,2,0,P|280:331|198:323,1,179.999994506836,2|2,0:0|0:0,0:0:0:0:
90,126,68955,22,0,L|199:140,1,110.000003356934,4|8,0:0|0:0,0:0:0:0:
279,49,69812,2,0,L|340:41,1,55.0000016784668,4|0,0:0|0:0,0:0:0:0:
390,62,70241,2,0,L|381:139,1,55.0000016784668,8|0,0:0|0:0,0:0:0:0:
423,162,70669,2,0,L|435:272,2,110.000003356934,4|8|4,0:0|0:0|0:0,0:0:0:0:
301,162,71955,1,8,0:0:0:0:
242,270,72384,6,0,P|177:286|121:278,1,110.000003356934,6|8,0:0|0:0,0:0:0:0:
66,181,73241,2,0,P|80:154|110:121,1,55.0000016784668,4|0,0:0|0:0,0:0:0:0:
154,146,73669,2,0,P|177:123|192:100,1,55.0000016784668,8|0,0:0|0:0,0:0:0:0:
171,46,74098,2,0,P|229:62|294:39,1,110.000003356934,6|8,0:0|0:0,0:0:0:0:
329,21,74741,1,0,0:0:0:0:
329,21,74955,2,0,P|383:11|456:29,1,110.000003356934,6|8,0:0|0:0,0:0:0:0:
471,136,75812,6,0,B|464:179|464:179|469:202|469:202|461:246,1,110.000003356934,6|8,0:0|0:0,0:0:0:0:
390,342,76669,2,0,L|319:331,1,55.0000016784668,4|0,0:0|0:0,0:0:0:0:
281,305,77098,2,0,L|222:311,1,55.0000016784668,8|0,0:0|0:0,0:0:0:0:
177,345,77526,2,0,P|99:330|76:306,2,110.000003356934,4|8|4,0:0|0:0|0:0,0:0:0:0:
164,224,78812,2,0,L|166:153,1,55.0000016784668,8|0,0:0|0:0,0:0:0:0:
135,116,79241,6,0,P|186:69|293:85,1,165.000005035401,6|0,0:0|0:0,0:0:0:0:
322,114,80098,2,0,B|304:199|348:184|333:278,1,165.000005035401,4|0,0:0|0:0,0:0:0:0:
318,335,80955,2,0,L|442:329,1,110.000003356934,6|10,0:0|0:0,0:0:0:0:
460,212,81812,2,0,P|465:173|477:141,1,55.0000016784668,6|0,0:0|0:0,0:0:0:0:
429,112,82241,2,0,P|425:79|415:50,1,55.0000016784668,10|2,0:0|0:0,0:0:0:0:
361,38,82669,22,0,P|304:47|263:97,1,110.000003356934,4|8,0:0|0:0,0:0:0:0:
268,204,83526,1,4,0:0:0:0:
147,189,83955,2,0,L|86:181,1,55.0000016784668,10|0,0:0|0:0,0:0:0:0:
51,226,84384,2,0,B|39:262|39:262|53:356,2,110.000003356934,6|8|4,0:0|0:0|0:0,0:0:0:0:
155,286,85669,2,0,L|224:282,1,55.0000016784668,10|2,0:0|0:0,0:0:0:0:
261,250,86098,6,0,L|392:265,1,110.000003356934,6|8,0:0|0:0,0:0:0:0:
462,340,86955,1,4,0:0:0:0:
370,262,87384,2,0,P|372:218|382:185,1,55.0000016784668,8|0,0:0|0:0,0:0:0:0:
422,170,87812,2,0,P|422:123|371:59,1,110.000003356934,6|8,0:0|0:0,0:0:0:0:
335,42,88455,1,0,0:0:0:0:
335,42,88669,2,0,L|207:52,1,110.000003356934,6|8,0:0|0:0,0:0:0:0:
120,110,89526,5,6,0:0:0:0:
110,230,89955,1,8,0:0:0:0:
201,309,90384,2,0,L|263:304,1,55.0000016784668,4|0,0:0|0:0,0:0:0:0:
307,335,90812,2,0,L|370:332,1,55.0000016784668,8|0,0:0|0:0,0:0:0:0:
417,307,91241,2,0,P|426:241|403:184,1,110.000003356934,6|8,0:0|0:0,0:0:0:0:
379,149,91884,1,0,0:0:0:0:
379,149,92098,2,0,P|370:83|392:27,1,110.000003356934,6|10,0:0|0:0,0:0:0:0:
267,79,92955,6,0,P|197:116|116:70,1,165.000005035401,6|0,0:0|0:0,0:0:0:0:
91,31,93812,2,0,B|115:78|115:78|108:199,1,165.000005035401,6|0,0:0|0:0,0:0:0:0:
69,236,94669,2,0,L|78:307,2,55.0000016784668,4|4|4,0:3|0:3|0:0,0:0:0:0:
190,234,95526,2,0,L|196:302,1,55.0000016784668,4|4,0:3|0:3,0:0:0:0:
234,334,95955,2,0,L|298:339,1,55.0000016784668,4|4,0:3|0:3,0:0:0:0:
331,303,96384,5,4,0:0:0:0:
256,192,96598,12,0,99812,0:0:0:0:
151,125,110098,6,0,P|201:108|261:127,1,100,4|8,0:0|0:0,0:0:0:0:
287,154,110741,2,0,L|278:274,2,100,6|6|2,0:0|0:0|0:0,0:0:0:0:
337,131,111812,1,4,0:3:0:0:
438,88,112241,1,8,0:0:0:0:
484,187,112669,2,0,L|478:304,1,100,4|10,0:3|0:0,0:0:0:0:
447,332,113312,1,2,0:0:0:0:
447,332,113526,6,0,P|395:314|335:318,1,100,6|10,0:0|0:0,0:0:0:0:
299,335,114169,2,0,L|186:318,2,100,6|6|6,0:0|0:0|0:0,0:0:0:0:
350,314,115241,1,4,0:3:0:0:
293,219,115669,1,8,0:0:0:0:
347,123,116098,2,0,P|357:67|345:11,1,100,4|10,0:3|0:0,0:0:0:0:
295,20,116741,1,2,0:0:0:0:
295,20,116955,6,0,L|185:28,1,100,4|10,0:0|0:0,0:0:0:0:
142,44,117598,2,0,B|135:92|135:92|147:148,1,100,2|2,0:0|0:0,0:0:0:0:
200,238,118455,2,0,B|208:289|208:289|202:339,2,100,2|2|2,0:0|0:0|0:0,0:0:0:0:
254,142,119741,2,0,P|306:127|366:139,1,100,2|2,0:0|0:0,0:0:0:0:
397,161,120384,6,0,P|385:223|446:298,2,150,6|6|10,0:0|0:0|0:0,0:0:0:0:
430,56,122098,2,0,L|374:40,1,50,4|6,0:3|0:0,0:0:0:0:
329,25,122526,2,0,L|277:30,1,50,4|0,0:0|0:0,0:0:0:0:
226,46,122955,2,0,L|237:165,1,100,4|10,0:3|0:0,0:0:0:0:
193,181,123598,1,4,0:3:0:0:
193,181,123812,22,0,L|188:283,1,89.999997253418,6|8,0:0|0:0,0:0:0:0:
287,283,124669,2,0,L|290:193,1,89.999997253418,4|8,0:3|0:0,0:0:0:0:
383,158,125526,2,0,P|393:103|392:54,1,89.999997253418,4|8,0:3|0:0,0:0:0:0:
354,38,126169,2,0,P|306:35|247:48,1,89.999997253418,4|6,0:0|0:0,0:0:0:0:
223,69,126812,1,10,0:0:0:0:
223,69,127026,6,0,L|125:64,1,89.999997253418,6|2,0:0|0:0,0:0:0:0:
84,52,127669,1,8,0:0:0:0:
43,142,128098,1,4,0:3:0:0:
52,241,128526,1,8,0:0:0:0:
124,308,128955,2,0,B|173:305|161:331|210:327,1,89.9999972534181,4|8,0:3|0:0,0:0:0:0:
258,336,129598,2,0,P|277:292|268:232,1,89.999997253418,4|6,0:0|0:0,0:0:0:0:
247,209,130241,1,6,0:0:0:0:
247,209,130455,6,0,P|228:165|233:105,1,89.999997253418,6|6,0:0|0:0,0:0:0:0:
257,83,131098,1,10,0:0:0:0:
161,57,131526,2,0,L|54:56,1,89.999997253418,4|8,0:3|0:0,0:0:0:0:
47,152,132384,2,0,L|141:154,1,89.999997253418,4|8,0:3|0:0,0:0:0:0:
173,187,133026,2,0,B|180:231|180:231|171:289,1,89.999997253418,4|4,0:0|0:0,0:0:0:0:
207,311,133669,2,0,L|256:307,2,44.999998626709,10|6|2,0:0|0:0|0:0,0:0:0:0:
181,353,134312,5,6,0:0:0:0:
86,321,134741,1,6,0:0:0:0:
58,225,135169,1,6,0:0:0:0:
108,139,135598,2,0,P|172:115|237:142,1,134.999995880127,6|8,0:0|0:0,0:0:0:0:
281,131,136455,2,0,P|269:172|280:230,1,89.999997253418,6|6,0:0|0:0,0:0:0:0:
307,255,137098,2,0,L|309:312,1,44.999998626709,10|6,0:0|0:0,0:0:0:0:
346,331,137526,22,0,L|400:327,2,44.999998626709,2|6|10,0:0|0:0|0:0,0:0:0:0:
258,378,138384,2,0,L|154:373,1,89.999997253418,4|8,0:3|0:0,0:0:0:0:
99,301,139241,2,0,B|87:280|87:280|92:204,1,89.999997253418,4|8,0:3|0:0,0:0:0:0:
111,169,139884,2,0,P|160:150|249:181,1,134.999995880127,4|8,0:0|0:0,0:0:0:0:
331,201,140955,5,4,0:3:0:0:
422,163,141384,1,8,0:0:0:0:
485,239,141812,2,0,L|474:340,1,89.999997253418,4|8,0:3|0:0,0:0:0:0:
388,375,142669,2,0,L|282:359,1,89.999997253418,4|8,0:3|0:0,0:0:0:0:
261,329,143312,2,0,P|203:357|131:330,1,134.999995880127,4|8,0:0|0:0,0:0:0:0:
113,241,144384,6,0,P|142:203|189:184,1,89.999997253418,4|8,0:3|0:0,0:0:0:0:
278,189,145241,2,0,P|323:221|374:223,1,89.999997253418,4|8,0:3|0:0,0:0:0:0:
441,174,146098,2,0,L|453:68,1,89.999997253418,4|8,0:3|0:0,0:0:0:0:
432,38,146741,2,0,B|409:27|409:27|331:34,1,89.999997253418,4|4,0:0|0:0,0:0:0:0:
299,53,147384,2,0,L|307:112,1,44.999998626709,8|4,0:0|0:0,0:0:0:0:
289,144,147812,6,0,B|217:134|235:171|149:165,1,134.999995880127,4|4,0:3|0:0,0:0:0:0:
108,162,148669,2,0,L|116:268,1,89.999997253418,4|0,0:3|0:0,0:0:0:0:
182,323,149526,1,4,0:3:0:0:
182,323,149741,2,0,L|290:317,2,89.999997253418,6|6|6,0:0|0:0|0:0,0:0:0:0:
114,251,151026,1,6,0:0:0:0:
439,35,166669,22,0,P|454:66|445:176,1,139.999995727539,4|4,0:3|0:3,0:0:0:0:
410,244,167955,1,4,0:3:0:0:
336,284,168384,2,0,P|283:289|253:283,2,69.9999978637696,4|4|4,0:3|0:3|0:3,0:0:0:0:
300,118,170098,6,0,L|218:112,1,69.9999978637696,4|4,0:3|0:3,0:0:0:0:
163,163,170955,2,0,L|86:155,1,69.9999978637696,4|4,0:0|0:3,0:0:0:0:
40,221,171812,2,0,P|31:273|88:348,1,139.999995727539,4|4,0:3|0:0,0:0:0:0:
181,210,173526,6,0,L|192:132,1,69.9999978637696,4|8,0:3|0:0,0:0:0:0:
188,56,174384,2,0,L|261:54,1,69.9999978637696,4|4,0:0|0:3,0:0:0:0:
308,121,175241,2,0,L|380:128,1,69.9999978637696,4|8,0:3|0:0,0:0:0:0:
455,159,176098,2,0,P|466:191|463:233,1,69.9999978637696,4|4,0:3|0:3,0:0:0:0:
420,299,176955,6,0,P|352:292|303:346,1,139.999995727539,4|4,0:3|0:0,0:0:0:0:
223,358,178241,2,0,L|175:357,2,34.9999989318848,10|2|2,0:0|0:0|0:0,0:0:0:0:
430,79,180384,22,0,L|296:90,1,119.999996337891,4|8,0:0|0:0,0:0:0:0:
187,40,181241,2,0,P|157:30|113:25,1,59.9999981689454,4|0,0:0|0:0,0:0:0:0:
72,60,181669,2,0,P|69:94|76:123,1,59.9999981689454,8|0,0:0|0:0,0:0:0:0:
117,169,182098,2,0,B|113:238|87:216|83:288,2,119.999996337891,6|8|4,0:0|0:0|0:0,0:0:0:0:
209,74,183384,1,8,0:0:0:0:
337,104,183812,6,0,P|398:103|451:149,1,119.999996337891,6|8,0:0|0:0,0:0:0:0:
453,268,184669,2,0,L|383:255,1,59.9999981689454,4|0,0:0|0:0,0:0:0:0:
363,315,185098,2,0,L|293:303,1,59.9999981689454,8|0,0:0|0:0,0:0:0:0:
249,342,185526,2,0,L|111:338,1,119.999996337891,6|8,0:0|0:0,0:0:0:0:
68,311,186169,1,0,0:0:0:0:
68,311,186384,2,0,P|84:243|70:170,1,119.999996337891,4|8,0:0|0:0,0:0:0:0:
118,68,187241,6,0,B|184:85|171:45|240:61,1,119.999996337891,4|8,0:0|0:0,0:0:0:0:
366,75,188098,2,0,L|376:140,1,59.9999981689454,4|0,0:0|0:0,0:0:0:0:
434,163,188526,2,0,L|426:232,1,59.9999981689454,8|0,0:0|0:0,0:0:0:0:
443,286,188955,2,0,P|390:266|318:291,2,119.999996337891,6|8|4,0:0|0:0|0:0,0:0:0:0:
354,188,190241,2,0,L|272:198,1,59.9999981689454,8|0,0:0|0:0,0:0:0:0:
239,232,190669,6,0,B|214:247|177:234|177:234|145:298|78:291,1,179.999994506836,6|0,0:0|0:0,0:0:0:0:
34,249,191526,2,0,B|48:191|48:191|30:132|30:132|42:73,1,179.999994506836,4|0,0:0|0:0,0:0:0:0:
82,22,192384,2,0,P|146:28|180:83,1,119.999996337891,6|8,0:0|0:0,0:0:0:0:
194,133,193026,1,0,0:0:0:0:
194,133,193241,2,0,L|271:123,1,59.9999981689454,6|0,0:0|0:0,0:0:0:0:
283,66,193669,2,0,L|360:56,1,59.9999981689454,10|2,0:0|0:0,0:0:0:0:
398,93,194098,22,0,P|378:143|392:224,1,119.999996337891,4|8,0:0|0:0,0:0:0:0:
468,309,194955,1,4,0:0:0:0:
350,368,195384,2,0,L|286:373,1,59.9999981689454,8|0,0:0|0:0,0:0:0:0:
237,333,195812,2,0,L|112:319,2,119.999996337891,6|8|4,0:0|0:0|0:0,0:0:0:0:
271,205,197098,1,8,0:0:0:0:
233,78,197526,6,0,L|89:85,1,119.999996337891,6|8,0:0|0:0,0:0:0:0:
52,205,198384,1,4,0:0:0:0:
117,319,198812,2,0,P|124:366|123:391,1,59.9999981689454,8|0,0:0|0:0,0:0:0:0:
188,365,199241,2,0,B|220:350|220:350|316:358,1,119.999996337891,6|8,0:0|0:0,0:0:0:0:
368,372,199884,1,0,0:0:0:0:
368,372,200098,2,0,P|381:303|375:243,1,119.999996337891,6|10,0:0|0:0,0:0:0:0:
323,133,200955,5,6,0:0:0:0:
393,21,201384,1,8,0:0:0:0:
261,20,201812,2,0,L|198:28,1,59.9999981689454,4|0,0:0|0:0,0:0:0:0:
135,18,202241,2,0,L|139:99,1,59.9999981689454,8|0,0:0|0:0,0:0:0:0:
161,139,202669,2,0,P|113:127|61:237,1,179.999994506836,6|0,0:0|0:0,0:0:0:0:
106,262,203526,2,0,P|117:328|101:383,1,119.999996337891,4|8,0:0|0:0,0:0:0:0:
223,322,204384,6,0,L|408:315,1,179.999994506836,6|0,0:0|0:0,0:0:0:0:
462,344,205241,2,0,P|448:304|456:209,1,119.999996337891,6|8,0:0|0:0,0:0:0:0:
473,165,205884,1,0,0:0:0:0:
473,165,206098,2,0,P|476:110|461:39,1,119.999996337891,6|8,0:0|0:0,0:0:0:0:
331,36,206955,2,0,L|262:44,1,59.9999981689454,6|4,0:0|0:3,0:0:0:0:
220,85,207384,2,0,L|160:78,1,59.9999981689454,4|4,0:3|0:3,0:0:0:0:
107,48,207812,22,0,L|99:178,1,110.000003356934,4|8,0:0|0:0,0:0:0:0:
196,231,208669,1,4,0:0:0:0:
118,324,209098,1,8,0:0:0:0:
235,353,209526,2,0,P|311:331|391:360,1,165.000005035401,4|0,0:0|0:0,0:0:0:0:
450,357,210384,2,0,P|466:309|460:230,1,110.000003356934,4|8,0:0|0:0,0:0:0:0:
368,177,211241,5,6,0:0:0:0:
391,58,211669,1,8,0:0:0:0:
276,95,212098,2,0,L|161:81,1,110.000003356934,4|8,0:0|0:0,0:0:0:0:
53,124,212955,2,0,P|38:173|66:295,1,165.000005035401,4|0,0:0|0:0,0:0:0:0:
103,323,213812,2,0,P|150:329|225:309,1,110.000003356934,4|10,0:0|0:0,0:0:0:0:
305,240,214669,5,4,0:0:0:0:
415,289,215098,1,8,0:0:0:0:
492,196,215526,2,0,B|506:144|506:144|496:87,1,110.000003356934,4|8,0:0|0:0,0:0:0:0:
388,32,216384,2,0,B|306:52|306:52|219:32,1,165.000005035401,4|0,0:0|0:0,0:0:0:0:
166,28,217241,2,0,P|156:82|163:144,1,110.000003356934,4|8,0:0|0:0,0:0:0:0:
232,234,218098,5,6,0:0:0:0:
168,336,218526,1,8,0:0:0:0:
285,347,218955,2,0,L|399:342,1,110.000003356934,4|8,0:0|0:0,0:0:0:0:
396,224,219812,2,0,L|225:234,1,165.000005035401,4|0,0:0|0:0,0:0:0:0:
172,249,220669,2,0,L|178:187,1,55.0000016784668,4|4,0:0|0:3,0:0:0:0:
134,150,221098,2,0,L|126:82,1,55.0000016784668,2|0,0:0|0:0,0:0:0:0:
174,56,221526,22,0,P|227:38|296:50,1,110.000003356934,4|8,0:0|0:0,0:0:0:0:
401,41,222384,2,0,P|455:35|506:53,1,110.000003356934,4|8,0:0|0:0,0:0:0:0:
442,155,223241,2,0,P|425:207|451:317,1,165.000005035401,4|0,0:0|0:0,0:0:0:0:
484,360,224098,2,0,P|426:344|360:362,1,110.000003356934,4|8,0:0|0:0,0:0:0:0:
319,368,224741,1,0,0:0:0:0:
319,368,224955,2,0,L|204:361,1,110.000003356934,6|8,0:0|0:0,0:0:0:0:
94,323,225812,5,4,0:0:0:0:
50,209,226241,1,8,0:0:0:0:
96,97,226669,2,0,L|275:88,1,165.000005035401,4|0,0:0|0:0,0:0:0:0:
310,123,227526,2,0,P|347:103|379:35,1,110.000003356934,4|8,0:0|0:0,0:0:0:0:
438,48,228169,1,0,0:0:0:0:
438,48,228384,2,0,P|460:97|506:126,1,110.000003356934,4|8,0:0|0:0,0:0:0:0:
450,233,229241,5,4,0:0:0:0:
487,347,229669,1,8,0:0:0:0:
367,326,230098,2,0,L|245:339,2,110.000003356934,4|8|4,0:0|0:0|0:0,0:0:0:0:
487,347,231384,1,8,0:0:0:0:
450,233,231812,6,0,L|273:223,1,165.000005035401,6|2,0:0|0:0,0:0:0:0:
224,220,232669,2,0,P|208:191|210:110,1,110.000003356934,6|8,0:0|0:0,0:0:0:0:
91,82,233526,2,0,P|101:48|104:21,2,55.0000016784668,4|4|4,0:3|0:3|0:0,0:0:0:0:
25,184,234384,2,0,L|27:248,1,55.0000016784668,4|4,0:3|0:3,0:0:0:0:
0,293,234812,2,0,L|54:336,1,55.0000016784668,4|4,0:3|0:3,0:0:0:0:
70,375,235241,22,0,L|171:358,1,100,6|10,0:0|0:0,0:0:0:0:
200,313,235884,2,0,L|317:325,2,100,2|2|2,0:0|0:0|0:0,0:0:0:0:
170,266,236955,1,4,0:3:0:0:
166,155,237384,1,8,0:0:0:0:
247,81,237812,1,4,0:3:0:0:
357,85,238241,2,0,L|413:122,1,50,10|2,0:0|0:0,0:0:0:0:
423,161,238669,6,0,B|429:185|429:185|417:271,1,100,6|10,0:0|0:0,0:0:0:0:
407,313,239312,2,0,P|454:305|517:318,2,100,2|2|2,0:0|0:0|0:0,0:0:0:0:
356,336,240384,1,4,0:3:0:0:
251,369,240812,1,8,0:0:0:0:
144,339,241241,1,4,0:3:0:0:
72,255,241669,2,0,L|76:196,1,50,10|2,0:0|0:0,0:0:0:0:
60,151,242098,6,0,P|118:162|176:150,1,100,6|10,0:0|0:0,0:0:0:0:
211,141,242741,2,0,L|206:29,2,100,2|2|2,0:0|0:0|0:0,0:0:0:0:
261,163,243812,1,4,0:3:0:0:
238,270,244241,1,8,0:0:0:0:
303,358,244669,1,4,0:3:0:0:
412,366,245098,2,0,P|442:357|468:343,1,50,10|2,0:0|0:0,0:0:0:0:
485,301,245526,6,0,P|487:252|473:204,1,100,4|10,0:0|0:0,0:0:0:0:
435,162,246169,2,0,P|432:114|457:54,2,100,2|2|2,0:0|0:0|0:0,0:0:0:0:
472,203,247241,1,4,0:3:0:0:
380,264,247669,1,8,0:0:0:0:
270,251,248098,1,4,0:3:0:0:
218,154,248526,2,0,L|224:96,1,50,2|4,0:0|0:3,0:0:0:0:
248,55,248955,22,0,P|195:62|139:44,1,100,6|10,0:0|0:0,0:0:0:0:
107,15,249598,2,0,L|3:26,2,100,2|2|2,0:0|0:0|0:0,0:0:0:0:
150,50,250669,1,4,0:3:0:0:
97,146,251098,1,8,0:0:0:0:
157,237,251526,1,4,0:3:0:0:
109,336,251955,2,0,L|175:349,1,50,10|2,0:0|0:0,0:0:0:0:
204,375,252384,6,0,L|316:371,1,100,6|10,0:0|0:0,0:0:0:0:
347,337,253026,2,0,P|342:282|332:235,2,100,2|2|2,0:0|0:0|0:0,0:0:0:0:
399,354,254098,1,0,0:0:0:0:
471,271,254526,1,8,0:0:0:0:
481,161,254955,1,4,0:3:0:0:
429,63,255384,2,0,L|372:64,1,50,10|4,0:0|0:3,0:0:0:0:
328,84,255812,6,0,P|276:88|224:56,1,100,6|10,0:0|0:0,0:0:0:0:
186,39,256455,2,0,P|137:30|78:44,2,100,2|2|2,0:0|0:0|0:0,0:0:0:0:
234,66,257526,1,4,0:3:0:0:
243,175,257955,1,8,0:0:0:0:
157,244,258384,1,4,0:3:0:0:
51,214,258812,2,0,L|43:278,1,50,10|2,0:0|0:0,0:0:0:0:
63,315,259241,6,0,P|99:352|154:363,1,100,4|10,0:0|0:0,0:0:0:0:
199,355,259884,2,0,P|228:338|259:276,1,100,2|2,0:0|0:0,0:0:0:0:
255,226,260526,1,10,0:0:0:0:
339,155,260955,2,2,B|282:133|237:70|277:12|338:58|338:58|356:-10|435:9|420:91|393:144,1,400
256,192,262776,12,2,269312,0:0:0:0:
