osu file format v14

[General]
AudioFilename: audio.mp3
AudioLeadIn: 0
PreviewTime: 68526
Countdown: 0
SampleSet: Soft
StackLeniency: 0.4
Mode: 0
LetterboxInBreaks: 0
WidescreenStoryboard: 1

[Editor]
DistanceSpacing: 1.5
BeatDivisor: 4
GridSize: 32
TimelineZoom: 1

[Metadata]
Title:Love Distance Long Affair feat. Topi
TitleUnicode:恋距離遠愛 feat. とぴ
Artist:DECO*27
ArtistUnicode:DECO*27
Creator:CSLM
Version:Hard
Source:
Tags:ラブカレンダー Miou Sugita SIN Takahide Azuchi Yoko Fukuda utaite egomama エゴママ international jpop jrock
BeatmapID:1171309
BeatmapSetID:553171

[Difficulty]
HPDrainRate:5
CircleSize:3.7
OverallDifficulty:5
ApproachRate:6
SliderMultiplier:1.2
SliderTickRate:1

[Events]
//Background and Video events
0,0,"BG.png",0,0
Video,0,"5 Hours vid.avi"
//Break Periods
2,100012,109048
2,152955,165619
//Storyboard Layer 0 (Background)
//Storyboard Layer 1 (Fail)
//Storyboard Layer 2 (Pass)
//Storyboard Layer 3 (Foreground)
//Storyboard Sound Samples

[TimingPoints]
384,428.571428571429,4,2,1,40,1,0
384,-125,4,2,1,40,0,0
14098,-111.111111111111,4,2,1,50,0,0
27812,-100,4,2,0,60,0,0
27919,-100,4,2,1,60,0,0
31241,-100,4,2,0,60,0,0
31348,-100,4,2,1,60,0,0
34669,-100,4,2,0,60,0,0
34776,-100,4,2,1,60,0,0
38098,-100,4,2,0,60,0,0
38205,-100,4,2,1,60,0,0
40241,-100,4,2,0,60,0,0
40348,-100,4,2,1,60,0,0
41526,-111.111111111111,4,2,1,50,0,0
55241,-111.111111111111,4,2,0,50,0,0
55348,-111.111111111111,4,2,1,50,0,0
67241,-133.333333333333,4,2,1,30,0,0
68955,-90.9090909090909,4,2,0,70,0,1
69062,-90.9090909090909,4,2,1,70,0,1
75812,-90.9090909090909,4,2,0,70,0,1
75919,-90.9090909090909,4,2,1,70,0,1
82241,-90.9090909090909,4,2,1,70,0,0
82669,-90.9090909090909,4,2,0,70,0,1
82776,-90.9090909090909,4,2,1,70,0,1
89526,-90.9090909090909,4,2,0,70,0,1
89634,-90.9090909090909,4,2,1,70,0,1
95098,-90.9090909090909,4,2,0,70,0,1
95205,-90.9090909090909,4,2,1,70,0,1
96384,-100,4,2,0,60,0,0
110205,-100,4,2,1,60,0,0
113526,-100,4,2,0,60,0,0
113634,-100,4,2,1,60,0,0
116955,-100,4,2,0,60,0,0
117062,-100,4,2,1,60,0,0
120384,-100,4,2,0,60,0,0
120491,-100,4,2,1,60,0,0
122526,-100,4,2,0,60,0,0
122634,-100,4,2,1,60,0,0
123812,-111.111111111111,4,2,0,50,0,0
123919,-111.111111111111,4,2,1,50,0,0
166669,-142.857142857143,4,2,1,40,0,0
178669,-200,4,2,1,30,0,0
179955,-200,4,2,1,60,0,0
180384,-83.3333333333333,4,2,0,80,0,1
180491,-83.3333333333333,4,2,1,80,0,1
187241,-83.3333333333333,4,2,0,80,0,1
187348,-83.3333333333333,4,2,1,80,0,1
193669,-83.3333333333333,4,2,1,80,0,0
194098,-83.3333333333333,4,2,0,80,0,1
194205,-83.3333333333333,4,2,1,80,0,1
200955,-83.3333333333333,4,2,0,80,0,1
201062,-83.3333333333333,4,2,1,80,0,1
207384,-83.3333333333333,4,2,1,80,0,0
207812,-90.9090909090909,4,2,0,70,0,1
207919,-90.9090909090909,4,2,1,70,0,1
214669,-90.9090909090909,4,2,0,70,0,1
214776,-90.9090909090909,4,2,1,70,0,1
221098,-90.9090909090909,4,2,1,70,0,0
221526,-90.9090909090909,4,2,0,70,0,1
221634,-90.9090909090909,4,2,1,70,0,1
228384,-90.9090909090909,4,2,0,70,0,1
228491,-90.9090909090909,4,2,1,70,0,1
233955,-90.9090909090909,4,2,0,70,0,1
234062,-90.9090909090909,4,2,1,70,0,1
235241,-100,4,2,0,70,0,0
235348,-100,4,2,1,70,0,0
238669,-100,4,2,0,70,0,0
238776,-100,4,2,1,70,0,0
242098,-100,4,2,0,70,0,0
242205,-100,4,2,1,70,0,0
245526,-100,4,2,0,70,0,0
245634,-100,4,2,1,70,0,0
248955,-100,4,2,0,70,0,0
249062,-100,4,2,1,70,0,0
252384,-100,4,2,0,70,0,0
252491,-100,4,2,1,70,0,0
255812,-100,4,2,0,70,0,0
255919,-100,4,2,1,70,0,0
259241,-100,4,2,0,70,0,0
259348,-100,4,2,1,70,0,0
262669,-200,4,2,1,30,0,0

[Colours]
Combo1 : 248,139,67
Combo2 : 255,255,170
Combo3 : 162,102,170
Combo4 : 222,186,44
Combo5 : 56,179,252

[HitObjects]
132,122,384,6,0,L|244:112,1,96,2|4,0:0|0:3,0:0:0:0:
366,76,1241,2,0,P|369:103|367:144,1,48,4|0,0:3|0:0,0:0:0:0:
333,186,1669,2,0,P|330:213|332:254,1,48,4|0,0:3|0:0,0:0:0:0:
376,289,2098,2,0,P|336:279|272:298,1,96,4|4,0:3|0:3,0:0:0:0:
229,338,2741,2,0,P|182:349|136:339,1,96,0|0,0:0|0:0,0:0:0:0:
81,292,3384,2,0,L|89:240,1,48,4|0,0:3|0:0,0:0:0:0:
61,177,3812,6,0,L|52:73,1,96,6|4,0:3|0:3,0:0:0:0:
185,24,4669,2,0,P|211:20|249:20,1,48,4|0,0:3|0:0,0:0:0:0:
293,57,5098,2,0,P|316:55|340:52,1,48,4|0,0:3|0:0,0:0:0:0:
408,27,5526,2,0,B|392:51|392:51|403:128,1,96,4|4,0:3|0:3,0:0:0:0:
453,167,6169,2,0,B|469:191|469:191|458:268,1,96,0|0,0:0|0:0,0:0:0:0:
436,327,6812,1,4,0:3:0:0:
436,327,7026,1,0,0:0:0:0:
365,311,7241,6,0,B|339:308|339:308|268:319,1,96,6|4,0:3|0:3,0:0:0:0:
126,304,8098,2,0,P|124:274|129:246,1,48,4|0,0:3|0:0,0:0:0:0:
86,196,8526,2,0,P|98:164|117:140,1,48,4|0,0:3|0:0,0:0:0:0:
106,80,8955,2,0,L|211:68,1,96,4|4,0:3|0:3,0:0:0:0:
255,116,9598,2,0,L|350:126,1,96,0|0,0:0|0:0,0:0:0:0:
404,79,10241,2,0,L|463:72,1,48,4|0,0:3|0:0,0:0:0:0:
500,126,10669,6,0,P|510:175|501:232,1,96,6|4,0:3|0:3,0:0:0:0:
429,343,11526,2,0,B|344:358|369:321|288:334,1,144,4|0,0:3|0:0,0:0:0:0:
224,369,12384,2,0,P|246:335|193:245,1,144,4|0,0:3|0:0,0:0:0:0:
141,216,13241,2,0,P|115:189|142:91,1,144,4|0,0:3|0:0,0:0:0:0:
216,107,14098,22,0,P|243:110|283:106,1,53.9999983520508,6|0,0:0|0:0,0:0:0:0:
348,87,14526,2,0,P|374:85|401:88,1,53.9999983520508,2|0,0:0|0:0,0:0:0:0:
468,133,14955,2,0,L|462:244,1,107.999996704102,2|10,0:0|0:0,0:0:0:0:
339,346,15812,2,0,P|296:358|231:333,1,107.999996704102,6|2,0:0|0:0,0:0:0:0:
156,331,16455,2,0,P|139:298|144:215,1,107.999996704102,0|0,0:0|0:0,0:0:0:0:
188,164,17098,2,0,L|181:106,1,53.9999983520508,10|0,0:0|0:0,0:0:0:0:
135,43,17526,6,0,P|165:31|201:30,1,53.9999983520508,6|0,0:0|0:0,0:0:0:0:
255,71,17955,2,0,P|281:67|306:56,1,53.9999983520508,2|0,0:0|0:0,0:0:0:0:
365,1,18384,2,0,P|359:40|398:104,1,107.999996704102,2|10,0:0|0:0,0:0:0:0:
487,228,19241,2,0,P|502:278|494:340,1,107.999996704102,6|2,0:0|0:0,0:0:0:0:
415,335,19884,2,0,P|399:284|408:223,1,107.999996704102
324,238,20526,2,0,L|262:229,1,53.9999983520508,10|0,0:0|0:0,0:0:0:0:
191,248,20955,6,0,P|157:257|136:257,1,53.9999983520508,6|0,0:0|0:0,0:0:0:0:
68,298,21384,2,0,P|43:278|28:251,1,53.9999983520508,2|0,0:0|0:0,0:0:0:0:
13,180,21812,1,2,0:0:0:0:
13,180,22026,2,0,P|33:132|30:74,1,107.999996704102,0|0,0:0|0:0,0:0:0:0:
104,42,22669,2,0,P|135:83|187:109,1,107.999996704102,6|2,0:0|0:0,0:0:0:0:
180,190,23312,1,0,0:0:0:0:
180,190,23526,2,0,P|128:196|79:228,1,107.999996704102,2|10,0:0|0:0,0:0:0:0:
136,379,24384,6,0,P|187:372|236:340,1,107.999996704102,6|2,0:0|0:0,0:0:0:0:
294,288,25026,1,0,0:0:0:0:
294,288,25241,2,0,P|352:263|410:270,1,107.999996704102,2|10,0:0|0:0,0:0:0:0:
455,320,25884,1,0,0:0:0:0:
395,265,26098,2,0,L|404:207,1,53.9999983520508,6|0,0:0|0:0,0:0:0:0:
471,168,26526,2,0,L|457:112,1,53.9999983520508,4|4,0:3|0:3,0:0:0:0:
483,38,26955,2,0,L|419:6,1,53.9999983520508,4|4,0:3|0:3,0:0:0:0:
359,44,27384,1,2,0:0:0:0:
278,33,27598,1,2,0:0:0:0:
278,33,27705,1,0,0:0:0:0:
278,33,27812,22,0,B|209:27|238:59|161:53,1,120,4|8,0:0|0:0,0:0:0:0:
75,26,28455,1,0,0:0:0:0:
162,53,28669,2,0,P|181:107|163:174,1,120,4|10,0:3|0:0,0:0:0:0:
109,236,29312,2,0,P|90:290|108:357,1,120,2|0,0:0|0:0,0:0:0:0:
188,379,29955,1,8,0:0:0:0:
368,373,30384,2,0,L|431:361,1,60,6|2,0:3|0:0,0:0:0:0:
407,274,30812,2,0,L|348:285,1,60,10|2,0:0|0:0,0:0:0:0:
328,197,31241,6,0,B|339:166|339:166|326:74,1,120,4|8,0:0|0:0,0:0:0:0:
245,39,31884,1,0,0:0:0:0:
245,40,32098,2,0,B|234:71|234:71|247:163,1,120,4|10,0:3|0:0,0:0:0:0:
212,241,32741,2,0,B|166:237|166:237|136:248|136:248|90:243,1,120,2|0,0:0|0:0,0:0:0:0:
5,227,33384,2,0,L|15:165,1,60,8|0,0:0|0:0,0:0:0:0:
100,140,33812,2,0,L|87:20,1,120,4|10,0:3|0:0,0:0:0:0:
257,77,34669,6,0,P|308:86|370:52,1,120,4|8,0:0|0:0,0:0:0:0:
448,94,35312,2,0,P|441:140|472:206,1,120,2|0,0:0|0:0,0:0:0:0:
506,287,35955,1,10,0:0:0:0:
334,342,36384,2,0,B|237:332|267:374|158:363,1,180,6|0,0:3|0:0,0:0:0:0:
75,325,37241,2,0,L|93:194,1,120,4|8,0:3|0:0,0:0:0:0:
57,29,38098,6,0,P|107:17|184:37,1,120,4|8,0:0|0:0,0:0:0:0:
219,108,38741,2,0,P|276:122|335:109,1,120,0|0,0:0|0:0,0:0:0:0:
392,40,39384,1,8,0:0:0:0:
453,208,39812,2,0,L|523:194,2,60,4|4|4,0:3|0:3|0:0,0:0:0:0:
364,364,40669,2,0,L|298:356,1,60,4|4,0:3|0:3,0:0:0:0:
215,374,41098,1,4,0:3:0:0:
128,350,41312,1,4,0:3:0:0:
128,350,41419,1,4,0:3:0:0:
128,350,41526,22,0,L|136:283,1,53.9999983520508,4|0,0:3|0:0,0:0:0:0:
86,230,41955,2,0,L|78:163,1,53.9999983520508,8|0,0:0|0:0,0:0:0:0:
115,103,42384,2,0,P|149:112|226:85,1,107.999996704102,4|8,0:3|0:0,0:0:0:0:
377,68,43241,2,0,P|394:100|401:179,1,107.999996704102,4|8,0:3|0:0,0:0:0:0:
443,240,43884,2,0,P|414:279|355:303,1,107.999996704102,0|0,0:0|0:0,0:0:0:0:
313,367,44526,2,0,L|259:372,1,53.9999983520508,8|0,0:0|0:0,0:0:0:0:
190,329,44955,6,0,L|129:323,2,53.9999983520508,4|0|8,0:3|0:0|0:0,0:0:0:0:
259,372,45598,1,0,0:0:0:0:
265,291,45812,2,0,L|257:173,1,107.999996704102,4|8,0:3|0:0,0:0:0:0:
234,22,46669,2,0,B|175:18|197:48|128:44,1,107.999996704102,4|8,0:3|0:0,0:0:0:0:
51,63,47312,2,0,B|65:116|65:116|54:175,1,107.999996704102,0|0,0:0|0:0,0:0:0:0:
111,227,47955,2,0,L|116:283,1,53.9999983520508,8|0,0:0|0:0,0:0:0:0:
175,335,48384,6,0,P|202:340|231:337,1,53.9999983520508,4|0,0:3|0:0,0:0:0:0:
297,295,48812,2,0,P|323:292|350:297,1,53.9999983520508,8|0,0:0|0:0,0:0:0:0:
407,355,49241,2,0,L|413:236,1,107.999996704102,4|8,0:3|0:0,0:0:0:0:
263,183,50098,2,0,L|257:64,1,107.999996704102,4|8,0:3|0:0,0:0:0:0:
293,2,50741,2,0,P|233:25|170:12,1,107.999996704102,0|0,0:0|0:0,0:0:0:0:
109,12,51384,2,0,L|46:22,1,53.9999983520508,8|0,0:0|0:0,0:0:0:0:
24,94,51812,6,0,B|13:122|13:122|24:207,1,107.999996704102,6|8,0:3|0:0,0:0:0:0:
116,331,52669,2,0,B|127:303|127:303|116:218,1,107.999996704102,4|8,0:3|0:0,0:0:0:0:
134,146,53312,1,0,0:0:0:0:
197,196,53526,2,0,L|262:186,1,53.9999983520508,4|2,0:3|0:0,0:0:0:0:
279,111,53955,2,0,L|332:119,1,53.9999983520508,8|2,0:0|0:0,0:0:0:0:
370,191,54384,2,0,L|435:181,1,53.9999983520508,4|2,0:3|0:0,0:0:0:0:
463,112,54812,1,10,0:0:0:0:
503,182,55026,1,4,0:3:0:0:
503,182,55134,1,4,0:3:0:0:
503,182,55241,22,0,L|491:300,1,107.999996704102,4|8,0:0|0:0,0:0:0:0:
342,352,56098,2,0,P|295:338|269:338,1,53.9999983520508,4|0,0:3|0:0,0:0:0:0:
209,341,56526,2,0,P|176:345|135:366,1,53.9999983520508,8|0,0:0|0:0,0:0:0:0:
75,353,56955,2,0,P|82:304|72:242,1,107.999996704102,4|8,0:3|0:0,0:0:0:0:
23,182,57598,2,0,P|16:133|26:71,1,107.999996704102,0|0,0:0|0:0,0:0:0:0:
88,25,58241,1,8,0:0:0:0:
247,49,58669,6,0,L|300:54,2,53.9999983520508,4|0|8,0:3|0:0|0:0,0:0:0:0:
240,130,59312,1,0,0:0:0:0:
305,178,59526,2,0,L|413:189,1,107.999996704102,4|8,0:3|0:0,0:0:0:0:
398,351,60384,2,0,B|375:334|375:334|280:325,1,107.999996704102,4|8,0:3|0:0,0:0:0:0:
215,326,61026,2,0,B|135:333|135:333|112:350,1,107.999996704102,0|0,0:0|0:0,0:0:0:0:
31,345,61669,2,0,P|39:314|42:284,1,53.9999983520508,8|0,0:0|0:0,0:0:0:0:
31,211,62098,6,0,L|21:155,1,53.9999983520508,4|0,0:3|0:0,0:0:0:0:
85,108,62526,2,0,L|75:52,1,53.9999983520508,8|0,0:0|0:0,0:0:0:0:
147,16,62955,1,4,0:3:0:0:
222,46,63169,2,0,B|286:41|265:67|326:63,1,107.999996704102,0|0,0:0|0:0,0:0:0:0:
390,12,63812,2,0,P|375:72|399:125,1,107.999996704102,4|8,0:3|0:0,0:0:0:0:
451,166,64455,1,0,0:0:0:0:
451,166,64669,6,0,P|466:226|442:279,1,107.999996704102,4|8,0:3|0:0,0:0:0:0:
316,358,65526,2,0,L|254:350,1,53.9999983520508,6|0,0:3|0:0,0:0:0:0:
198,301,65955,2,0,L|144:307,1,53.9999983520508,8|0,0:0|0:0,0:0:0:0:
72,346,66384,2,0,P|46:317|41:247,1,107.999996704102,4|10,0:3|0:0,0:0:0:0:
84,122,67241,6,0,P|98:87|1:22,1,180.000006866455,2|2,0:0|0:0,0:0:0:0:
33,80,68312,2,0,L|132:69,1,90.0000034332277,2|0,0:0|0:0,0:0:0:0:
214,33,68955,6,0,L|350:47,1,132.00000402832,4|8,0:0|0:0,0:0:0:0:
435,88,69598,1,0,0:0:0:0:
446,186,69812,2,0,P|435:233|441:269,1,66.0000020141602,4|0,0:0|0:0,0:0:0:0:
362,316,70241,2,0,P|390:340|425:350,1,66.0000020141602,8|0,0:0|0:0,0:0:0:0:
436,250,70669,2,0,P|393:221|309:231,1,132.00000402832,4|8,0:0|0:0,0:0:0:0:
229,275,71312,1,0,0:0:0:0:
145,327,71526,2,0,P|80:336|24:304,1,132.00000402832,4|8,0:0|0:0,0:0:0:0:
14,105,72384,6,0,B|73:74|73:74|141:79,1,132.00000402832,6|8,0:0|0:0,0:0:0:0:
194,159,73026,1,0,0:0:0:0:
243,72,73241,2,0,L|316:61,1,66.0000020141602,4|0,0:0|0:0,0:0:0:0:
386,122,73669,2,0,L|456:138,1,66.0000020141602,8|0,0:0|0:0,0:0:0:0:
473,233,74098,2,0,P|499:284|488:366,1,132.00000402832,6|8,0:0|0:0,0:0:0:0:
396,382,74741,1,0,0:0:0:0:
297,376,74955,2,0,P|269:316|277:252,1,132.00000402832,6|8,0:0|0:0,0:0:0:0:
275,54,75812,6,0,B|222:52|222:52|197:67|197:67|145:65,1,132.00000402832,6|8,0:0|0:0,0:0:0:0:
51,38,76455,1,0,0:0:0:0:
14,130,76669,2,0,L|23:205,1,66.0000020141602,4|0,0:0|0:0,0:0:0:0:
119,215,77098,2,0,L|110:290,1,66.0000020141602,8|0,0:0|0:0,0:0:0:0:
61,366,77526,2,0,P|116:339|200:376,1,132.00000402832,4|8,0:0|0:0,0:0:0:0:
280,368,78169,1,0,0:0:0:0:
353,301,78384,2,0,L|489:290,1,132.00000402832,4|8,0:0|0:0,0:0:0:0:
483,92,79241,6,0,L|347:81,1,132.00000402832,6|8,0:0|0:0,0:0:0:0:
257,48,79884,1,0,0:0:0:0:
160,81,80098,2,0,L|29:92,1,132.00000402832,4|8,0:0|0:0,0:0:0:0:
69,182,80741,1,0,0:0:0:0:
32,273,80955,2,0,P|15:324|64:383,1,132.00000402832,6|10,0:0|0:0,0:0:0:0:
145,331,81598,1,0,0:0:0:0:
242,349,81812,2,0,L|309:361,1,66.0000020141602,6|0,0:0|0:0,0:0:0:0:
396,317,82241,2,0,L|434:309,3,33.0000010070801,10|2|2|2,0:0|0:0|0:0|0:0,0:0:0:0:
475,295,82669,22,0,P|493:231|471:148,1,132.00000402832,4|8,0:0|0:0,0:0:0:0:
403,105,83312,1,0,0:0:0:0:
315,151,83526,2,0,P|271:164|181:132,1,132.00000402832,4|10,0:0|0:0,0:0:0:0:
119,71,84169,1,0,0:0:0:0:
39,130,84384,2,0,L|41:206,1,66.0000020141602,6|0,0:0|0:0,0:0:0:0:
115,260,84812,2,0,L|117:336,1,66.0000020141602,8|0,0:0|0:0,0:0:0:0:
203,373,85241,2,0,P|236:349|343:352,1,132.00000402832,4|10,0:0|0:0,0:0:0:0:
485,228,86098,6,0,B|501:200|501:200|494:96,2,132.00000402832,6|8|4,0:0|0:0|0:0,0:0:0:0:
399,178,87169,1,0,0:0:0:0:
323,242,87384,2,0,L|256:247,1,66.0000020141602,8|0,0:0|0:0,0:0:0:0:
162,218,87812,2,0,P|140:172|163:80,1,132.00000402832,6|8,0:0|0:0,0:0:0:0:
244,55,88455,1,0,0:0:0:0:
244,55,88669,2,0,P|168:50|126:-10,1,132.00000402832,6|8,0:0|0:0,0:0:0:0:
15,171,89526,6,0,B|6:242|37:227|29:303,1,132.00000402832,6|8,0:0|0:0,0:0:0:0:
97,373,90169,1,0,0:0:0:0:
190,338,90384,2,0,P|213:316|252:304,1,66.0000020141602,4|0,0:0|0:0,0:0:0:0:
286,214,90812,2,0,P|321:217|360:237,1,66.0000020141602,8|0,0:0|0:0,0:0:0:0:
440,190,91241,2,0,B|461:227|452:284|452:284|476:255,1,132.00000402832,6|8,0:0|0:0,0:0:0:0:
507,350,91884,1,0,0:0:0:0:
507,350,92098,2,0,L|369:336,1,132.00000402832,6|10,0:0|0:0,0:0:0:0:
191,263,92955,6,0,P|204:220|161:120,1,132.00000402832,6|8,0:0|0:0,0:0:0:0:
257,76,93598,1,0,0:0:0:0:
332,138,93812,2,0,P|307:199|321:263,1,132.00000402832,6|8,0:0|0:0,0:0:0:0:
256,338,94455,1,0,0:0:0:0:
191,263,94669,2,0,L|117:270,2,66.0000020141602,4|4|4,0:3|0:3|0:0,0:0:0:0:
222,67,95526,2,0,L|291:72,1,66.0000020141602,4|4,0:3|0:3,0:0:0:0:
367,131,95955,1,4,0:3:0:0:
379,32,96169,1,4,0:3:0:0:
379,32,96276,1,0,0:0:0:0:
379,32,96384,5,4,0:0:0:0:
256,192,96491,12,0,99812,0:0:0:0:
459,69,110098,6,0,P|445:116|369:143,1,120,4|8,0:0|0:0,0:0:0:0:
306,98,110741,2,0,L|235:92,1,60,6|4,0:0|0:3,0:0:0:0:
171,142,111169,2,0,L|99:150,1,60,6|8,0:0|0:0,0:0:0:0:
35,197,111598,2,0,P|45:253|13:305,1,120,2|4,0:0|0:0,0:0:0:0:
91,350,112241,1,8,0:0:0:0:
169,306,112455,2,0,L|289:288,1,120,4|6,0:0|0:0,0:0:0:0:
368,328,113098,2,0,P|375:291|372:262,1,60,10|2,0:0|0:0,0:0:0:0:
314,201,113526,6,0,P|306:173|328:76,1,120,6|10,0:0|0:0,0:0:0:0:
384,20,114169,2,0,P|332:36|267:10,1,120,6|6,0:0|0:0,0:0:0:0:
191,56,114812,1,8,0:0:0:0:
191,56,115026,2,0,P|139:40|74:66,1,120,6|4,0:0|0:0,0:0:0:0:
27,135,115669,1,8,0:0:0:0:
94,195,115884,2,0,B|104:231|97:284|97:284|76:253,1,120,4|2,0:0|0:0,0:0:0:0:
13,319,116526,2,0,L|0:384,1,60,10|2,0:0|0:0,0:0:0:0:
91,373,116955,6,0,L|160:363,1,60,4|0,0:0|0:0,0:0:0:0:
202,290,117384,1,10,0:0:0:0:
268,350,117598,2,0,P|319:359|377:311,1,120,2|2,0:0|0:0,0:0:0:0:
421,246,118241,1,8,0:0:0:0:
372,170,118455,2,0,P|356:128|381:47,2,120,2|2|2,0:0|0:0|0:0,0:0:0:0:
421,246,119526,1,4,0:3:0:0:
330,246,119741,2,0,L|264:237,1,60,2|8,0:0|0:0,0:0:0:0:
204,298,120169,1,2,0:0:0:0:
130,243,120384,6,0,P|91:189|30:185,1,120,6|8,0:0|0:0,0:0:0:0:
126,153,121026,2,0,L|122:30,1,120,6|6,0:0|0:0,0:0:0:0:
197,83,121669,2,0,B|268:91|242:61|315:69,1,120,10|4,0:0|0:3,0:0:0:0:
393,112,122312,1,6,0:0:0:0:
473,73,122526,2,0,L|482:137,1,60,4|0,0:0|0:0,0:0:0:0:
425,202,122955,2,0,L|434:266,1,60,4|0,0:3|0:0,0:0:0:0:
486,333,123384,1,10,0:0:0:0:
397,346,123598,1,4,0:3:0:0:
397,346,123705,1,4,0:3:0:0:
397,346,123812,22,0,P|356:357|289:328,1,107.999996704102,6|8,0:0|0:0,0:0:0:0:
135,353,124669,2,0,P|138:325|143:297,1,53.9999983520508,4|4,0:3|0:0,0:0:0:0:
108,225,125098,2,0,P|105:197|100:169,1,53.9999983520508,8|4,0:0|0:0,0:0:0:0:
154,111,125526,2,0,P|180:102|208:27,1,107.999996704102,4|8,0:3|0:0,0:0:0:0:
241,107,126169,2,0,P|278:118|340:89,1,107.999996704102,4|6,0:0|0:0,0:0:0:0:
394,31,126812,1,10,0:0:0:0:
394,31,127026,6,0,L|401:146,1,107.999996704102,6|2,0:0|0:0,0:0:0:0:
461,193,127669,1,8,0:0:0:0:
448,354,128098,2,0,L|390:360,1,53.9999983520508,4|4,0:3|0:0,0:0:0:0:
355,288,128526,2,0,L|297:294,1,53.9999983520508,8|4,0:0|0:0,0:0:0:0:
277,371,128955,2,0,P|231:376|175:324,1,107.999996704102,4|8,0:3|0:0,0:0:0:0:
208,264,129598,2,0,P|254:259|310:311,1,107.999996704102,4|6,0:0|0:0,0:0:0:0:
277,371,130241,1,6,0:0:0:0:
302,293,130455,6,0,L|293:178,1,107.999996704102,6|6,0:0|0:0,0:0:0:0:
335,115,131098,1,10,0:0:0:0:
196,30,131526,2,0,P|166:25|130:25,1,53.9999983520508,4|4,0:3|0:0,0:0:0:0:
100,93,131955,2,0,P|76:115|58:138,1,53.9999983520508,8|4,0:0|0:0,0:0:0:0:
105,200,132384,2,0,P|110:235|160:302,1,107.999996704102,4|8,0:3|0:0,0:0:0:0:
228,314,133026,2,0,P|256:300|336:311,1,107.999996704102,4|4,0:0|0:0,0:0:0:0:
408,330,133669,2,0,L|416:385,2,53.9999983520508,10|6|2,0:0|0:0|0:0,0:0:0:0:
391,250,134312,6,0,L|397:192,1,53.9999983520508,6|8,0:0|0:0,0:0:0:0:
319,169,134741,2,0,L|325:111,1,53.9999983520508,6|4,0:0|0:3,0:0:0:0:
250,83,135169,2,0,L|256:25,1,53.9999983520508,6|8,0:0|0:0,0:0:0:0:
174,33,135598,2,0,P|136:71|76:67,1,107.999996704102,6|0,0:0|0:0,0:0:0:0:
38,137,136241,1,8,0:0:0:0:
38,137,136455,2,0,P|17:195|44:248,1,107.999996704102,6|6,0:0|0:0,0:0:0:0:
88,294,137098,2,0,L|152:282,1,53.9999983520508,10|6,0:0|0:0,0:0:0:0:
212,322,137526,22,0,L|265:331,2,53.9999983520508,2|6|10,0:0|0:0|0:0,0:0:0:0:
160,167,138384,2,0,L|168:102,1,53.9999983520508,4|4,0:3|0:0,0:0:0:0:
242,86,138812,2,0,L|250:21,1,53.9999983520508,8|4,0:0|0:0,0:0:0:0:
329,32,139241,2,0,P|382:31|415:76,1,107.999996704102,4|8,0:3|0:0,0:0:0:0:
430,150,139884,2,0,P|405:189|416:252,1,107.999996704102,4|4,0:0|0:0,0:0:0:0:
415,328,140526,2,0,L|400:384,1,53.9999983520508,8|4,0:0|0:0,0:0:0:0:
326,348,140955,6,0,L|202:333,1,107.999996704102,4|8,0:3|0:0,0:0:0:0:
139,353,141598,1,4,0:0:0:0:
69,311,141812,2,0,P|63:287|65:243,1,53.9999983520508,4|4,0:3|0:0,0:0:0:0:
121,202,142241,2,0,P|127:178|125:134,1,53.9999983520508,8|4,0:0|0:0,0:0:0:0:
82,81,142669,2,0,B|109:96|109:96|199:87,1,107.999996704102,4|8,0:3|0:0,0:0:0:0:
253,43,143312,2,0,B|280:28|280:28|370:37,1,107.999996704102,4|4,0:0|0:0,0:0:0:0:
429,72,143955,1,8,0:0:0:0:
428,234,144384,6,0,L|371:228,1,53.9999983520508,4|4,0:3|0:0,0:0:0:0:
317,286,144812,2,0,L|260:280,1,53.9999983520508,8|4,0:0|0:0,0:0:0:0:
203,224,145241,2,0,P|184:253|193:324,1,107.999996704102,4|8,0:3|0:0,0:0:0:0:
76,209,146098,2,0,P|95:180|86:109,1,107.999996704102,4|8,0:3|0:0,0:0:0:0:
33,49,146741,2,0,B|86:63|86:63|156:47,1,107.999996704102,4|4,0:0|0:0,0:0:0:0:
218,38,147384,2,0,L|281:35,1,53.9999983520508,8|4,0:0|0:0,0:0:0:0:
347,63,147812,6,0,P|366:97|360:176,1,107.999996704102,4|8,0:3|0:0,0:0:0:0:
311,225,148455,1,4,0:0:0:0:
311,225,148669,2,0,P|292:259|298:338,1,107.999996704102,4|0,0:3|0:0,0:0:0:0:
131,335,149526,1,4,0:3:0:0:
131,335,149741,2,0,P|133:303|141:274,1,53.9999983520508,6|8,0:0|0:0,0:0:0:0:
73,232,150169,2,0,P|71:200|63:171,1,53.9999983520508,6|4,0:0|0:3,0:0:0:0:
133,134,150598,2,0,P|135:102|143:73,1,53.9999983520508,6|8,0:0|0:0,0:0:0:0:
80,26,151026,1,6,0:0:0:0:
197,55,166669,22,0,L|188:192,1,125.999996154785,4|0,0:3|0:0,0:0:0:0:
192,243,167526,2,0,P|212:252|286:242,1,83.9999974365235,4|4,0:3|0:3,0:0:0:0:
389,199,168384,2,0,P|424:193|473:203,2,83.9999974365235,4|4|4,0:3|0:3|0:3,0:0:0:0:
272,248,169669,1,4,0:3:0:0:
150,213,170098,6,0,P|101:201|54:210,1,83.9999974365235,4|4,0:3|0:3,0:0:0:0:
65,331,170955,2,0,P|114:343|161:334,1,83.9999974365235,4|4,0:0|0:3,0:0:0:0:
205,315,171598,1,0,0:0:0:0:
205,315,171812,2,0,B|291:309|249:346|343:337,1,125.999996154785,4|0,0:3|0:0,0:0:0:0:
385,315,172669,2,0,P|395:283|382:222,1,83.9999974365235,4|4,0:0|0:3,0:0:0:0:
310,134,173526,5,4,0:3:0:0:
381,29,173955,1,8,0:0:0:0:
254,31,174384,2,0,L|204:38,1,41.9999987182618,4|0,0:0|0:0,0:0:0:0:
183,92,174812,2,0,L|136:100,1,41.9999987182618,4|0,0:3|0:0,0:0:0:0:
121,158,175241,2,0,P|66:172|43:233,1,125.999996154785,4|0,0:3|0:0,0:0:0:0:
55,294,176098,2,0,L|46:388,1,83.9999974365235,4|4,0:3|0:3,0:0:0:0:
173,378,176955,6,0,L|181:294,1,83.9999974365235,4|8,0:3|0:0,0:0:0:0:
232,257,177598,1,0,0:0:0:0:
232,257,177812,2,0,P|275:268|322:260,1,83.9999974365235,4|10,0:0|0:0,0:0:0:0:
362,222,178455,1,2,0:0:0:0:
362,222,178669,6,0,L|356:127,2,90,2|2|2,0:0|0:0|0:0,0:0:0:0:
145,222,180384,6,0,L|158:66,1,143.999995605469,4|8,0:0|0:0,0:0:0:0:
248,21,181026,1,0,0:0:0:0:
349,60,181241,2,0,P|380:59|425:43,1,71.9999978027344,4|0,0:0|0:0,0:0:0:0:
469,141,181669,2,0,P|462:180|478:226,1,71.9999978027344,8|0,0:0|0:0,0:0:0:0:
463,319,182098,2,0,P|416:312|321:363,1,143.999995605469,6|8,0:0|0:0,0:0:0:0:
223,365,182741,1,0,0:0:0:0:
223,365,182955,2,0,B|186:381|186:381|81:372,1,143.999995605469,4|8,0:0|0:0,0:0:0:0:
26,163,183812,6,0,B|22:109|22:109|39:84|39:84|35:25,1,143.999995605469,6|8,0:0|0:0,0:0:0:0:
199,164,184669,2,0,P|238:167|283:158,1,71.9999978027344,4|0,0:0|0:0,0:0:0:0:
315,63,185098,2,0,P|350:57|386:60,1,71.9999978027344,8|0,0:0|0:0,0:0:0:0:
407,166,185526,2,0,P|416:209|391:311,1,143.999995605469,6|8,0:0|0:0,0:0:0:0:
282,301,186169,1,0,0:0:0:0:
282,301,186384,2,0,P|260:232|269:161,1,143.999995605469,4|8,0:0|0:0,0:0:0:0:
80,54,187241,6,0,L|91:202,1,143.999995605469,4|8,0:0|0:0,0:0:0:0:
233,360,188098,2,0,L|307:353,1,71.9999978027344,4|0,0:0|0:0,0:0:0:0:
330,248,188526,2,0,L|401:254,1,71.9999978027344,8|0,0:0|0:0,0:0:0:0:
471,337,188955,2,0,P|462:288|505:195,1,143.999995605469,6|8,0:0|0:0,0:0:0:0:
399,154,189598,1,0,0:0:0:0:
399,154,189812,2,0,P|408:105|365:12,1,143.999995605469,4|8,0:0|0:0,0:0:0:0:
172,94,190669,6,0,P|95:114|40:88,1,143.999995605469,6|8,0:0|0:0,0:0:0:0:
57,194,191312,1,0,0:0:0:0:
38,300,191526,2,0,P|103:273|171:294,1,143.999995605469,4|8,0:0|0:0,0:0:0:0:
255,360,192169,1,0,0:0:0:0:
341,294,192384,2,0,P|408:273|473:300,1,143.999995605469,6|8,0:0|0:0,0:0:0:0:
456,193,193026,1,0,0:0:0:0:
496,92,193241,2,0,L|505:16,1,71.9999978027344,6|0,0:0|0:0,0:0:0:0:
396,24,193669,2,0,L|348:30,3,35.9999989013672,10|2|2|2,0:0|0:0|0:0|0:0,0:0:0:0:
319,63,194098,22,0,P|278:80|188:31,1,143.999995605469,4|8,0:0|0:0,0:0:0:0:
26,177,194955,2,0,L|7:326,1,143.999995605469,4|8,0:0|0:0,0:0:0:0:
100,376,195598,1,0,0:0:0:0:
189,315,195812,2,0,P|229:298|316:338,1,143.999995605469,6|8,0:0|0:0,0:0:0:0:
414,381,196455,1,0,0:0:0:0:
409,273,196669,2,0,P|400:216|442:144,1,143.999995605469,4|8,0:0|0:0,0:0:0:0:
246,52,197526,6,0,L|91:42,2,143.999995605469,6|8|4,0:0|0:0|0:0,0:0:0:0:
351,27,198598,1,0,0:0:0:0:
320,130,198812,2,0,L|307:218,1,71.9999978027344,8|0,0:0|0:0,0:0:0:0:
207,238,199241,2,0,L|212:383,1,143.999995605469,6|8,0:0|0:0,0:0:0:0:
103,378,199884,1,0,0:0:0:0:
103,378,200098,2,0,B|94:304|121:316|109:234,1,143.999995605469,6|10,0:0|0:0,0:0:0:0:
27,34,200955,6,0,L|173:17,1,143.999995605469,6|8,0:0|0:0,0:0:0:0:
385,40,201812,2,0,P|399:73|402:126,1,71.9999978027344,4|0,0:0|0:0,0:0:0:0:
490,173,202241,2,0,P|478:229|458:263,1,71.9999978027344,8|0,0:0|0:0,0:0:0:0:
483,349,202669,2,0,P|423:383|346:373,1,143.999995605469,6|8,0:0|0:0,0:0:0:0:
256,322,203312,1,0,0:0:0:0:
161,375,203526,2,0,P|90:383|29:349,1,143.999995605469,4|8,0:0|0:0,0:0:0:0:
145,165,204384,6,0,B|166:137|166:137|162:27,1,143.999995605469,6|8,0:0|0:0,0:0:0:0:
256,80,205026,1,0,0:0:0:0:
349,28,205241,2,0,B|346:137|346:137|367:165,1,143.999995605469,6|8,0:0|0:0,0:0:0:0:
436,248,205884,1,0,0:0:0:0:
380,340,206098,2,0,P|338:352|299:352,1,71.9999978027344,6|0,0:0|0:0,0:0:0:0:
202,353,206526,2,0,P|166:350|131:339,1,71.9999978027344,8|0,0:0|0:0,0:0:0:0:
72,249,206955,2,0,L|77:175,1,71.9999978027344,6|4,0:0|0:3,0:0:0:0:
21,84,207384,2,0,L|16:10,1,71.9999978027344,4|4,0:3|0:3,0:0:0:0:
113,31,207812,22,0,P|182:43|240:8,1,132.00000402832,4|8,0:0|0:0,0:0:0:0:
333,16,208455,1,0,0:0:0:0:
418,65,208669,2,0,P|445:124|430:210,1,132.00000402832,4|8,0:0|0:0,0:0:0:0:
281,309,209526,2,0,P|230:284|83:319,1,198.000006042481,4|0,0:0|0:0,0:0:0:0:
9,357,210384,2,0,P|37:307|41:215,1,132.00000402832,4|8,0:0|0:0,0:0:0:0:
19,138,211026,1,0,0:0:0:0:
26,38,211241,6,0,L|164:28,1,132.00000402832,6|8,0:0|0:0,0:0:0:0:
355,28,212098,2,0,L|486:37,1,132.00000402832,4|8,0:0|0:0,0:0:0:0:
499,136,212741,1,0,0:0:0:0:
499,136,212955,2,0,P|455:154|450:292,1,198.000006042481,4|0,0:0|0:0,0:0:0:0:
506,364,213812,2,0,P|457:341|370:371,1,132.00000402832,4|10,0:0|0:0,0:0:0:0:
200,282,214669,6,0,L|68:291,1,132.00000402832,4|8,0:0|0:0,0:0:0:0:
70,92,215526,2,0,L|201:101,1,132.00000402832,4|8,0:0|0:0,0:0:0:0:
290,146,216169,1,0,0:0:0:0:
290,146,216384,2,0,P|296:67|207:2,1,198.000006042481,4|0,0:0|0:0,0:0:0:0:
133,68,217241,2,0,P|134:127|186:178,1,132.00000402832,4|8,0:0|0:0,0:0:0:0:
351,281,218098,6,0,L|491:274,1,132.00000402832,6|8,0:0|0:0,0:0:0:0:
482,76,218955,2,0,L|350:69,1,132.00000402832,4|8,0:0|0:0,0:0:0:0:
256,102,219598,1,0,0:0:0:0:
162,69,219812,2,0,B|29:75|29:75|36:155,1,198.000006042481,4|0,0:0|0:0,0:0:0:0:
85,224,220669,2,0,L|79:289,1,66.0000020141602,4|4,0:0|0:3,0:0:0:0:
162,343,221098,2,0,L|232:331,1,66.0000020141602,2|0,0:0|0:0,0:0:0:0:
290,256,221526,22,0,L|426:273,1,132.00000402832,4|8,0:0|0:0,0:0:0:0:
438,174,222169,1,0,0:0:0:0:
438,174,222384,2,0,P|406:132|411:51,1,132.00000402832,4|8,0:0|0:0,0:0:0:0:
212,24,223241,2,0,B|108:47|120:-2|17:18,1,198.000006042481,4|0,0:0|0:0,0:0:0:0:
52,110,224098,2,0,P|29:163|61:239,1,132.00000402832,4|8,0:0|0:0,0:0:0:0:
123,299,224741,1,0,0:0:0:0:
123,299,224955,6,0,P|186:277|249:295,1,132.00000402832,6|8,0:0|0:0,0:0:0:0:
324,355,225598,1,0,0:0:0:0:
422,347,225812,2,0,L|436:206,1,132.00000402832,4|8,0:0|0:0,0:0:0:0:
317,56,226669,2,0,L|339:263,1,198.000006042481,4|0,0:0|0:0,0:0:0:0:
247,293,227526,2,0,B|174:296|205:335|128:339,1,132.00000402832,4|8,0:0|0:0,0:0:0:0:
74,255,228169,1,0,0:0:0:0:
74,255,228384,6,0,P|59:204|91:130,1,132.00000402832,4|8,0:0|0:0,0:0:0:0:
171,186,229026,1,0,0:0:0:0:
171,186,229241,2,0,P|186:135|154:61,1,132.00000402832,4|8,0:0|0:0,0:0:0:0:
355,65,230098,2,0,P|327:123|341:186,1,132.00000402832,4|8,0:0|0:0,0:0:0:0:
424,133,230741,1,0,0:0:0:0:
424,133,230955,2,0,P|452:191|438:255,1,132.00000402832,4|8,0:0|0:0,0:0:0:0:
266,354,231812,6,0,L|126:358,1,132.00000402832,6|10,0:0|0:0,0:0:0:0:
50,304,232455,1,2,0:0:0:0:
69,207,232669,2,0,L|200:203,1,132.00000402832,6|8,0:0|0:0,0:0:0:0:
359,84,233526,2,0,L|374:11,2,66.0000020141602,4|4|4,0:3|0:3|0:0,0:0:0:0:
200,203,234384,2,0,L|209:282,1,66.0000020141602,4|4,0:3|0:3,0:0:0:0:
298,306,234812,2,0,L|289:385,1,66.0000020141602,4|4,0:3|0:3,0:0:0:0:
380,374,235241,22,0,P|418:353|493:377,1,120,6|10,0:0|0:0,0:0:0:0:
435,299,235884,2,0,P|437:270|450:228,1,60,2|4,0:0|0:3,0:0:0:0:
402,160,236312,2,0,P|397:128|385:92,1,60,2|8,0:0|0:0,0:0:0:0:
457,42,236741,2,0,L|332:33,1,120,2|0,0:0|0:0,0:0:0:0:
255,72,237384,1,8,0:0:0:0:
255,72,237598,2,0,L|135:80,1,120,0|0,0:0|0:0,0:0:0:0:
55,123,238241,2,0,P|47:167|55:202,1,60,10|2,0:0|0:0,0:0:0:0:
123,233,238669,6,0,L|243:242,1,120,6|10,0:0|0:0,0:0:0:0:
287,320,239312,2,0,L|407:329,1,120,2|2,0:0|0:0,0:0:0:0:
467,261,239955,1,8,0:0:0:0:
467,261,240169,2,0,P|485:216|470:141,1,120,2|0,0:0|0:0,0:0:0:0:
385,125,240812,1,8,0:0:0:0:
347,43,241026,2,0,P|299:72|225:67,1,120,0|2,0:0|0:0,0:0:0:0:
148,52,241669,2,0,L|74:59,1,60,10|2,0:0|0:0,0:0:0:0:
35,130,242098,6,0,B|41:220|41:220|58:187,1,120,6|10,0:0|0:0,0:0:0:0:
128,245,242741,2,0,L|201:248,1,60,2|4,0:0|0:3,0:0:0:0:
248,314,243169,2,0,L|321:317,1,60,2|8,0:0|0:0,0:0:0:0:
393,288,243598,2,0,P|418:238|401:160,1,120,2|0,0:0|0:0,0:0:0:0:
325,145,244241,1,8,0:0:0:0:
325,145,244455,2,0,B|305:116|305:116|308:24,1,120,0|2,0:0|0:0,0:0:0:0:
217,37,245098,2,0,L|215:100,1,60,10|2,0:0|0:0,0:0:0:0:
142,150,245526,6,0,L|150:274,1,120,4|10,0:0|0:0,0:0:0:0:
224,320,246169,2,0,P|254:324|292:325,1,60,2|4,0:0|0:3,0:0:0:0:
354,268,246598,2,0,P|384:264|422:263,1,60,2|8,0:0|0:0,0:0:0:0:
479,324,247026,1,2,0:0:0:0:
495,235,247241,2,0,L|507:166,1,60,4|2,0:3|0:0,0:0:0:0:
417,157,247669,2,0,L|429:88,1,60,8|2,0:0|0:0,0:0:0:0:
337,84,248098,2,0,L|349:15,1,60,4|2,0:3|0:0,0:0:0:0:
257,17,248526,1,2,0:0:0:0:
244,106,248741,1,4,0:3:0:0:
244,106,248848,1,4,0:3:0:0:
244,106,248955,22,0,P|206:127|120:111,1,120,6|10,0:0|0:0,0:0:0:0:
50,157,249598,2,0,P|52:188|61:231,1,60,2|4,0:0|0:3,0:0:0:0:
36,303,250026,2,0,P|51:333|70:358,1,60,2|8,0:0|0:0,0:0:0:0:
156,365,250455,2,0,L|300:349,1,120,2|2,0:0|0:0,0:0:0:0:
361,326,251098,2,0,P|370:293|371:259,1,60,8|2,0:0|0:0,0:0:0:0:
322,192,251526,2,0,P|313:159|312:125,1,60,4|2,0:3|0:0,0:0:0:0:
368,63,251955,1,10,0:0:0:0:
278,51,252169,1,2,0:0:0:0:
278,51,252276,1,0,0:0:0:0:
278,51,252384,6,0,B|248:37|248:37|140:55,1,120,6|10,0:0|0:0,0:0:0:0:
108,123,253026,2,0,L|99:253,1,120,2|2,0:0|0:0,0:0:0:0:
150,317,253669,1,8,0:0:0:0:
201,242,253884,2,0,P|252:234|300:292,1,120,2|2,0:0|0:0,0:0:0:0:
352,349,254526,2,0,L|421:338,1,60,8|2,0:0|0:0,0:0:0:0:
467,269,254955,2,0,L|459:203,1,60,4|2,0:3|0:0,0:0:0:0:
507,132,255384,1,10,0:0:0:0:
460,55,255598,1,4,0:3:0:0:
460,55,255705,1,4,0:3:0:0:
460,55,255812,6,0,B|420:51|420:51|386:58|386:58|341:54,1,120,6|10,0:0|0:0,0:0:0:0:
250,48,256455,2,0,P|225:96|231:167,1,120,2|2,0:0|0:0,0:0:0:0:
294,222,257098,1,8,0:0:0:0:
294,222,257312,2,0,P|298:281|272:334,1,120,2|2,0:0|0:0,0:0:0:0:
191,375,257955,2,0,L|128:373,1,60,8|2,0:0|0:0,0:0:0:0:
42,357,258384,2,0,L|51:296,1,60,4|2,0:3|0:0,0:0:0:0:
131,257,258812,1,10,0:0:0:0:
61,199,259026,1,2,0:0:0:0:
61,199,259134,1,0,0:0:0:0:
61,199,259241,6,0,P|106:167|172:174,1,120,4|10,0:0|0:0,0:0:0:0:
216,248,259884,2,0,P|261:280|327:273,1,120,2|2,0:0|0:0,0:0:0:0:
410,294,260526,2,0,L|406:230,1,60,10|0,0:0|0:0,0:0:0:0:
393,144,260955,2,2,B|414:118|435:84|441:12|351:7|337:69|337:69|295:26|219:54|254:130|287:156|344:170,1,420,2|4,0:0|0:3,0:0:0:0:
314,254,262669,6,0,P|277:245|227:255,1,90,2|2,0:0|0:0,0:0:0:0:
100,304,263955,1,2,0:0:0:0:
27,250,264384,2,0,L|36:155,2,90,2|2|2,0:0|0:0|0:0,0:0:0:0:
100,304,266098,2,0,P|137:313|187:303,1,90,2|2,0:0|0:0,0:0:0:0:
301,230,267384,1,2,0:0:0:0:
374,284,267813,2,0,L|365:379,2,90,2|2|2,0:0|0:0|0:0,0:0:0:0:
401,248,269312,1,2,0:0:0:0:
