osu file format v14

[General]
AudioFilename: audio.mp3
AudioLeadIn: 0
PreviewTime: 68526
Countdown: 0
SampleSet: Soft
StackLeniency: 0.3
Mode: 0
LetterboxInBreaks: 0
WidescreenStoryboard: 0

[Editor]
DistanceSpacing: 1.2
BeatDivisor: 4
GridSize: 32
TimelineZoom: 1

[Metadata]
Title:Love Distance Long Affair feat. Topi
TitleUnicode:恋距離遠愛 feat. とぴ
Artist:DECO*27
ArtistUnicode:DECO*27
Creator:CSLM
Version:12 Hours
Source:
Tags:ラブカレンダー Miou Sugita SIN Takahide Azuchi Yoko Fukuda utaite egomama エゴママ international jpop jrock
BeatmapID:1171308
BeatmapSetID:553171

[Difficulty]
HPDrainRate:7
CircleSize:4.3
OverallDifficulty:7.5
ApproachRate:8.5
SliderMultiplier:1.6
SliderTickRate:1

[Events]
//Background and Video events
0,0,"BG.png",0,0
Video,0,"5 Hours vid.avi"
//Break Periods
2,100012,109209
2,152955,165994
//Storyboard Layer 0 (Background)
//Storyboard Layer 1 (Fail)
//Storyboard Layer 2 (Pass)
//Storyboard Layer 3 (Foreground)
//Storyboard Sound Samples

[TimingPoints]
384,428.571428571429,4,2,1,40,1,0
812,-125,4,2,1,40,0,0
14098,-111.111111111111,4,2,1,50,0,0
27812,-100,4,2,0,60,0,0
27919,-100,4,2,1,60,0,0
31241,-100,4,2,0,60,0,0
31348,-100,4,2,1,60,0,0
34669,-100,4,2,0,60,0,0
34776,-100,4,2,1,60,0,0
38098,-100,4,2,0,60,0,0
38205,-100,4,2,1,60,0,0
40241,-100,4,2,0,60,0,0
40348,-100,4,2,1,60,0,0
41526,-111.111111111111,4,2,1,50,0,0
55241,-111.111111111111,4,2,0,50,0,0
55348,-111.111111111111,4,2,1,50,0,0
67241,-166.666666666666,4,2,1,30,0,0
68955,-90.9090909090909,4,2,0,70,0,1
69062,-90.9090909090909,4,2,1,70,0,1
75812,-90.9090909090909,4,2,0,70,0,1
75919,-90.9090909090909,4,2,1,70,0,1
82241,-90.9090909090909,4,2,1,70,0,0
82669,-90.9090909090909,4,2,0,70,0,1
82776,-90.9090909090909,4,2,1,70,0,1
89526,-90.9090909090909,4,2,0,70,0,1
89634,-90.9090909090909,4,2,1,70,0,1
95098,-90.9090909090909,4,2,0,70,0,1
95205,-90.9090909090909,4,2,1,70,0,1
96384,-100,4,2,0,60,0,0
110205,-100,4,2,1,60,0,0
113526,-100,4,2,0,60,0,0
113634,-100,4,2,1,60,0,0
116955,-100,4,2,0,60,0,0
117062,-100,4,2,1,60,0,0
120384,-100,4,2,0,60,0,0
120491,-100,4,2,1,60,0,0
122526,-100,4,2,0,60,0,0
122634,-100,4,2,1,60,0,0
123812,-111.111111111111,4,2,0,50,0,0
123919,-111.111111111111,4,2,1,50,0,0
166669,-142.857142857143,4,2,1,40,0,0
178669,-200,4,2,1,30,0,0
179955,-100,4,2,1,60,0,0
180384,-83.3333333333333,4,2,0,80,0,1
180491,-83.3333333333333,4,2,1,80,0,1
187241,-83.3333333333333,4,2,0,80,0,1
187348,-83.3333333333333,4,2,1,80,0,1
193669,-83.3333333333333,4,2,1,80,0,0
194098,-83.3333333333333,4,2,0,80,0,1
194205,-83.3333333333333,4,2,1,80,0,1
200955,-83.3333333333333,4,2,0,80,0,1
201062,-83.3333333333333,4,2,1,80,0,1
207384,-83.3333333333333,4,2,1,80,0,0
207812,-90.9090909090909,4,2,0,70,0,1
207919,-90.9090909090909,4,2,1,70,0,1
214669,-90.9090909090909,4,2,0,70,0,1
214776,-90.9090909090909,4,2,1,70,0,1
221098,-90.9090909090909,4,2,1,70,0,0
221526,-90.9090909090909,4,2,0,70,0,1
221634,-90.9090909090909,4,2,1,70,0,1
228384,-90.9090909090909,4,2,0,70,0,1
228491,-90.9090909090909,4,2,1,70,0,1
233955,-90.9090909090909,4,2,0,70,0,1
234062,-90.9090909090909,4,2,1,70,0,1
235241,-100,4,2,0,70,0,0
235348,-100,4,2,1,70,0,0
238669,-100,4,2,0,70,0,0
238776,-100,4,2,1,70,0,0
242098,-100,4,2,0,70,0,0
242205,-100,4,2,1,70,0,0
245526,-100,4,2,0,70,0,0
245634,-100,4,2,1,70,0,0
248955,-100,4,2,0,70,0,0
249062,-100,4,2,1,70,0,0
252384,-100,4,2,0,70,0,0
252491,-100,4,2,1,70,0,0
255812,-100,4,2,0,70,0,0
255919,-100,4,2,1,70,0,0
259241,-100,4,2,0,70,0,0
259348,-100,4,2,1,70,0,0
262669,-200,4,2,1,30,0,0

[Colours]
Combo1 : 248,139,67
Combo2 : 255,255,170
Combo3 : 162,102,170
Combo4 : 222,186,44
Combo5 : 56,179,252

[HitObjects]
152,178,384,6,0,L|237:167,1,80,2|0,0:0|0:0,0:0:0:0:
337,84,812,2,0,L|274:78,1,64,4|0,0:3|0:0,0:0:0:0:
420,201,1241,2,0,P|425:169|420:138,1,64,4|0,0:3|0:0,0:0:0:0:
506,261,1669,2,0,P|501:296|506:332,1,64,4|0,0:3|0:0,0:0:0:0:
420,366,2098,2,0,P|382:350|299:380,1,128,4|4,0:3|0:3,0:0:0:0:
204,351,2741,2,0,P|224:314|229:280,1,64,0|4,0:0|0:3,0:0:0:0:
217,192,3169,1,0,0:0:0:0:
124,223,3384,2,0,P|130:263|144:295,1,64,4|0,0:3|0:0,0:0:0:0:
127,128,3812,6,0,L|140:51,1,64,6|0,0:3|0:0,0:0:0:0:
217,192,4241,2,0,L|227:260,1,64,4|0,0:3|0:0,0:0:0:0:
316,204,4669,2,0,P|343:196|396:198,1,64,4|0,0:3|0:0,0:0:0:0:
423,292,5098,2,0,P|387:292|353:281,1,64,4|0,0:3|0:0,0:0:0:0:
385,122,5526,2,0,P|436:149|450:217,1,128,4|4,0:3|0:3,0:0:0:0:
344,310,6169,2,0,L|350:230,1,64,0|4,0:0|0:3,0:0:0:0:
385,122,6598,1,0,0:0:0:0:
263,62,6812,1,4,0:3:0:0:
267,87,7026,1,0,0:0:0:0:
157,227,7241,6,0,B|189:226|189:226|224:213,1,64,6|0,0:3|0:0,0:0:0:0:
78,184,7669,2,0,B|61:157|61:157|36:137,1,64,4|0,0:3|0:0,0:0:0:0:
78,273,8098,2,0,B|62:302|62:302|55:337,1,64,4|0,0:3|0:0,0:0:0:0:
209,338,8526,2,0,B|179:326|179:326|136:328,1,64,4|0,0:3|0:0,0:0:0:0:
293,384,8955,2,0,L|280:256,1,128,4|4,0:3|0:3,0:0:0:0:
372,164,9598,2,0,P|371:202|366:240,1,64,0|4,0:0|0:3,0:0:0:0:
332,316,10026,1,0,0:0:0:0:
248,155,10241,2,0,P|244:119|245:89,1,64,4|0,0:3|0:0,0:0:0:0:
264,54,10562,1,0,0:0:0:0:
264,54,10669,6,0,P|305:51|336:44,1,64,6|0,0:3|0:0,0:0:0:0:
161,129,11098,2,0,P|127:127|95:117,1,64,4|0,0:3|0:0,0:0:0:0:
60,224,11526,2,0,B|87:218|108:233|110:260|92:286|92:286|111:317|108:347|86:357|55:350,1,192,4|0,0:3|0:0,0:0:0:0:
206,239,12384,2,0,B|251:245|255:318|207:333|207:333|243:324|237:339|271:332,1,192,4|0,0:3|0:0,0:0:0:0:
363,266,13241,2,0,B|386:249|406:221|406:221|403:361,1,192,4|0,0:3|0:0,0:0:0:0:
431,366,13991,1,0,0:0:0:0:
431,366,14098,22,0,P|474:360|511:359,1,71.9999978027344,6|0,0:0|0:0,0:0:0:0:
363,266,14526,2,0,P|327:264|291:258,1,71.9999978027344,2|0,0:0|0:0,0:0:0:0:
231,163,14955,1,2,0:0:0:0:
198,285,15169,1,0,0:0:0:0:
126,197,15384,2,0,L|120:113,1,71.9999978027344,10|0,0:0|0:0,0:0:0:0:
24,62,15812,2,0,B|45:52|45:52|58:62|58:62|99:32|158:42,1,143.999995605469,6|2,0:0|0:0,0:0:0:0:
246,108,16455,1,0,0:0:0:0:
351,71,16669,2,0,L|341:-5,1,71.9999978027344,2|0,0:0|0:0,0:0:0:0:
443,126,17098,2,0,L|435:200,1,71.9999978027344,10|0,0:0|0:0,0:0:0:0:
346,281,17526,6,0,P|310:279|269:279,1,71.9999978027344,6|0,0:0|0:0,0:0:0:0:
196,379,17955,2,0,P|231:377|267:378,1,71.9999978027344,2|0,0:0|0:0,0:0:0:0:
99,347,18384,2,0,B|85:312|85:312|86:277,1,71.9999978027344,2|0,0:0|0:0,0:0:0:0:
139,110,18812,2,0,B|140:144|140:144|126:179,1,71.9999978027344,10|0,0:0|0:0,0:0:0:0:
63,72,19241,2,0,P|111:30|196:45,1,143.999995605469,6|2,0:0|0:0,0:0:0:0:
290,73,19884,1,0,0:0:0:0:
236,162,20098,2,0,P|228:199|225:242,1,71.9999978027344,2|0,0:0|0:0,0:0:0:0:
309,291,20526,2,0,P|317:328|320:371,1,71.9999978027344,10|0,0:0|0:0,0:0:0:0:
201,347,20955,6,0,L|130:354,1,71.9999978027344,6|0,0:0|0:0,0:0:0:0:
38,255,21384,2,0,L|109:262,1,71.9999978027344,2|0,0:0|0:0,0:0:0:0:
225,232,21812,1,2,0:0:0:0:
87,175,22026,2,0,L|96:261,1,71.9999978027344,0|10,0:0|0:0,0:0:0:0:
46,47,22455,1,0,0:0:0:0:
178,71,22669,2,0,B|266:61|231:107|316:98,1,143.999995605469,6|2,0:0|0:0,0:0:0:0:
308,2,23312,1,0,0:0:0:0:
196,148,23526,2,0,L|207:263,1,107.999996704102,2|0,0:0|0:0,0:0:0:0:
240,268,23955,2,0,P|276:257|322:263,1,71.9999978027344,10|0,0:0|0:0,0:0:0:0:
371,337,24384,6,0,P|355:286|396:199,1,143.999995605469,6|2,0:0|0:0,0:0:0:0:
469,282,25026,1,0,0:0:0:0:
465,384,25241,2,0,B|411:374|411:374|380:389|380:389|326:377,1,143.999995605469,2|10,0:0|0:0,0:0:0:0:
240,268,25884,1,0,0:0:0:0:
119,313,26098,2,0,L|126:384,1,71.9999978027344,6|0,0:0|0:0,0:0:0:0:
240,268,26526,1,4,0:3:0:0:
130,182,26741,1,4,0:3:0:0:
119,313,26955,1,4,0:3:0:0:
257,145,27169,1,4,0:3:0:0:
40,106,27384,1,2,0:0:0:0:
119,313,27598,1,2,0:0:0:0:
166,42,27812,22,0,B|198:36|217:18|217:18|257:59|331:33,1,160,4|8,0:0|0:0,0:0:0:0:
418,109,28455,2,0,L|499:98,1,80,0|4,0:0|0:3,0:0:0:0:
332,201,28884,1,2,0:0:0:0:
386,320,29098,1,10,0:0:0:0:
249,293,29312,2,0,B|256:179|256:179|233:220,1,160,2|0,0:0|0:0,0:0:0:0:
99,244,29955,1,8,0:0:0:0:
170,358,30169,1,2,0:0:0:0:
164,158,30384,1,6,0:3:0:0:
182,343,30598,1,2,0:0:0:0:
79,165,30812,2,0,L|-4:170,1,80,10|2,0:0|0:0,0:0:0:0:
189,72,31241,6,0,L|356:84,1,160,4|8,0:0|0:0,0:0:0:0:
432,175,31884,2,0,P|416:217|415:256,1,80,0|4,0:0|0:3,0:0:0:0:
445,369,32312,1,2,0:0:0:0:
432,175,32526,1,10,0:0:0:0:
290,271,32741,2,0,P|211:268|121:286,1,160,2|0,0:0|0:0,0:0:0:0:
36,196,33384,2,0,P|41:154|41:111,1,80,8|0,0:0|0:0,0:0:0:0:
91,0,33812,2,0,P|124:25|162:46,1,80,4|0,0:3|0:0,0:0:0:0:
164,169,34241,2,0,B|236:160|210:196|279:188,1,120,10|0,0:0|0:0,0:0:0:0:
264,110,34669,6,0,P|274:160|377:198,1,160,4|8,0:0|0:0,0:0:0:0:
380,32,35312,2,0,B|361:0|361:0|344:129,1,160,2|0,0:0|0:0,0:0:0:0:
506,123,35955,2,0,L|422:137,1,80,10|0,0:0|0:0,0:0:0:0:
311,278,36384,2,0,B|381:283|381:283|399:296|399:296|477:304,1,160,6|8,0:3|0:0,0:0:0:0:
374,381,37026,1,0,0:0:0:0:
311,278,37241,2,0,P|269:268|219:266,1,80,4|0,0:3|0:0,0:0:0:0:
113,327,37669,2,0,P|124:283|105:205,1,120,8|0,0:0|0:0,0:0:0:0:
28,187,38098,6,0,L|191:178,1,160,4|8,0:0|0:0,0:0:0:0:
282,93,38741,1,0,0:0:0:0:
176,21,38955,2,0,L|90:16,1,80,4|0,0:3|0:0,0:0:0:0:
293,112,39384,2,0,L|379:107,1,80,8|0,0:0|0:0,0:0:0:0:
465,178,39812,5,4,0:3:0:0:
486,211,39919,1,4,0:3:0:0:
490,250,40026,1,4,0:3:0:0:
477,288,40133,1,4,0:3:0:0:
448,315,40241,2,0,B|406:315|418:335|371:332,1,80,4|0,0:0|0:0,0:0:0:0:
261,265,40669,1,4,0:3:0:0:
360,249,40884,1,4,0:3:0:0:
277,363,41098,1,4,0:3:0:0:
289,72,41312,2,0,L|293:119,1,40,4|4,0:3|0:3,0:0:0:0:
306,164,41526,6,0,L|316:90,1,71.9999978027344,4|0,0:3|0:0,0:0:0:0:
237,19,41955,2,0,L|160:16,1,71.9999978027344,8|0,0:0|0:0,0:0:0:0:
55,110,42384,2,0,B|105:101|105:101|144:119|144:119|200:107,1,143.999995605469,4|8,0:3|0:0,0:0:0:0:
193,108,43026,1,0,0:0:0:0:
90,196,43241,2,0,B|67:249|92:313|92:313|121:275,1,143.999995605469,4|8,0:3|0:0,0:0:0:0:
192,225,43884,2,0,P|231:215|271:219,1,71.9999978027344,0|4,0:0|0:3,0:0:0:0:
331,293,44312,1,0,0:0:0:0:
429,252,44526,2,0,P|441:213|447:169,1,71.9999978027344,8|0,0:0|0:0,0:0:0:0:
331,293,44955,6,0,P|330:343|337:376,1,71.9999978027344,4|0,0:3|0:0,0:0:0:0:
262,216,45384,2,0,P|257:172|247:136,1,71.9999978027344,8|0,0:0|0:0,0:0:0:0:
143,78,45812,2,0,B|226:98|197:50|283:68,1,143.999995605469,4|8,0:3|0:0,0:0:0:0:
357,144,46455,1,0,0:0:0:0:
174,10,46669,2,0,B|152:36|152:36|164:159,1,143.999995605469,4|8,0:3|0:0,0:0:0:0:
61,192,47312,2,0,L|68:114,1,71.9999978027344,0|4,0:0|0:3,0:0:0:0:
112,32,47741,1,0,0:0:0:0:
147,235,47955,2,0,L|156:318,1,71.9999978027344,8|0,0:0|0:0,0:0:0:0:
283,344,48384,6,0,P|317:338|362:336,1,71.9999978027344,4|0,0:3|0:0,0:0:0:0:
463,264,48812,2,0,P|427:262|391:255,1,71.9999978027344,8|0,0:0|0:0,0:0:0:0:
237,145,49241,2,0,P|286:176|306:259,1,143.999995605469,4|8,0:3|0:0,0:0:0:0:
196,249,49884,1,0,0:0:0:0:
165,104,50098,2,0,P|222:67|301:87,1,143.999995605469,4|8,0:3|0:0,0:0:0:0:
97,188,50741,2,0,L|15:198,1,71.9999978027344,0|4,0:0|0:3,0:0:0:0:
75,62,51169,1,0,0:0:0:0:
118,173,51384,2,0,L|103:259,1,71.9999978027344,8|0,0:0|0:0,0:0:0:0:
241,338,51812,6,0,B|265:333|265:333|281:344|281:344|325:323|386:343,1,143.999995605469,6|8,0:3|0:0,0:0:0:0:
458,270,52455,1,0,0:0:0:0:
422,168,52669,2,0,L|323:162,1,71.9999978027344,4|0,0:3|0:0,0:0:0:0:
233,244,53098,2,0,L|332:238,1,71.9999978027344,8|0,0:0|0:0,0:0:0:0:
294,94,53526,1,4,0:3:0:0:
219,219,53741,1,2,0:0:0:0:
350,163,53955,1,8,0:0:0:0:
212,129,54169,1,2,0:0:0:0:
186,131,54384,1,4,0:3:0:0:
101,41,54598,1,2,0:0:0:0:
127,43,54813,1,10,0:0:0:0:
122,220,55026,2,0,L|113:178,1,35.9999989013672,4|4,0:3|0:3,0:0:0:0:
75,126,55241,22,0,L|64:286,1,143.999995605469,4|8,0:0|0:0,0:0:0:0:
146,342,55884,1,0,0:0:0:0:
246,307,56098,2,0,P|286:298|326:303,1,71.9999978027344,4|0,0:3|0:0,0:0:0:0:
319,136,56526,2,0,P|306:175|282:207,1,71.9999978027344,8|0,0:0|0:0,0:0:0:0:
440,322,56955,2,0,P|405:297|388:203,1,143.999995605469,4|8,0:3|0:0,0:0:0:0:
449,79,57598,2,0,P|411:75|378:68,1,71.9999978027344,0|4,0:0|0:3,0:0:0:0:
281,33,58026,1,0,0:0:0:0:
185,140,58241,2,0,P|223:136|256:129,1,71.9999978027344,8|0,0:0|0:0,0:0:0:0:
63,124,58669,6,0,L|72:204,2,71.9999978027344,4|0|8,0:3|0:0|0:0,0:0:0:0:
121,32,59312,1,0,0:0:0:0:
195,159,59526,2,0,L|186:255,1,71.9999978027344,4|0,0:3|0:0,0:0:0:0:
281,293,59955,2,0,P|319:278|374:277,1,71.9999978027344,8|0,0:0|0:0,0:0:0:0:
189,337,60384,2,0,P|135:382|62:368,1,143.999995605469,4|8,0:3|0:0,0:0:0:0:
103,237,61026,2,0,B|116:271|116:271|111:314,1,71.9999978027344,0|4,0:0|0:3,0:0:0:0:
14,284,61455,1,0,0:0:0:0:
2,175,61669,2,0,B|3:140|3:140|21:104,1,71.9999978027344,8|0,0:0|0:0,0:0:0:0:
137,120,62098,6,0,L|227:112,2,71.9999978027344,4|0|8,0:3|0:0|0:0,0:0:0:0:
40,94,62741,1,0,0:0:0:0:
149,17,62955,1,4,0:3:0:0:
152,149,63169,2,0,B|150:222,1,71.9999978027344,0|8,0:0|0:0,0:0:0:0:
118,311,63598,1,0,0:0:0:0:
241,193,63812,2,0,P|295:188|350:260,1,143.999995605469,4|8,0:3|0:0,0:0:0:0:
372,358,64455,1,0,0:0:0:0:
315,164,64669,2,0,P|383:169|434:110,1,143.999995605469,4|8,0:3|0:0,0:0:0:0:
419,13,65312,1,0,0:0:0:0:
311,30,65526,6,0,L|356:98,1,71.9999978027344,6|0,0:3|0:0,0:0:0:0:
201,30,65955,2,0,L|156:98,1,71.9999978027344,8|0,0:0|0:0,0:0:0:0:
197,187,66384,2,0,P|162:195|127:189,1,71.9999978027344,4|2,0:3|0:0,0:0:0:0:
314,187,66812,2,0,P|349:195|385:189,1,71.9999978027344,10|2,0:0|0:0,0:0:0:0:
256,288,67241,6,0,B|242:340|270:334|256:384,2,95.9999970703126,2|2|2,0:0|0:0|0:0,0:0:0:0:
208,205,68312,2,0,L|219:88,1,95.9999970703126,2|0,0:0|0:0,0:0:0:0:
125,39,68955,6,0,P|208:60|273:6,1,176.000005371094,4|8,0:0|0:0,0:0:0:0:
390,42,69598,1,0,0:0:0:0:
276,206,69812,1,4,0:0:0:0:
272,6,70026,1,0,0:0:0:0:
392,165,70241,1,8,0:0:0:0:
201,107,70455,1,0,0:0:0:0:
390,42,70669,2,0,P|419:34|476:37,1,88.000002685547,4|0,0:0|0:0,0:0:0:0:
300,95,71098,2,0,P|292:66|295:9,1,88.000002685547,8|0,0:0|0:0,0:0:0:0:
350,191,71526,2,0,P|321:199|264:196,1,88.000002685547,4|0,0:0|0:0,0:0:0:0:
440,142,71955,2,0,P|448:171|445:228,1,88.000002685547,8|0,0:0|0:0,0:0:0:0:
373,343,72384,6,0,B|268:329|311:377|202:361,1,176.000005371094,6|8,0:0|0:0,0:0:0:0:
110,276,73026,1,0,0:0:0:0:
246,195,73241,2,0,L|243:290,1,88.000002685547,4|0,0:0|0:0,0:0:0:0:
128,156,73669,1,8,0:0:0:0:
96,13,73884,1,0,0:0:0:0:
277,45,74098,2,0,L|186:57,1,88.000002685547,6|0,0:0|0:0,0:0:0:0:
340,142,74526,2,0,L|431:154,1,88.000002685547,8|0,0:0|0:0,0:0:0:0:
246,195,74955,2,0,P|236:245|235:291,1,88.000002685547,6|0,0:0|0:0,0:0:0:0:
340,142,75384,2,0,P|337:98|328:55,1,88.000002685547,8|0,0:0|0:0,0:0:0:0:
330,231,75812,6,0,P|388:221|428:121,1,176.000005371094,6|8,0:0|0:0,0:0:0:0:
322,40,76455,1,0,0:0:0:0:
231,158,76669,1,4,0:0:0:0:
417,231,76884,1,0,0:0:0:0:
324,23,77098,1,8,0:0:0:0:
311,249,77312,1,0,0:0:0:0:
229,54,77526,2,0,P|189:42|139:40,1,88.000002685547,4|0,0:0|0:0,0:0:0:0:
77,207,77955,2,0,P|107:178|134:136,1,88.000002685547,8|0,0:0|0:0,0:0:0:0:
19,0,78384,2,0,P|28:40|51:84,1,88.000002685547,4|0,0:0|0:0,0:0:0:0:
231,158,78812,2,0,L|332:152,1,88.000002685547,8|0,0:0|0:0,0:0:0:0:
469,263,79241,6,0,B|399:258|399:258|366:275|366:275|297:268,1,176.000005371094,6|8,0:0|0:0,0:0:0:0:
231,158,79884,1,0,0:0:0:0:
221,354,80098,2,0,L|213:174,1,176.000005371094,4|8,0:0|0:0,0:0:0:0:
297,268,80741,1,0,0:0:0:0:
139,290,80955,6,0,L|49:275,1,88.000002685547,6|0,0:0|0:0,0:0:0:0:
5,165,81384,2,0,L|91:179,1,88.000002685547,10|0,0:0|0:0,0:0:0:0:
131,161,81705,1,0,0:0:0:0:
131,161,81812,2,0,P|145:123|146:73,1,88.000002685547,6|0,0:0|0:0,0:0:0:0:
262,17,82241,1,10,0:0:0:0:
298,41,82348,1,2,0:0:0:0:
340,52,82455,1,2,0:0:0:0:
384,48,82562,1,2,0:0:0:0:
423,29,82669,6,0,P|411:81|478:192,1,176.000005371094,4|8,0:0|0:0,0:0:0:0:
510,310,83312,1,0,0:0:0:0:
398,382,83526,2,0,B|316:354|316:354|271:363,1,132.00000402832,4|0,0:0|0:0,0:0:0:0:
229,375,83955,2,0,P|253:334|250:274,1,88.000002685547,10|0,0:0|0:0,0:0:0:0:
125,206,84384,2,0,P|128:249|151:286,1,88.000002685547,6|0,0:0|0:0,0:0:0:0:
279,186,84812,2,0,P|287:141|288:98,1,88.000002685547,8|0,0:0|0:0,0:0:0:0:
110,14,85241,2,0,P|111:57|119:101,1,88.000002685547,4|0,0:0|0:0,0:0:0:0:
231,3,85669,1,10,0:0:0:0:
191,183,85884,1,2,0:0:0:0:
10,109,86098,6,0,L|108:94,1,88.000002685547,6|0,0:0|0:0,0:0:0:0:
287,184,86526,2,0,L|189:169,1,88.000002685547,8|0,0:0|0:0,0:0:0:0:
359,118,86955,2,0,P|381:174|365:242,1,132.00000402832,4|0,0:0|0:0,0:0:0:0:
330,270,87384,2,0,P|329:308|351:361,1,88.000002685547,8|0,0:0|0:0,0:0:0:0:
222,349,87812,2,0,P|176:333|111:343,1,88.000002685547,6|0,0:0|0:0,0:0:0:0:
227,227,88241,2,0,P|247:193|249:138,1,88.000002685547,8|0,0:0|0:0,0:0:0:0:
113,39,88669,2,0,P|141:68|191:82,1,88.000002685547,6|0,0:0|0:0,0:0:0:0:
351,20,89098,2,0,P|317:26|278:60,1,88.000002685547,8|0,0:0|0:0,0:0:0:0:
427,192,89526,6,0,L|437:88,1,88.000002685547,6|0,0:0|0:0,0:0:0:0:
344,316,89955,2,0,L|334:212,1,88.000002685547,8|0,0:0|0:0,0:0:0:0:
432,370,90384,1,4,0:0:0:0:
224,289,90598,1,0,0:0:0:0:
356,299,90812,1,8,0:0:0:0:
130,356,91026,1,0,0:0:0:0:
215,173,91241,2,0,B|176:132|112:133|112:133|120:107|118:63,1,176.000005371094,6|8,0:0|0:0,0:0:0:0:
13,87,91884,1,0,0:0:0:0:
212,57,92098,2,0,L|394:43,1,176.000005371094,6|10,0:0|0:0,0:0:0:0:
511,12,92741,1,0,0:0:0:0:
475,131,92955,6,0,P|463:196|357:222,1,176.000005371094,6|8,0:0|0:0,0:0:0:0:
312,123,93598,1,0,0:0:0:0:
482,240,93812,2,0,P|486:287|486:328,1,88.000002685547,6|0,0:0|0:0,0:0:0:0:
354,299,94241,2,0,P|354:255|358:211,1,88.000002685547,8|0,0:0|0:0,0:0:0:0:
480,224,94669,1,4,0:3:0:0:
481,349,94884,1,4,0:3:0:0:
349,199,95098,2,0,L|259:209,1,88.000002685547,4|0,0:0|0:0,0:0:0:0:
204,336,95526,1,4,0:3:0:0:
156,113,95741,1,4,0:3:0:0:
64,322,95955,1,4,0:3:0:0:
261,208,96169,1,4,0:3:0:0:
34,184,96384,5,4,0:0:0:0:
256,192,96491,12,0,99812,0:0:0:0:
346,66,109884,6,0,L|349:112,1,40
379,166,110098,2,0,L|390:68,1,80,4|0,0:0|0:0,0:0:0:0:
253,117,110526,1,8,0:0:0:0:
276,242,110741,2,0,L|284:321,1,80,6|4,0:0|0:3,0:0:0:0:
412,382,111169,2,0,L|403:302,1,80,6|8,0:0|0:0,0:0:0:0:
379,166,111598,1,2,0:0:0:0:
276,242,111812,1,4,0:3:0:0:
160,175,112026,2,0,P|165:135|168:73,1,80,4|8,0:0|0:0,0:0:0:0:
46,261,112455,2,0,P|42:223|31:164,1,80,4|4,0:0|0:3,0:0:0:0:
242,329,112884,2,0,P|251:291|266:248,1,80,6|10,0:0|0:0,0:0:0:0:
125,358,113312,1,2,0:0:0:0:
351,320,113526,5,6,0:0:0:0:
383,312,113741,1,0,0:0:0:0:
495,375,113955,1,10,0:0:0:0:
490,191,114169,2,0,L|482:276,1,80,6|4,0:0|0:3,0:0:0:0:
377,208,114598,2,0,L|369:128,1,80,6|8,0:0|0:0,0:0:0:0:
484,67,115026,1,6,0:0:0:0:
490,191,115241,1,4,0:3:0:0:
369,128,115455,2,0,L|282:118,1,80,4|8,0:0|0:0,0:0:0:0:
201,62,115884,1,4,0:0:0:0:
231,218,116098,2,0,P|240:260|244:301,1,80,4|2,0:3|0:0,0:0:0:0:
121,233,116526,2,0,P|125:193|133:154,1,80,10|2,0:0|0:0,0:0:0:0:
151,333,116955,6,0,P|84:332|22:261,1,160,4|10,0:0|0:0,0:0:0:0:
54,163,117598,2,0,L|146:152,1,80,2|4,0:0|0:3,0:0:0:0:
163,35,118026,2,0,L|242:44,1,80,2|8,0:0|0:0,0:0:0:0:
254,228,118455,2,0,L|333:218,1,80,2|4,0:0|0:3,0:0:0:0:
379,31,118884,2,0,L|458:40,1,80,2|8,0:0|0:0,0:0:0:0:
491,253,119312,2,0,P|484:301|485:347,1,80,2|4,0:0|0:3,0:0:0:0:
505,104,119741,2,0,P|486:70|452:36,1,80,2|8,0:0|0:0,0:0:0:0:
251,191,120169,1,2,0:0:0:0:
251,191,120384,6,0,L|417:169,1,160,6|8,0:0|0:0,0:0:0:0:
216,290,121026,2,0,P|175:264|162:148,1,160,6|6,0:0|0:0,0:0:0:0:
332,226,121669,2,0,L|310:408,1,160,10|4,0:0|0:3,0:0:0:0:
198,294,122312,1,6,0:0:0:0:
63,377,122526,2,0,L|152:371,1,80,4|0,0:0|0:0,0:0:0:0:
138,209,122955,2,0,L|49:203,1,80,4|0,0:3|0:0,0:0:0:0:
0,291,123384,1,10,0:0:0:0:
251,191,123598,2,0,L|260:146,1,40,4|4,0:3|0:3,0:0:0:0:
198,104,123812,22,0,L|210:254,1,143.999995605469,6|8,0:0|0:0,0:0:0:0:
294,312,124455,1,4,0:0:0:0:
386,256,124669,2,0,P|398:217|407:173,1,71.9999978027344,4|4,0:3|0:0,0:0:0:0:
478,107,125098,2,0,P|474:71|467:35,1,71.9999978027344,8|4,0:0|0:0,0:0:0:0:
303,79,125526,2,0,B|278:97|278:97|334:114|390:101,1,143.999995605469,4|8,0:3|0:0,0:0:0:0:
193,68,126169,2,0,L|199:155,1,71.9999978027344,4|8,0:0|0:0,0:0:0:0:
227,248,126598,1,6,0:0:0:0:
313,179,126812,1,10,0:0:0:0:
126,214,127026,2,0,L|44:205,1,71.9999978027344,6|4,0:0|0:3,0:0:0:0:
239,266,127455,5,2,0:0:0:0:
203,128,127669,2,0,L|211:52,1,71.9999978027344,8|4,0:0|0:0,0:0:0:0:
317,80,128098,2,0,P|355:80|392:73,1,71.9999978027344,4|4,0:3|0:0,0:0:0:0:
423,172,128526,2,0,P|461:172|498:179,1,71.9999978027344,8|4,0:0|0:0,0:0:0:0:
339,236,128955,2,0,P|330:286|344:389,1,143.999995605469,4|8,0:3|0:0,0:0:0:0:
253,312,129598,2,0,L|177:319,1,71.9999978027344,4|8,0:0|0:0,0:0:0:0:
31,274,130026,1,6,0:0:0:0:
78,370,130241,1,6,0:0:0:0:
130,239,130455,2,0,P|136:198|138:164,1,71.9999978027344,6|4,0:0|0:3,0:0:0:0:
123,64,130884,5,6,0:0:0:0:
285,98,131098,2,0,P|247:103|209:104,1,71.9999978027344,10|4,0:0|0:0,0:0:0:0:
372,54,131526,2,0,B|381:90|381:90|373:129,1,71.9999978027344,4|4,0:3|0:0,0:0:0:0:
300,206,131955,2,0,B|291:242|291:242|299:281,1,71.9999978027344,8|4,0:0|0:0,0:0:0:0:
498,222,132384,2,0,P|432:198|381:243,1,143.999995605469,4|8,0:3|0:0,0:0:0:0:
289,290,133026,2,0,L|197:279,1,71.9999978027344,4|4,0:0|0:3,0:0:0:0:
111,198,133455,1,4,0:0:0:0:
85,311,133669,1,10,0:0:0:0:
97,348,133884,1,6,0:0:0:0:
19,231,134098,5,2,0:0:0:0:
181,185,134312,2,0,P|144:195|106:198,1,71.9999978027344,6|8,0:0|0:0,0:0:0:0:
205,93,134741,2,0,P|230:67|254:40,1,71.9999978027344,6|4,0:0|0:3,0:0:0:0:
273,226,135169,2,0,P|270:270|274:307,1,71.9999978027344,6|8,0:0|0:0,0:0:0:0:
300,133,135598,1,6,0:0:0:0:
370,261,135812,2,0,B|380:293|380:293|396:177,1,143.999995605469,4|8,0:3|0:0,0:0:0:0:
305,54,136455,2,0,B|285:25|285:25|301:141,1,143.999995605469,6|6,0:0|0:0,0:0:0:0:
417,64,137098,1,10,0:0:0:0:
407,199,137312,1,6,0:0:0:0:
280,122,137526,21,2,0:0:0:0:
182,110,137741,1,6,0:0:0:0:
88,96,137955,2,0,L|83:19,1,71.9999978027344,10|2,0:0|0:0,0:0:0:0:
121,192,138384,2,0,P|91:217|56:232,1,71.9999978027344,4|4,0:3|0:0,0:0:0:0:
69,340,138812,2,0,P|101:355|128:378,1,71.9999978027344,8|4,0:0|0:0,0:0:0:0:
183,286,139241,2,0,B|269:277|235:324|322:312,1,143.999995605469,4|8,0:3|0:0,0:0:0:0:
309,170,139884,2,0,B|293:187|293:187|302:249,1,71.9999978027344,4|4,0:0|0:3,0:0:0:0:
407,241,140312,1,4,0:0:0:0:
405,131,140526,2,0,B|411:82|411:82|395:65,1,71.9999978027344,8|4,0:0|0:0,0:0:0:0:
224,93,140955,6,0,L|302:84,2,71.9999978027344,4|4|8,0:3|0:0|0:0,0:0:0:0:
146,169,141598,1,4,0:0:0:0:
59,101,141812,2,0,P|50:72|51:27,1,71.9999978027344,4|4,0:3|0:0,0:0:0:0:
146,169,142241,2,0,L|131:252,1,71.9999978027344,8|4,0:0|0:0,0:0:0:0:
246,359,142669,2,0,B|234:308|234:308|254:276|254:276|241:209,1,143.999995605469,4|8,0:3|0:0,0:0:0:0:
331,319,143312,2,0,P|371:322|410:318,1,71.9999978027344,4|4,0:0|0:3,0:0:0:0:
483,245,143741,1,4,0:0:0:0:
393,169,143955,2,0,L|401:242,1,71.9999978027344,8|4,0:0|0:0,0:0:0:0:
495,143,144384,6,0,B|519:66|477:77|497:1,1,143.999995605469,4|8,0:3|0:0,0:0:0:0:
428,102,145026,1,4,0:0:0:0:
326,67,145241,2,0,P|292:69|244:52,1,71.9999978027344,4|4,0:3|0:0,0:0:0:0:
204,173,145669,2,0,P|238:175|286:158,1,71.9999978027344,8|4,0:0|0:0,0:0:0:0:
158,85,146098,2,0,L|6:103,1,143.999995605469,4|8,0:3|0:0,0:0:0:0:
36,246,146741,2,0,P|73:229|80:116,1,143.999995605469,4|4,0:0|0:0,0:0:0:0:
47,18,147384,1,8,0:0:0:0:
30,172,147598,1,4,0:0:0:0:
195,203,147812,6,0,L|278:193,1,71.9999978027344,4|4,0:3|0:0,0:0:0:0:
346,270,148241,1,8,0:0:0:0:
359,146,148455,1,4,0:0:0:0:
116,185,148669,2,0,B|106:235|106:235|101:263|132:289|177:279|182:256|182:256|195:199,1,215.999993408203,4|4,0:3|0:0,0:0:0:0:
176,96,149526,1,4,0:3:0:0:
56,99,149741,2,0,P|42:62|36:24,1,71.9999978027344,6|8,0:0|0:0,0:0:0:0:
122,200,150169,2,0,P|119:236|111:277,1,71.9999978027344,6|4,0:0|0:3,0:0:0:0:
193,102,150598,2,0,P|199:66|209:30,1,71.9999978027344,6|8,0:0|0:0,0:0:0:0:
283,204,151026,1,6,0:0:0:0:
96,102,166669,22,0,B|189:96|153:149|256:137,1,167.999994873047,4|0,0:3|0:0,0:0:0:0:
336,88,167526,2,0,P|321:131|336:188,1,83.9999974365235,4|0,0:3|0:0,0:0:0:0:
340,192,167955,2,0,P|352:223|352:258,1,55.9999982910157,4|0,0:3|0:0,0:0:0:0:
292,322,168384,2,0,L|304:383,1,55.9999982910157,4|0,0:3|0:0,0:0:0:0:
192,311,168812,2,0,L|163:371,1,55.9999982910157,4|0,0:3|0:0,0:0:0:0:
133,243,169241,2,0,L|71:251,1,55.9999982910157,4|0,0:3|0:0,0:0:0:0:
25,167,169669,1,4,0:3:0:0:
86,94,169884,1,0,0:0:0:0:
49,10,170098,6,0,P|78:5|117:6,1,55.9999982910157,4|0,0:3|0:0,0:0:0:0:
196,66,170526,2,0,P|225:61|264:62,1,55.9999982910157,4|0,0:3|0:0,0:0:0:0:
317,137,170955,2,0,P|370:133|410:138,1,83.9999974365235,4|0,0:0|0:0,0:0:0:0:
424,150,171384,2,0,L|417:224,1,55.9999982910157,4|0,0:3|0:0,0:0:0:0:
481,281,171812,1,4,0:3:0:0:
481,281,172026,1,0,0:0:0:0:
351,279,172241,2,0,L|282:287,1,55.9999982910157,4|0,0:3|0:0,0:0:0:0:
206,313,172669,2,0,L|212:245,1,55.9999982910157,4|0,0:0|0:0,0:0:0:0:
201,230,172991,1,0,0:0:0:0:
201,230,173098,2,0,L|195:169,1,55.9999982910157,4|0,0:3|0:0,0:0:0:0:
119,74,173526,6,0,P|162:81|214:50,1,83.9999974365235,4|0,0:3|0:0,0:0:0:0:
222,51,173955,2,0,L|283:46,1,55.9999982910157,8|0,0:0|0:0,0:0:0:0:
348,121,174384,1,4,0:0:0:0:
378,24,174598,1,0,0:0:0:0:
277,46,174812,1,4,0:3:0:0:
277,46,175026,1,0,0:0:0:0:
436,100,175241,2,0,L|430:189,1,83.9999974365235,4|0,0:3|0:0,0:0:0:0:
448,204,175669,2,0,P|457:230|463:277,1,55.9999982910157,8|0,0:0|0:0,0:0:0:0:
376,301,176098,2,0,P|366:327|361:354,1,55.9999982910157,4|0,0:3|0:0,0:0:0:0:
251,292,176526,2,0,P|221:288|190:289,1,55.9999982910157,4|0,0:3|0:0,0:0:0:0:
193,193,176955,6,0,P|234:192|288:186,1,83.9999974365235,4|0,0:3|0:0,0:0:0:0:
303,196,177384,2,0,L|298:134,1,55.9999982910157,8|0,0:0|0:0,0:0:0:0:
319,211,177812,1,4,0:0:0:0:
193,209,178026,1,0,0:0:0:0:
156,93,178241,1,10,0:0:0:0:
256,21,178455,1,2,0:0:0:0:
356,93,178669,6,0,P|396:101|441:87,1,80,2|2,0:0|0:0,0:0:0:0:
433,13,179312,2,0,P|393:5|348:19,1,80,2|2,0:0|0:0,0:0:0:0:
267,48,179955,2,2,B|196:62|222:28|149:39,1,120,2|0,0:0|0:0,0:0:0:0:
171,113,180384,6,0,P|204:151|132:273,1,191.999994140625,4|8,0:0|0:0,0:0:0:0:
127,186,181026,1,0,0:0:0:0:
309,148,181241,1,4,0:0:0:0:
168,287,181455,1,0,0:0:0:0:
255,71,181669,1,8,0:0:0:0:
274,295,181884,1,0,0:0:0:0:
150,86,182098,2,0,B|104:73|104:73|56:82,1,95.9999970703126,6|0,0:0|0:0,0:0:0:0:
262,215,182526,2,0,B|310:224|310:224|356:211,1,95.9999970703126,8|0,0:0|0:0,0:0:0:0:
120,214,182955,2,0,B|75:238|75:238|49:278,1,95.9999970703126,4|0,0:0|0:0,0:0:0:0:
280,87,183384,2,0,B|325:63|325:63|351:23,1,95.9999970703126,8|0,0:0|0:0,0:0:0:0:
432,151,183812,6,0,B|422:222|422:222|445:264|445:264|435:341,1,191.999994140625,6|8,0:0|0:0,0:0:0:0:
511,208,184455,1,0,0:0:0:0:
259,288,184669,2,0,L|366:280,1,95.9999970703126,4|0,0:0|0:0,0:0:0:0:
511,208,185098,1,8,0:0:0:0:
448,354,185312,1,0,0:0:0:0:
404,201,185526,2,0,L|396:98,1,95.9999970703126,6|0,0:0|0:0,0:0:0:0:
279,43,185955,1,8,0:0:0:0:
423,219,186169,1,0,0:0:0:0:
238,173,186384,2,0,P|193:163|139:170,1,95.9999970703126,4|0,0:0|0:0,0:0:0:0:
87,218,186705,1,0,0:0:0:0:
87,218,186812,2,0,P|75:266|83:317,1,95.9999970703126,8|0,0:0|0:0,0:0:0:0:
285,239,187241,6,0,B|319:203|319:203|304:47,1,191.999994140625,4|8,0:0|0:0,0:0:0:0:
238,173,187884,1,0,0:0:0:0:
366,269,188098,1,4,0:0:0:0:
328,47,188312,1,0,0:0:0:0:
223,163,188526,1,8,0:0:0:0:
409,123,188741,1,0,0:0:0:0:
205,151,188955,2,0,L|107:166,1,95.9999970703126,6|0,0:0|0:0,0:0:0:0:
347,35,189384,2,0,L|445:50,1,95.9999970703126,8|0,0:0|0:0,0:0:0:0:
193,132,189812,2,0,P|180:87|180:24,1,95.9999970703126,4|0,0:0|0:0,0:0:0:0:
312,138,190241,1,8,0:0:0:0:
178,38,190455,2,0,L|126:43,1,47.9999985351563
54,63,190669,6,0,L|263:78,1,191.999994140625,6|8,0:0|0:0,0:0:0:0:
379,106,191312,1,0,0:0:0:0:
366,246,191526,2,0,B|350:188|378:106|378:106|382:134|398:161,1,191.999994140625,4|8,0:0|0:0,0:0:0:0:
512,99,192169,1,0,0:0:0:0:
315,184,192384,2,0,L|216:180,1,95.9999970703126,6|0,0:0|0:0,0:0:0:0:
162,279,192812,2,0,L|257:282,1,95.9999970703126,8|0,0:0|0:0,0:0:0:0:
69,220,193241,2,0,P|59:270|58:318,1,95.9999970703126,6|0,0:0|0:0,0:0:0:0:
130,146,193669,1,10,0:0:0:0:
128,106,193776,1,2,0:0:0:0:
118,67,193883,1,2,0:0:0:0:
98,32,193990,1,2,0:0:0:0:
71,3,194098,22,0,P|138:29|256:2,1,191.999994140625,4|8,0:0|0:0,0:0:0:0:
319,97,194741,1,0,0:0:0:0:
467,25,194955,2,0,B|487:121|487:121|457:168,1,143.999995605469,4|0,0:0|0:0,0:0:0:0:
415,106,195384,2,0,L|316:97,1,95.9999970703126,8|0,0:0|0:0,0:0:0:0:
201,187,195812,2,0,P|244:187|298:178,1,95.9999970703126,6|0,0:0|0:0,0:0:0:0:
128,129,196241,2,0,P|128:86|120:34,1,95.9999970703126,8|0,0:0|0:0,0:0:0:0:
164,276,196669,2,0,P|164:319|174:370,1,95.9999970703126,4|0,0:0|0:0,0:0:0:0:
95,215,197098,2,0,P|52:215|-1:222,1,95.9999970703126,8|0,0:0|0:0,0:0:0:0:
265,315,197526,6,0,L|367:318,1,95.9999970703126,6|0,0:0|0:0,0:0:0:0:
404,191,197955,2,0,L|500:189,1,95.9999970703126,8|0,0:0|0:0,0:0:0:0:
441,30,198384,2,0,B|397:17|397:17|298:34,1,143.999995605469,4|0,0:0|0:0,0:0:0:0:
300,111,198812,2,0,L|395:93,1,95.9999970703126,8|0,0:0|0:0,0:0:0:0:
225,78,199241,2,0,P|223:130|249:175,1,95.9999970703126,6|0,0:0|0:0,0:0:0:0:
95,186,199669,2,0,P|129:213|179:222,1,95.9999970703126,8|0,0:0|0:0,0:0:0:0:
61,365,200098,2,0,P|118:362|186:308,1,143.999995605469,6|0,0:0|0:0,0:0:0:0:
241,264,200526,2,0,B|290:258|290:258|331:279|331:279|379:273,1,143.999995605469,10|0,0:0|0:0,0:0:0:0:
347,182,200955,6,0,L|333:277,1,95.9999970703126,6|0,0:0|0:0,0:0:0:0:
447,177,201384,2,0,L|459:81,1,95.9999970703126,8|0,0:0|0:0,0:0:0:0:
356,5,201812,1,4,0:0:0:0:
329,198,202026,1,0,0:0:0:0:
467,59,202241,1,8,0:0:0:0:
272,88,202455,1,0,0:0:0:0:
447,177,202669,2,0,P|440:268|360:321,1,191.999994140625,6|8,0:0|0:0,0:0:0:0:
232,339,203312,1,0,0:0:0:0:
144,196,203526,2,0,B|188:174|188:174|332:198,1,191.999994140625,4|8,0:0|0:0,0:0:0:0:
361,320,204169,1,0,0:0:0:0:
197,248,204384,6,0,L|211:56,1,191.999994140625,6|8,0:0|0:0,0:0:0:0:
313,120,205026,1,0,0:0:0:0:
125,133,205241,2,0,B|-12:146|-12:146|40:169,1,191.999994140625,6|8,0:0|0:0,0:0:0:0:
96,280,205884,1,0,0:0:0:0:
212,179,206098,2,0,P|219:143|221:83,1,95.9999970703126,6|0,0:0|0:0,0:0:0:0:
298,270,206526,2,0,P|302:308|316:363,1,95.9999970703126,8|0,0:0|0:0,0:0:0:0:
350,169,206955,1,6,0:0:0:0:
316,363,207169,1,4,0:3:0:0:
451,305,207384,1,4,0:3:0:0:
211,248,207598,1,4,0:3:0:0:
465,195,207812,22,0,P|488:157|476:27,1,176.000005371094,4|8,0:0|0:0,0:0:0:0:
362,103,208455,1,0,0:0:0:0:
234,52,208669,2,0,L|245:145,1,88.000002685547,4|0,0:0|0:0,0:0:0:0:
120,45,209098,2,0,L|109:138,1,88.000002685547,8|0,0:0|0:0,0:0:0:0:
23,285,209526,2,0,P|77:297|164:221,1,176.000005371094,4|8,0:0|0:0,0:0:0:0:
277,157,210169,1,0,0:0:0:0:
315,310,210384,2,0,P|261:322|174:246,1,176.000005371094,4|8,0:0|0:0,0:0:0:0:
277,157,211026,1,0,0:0:0:0:
225,348,211241,6,0,P|177:353|131:350,1,88.000002685547,6|0,0:0|0:0,0:0:0:0:
315,310,211669,2,0,P|358:307|402:312,1,88.000002685547,8|0,0:0|0:0,0:0:0:0:
478,195,212098,2,0,L|485:289,1,88.000002685547,4|0,0:0|0:0,0:0:0:0:
393,124,212526,2,0,L|399:36,1,88.000002685547,8|0,0:0|0:0,0:0:0:0:
268,70,212955,2,0,B|205:63|205:63|161:80|161:80|93:71,1,176.000005371094,4|8,0:0|0:0,0:0:0:0:
5,11,213598,1,0,0:0:0:0:
52,180,213812,2,0,B|115:173|115:173|159:190|159:190|227:181,1,176.000005371094,4|10,0:0|0:0,0:0:0:0:
290,234,214384,2,0,L|285:295,1,58.6666684570313,2|2,0:0|0:0,0:0:0:0:
370,302,214669,6,0,L|378:206,1,88.000002685547,4|0,0:0|0:0,0:0:0:0:
323,105,215098,2,0,L|331:9,1,88.000002685547,8|0,0:0|0:0,0:0:0:0:
410,130,215526,2,0,B|453:137|453:137|507:133,1,88.000002685547,4|0,0:0|0:0,0:0:0:0:
291,193,215955,2,0,B|246:189|246:189|203:196,1,88.000002685547,8|0,0:0|0:0,0:0:0:0:
158,291,216384,2,0,P|169:222|98:150,1,176.000005371094,4|8,0:0|0:0,0:0:0:0:
23,252,217026,1,0,0:0:0:0:
132,21,217241,2,0,P|143:90|72:162,1,176.000005371094,4|8,0:0|0:0,0:0:0:0:
19,55,217884,1,0,0:0:0:0:
235,54,218098,6,0,L|329:50,1,88.000002685547,6|0,0:0|0:0,0:0:0:0:
349,226,218526,2,0,B|336:184|336:184|338:138,1,88.000002685547,8|0,0:0|0:0,0:0:0:0:
510,175,218955,2,0,L|419:171,1,88.000002685547,4|0,0:0|0:0,0:0:0:0:
316,318,219384,2,0,L|403:314,1,88.000002685547,8|0,0:0|0:0,0:0:0:0:
236,214,219812,2,0,B|171:224|171:224|146:256|146:256|75:266,1,176.000005371094,4|8,0:0|0:0,0:0:0:0:
228,318,220455,1,0,0:0:0:0:
95,140,220669,1,4,0:0:0:0:
92,180,220884,1,4,0:3:0:0:
199,51,221098,2,0,P|206:80|219:113,1,58.6666684570313,2|2,0:0|0:0,0:0:0:0:
300,138,221384,1,2,0:0:0:0:
287,50,221526,22,0,P|332:55|385:45,1,88.000002685547,4|0,0:0|0:0,0:0:0:0:
313,158,221955,2,0,P|311:209|323:252,1,88.000002685547,8|0,0:0|0:0,0:0:0:0:
436,308,222384,2,0,B|394:291|394:291|256:312,1,176.000005371094,4|8,0:0|0:0,0:0:0:0:
162,384,223026,1,0,0:0:0:0:
129,228,223241,2,0,P|199:233|266:319,1,176.000005371094,4|8,0:0|0:0,0:0:0:0:
162,384,223884,1,0,0:0:0:0:
67,292,224098,2,0,B|43:254|43:254|51:110,1,176.000005371094,4|8,0:0|0:0,0:0:0:0:
227,203,224741,1,0,0:0:0:0:
139,34,224955,6,0,L|147:132,1,88.000002685547,6|0,0:0|0:0,0:0:0:0:
338,113,225384,2,0,B|297:97|297:97|244:102,1,88.000002685547,8|0,0:0|0:0,0:0:0:0:
436,148,225812,2,0,B|470:120|470:120|492:72,1,88.000002685547,4|0,0:0|0:0,0:0:0:0:
354,216,226241,2,0,B|360:259|360:259|391:302,1,88.000002685547,8|0,0:0|0:0,0:0:0:0:
261,281,226669,2,0,L|66:263,1,176.000005371094,4|8,0:0|0:0,0:0:0:0:
166,364,227312,1,0,0:0:0:0:
0,246,227526,2,0,L|195:228,1,176.000005371094,4|8,0:0|0:0,0:0:0:0:
281,148,228169,2,0,P|284:125|284:102,1,44.0000013427735
338,52,228384,6,0,P|296:122|323:208,1,176.000005371094,4|8,0:0|0:0,0:0:0:0:
435,141,229026,1,0,0:0:0:0:
205,123,229241,2,0,L|109:130,1,88.000002685547,4|0,0:0|0:0,0:0:0:0:
8,177,229669,2,0,B|14:133|14:133|10:85,1,88.000002685547,8|0,0:0|0:0,0:0:0:0:
106,232,230098,2,0,B|102:275|102:275|108:319,1,88.000002685547,4|0,0:0|0:0,0:0:0:0:
293,283,230526,2,0,L|196:275,1,88.000002685547,8|0,0:0|0:0,0:0:0:0:
375,341,230955,2,0,L|472:333,1,88.000002685547,4|0,0:0|0:0,0:0:0:0:
374,158,231384,2,0,L|381:259,1,88.000002685547,8|0,0:0|0:0,0:0:0:0:
494,143,231812,6,0,P|486:63|403:38,1,176.000005371094,6|10,0:0|0:0,0:0:0:0:
374,158,232455,1,2,0:0:0:0:
279,59,232669,2,0,P|231:56|182:52,1,88.000002685547,6|0,0:0|0:0,0:0:0:0:
140,163,233098,2,0,P|96:160|52:156,1,88.000002685547,8|0,0:0|0:0,0:0:0:0:
16,35,233526,1,4,0:3:0:0:
12,9,233741,1,4,0:3:0:0:
66,178,233955,2,0,B|70:222|70:222|65:268,1,88.000002685547,4|0,0:0|0:0,0:0:0:0:
10,380,234384,1,4,0:3:0:0:
212,323,234598,1,4,0:3:0:0:
39,145,234812,1,4,0:3:0:0:
118,384,235026,1,4,0:3:0:0:
265,211,235241,22,0,P|311:192|401:242,1,160,6|10,0:0|0:0,0:0:0:0:
331,358,235884,2,0,L|323:279,1,80,2|4,0:0|0:3,0:0:0:0:
349,155,236312,2,0,L|355:71,1,80,2|8,0:0|0:0,0:0:0:0:
246,12,236741,1,2,0:0:0:0:
246,143,236955,1,4,0:3:0:0:
354,75,237169,2,0,P|396:74|438:69,1,80,0|8,0:0|0:0,0:0:0:0:
246,143,237598,2,0,P|204:142|162:137,1,80,0|4,0:0|0:3,0:0:0:0:
360,224,238026,2,0,P|402:232|448:231,1,80,0|10,0:0|0:0,0:0:0:0:
246,143,238455,1,2,0:0:0:0:
276,320,238669,6,0,B|274:344|280:377|280:377|236:362|165:373,1,160,6|10,0:0|0:0,0:0:0:0:
48,361,239312,2,0,P|26:315|26:268,1,80,2|4,0:0|0:3,0:0:0:0:
157,217,239741,2,0,P|151:256|132:291,1,80,2|8,0:0|0:0,0:0:0:0:
55,179,240169,2,0,L|46:99,1,80,2|4,0:0|0:3,0:0:0:0:
137,44,240598,1,0,0:0:0:0:
231,74,240812,1,8,0:0:0:0:
330,179,241026,1,4,0:3:0:0:
236,200,241241,1,0,0:0:0:0:
386,60,241455,1,2,0:0:0:0:
336,205,241669,1,10,0:0:0:0:
298,7,241884,1,2,0:0:0:0:
430,166,242098,6,0,B|413:344,1,160,6|10,0:0|0:0,0:0:0:0:
256,294,242741,2,0,L|341:285,1,80,2|4,0:0|0:3,0:0:0:0:
182,345,243169,2,0,P|170:296|168:260,1,80,2|8,0:0|0:0,0:0:0:0:
212,144,243598,2,0,P|224:95|226:59,1,80,2|4,0:0|0:3,0:0:0:0:
122,28,244026,1,0,0:0:0:0:
33,88,244241,1,8,0:0:0:0:
143,154,244455,1,0,0:0:0:0:
102,242,244669,1,4,0:3:0:0:
231,240,244884,1,2,0:0:0:0:
345,300,245098,2,0,L|356:385,1,80,10|2,0:0|0:0,0:0:0:0:
431,221,245526,6,0,B|437:198|436:166|436:166|471:143|471:143|468:105|481:61,1,160,4|10,0:0|0:0,0:0:0:0:
345,60,246169,2,0,B|326:57|326:57|313:62|313:62|257:54,1,80,2|4,0:0|0:3,0:0:0:0:
156,125,246598,2,0,B|148:165|148:165|155:213,1,80,2|8,0:0|0:0,0:0:0:0:
167,29,247026,1,2,0:0:0:0:
269,160,247241,1,4,0:3:0:0:
201,318,247455,1,2,0:0:0:0:
272,138,247669,1,8,0:0:0:0:
321,359,247884,1,2,0:0:0:0:
274,112,248098,2,0,L|365:102,1,80,4|2,0:3|0:0,0:0:0:0:
460,33,248526,1,2,0:0:0:0:
402,158,248741,2,0,L|396:209,1,40,4|4,0:3|0:3,0:0:0:0:
368,262,248955,22,0,L|352:88,1,160,6|10,0:0|0:0,0:0:0:0:
263,200,249598,2,0,P|218:213|181:213,1,80,2|4,0:0|0:3,0:0:0:0:
106,83,250026,2,0,P|145:84|183:96,1,80,2|8,0:0|0:0,0:0:0:0:
99,284,250455,2,0,P|82:249|81:198,1,80,2|4,0:0|0:3,0:0:0:0:
106,83,250884,1,2,0:0:0:0:
79,208,251098,1,8,0:0:0:0:
231,103,251312,1,2,0:0:0:0:
106,83,251526,1,4,0:3:0:0:
204,227,251741,1,2,0:0:0:0:
204,227,251848,1,0,0:0:0:0:
204,227,251955,1,10,0:0:0:0:
231,103,252169,1,2,0:0:0:0:
79,208,252384,6,0,L|241:199,1,160,6|10,0:0|0:0,0:0:0:0:
344,256,253026,2,0,P|339:299|330:346,1,80,2|4,0:0|0:3,0:0:0:0:
460,215,253455,2,0,P|464:258|474:305,1,80,2|8,0:0|0:0,0:0:0:0:
379,140,253884,2,0,P|337:140|286:125,1,80,2|4,0:0|0:3,0:0:0:0:
194,152,254312,1,2,0:0:0:0:
181,254,254526,2,0,B|140:246|140:246|100:249,1,80,8|2,0:0|0:0,0:0:0:0:
89,124,254955,2,0,B|48:132|48:132|8:129,1,80,4|2,0:3|0:0,0:0:0:0:
0,253,255384,1,10,0:0:0:0:
137,318,255598,2,0,L|131:270,1,40,4|4,0:3|0:3,0:0:0:0:
179,222,255812,6,0,L|167:394,1,160,6|10,0:0|0:0,0:0:0:0:
290,324,256455,2,0,P|327:323|376:333,1,80,2|4,0:0|0:3,0:0:0:0:
409,171,256884,2,0,P|391:203|358:240,1,80,2|8,0:0|0:0,0:0:0:0:
485,345,257312,2,0,P|465:313|449:266,1,80,2|4,0:0|0:3,0:0:0:0:
512,151,257741,1,2,0:0:0:0:
409,171,257955,1,8,0:0:0:0:
335,49,258169,1,2,0:0:0:0:
438,69,258383,1,4,0:3:0:0:
298,151,258598,1,2,0:0:0:0:
144,117,258812,1,10,0:0:0:0:
236,12,259026,1,2,0:0:0:0:
195,225,259241,6,0,L|206:384,1,160,4|10,0:0|0:0,0:0:0:0:
92,323,259884,2,0,L|184:305,1,80,2|4,0:0|0:3,0:0:0:0:
261,230,260312,1,2,0:0:0:0:
426,273,260526,2,0,L|334:255,1,80,10|0,0:0|0:0,0:0:0:0:
224,163,260955,2,2,B|163:120|156:67|208:14|255:56|255:56|302:12|356:67|350:120|286:165|286:165|242:195|232:268|256:308,1,560,2|4,0:0|0:3,0:0:0:0:
410,262,262669,6,0,P|377:249|330:248,1,80,2|2,0:0|0:0,0:0:0:0:
384,343,263312,2,0,P|423:342|461:328,1,80,2|2,0:0|0:0,0:0:0:0:
493,242,263955,2,0,L|484:193,1,40,2|2,0:0|0:0,0:0:0:0:
438,118,264384,2,0,L|442:74,2,40,2|2|2,0:0|0:0|0:0,0:0:0:0:
352,153,265026,2,0,P|312:162|265:145,1,80,2|2,0:0|0:0,0:0:0:0:
196,102,265669,2,0,L|151:107,1,40,2|2,0:0|0:0,0:0:0:0:
74,61,266098,2,0,P|72:36|75:9,2,40,2|2|2,0:0|0:0|0:0,0:0:0:0:
156,106,266741,2,0,L|146:201,1,80,2|2,0:0|0:0,0:0:0:0:
185,277,267384,2,0,L|231:272,1,40,2|2,0:0|0:0,0:0:0:0:
306,332,267812,2,0,P|340:338|386:327,1,80,2|2,0:0|0:0,0:0:0:0:
395,236,268455,2,0,P|433:226|472:232,1,80,2|2,0:0|0:0,0:0:0:0:
509,321,269098,2,0,L|504:361,1,40,2|2,0:0|0:0,0:0:0:0:
