osu file format v14

[General]
AudioFilename: audio.mp3
AudioLeadIn: 0
PreviewTime: 173976
Countdown: 1
SampleSet: Normal
StackLeniency: 0.5
Mode: 0
LetterboxInBreaks: 0
WidescreenStoryboard: 1

[Editor]
Bookmarks: 177262
DistanceSpacing: 1
BeatDivisor: 2
GridSize: 8
TimelineZoom: 1.5

[Metadata]
Title:Hibana feat. Hatsune Miku
TitleUnicode:ヒバナ feat. 初音ミク
Artist:DECO*27
ArtistUnicode:DECO*27
Creator:rohasshiki
Version:Normal
Source:
Tags:Vocaloid nico nico douga
BeatmapID:1407780
BeatmapSetID:651083

[Difficulty]
HPDrainRate:3
CircleSize:3
OverallDifficulty:2
ApproachRate:4
SliderMultiplier:1.2
SliderTickRate:1

[Events]
//Background and Video events
0,0,"43511e51-14a7-477f-ad66-dcb454140d46.jpg",0,0
//Break Periods
//Storyboard Layer 0 (Background)
//Storyboard Layer 1 (Fail)
//Storyboard Layer 2 (Pass)
//Storyboard Layer 3 (Foreground)
//Storyboard Sound Samples

[TimingPoints]
262,300,4,1,0,100,1,0
262,-100,4,1,0,30,0,0
2662,-100,4,1,0,30,0,0
17062,-100,4,1,0,30,0,0
21412,-100,4,1,0,30,0,0
21862,-100,4,1,0,30,0,0
26362,-100,4,1,0,30,0,0
26662,-100,4,1,0,45,0,0
27262,-100,4,1,0,45,0,0
31462,-100,4,1,0,30,0,0
35962,-100,4,1,0,30,0,0
36262,-100,4,1,0,30,0,0
45862,-100,4,1,0,60,0,1
55162,-100,4,1,0,60,0,1
55462,-100,4,1,0,45,0,1
59962,-100,4,1,0,45,0,1
60262,-100,4,1,0,45,0,1
62362,-100,4,1,0,45,0,1
64762,-100,4,1,0,45,0,0
65062,-100,4,1,0,40,0,0
74662,-100,4,1,0,40,0,0
81862,-100,4,1,0,40,0,0
83962,-100,4,1,0,40,0,0
84262,-100,4,1,0,40,0,0
93862,-100,4,1,0,40,0,0
98662,-100,4,1,0,40,0,0
103462,-100,4,1,0,70,0,1
113062,-100,4,1,0,55,0,1
117562,-100,4,1,0,55,0,1
117862,-100,4,1,0,55,0,1
122362,-100,4,1,0,55,0,0
122662,-100,4,1,0,30,0,0
127462,-100,4,1,0,30,0,0
128662,-100,4,1,0,45,0,0
129862,-100,4,1,0,45,0,0
131662,-100,4,1,0,30,0,0
132262,-100,4,1,0,65,0,0
143062,300,4,1,0,60,1,0
143062,-100,4,1,0,60,0,0
149062,-100,4,1,0,60,0,0
155062,-100,4,1,0,30,0,0
164662,-100,4,1,0,45,0,0
165862,-100,4,1,0,55,0,0
170662,-100,4,1,0,55,0,0
174262,-100,4,1,0,75,0,1
183262,-100,4,1,0,70,0,1
183862,-100,4,1,0,60,0,1
188362,-100,4,1,0,60,0,1
188662,-100,4,1,0,60,0,1
200512,-100,4,1,0,40,0,0

[HitObjects]
251,188,262,6,0,B|170:227|170:227|161:177|294:32|306:54|306:54|393:305|378:312|378:312|252:327|199:301|199:301|296:256,1,840
147,315,2662,6,0,L|51:227,1,120
18,189,3112,2,0,P|35:101|88:29,1,180
173,281,3862,6,0,L|304:241,1,120
343,221,4312,2,0,P|324:154|217:96,1,180
162,193,5062,6,0,L|259:267,1,120
341,179,5662,2,0,L|247:104,1,120
332,34,6262,1,0,0:0:0:0:
29,342,7462,6,0,L|75:296,1,60
131,304,7762,2,0,L|209:291,1,60
233,253,8062,2,0,L|292:200,1,60
289,154,8362,1,0,0:0:0:0:
196,77,8662,6,0,P|123:85|25:217,1,240
68,321,9562,1,0,0:0:0:0:
181,360,9862,6,0,L|214:296,1,60
203,246,10162,2,0,L|206:175,1,60
241,137,10462,2,0,L|262:67,1,60
303,39,10762,1,0,0:0:0:0:
386,125,11062,6,0,P|406:198|390:283,1,120
284,259,11662,2,0,P|264:186|280:101,1,120
177,61,12262,6,0,L|166:137,1,60
202,169,12562,2,0,L|234:240,1,60
223,283,12862,2,0,L|197:344,1,60
146,365,13162,1,0,0:0:0:0:
75,267,13462,6,0,P|76:176|189:72,1,240
296,83,14362,1,0,0:0:0:0:
310,202,14662,1,0,0:0:0:0:
83,296,17062,6,0,P|64:203|83:148,1,120
109,136,17512,1,0,0:0:0:0:
109,136,17662,2,0,L|223:73,1,120
271,59,18112,2,0,P|259:165|162:271,1,240
350,302,19162,5,0,0:0:0:0:
432,215,19462,6,0,P|424:144|379:86,1,120
339,94,19912,1,0,0:0:0:0:
339,94,20062,2,0,L|209:137,1,120
167,112,20512,2,0,P|97:161|208:257,1,240
339,212,21562,5,0,0:0:0:0:
389,103,21862,6,0,L|449:146,1,60
61,324,23062,2,0,L|28:259,1,60
453,296,24262,6,0,L|385:258,1,60
378,210,24562,2,0,L|369:149,1,60
322,113,24862,2,0,L|256:83,1,60
207,97,25162,1,0,0:0:0:0:
122,182,25462,2,0,B|162:240|315:305|315:305|266:247|239:186,1,360
281,83,26662,6,0,P|194:56|119:66,1,120
111,82,27112,1,0,0:0:0:0:
111,82,27262,2,0,L|0:183,1,120
31,222,27712,2,0,P|107:249|193:251,1,120
241,181,28312,1,0,0:0:0:0:
334,106,28612,2,0,L|269:62,2,60
378,146,29062,6,0,P|415:221|418:279,1,120
394,311,29512,1,0,0:0:0:0:
394,311,29662,2,0,L|269:313,1,120
218,289,30112,2,0,P|140:249|87:189,1,120
181,126,30712,2,0,P|259:166|312:226,1,120
322,232,31162,1,0,0:0:0:0:
223,300,31462,6,0,P|130:277|92:246,1,120
83,210,31912,1,0,0:0:0:0:
83,210,32062,2,0,L|43:81,1,120
82,46,32512,1,0,0:0:0:0:
189,99,32812,1,0,0:0:0:0:
299,51,33112,1,0,0:0:0:0:
30,185,33862,6,0,L|33:76,2,60
126,256,34462,2,0,L|126:324,2,60
211,171,35062,2,0,L|210:65,2,60
317,115,35662,2,0,P|379:147|413:201,1,120
424,306,36262,6,0,B|350:304|350:304|304:271|304:271|177:275,1,240
77,247,37162,1,0,0:0:0:0:
77,247,37312,2,0,P|74:182|126:73,1,180
479,59,38662,6,0,B|479:135|479:135|429:191|429:191|432:297,1,240
311,284,39562,1,0,0:0:0:0:
311,284,39712,2,0,P|234:272|159:189,1,180
55,49,41062,6,0,L|27:165,1,120
3,283,41662,2,0,P|76:279|132:221,1,120
168,146,42262,2,0,L|339:146,1,120
407,155,42862,2,0,P|402:100|322:43,1,120
239,50,43462,1,0,0:0:0:0:
240,229,43912,1,0,0:0:0:0:
419,230,44362,1,0,0:0:0:0:
75,335,45862,6,0,P|51:261|64:202,1,120
86,103,46462,2,0,B|167:103|167:103|203:147,1,120
225,182,46912,2,0,B|261:225|261:225|389:224,1,180
460,317,47662,1,0,0:0:0:0:
340,320,47962,1,0,0:0:0:0:
220,321,48262,6,0,B|177:269|177:269|131:320|131:320|51:320,1,180
64,264,48862,2,0,B|12:207|12:207|11:110,1,120
55,119,49312,2,0,B|142:132|142:132|236:83,1,180
339,131,50062,1,0,0:0:0:0:
194,322,50662,6,0,P|235:256|232:167,1,120
237,94,51262,2,0,B|277:75|277:75|305:92|305:92|367:94,1,120
416,97,51712,2,0,B|417:178|417:178|391:213|391:213|394:286,1,180
274,248,52462,1,0,0:0:0:0:
321,137,52762,1,0,0:0:0:0:
201,142,53062,6,0,B|167:177|167:177|142:147|142:147|34:147,1,180
47,206,53662,2,0,B|47:266|47:266|99:303,1,120
155,309,54112,2,0,B|245:309|245:309|310:214,1,180
353,129,54862,1,0,0:0:0:0:
148,256,55462,6,0,P|90:245|41:211,1,120
86,100,56062,2,0,P|144:110|193:144,1,120
249,251,56662,2,0,P|322:302|388:284,1,120
402,193,57262,2,0,P|329:142|263:160,1,120
191,190,57862,6,0,P|159:261|97:291,1,120
69,170,58462,1,0,0:0:0:0:
142,74,58762,1,0,0:0:0:0:
142,74,58912,2,0,P|249:96|338:59,1,180
422,127,59662,1,0,0:0:0:0:
382,240,59962,1,0,0:0:0:0:
312,337,60262,6,0,P|242:355|170:335,1,120
184,227,60862,2,0,P|254:209|326:229,1,120
417,244,61462,2,0,P|452:187|445:111,1,120
336,108,62062,2,0,P|301:165|308:241,1,120
307,276,62512,6,0,B|231:291|231:291|212:344|151:359,1,180
79,266,63262,1,0,0:0:0:0:
74,146,63562,1,0,0:0:0:0:
74,146,63712,2,0,B|126:92|126:92|168:149|168:149|340:149,1,300
