osu file format v14

[General]
AudioFilename: audio.mp3
AudioLeadIn: 0
PreviewTime: 103577
Countdown: 0
SampleSet: Soft
StackLeniency: 0.7
Mode: 2
LetterboxInBreaks: 0
WidescreenStoryboard: 0

[Editor]
DistanceSpacing: 1.8
BeatDivisor: 4
GridSize: 8
TimelineZoom: 3.899999

[Metadata]
Title:HIBANA feat. Hatsune Miku
TitleUnicode:ヒバナ feat. 初音ミク
Artist:DECO*27
ArtistUnicode:DECO*27
Creator:Verti
Version:Headshot
Source:
Tags:Mochi_- Mochi 4rcheR- ArcheR- muya- デコ・ニーナ Deko Niina Mes Rockwell はっさん Hachisan Hassan 83 八三 10th Anniversary Re:Start ReStart EXIT TUNES PRESENTS Vocalostream アンドロイドガール Android Girl CHUNITHM CRYSTAL PLUS PARADISE LOST NEW maimai FiNALE Deluxe Splash UNiVERSE オンゲキ O.N.G.E.K.I. ONGEKI SUMMER R.E.D. RED bright MEMORY Project DIVA Mega Mix Future Tone MegaMix+ 太鼓の達人 たいこのたつじん Taiko no Tatsujin Plus: Shinkyoku Tori Houdai! Drum ‘n’ Fun! Blue Green Version Nijiiro Project SEKAI COLORFUL STAGE! D4DJ Groovy Mix DANCE aROUND プロジェクトセカイ カラフルステージ! プロセカ DECO27 Spark ft. Head Shot Japanese Rock JRock J-Rock pho
BeatmapID:3238119
BeatmapSetID:1585323

[Difficulty]
HPDrainRate:6.5
CircleSize:4.5
OverallDifficulty:9.6
ApproachRate:9.6
SliderMultiplier:2
SliderTickRate:2

[Events]
//Background and Video events
0,0,"64220429_p0_master1200.jpg",0,0
//Break Periods
2,155565,164456
//Storyboard Layer 0 (Background)
//Storyboard Layer 1 (Fail)
//Storyboard Layer 2 (Pass)
//Storyboard Layer 3 (Foreground)
//Storyboard Layer 4 (Overlay)
//Storyboard Sound Samples

[TimingPoints]
565,300,4,2,1,60,1,0
2890,-100,4,2,1,5,0,0
2965,-100,4,2,1,60,0,0
7765,-100,4,2,1,90,0,0
17365,-100,4,2,1,90,0,0
17440,-100,4,2,1,60,0,0
19690,-100,4,2,1,5,0,0
19765,-100,4,2,1,60,0,0
20890,-100,4,2,1,5,0,0
20965,-100,4,2,1,60,0,0
22090,-100,4,2,1,5,0,0
22165,-100,4,2,1,80,0,0
22615,-100,4,2,1,60,0,0
23365,-100,4,2,1,80,0,0
23665,-100,4,2,1,60,0,0
24565,-100,4,2,1,80,0,0
24865,-100,4,2,1,60,0,0
26890,-100,4,2,1,5,0,0
26965,-100,4,2,1,60,0,0
27115,-100,4,2,1,80,0,0
31690,-100,4,2,1,5,0,0
31765,-100,4,2,1,80,0,0
36565,-100,4,2,1,80,0,0
36715,-100,4,2,1,60,0,0
37615,-100,4,2,1,80,0,0
38065,-100,4,2,1,60,0,0
41365,-100,4,2,1,60,0,0
42565,-100,4,2,1,70,0,0
43765,-100,4,2,1,80,0,0
45565,-100,4,2,1,80,0,0
46165,-100,4,2,1,95,0,1
55690,-100,4,2,1,5,0,1
55765,-100,4,2,1,95,0,1
64165,-100,4,2,1,80,0,0
64465,-100,4,2,1,20,0,0
64615,-100,4,2,1,5,0,0
64765,-100,4,2,1,60,0,0
64990,-100,4,2,1,5,0,0
65065,-66.6666666666667,4,2,1,60,0,0
65215,-66.6666666666667,4,2,1,5,0,0
65365,-100,4,2,1,80,0,0
72565,-66.6666666666667,4,2,1,70,0,0
72940,-66.6666666666667,4,2,1,60,0,0
73165,-100,4,2,1,60,0,0
73765,-100,4,2,1,77,0,0
74665,-100,4,2,1,60,0,0
74890,-100,4,2,1,5,0,0
74965,-100,4,2,1,50,0,0
83215,-100,4,2,1,60,0,0
83365,-100,4,2,1,60,0,0
83515,-100,4,2,1,70,0,0
84565,-100,4,2,1,80,0,0
94165,-100,4,2,1,60,0,0
98965,-100,4,2,1,70,0,0
103165,-100,4,2,1,60,0,0
103240,-100,4,2,1,5,0,0
103315,-100,4,2,1,60,0,0
103390,-100,4,2,1,5,0,0
103465,-100,4,2,1,60,0,0
103540,-100,4,2,1,5,0,0
103615,-100,4,2,1,60,0,0
103690,-100,4,2,1,5,0,0
103765,-100,4,2,1,95,0,1
113290,-100,4,2,1,5,0,1
113365,-100,4,2,1,95,0,1
118090,-100,4,2,1,5,0,1
118165,-100,4,2,1,95,0,1
120640,-100,4,2,1,5,0,1
120715,-100,4,2,1,95,0,1
121765,-100,4,2,1,60,0,0
122215,-100,4,2,1,10,0,0
122365,-100,4,2,1,60,0,0
122590,-100,4,2,1,5,0,0
122665,-66.6666666666667,4,2,1,60,0,0
122890,-66.6666666666667,4,2,1,5,0,0
122965,-100,4,2,1,60,0,0
127765,-100,4,2,2,40,0,0
130165,-100,4,2,2,50,0,0
131365,-100,4,2,2,60,0,0
131965,-100,4,2,1,60,0,0
132565,-100,4,2,1,80,0,0
133765,-100,4,2,2,80,0,0
133840,-100,4,2,1,80,0,0
136165,-100,4,2,2,80,0,0
136240,-100,4,2,1,80,0,0
136765,-33.3333333333333,4,2,1,80,0,0
137365,-100,4,2,1,80,0,0
138565,-100,4,2,2,80,0,0
138640,-100,4,2,1,80,0,0
140965,-100,4,2,2,80,0,0
141115,-100,4,2,1,80,0,0
142765,-100,4,2,1,40,0,0
143290,-100,4,2,1,5,0,0
143365,-100,4,2,1,60,0,0
146815,-100,4,2,1,80,0,0
147415,-100,4,2,1,70,0,0
148165,-100,4,2,1,70,0,0
149365,-100,4,2,1,80,0,0
150565,-100,4,2,1,80,0,0
150865,-100,4,2,1,70,0,0
152965,-76.9230769230769,4,2,1,70,0,0
153040,-100,4,2,1,5,0,0
153115,-100,4,2,1,60,0,0
153190,-100,4,2,1,5,0,0
153265,-100,4,2,1,60,0,0
153490,-100,4,2,1,5,0,0
153565,-100,4,2,1,60,0,0
153640,-100,4,2,1,5,0,0
153715,-100,4,2,1,60,0,0
153940,-100,4,2,1,5,0,0
155365,-100,4,2,1,60,0,0
164965,-100,4,2,2,60,0,0
168715,-100,4,2,2,5,0,0
168865,-100,4,2,2,60,0,0
169015,-100,4,2,2,5,0,0
169165,-100,4,2,2,60,0,0
170965,-100,4,2,2,70,0,0
172165,-100,4,2,2,80,0,0
173365,-90.9090909090909,4,2,2,80,0,0
173965,-100,4,2,1,50,0,0
174265,-100,4,2,1,80,0,0
174490,-100,4,2,1,5,0,0
174565,-95.2380952380952,4,2,1,100,0,1
184090,-95.2380952380952,4,2,1,5,0,1
184165,-100,4,2,1,100,0,1
198565,-100,4,2,1,100,0,1
200815,-100,4,2,1,50,0,0

[Colours]
Combo1 : 205,205,205
Combo2 : 0,213,53
Combo3 : 0,108,217
Combo4 : 222,66,255

[HitObjects]
456,320,565,5,4,1:0:0:0:
288,224,765,1,0,1:0:0:0:
456,144,965,1,0,1:0:0:0:
168,328,1165,1,4,1:0:0:0:
312,232,1365,1,4,1:0:0:0:
456,144,1565,1,0,1:0:0:0:
200,144,1765,5,4,1:0:0:0:
368,224,1965,1,0,1:0:0:0:
200,320,2165,1,0,1:0:0:0:
456,144,2365,1,0,1:0:0:0:
80,192,2665,6,2,P|32:136|80:80,1,150,2|0,0:1|0:0,0:1:0:0:
280,272,2965,6,0,L|304:216,1,50,4|0,1:2|0:0,0:0:0:0:
224,184,3115,2,0,L|168:184,1,50
248,112,3265,2,0,L|304:112,1,50
128,336,3415,2,0,L|120:264,1,50,0|0,1:0|0:0,0:0:0:0:
205,256,3565,6,0,L|213:200,1,50
120,176,3715,2,0,L|168:160,1,50
352,192,3865,2,0,L|368:128,1,50,0|0,1:0|0:0,0:0:0:0:
284,120,4015,2,0,L|268:64,1,50
456,272,4165,6,0,L|392:264,1,50,4|0,1:2|0:0,0:0:0:0:
322,246,4315,2,0,L|314:182,1,50
400,176,4465,2,0,L|416:128,1,50
232,272,4615,2,0,L|208:216,1,50,0|0,1:0|0:0,0:0:0:0:
294,176,4765,6,0,L|350:176,1,50
256,112,4915,2,0,L|200:112,1,50
384,320,5065,2,0,L|320:320,1,50,0|0,1:0|0:0,0:0:0:0:
267,302,5215,2,0,L|259:246,1,50
489,200,5365,6,0,L|417:183,1,50,4|0,1:0|0:0,0:0:0:0:
220,183,5515,2,0,L|148:174,1,50
381,84,5665,2,0,L|471:66,1,50,0|0,1:0|0:0,0:0:0:0:
184,263,5815,2,0,L|256:245,1,50
435,156,5965,6,0,L|363:129,1,50,0|0,1:0|0:0,0:0:0:0:
175,93,6115,2,0,L|121:75,1,50,0|0,1:0|0:0,0:0:0:0:
327,75,6265,2,0,L|381:48,1,50,0|0,1:0|0:0,0:0:0:0:
175,165,6415,2,0,L|121:147,1,50,0|0,1:0|1:0,0:0:0:0:
384,176,6565,6,0,L|272:176,2,100,0|0|0,1:0|0:0|0:0,0:0:0:0:
136,112,7015,2,0,L|16:112,2,100,0|0|0,1:0|0:0|0:0,0:0:0:0:
400,160,7465,2,0,L|400:96,3,50,0|0|0|0,1:0|0:0|0:0|0:0,0:0:0:0:
232,296,7765,6,0,L|232:192,1,100,4|0,0:0|0:0,0:0:0:0:
440,168,8065,1,8,0:0:0:0:
232,344,8215,2,0,L|360:344,1,100,0|0,0:0|3:0,0:0:0:0:
440,344,8515,1,0,0:0:0:0:
232,176,8665,2,0,L|120:176,1,100,10|0,0:0|0:0,0:0:0:0:
368,200,8965,6,0,L|480:200,1,100,2|0,3:2|0:0,0:0:0:0:
256,168,9265,2,0,L|376:168,1,100,8|0,0:0|0:0,0:0:0:0:
136,272,9565,1,2,3:2:0:0:
16,272,9715,1,0,0:0:0:0:
240,216,9865,1,10,0:0:0:0:
16,216,10015,1,10,0:0:0:0:
240,216,10165,6,0,L|352:216,1,100,4|0,3:2|0:0,0:0:0:0:
120,120,10465,1,8,0:0:0:0:
336,128,10615,2,0,L|192:128,1,100,0|0,0:0|3:0,0:0:0:0:
112,128,10915,1,0,0:0:0:0:
336,320,11065,2,0,L|440:320,1,100,10|0,0:0|0:0,0:0:0:0:
232,264,11365,6,0,L|368:264,1,100,2|0,3:2|0:0,0:0:0:0:
120,144,11665,1,8,0:0:0:0:
332,264,11815,1,8,0:0:0:0:
120,44,11965,2,0,L|120:156,1,100,2|0,3:2|0:0,0:0:0:0:
352,264,12265,2,0,L|280:264,1,50,10|8,0:0|0:0,0:0:0:0:
144,216,12415,2,0,L|88:216,1,50,8|8,0:0|0:0,0:0:0:0:
352,192,12565,6,0,L|456:192,1,100,6|0,3:2|0:0,0:0:0:0:
240,120,12865,1,8,0:0:0:0:
448,80,13015,2,0,L|304:80,1,100,0|0,0:0|3:0,0:0:0:0:
240,88,13315,1,0,0:0:0:0:
456,296,13465,2,0,L|456:160,1,100,10|0,0:0|0:0,0:0:0:0:
240,256,13765,6,0,L|128:256,1,100,2|0,3:2|0:0,0:0:0:0:
368,184,14065,2,0,L|368:72,1,100,8|0,0:0|0:0,0:0:0:0:
160,256,14365,1,2,3:2:0:0:
280,256,14515,1,0,0:0:0:0:
72,152,14665,1,8,0:0:0:0:
280,192,14815,2,0,L|352:192,1,50,0|0,3:0|3:0,0:0:0:0:
64,344,14965,5,4,0:0:0:0:
192,224,15115,1,0,3:0:0:0:
64,224,15265,1,0,3:0:0:0:
312,320,15415,1,8,0:0:0:0:
192,224,15565,1,0,3:0:0:0:
72,96,15715,1,0,3:0:0:0:
312,256,15865,1,14,0:0:0:0:
192,160,16015,1,0,3:0:0:0:
408,168,16165,5,8,0:0:0:0:
192,96,16315,2,0,L|128:96,1,50,8|8,0:0|0:0,0:0:0:0:
312,192,16465,1,8,0:0:0:0:
192,160,16615,1,8,0:0:0:0:
408,224,16765,2,0,L|408:120,1,100,0|0,3:0|3:0,0:0:0:0:
192,248,17065,2,0,P|136:200|192:160,1,150,8|0,3:0|0:0,0:0:0:0:
408,168,17365,6,0,P|480:104|408:64,1,200,4|0,0:0|0:0,0:0:0:0:
296,48,17815,1,2,0:0:0:0:
416,200,17965,2,0,L|416:304,1,100
296,112,18265,1,0,0:0:0:0:
432,272,18415,6,0,L|432:168,1,100
312,184,18715,2,0,L|312:72,1,100
192,144,19015,2,0,L|192:40,1,100,2|0,0:0|0:0,0:0:0:0:
312,248,19315,2,0,L|208:248,2,100
96,240,19765,6,0,P|22:182|91:120,1,200
200,192,20215,2,0,L|96:192,2,100,2|0|0,0:0|0:0|0:0,0:0:0:0:
320,192,20665,1,0,0:0:0:0:
200,128,20815,6,0,L|200:24,1,100
320,168,21115,2,0,L|320:64,1,100
440,176,21415,2,0,L|440:280,1,100,2|0,0:0|0:0,0:0:0:0:
376,176,21640,1,0,0:0:0:0:
440,128,21715,2,0,L|464:80,1,50
264,248,21865,2,0,P|208:200|264:144,1,150,2|0,0:0|0:0,0:0:0:0:
440,168,22165,5,0,1:0:0:0:
232,96,22315,1,0,1:0:0:0:
440,168,22615,1,0,0:0:0:0:
377,168,22690,1,0,0:0:0:0:
314,168,22765,1,0,0:0:0:0:
180,105,22915,1,0,0:0:0:0:
243,105,22990,1,0,0:0:0:0:
305,105,23065,1,0,0:0:0:0:
440,168,23215,1,0,0:0:0:0:
224,96,23365,5,0,1:0:0:0:
440,104,23515,1,0,1:0:0:0:
456,136,23815,1,0,0:0:0:0:
394,136,23890,1,0,0:0:0:0:
333,136,23965,1,0,0:0:0:0:
202,74,24115,1,0,0:0:0:0:
263,74,24190,1,0,0:0:0:0:
324,74,24265,1,0,0:0:0:0:
456,136,24415,1,0,0:0:0:0:
224,80,24565,5,0,1:0:0:0:
344,80,24715,1,0,1:0:0:0:
224,80,24865,1,0,0:0:0:0:
432,184,25015,2,0,L|488:184,1,50,0|0,3:3|3:3,0:0:0:0:
224,168,25165,1,8,1:2:0:0:
224,80,25315,1,0,3:0:0:0:
344,72,25465,1,0,3:0:0:0:
344,160,25615,1,0,3:0:0:0:
128,128,25765,5,0,1:0:0:0:
344,216,25915,1,0,1:0:0:0:
104,224,26215,1,0,1:0:0:0:
344,160,26515,1,0,1:0:0:0:
128,160,26665,2,0,P|80:112|128:56,1,150,0|0,1:0|0:0,0:0:0:0:
344,224,26965,6,0,L|128:224,1,200,4|8,0:0|0:0,0:0:0:0:
368,168,27415,2,0,L|488:168,2,100,0|0|0,0:0|3:0|0:0,0:0:0:0:
144,160,27865,1,8,0:0:0:0:
352,304,28015,6,0,L|352:192,1,100,0|0,0:0|3:0,0:0:0:0:
128,192,28315,2,0,L|128:88,1,100,0|8,0:0|0:0,0:0:0:0:
336,56,28615,2,0,L|448:56,1,100,0|0,0:0|3:0,0:0:0:0:
232,272,28915,1,0,0:0:0:0:
352,200,29065,1,8,0:0:0:0:
136,144,29215,1,8,0:0:0:0:
352,264,29365,6,0,P|432:208|352:160,1,200,0|8,3:0|0:0,0:0:0:0:
272,144,29815,1,0,0:0:0:0:
488,64,29965,1,0,3:0:0:0:
360,64,30115,2,0,L|248:64,1,100,0|8,0:0|0:0,0:0:0:0:
488,216,30415,6,0,L|488:96,1,100,0|0,0:0|3:0,0:0:0:0:
248,104,30715,2,0,L|144:104,1,100,0|8,0:0|0:0,0:0:0:0:
368,280,31015,2,0,P|440:216|368:160,1,200
152,152,31465,2,0,L|304:152,1,150,12|0,0:0|0:0,0:0:0:0:
88,296,31765,6,0,P|16:248|88:184,1,200,4|8,3:2|0:0,0:0:0:0:
288,120,32215,2,0,L|160:120,2,100,0|0|0,0:0|3:0|0:0,0:0:0:0:
496,120,32665,1,8,0:0:0:0:
288,176,32815,6,0,L|168:176,1,100,0|0,0:0|3:0,0:0:0:0:
408,288,33115,2,0,L|408:160,1,100,0|8,0:0|0:0,0:0:0:0:
192,104,33415,2,0,L|408:104,1,200
160,208,33865,1,12,0:0:0:0:
376,184,34015,5,0,0:0:0:0:
256,120,34165,1,4,3:2:0:0:
376,48,34315,1,0,0:0:0:0:
136,184,34465,1,8,0:0:0:0:
256,120,34615,1,0,0:0:0:0:
376,48,34765,1,0,3:0:0:0:
136,184,34915,5,0,0:0:0:0:
256,120,35065,1,8,0:0:0:0:
136,32,35215,1,0,3:0:0:0:
72,32,35290,1,0,3:0:0:0:
400,272,35365,6,0,L|400:160,1,100,12|0,3:2|3:0,0:0:0:0:
344,272,35590,1,0,0:0:0:0:
168,192,35665,2,0,L|168:80,1,100,0|8,3:0|0:2,0:0:0:0:
353,111,35890,1,0,0:0:0:0:
288,112,35965,1,10,0:0:0:0:
168,224,36115,1,0,3:0:0:0:
384,200,36265,2,0,L|384:96,1,100,8|4,3:0|3:0,0:0:0:0:
160,168,36565,6,0,L|280:168,1,100,4|0,3:2|0:0,0:0:0:0:
48,192,36865,2,0,L|48:80,1,100,8|0,1:0|3:0,0:0:0:0:
112,192,37090,1,0,3:0:0:0:
296,168,37165,1,0,3:0:0:0:
176,112,37315,1,0,3:0:0:0:
384,104,37465,1,8,1:0:0:0:
176,176,37615,6,0,L|384:176,1,200,2|2,3:2|3:2,0:0:0:0:
160,256,38065,2,0,L|160:144,1,100,8|0,0:0|3:0,0:0:0:0:
216,176,38290,1,0,3:0:0:0:
384,184,38365,2,0,P|432:128|384:80,1,150,0|0,3:0|0:0,0:0:0:0:
200,112,38665,2,0,L|88:112,1,100,8|0,0:0|3:0,0:0:0:0:
312,280,38965,5,4,3:2:0:0:
192,232,39115,1,0,3:3:0:0:
400,176,39265,2,0,L|400:64,1,100,8|0,0:0|3:0,0:0:0:0:
280,128,39565,1,0,3:0:0:0:
400,224,39715,1,0,3:0:0:0:
184,136,39865,1,8,0:0:0:0:
400,296,40015,6,0,P|472:240|400:184,1,200,2|2,3:2|3:2,0:0:0:0:
184,104,40465,2,0,L|80:104,2,100,8|0|0,0:0|3:3|3:3,0:0:0:0:
400,136,40915,1,0,3:3:0:0:
184,208,41065,2,0,L|304:208,1,100,4|0,0:0|3:0,0:0:0:0:
64,272,41365,6,0,L|64:160,1,100,12|0,1:2|0:0,0:0:0:0:
280,176,41665,2,0,L|168:176,1,100,8|0,1:0|0:0,0:0:0:0:
400,184,41965,2,0,L|400:80,1,100,8|0,1:0|0:3,0:0:0:0:
184,80,42265,2,0,L|64:80,1,100,8|0,1:0|0:3,0:0:0:0:
304,184,42565,6,0,L|304:80,1,100,12|0,1:0|0:0,0:0:0:0:
96,200,42865,2,0,L|208:200,1,100,8|0,1:0|0:3,0:0:0:0:
416,248,43165,2,0,L|304:248,1,100,8|0,1:0|0:3,0:0:0:0:
72,248,43465,2,0,L|72:144,1,100,8|0,1:0|3:3,0:0:0:0:
288,176,43765,6,0,L|288:72,1,100,8|0,1:0|3:3,0:0:0:0:
168,48,44065,1,0,3:0:0:0:
376,176,44215,2,0,L|376:56,1,100,4|0,1:0|3:0,0:0:0:0:
256,64,44515,1,0,3:0:0:0:
464,224,44665,2,0,L|464:24,1,200,0|0,1:0|0:0,1:0:0:0:
192,192,45565,6,0,L|256:192,1,50,0|0,1:0|1:0,0:0:0:0:
416,152,45715,2,0,L|336:152,1,50,0|0,1:0|1:0,0:0:0:0:
192,144,45865,2,0,L|256:144,1,50,0|0,1:0|1:0,0:0:0:0:
416,104,46015,2,0,L|360:104,1,50,0|0,1:0|1:0,0:0:0:0:
200,312,46165,6,0,L|72:312,1,100,4|0,1:0|0:0,1:0:0:0:
328,192,46465,2,0,L|432:192,1,100,8|0,0:0|0:0,0:0:0:0:
200,312,46765,2,0,L|200:200,1,100,0|0,3:0|3:0,0:0:0:0:
416,128,47065,1,8,0:0:0:0:
200,264,47215,6,0,L|408:264,1,200,6|2,3:2|3:2,0:0:0:0:
176,200,47665,1,10,0:0:0:0:
296,168,47815,1,0,0:0:0:0:
80,304,47965,2,0,L|80:200,1,100,2|2,3:2|3:2,0:0:0:0:
296,112,48265,2,0,P|344:184|296:208,1,150,10|0,0:0|0:0,0:0:0:0:
128,288,48565,5,4,3:2:0:0:
336,224,48715,2,0,L|336:112,1,100,0|8,0:0|0:0,0:0:0:0:
128,232,49015,1,0,0:0:0:0:
360,56,49165,2,0,L|472:56,1,100,0|0,3:0|3:0,3:0:0:0:
248,120,49465,1,8,0:0:0:0:
464,240,49615,6,0,L|224:240,1,200,4|0,3:2|3:0,0:0:0:0:
488,176,50065,2,0,L|400:176,1,50,0|0,1:0|1:0,0:0:0:0:
240,160,50215,2,0,L|176:160,1,50,0|0,1:0|1:0,0:0:0:0:
384,248,50365,2,0,L|488:248,1,100,4|0,0:0|3:0,0:0:0:0:
216,216,50665,2,0,L|288:216,1,50,0|0,1:0|1:0,0:0:0:0:
440,200,50815,2,0,L|496:200,1,50,0|0,1:0|1:0,0:0:0:0:
280,160,50965,6,0,L|168:160,1,100,4|0,3:2|0:0,0:0:0:0:
392,272,51265,2,0,L|496:272,1,100,8|0,0:0|0:0,0:0:0:0:
280,216,51565,2,0,L|280:104,1,100,0|0,3:0|3:0,0:0:0:0:
496,96,51865,1,8,0:0:0:0:
280,272,52015,6,0,L|488:272,1,200,4|2,3:2|3:2,0:0:0:0:
264,160,52465,1,10,0:0:0:0:
144,152,52615,1,2,0:0:0:0:
360,240,52765,2,0,L|360:112,1,100,2|0,3:2|3:0,0:0:0:0:
144,104,53065,2,0,L|320:104,1,150,12|0,0:0|0:0,0:0:0:0:
88,240,53365,5,4,3:2:0:0:
304,256,53515,1,8,0:0:0:0:
184,208,53665,1,0,3:0:0:0:
408,184,53815,1,0,3:0:0:0:
184,152,53965,2,0,L|288:152,1,100,12|0,0:0|3:0,0:0:0:0:
64,104,54265,1,12,0:0:0:0:
280,248,54415,6,0,L|72:248,1,200,4|0,0:0|0:0,0:0:0:0:
296,168,54865,2,0,L|224:168,1,50,8|8,0:3|0:3,0:0:0:0:
48,80,55015,2,0,L|144:80,1,50,8|4,0:3|0:3,0:0:0:0:
296,216,55165,2,0,L|400:216,1,100,4|4,3:2|3:0,0:0:0:0:
176,304,55465,2,0,P|128:248|176:200,1,150,4|0,1:0|0:0,0:0:0:0:
360,152,55765,5,4,3:2:0:0:
480,112,55915,1,0,0:0:0:0:
256,136,56065,5,8,0:0:0:0:
376,96,56215,1,0,0:0:0:0:
152,208,56365,5,8,3:2:0:0:
272,168,56515,1,0,3:0:0:0:
48,192,56665,5,8,0:0:0:0:
168,152,56815,1,0,0:0:0:0:
376,304,56965,5,4,3:2:0:0:
496,232,57115,1,0,0:0:0:0:
280,264,57265,5,8,0:0:0:0:
400,192,57415,1,0,0:0:0:0:
184,240,57565,5,8,3:2:0:0:
64,168,57715,1,0,3:0:0:0:
288,104,57865,1,8,0:0:0:0:
64,112,58015,1,8,0:0:0:0:
288,168,58165,6,0,L|400:168,1,100,4|2,3:2|0:0,0:0:0:0:
176,272,58465,2,2,L|176:160,1,100,10|2,0:0|0:0,0:0:0:0:
392,264,58765,2,0,L|288:264,1,100,2|0,3:2|3:0,0:0:0:0:
72,256,59065,1,10,0:0:0:0:
296,176,59215,6,0,L|96:176,1,200,4|0,3:2|3:0,0:0:0:0:
320,272,59665,1,10,0:0:0:0:
200,272,59815,1,2,3:2:0:0:
416,208,59965,2,0,L|416:96,1,100,14|0,0:0|0:0,0:0:0:0:
200,216,60265,2,0,L|368:216,1,150,12|0,0:0|0:0,0:0:0:0:
136,152,60565,5,4,3:2:0:0:
16,112,60715,1,0,0:0:0:0:
240,136,60865,5,8,0:0:0:0:
120,96,61015,1,0,0:0:0:0:
344,208,61165,5,8,3:2:0:0:
224,168,61315,1,0,3:0:0:0:
448,192,61465,5,8,0:0:0:0:
328,152,61615,1,0,0:0:0:0:
120,304,61765,5,4,3:2:0:0:
0,232,61915,1,0,0:0:0:0:
216,264,62065,5,8,0:0:0:0:
96,192,62215,1,0,0:0:0:0:
312,240,62365,5,8,3:2:0:0:
432,168,62515,1,0,3:0:0:0:
208,104,62665,1,8,0:0:0:0:
432,112,62815,1,4,0:0:0:0:
208,168,62965,6,0,L|96:168,1,100,0|0,0:0|3:2,0:0:0:0:
328,288,63265,1,8,0:0:0:0:
208,256,63415,1,0,3:0:0:0:
432,184,63565,2,0,L|432:80,1,100,12|0,0:0|3:0,0:0:0:0:
208,200,63865,2,0,L|272:200,1,50,8|0,0:0|3:0,0:0:0:0:
432,224,64015,1,0,3:0:0:0:
176,136,64165,5,8,0:0:0:0:
288,224,65065,6,0,B|440:224|440:224|440:144,1,225.000008583069,8|0,3:0|0:0,0:0:0:0:
240,304,65365,6,0,L|240:184,1,100,4|0,3:2|0:0,0:0:0:0:
456,168,65665,1,8,0:0:0:0:
240,160,65815,2,0,L|352:160,1,100,0|0,0:0|3:0,0:0:0:0:
456,152,66115,1,0,0:0:0:0:
232,208,66265,2,0,L|128:208,1,100,10|0,0:0|0:0,0:0:0:0:
352,272,66565,6,0,L|472:272,1,100,2|0,3:2|0:0,0:0:0:0:
232,168,66865,2,0,L|344:168,1,100,8|0,0:0|0:0,0:0:0:0:
120,264,67165,2,0,L|16:264,1,100,2|0,3:2|0:0,0:0:0:0:
248,136,67465,1,8,0:0:0:0:
24,200,67615,1,8,0:0:0:0:
248,200,67765,6,0,L|136:200,1,100,6|0,3:2|0:0,0:0:0:0:
368,104,68065,1,8,0:0:0:0:
144,168,68215,2,0,L|280:168,1,100,0|0,0:0|3:0,0:0:0:0:
360,168,68515,1,0,0:0:0:0:
144,192,68665,2,0,L|144:296,1,100,10|0,0:0|0:0,0:0:0:0:
360,224,68965,6,0,L|472:224,1,100,2|0,3:2|0:0,0:0:0:0:
240,104,69265,2,0,L|352:104,1,100,8|0,0:0|0:0,0:0:0:0:
128,96,69565,2,0,L|128:200,1,100,2|8,3:2|0:0,0:0:0:0:
360,224,69865,2,0,L|264:224,1,50,8|8,1:0|1:0,0:0:0:0:
128,96,70015,2,0,L|64:96,1,50,8|8,1:0|1:0,0:0:0:0:
360,280,70165,6,0,L|464:280,1,100,4|0,0:0|0:0,0:0:0:0:
224,152,70465,1,8,0:0:0:0:
440,152,70615,2,0,L|328:152,1,100,0|0,0:0|3:0,0:0:0:0:
224,104,70915,1,0,0:0:0:0:
440,152,71065,2,0,L|440:256,1,100,10|0,0:0|0:0,0:0:0:0:
208,88,71365,6,0,L|320:88,1,100,2|0,3:2|0:0,0:0:0:0:
72,144,71665,2,0,L|192:144,1,100,8|0,0:0|0:0,0:0:0:0:
384,280,71965,2,0,L|272:280,1,100,2|0,3:2|0:0,0:0:0:0:
496,256,72265,2,0,L|496:144,1,100,8|0,0:0|3:0,0:0:0:0:
280,352,72565,6,0,B|72:352|72:352|44:100,1,450.000017166138,8|0,0:0|0:0,0:0:0:0:
90,97,73071,1,0,0:0:0:0:
139,85,73127,1,0,0:0:0:0:
288,288,73183,2,0,P|391:217|288:144,1,287.5,0|0,0:0|3:0,0:0:0:0:
232,120,73690,1,0,3:0:0:0:
408,72,73765,5,8,1:0:0:0:
488,72,73865,1,8,1:0:0:0:
408,72,73965,1,8,1:0:0:0:
200,72,74065,5,8,1:0:0:0:
280,72,74165,1,8,1:0:0:0:
200,72,74265,1,8,1:0:0:0:
392,128,74365,5,8,1:0:0:0:
128,152,74665,1,2,0:0:0:0:
496,296,74965,6,0,L|496:80,1,200,4|0,3:2|0:0,0:0:0:0:
400,296,75415,1,0,3:0:0:0:
304,296,75565,1,2,3:2:0:0:
400,296,75715,1,2,0:0:0:0:
496,296,75865,1,0,0:0:0:0:
272,208,76015,6,0,L|152:208,1,100,2|0,3:2|0:0,0:0:0:0:
304,304,76315,2,0,L|304:192,1,100,0|0,3:0|0:0,0:0:0:0:
168,128,76615,2,0,L|168:248,1,100,0|2,3:0|3:2,3:0:0:0:
304,256,76915,2,0,L|192:256,2,100,2|2|0,0:0|0:0|0:0,0:0:0:0:
96,320,77365,6,0,P|24:256|96:192,1,200,2|0,3:2|0:0,0:0:0:0:
184,184,77815,1,0,3:0:0:0:
280,184,77965,1,2,3:2:0:0:
184,184,78115,1,0,0:0:0:0:
88,184,78265,1,0,0:0:0:0:
304,272,78415,5,2,3:2:0:0:
320,184,78565,1,2,0:2:0:0:
224,128,78715,1,2,3:2:0:0:
184,40,78865,1,0,0:0:0:0:
320,112,79015,1,2,3:2:0:0:
408,112,79165,1,0,3:0:0:0:
264,120,79315,1,2,0:2:0:0:
192,88,79465,1,2,0:2:0:0:
192,144,79615,1,0,0:0:0:0:
400,320,79765,6,0,P|472:256|400:192,1,200,0|0,3:0|0:0,0:0:0:0:
312,184,80215,1,2,3:2:0:0:
216,184,80365,1,2,3:2:0:0:
312,184,80515,1,2,0:2:0:0:
408,184,80665,1,0,0:0:0:0:
200,296,80815,6,0,L|200:192,1,100,2|0,3:2|0:0,0:0:0:0:
320,96,81115,2,0,L|320:216,1,100,2|0,3:2|0:0,0:0:0:0:
200,152,81415,2,0,L|304:152,1,100,2|0,3:2|3:0,0:0:0:0:
424,192,81715,1,0,0:0:0:0:
471,181,81790,1,0,0:0:0:0:
495,138,81865,1,2,0:0:0:0:
481,92,81940,1,0,0:0:0:0:
437,71,82015,1,0,0:0:0:0:
216,256,82165,6,0,L|112:256,2,100,4|0|0,3:2|0:0|0:0,0:0:0:0:
344,176,82615,1,0,3:0:0:0:
216,176,82765,2,0,L|216:64,1,100,0|0,3:0|0:0,0:0:0:0:
344,120,83065,1,0,3:0:0:0:
136,288,83215,5,12,1:0:0:0:
264,232,83365,1,0,0:0:0:0:
210,201,83440,1,0,0:0:0:0:
156,166,83515,1,8,0:0:0:0:
376,208,83665,1,8,0:0:0:0:
264,120,83815,1,0,3:0:0:0:
472,264,83965,2,0,L|472:152,1,100,8|8,0:0|0:0,0:0:0:0:
405,263,84190,1,8,0:0:0:0:
208,208,84265,2,0,L|96:208,1,100,8|8,0:0|0:0,0:0:0:0:
164,144,84490,1,8,0:0:0:0:
360,152,84565,6,0,L|480:152,1,100,4|0,0:0|0:0,0:0:0:0:
256,80,84865,2,0,L|136:80,2,100,8|0|0,0:0|0:0|3:0,0:0:0:0:
376,80,85315,1,0,0:0:0:0:
152,288,85465,1,8,0:0:0:0:
376,152,85615,6,0,L|376:264,1,100,0|0,0:0|3:0,0:0:0:0:
152,224,85915,2,0,L|264:224,1,100,0|8,3:0|0:0,0:0:0:0:
32,224,86215,2,0,L|32:112,1,100,0|0,0:0|3:0,0:0:0:0:
248,160,86515,1,0,0:0:0:0:
128,96,86665,1,8,0:0:0:0:
344,56,86815,1,8,0:0:0:0:
136,160,86965,6,0,P|64:232|136:280,1,200,0|8,3:0|0:0,0:0:0:0:
224,168,87415,1,0,0:0:0:0:
16,176,87565,2,0,L|16:72,1,100,0|0,3:0|0:0,0:0:0:0:
224,112,87865,1,8,0:0:0:0:
16,224,88015,6,0,L|136:224,1,100,0|0,0:0|3:0,0:0:0:0:
328,216,88315,2,0,L|328:112,1,100,0|8,0:0|0:0,0:0:0:0:
112,104,88615,2,0,L|336:104,1,200
104,176,89065,2,0,P|48:128|112:88,1,150,12|0,0:0|0:0,0:0:0:0:
280,176,89365,6,0,L|72:176,1,200,4|8,3:2|0:0,0:0:0:0:
184,112,89815,1,0,0:0:0:0:
392,184,89965,2,0,L|392:72,1,100,0|0,3:0|0:0,0:0:0:0:
184,72,90265,1,8,0:0:0:0:
392,232,90415,6,0,L|496:232,1,100
280,192,90715,2,0,L|408:192,1,100,0|8,0:0|0:0,0:0:0:0:
152,304,91015,2,0,P|80:240|152:176,1,200,0|0,3:0|0:0,0:0:0:0:
352,200,91465,1,12,0:0:0:0:
240,136,91615,1,0,0:0:0:0:
448,288,91765,6,0,L|448:176,1,100,4|0,3:2|0:0,0:0:0:0:
240,80,92065,1,8,0:0:0:0:
344,80,92215,2,0,L|128:80,1,200
352,256,92665,1,8,0:0:0:0:
240,208,92815,2,0,L|160:208,1,50,0|0,3:0|3:0,0:0:0:0:
392,160,92965,6,0,L|496:160,1,100,12|8,0:0|0:0,0:0:0:0:
440,112,93190,1,0,3:0:0:0:
240,272,93265,2,0,L|240:160,1,100,0|8,3:0|3:2,0:0:0:0:
360,80,93565,1,8,0:0:0:0:
152,104,93715,2,0,L|256:104,2,100,0|0|0,3:0|3:0|3:0,0:0:0:0:
360,168,94165,6,0,L|240:168,1,100,4|0,3:2|0:0,0:0:0:0:
472,192,94465,2,0,L|472:80,1,100,8|0,0:0|3:0,0:0:0:0:
408,192,94690,1,0,0:0:0:0:
224,168,94765,1,0,3:0:0:0:
344,112,94915,1,0,3:0:0:0:
136,104,95065,1,8,0:0:0:0:
344,176,95215,6,0,L|136:176,1,200,2|2,3:0|3:0,0:0:0:0:
360,256,95665,2,0,L|360:144,1,100,8|0,0:0|3:0,0:0:0:0:
304,176,95890,1,0,3:0:0:0:
136,184,95965,2,0,P|88:128|136:80,1,150,0|0,3:0|0:0,0:0:0:0:
320,112,96265,2,0,L|432:112,1,100,8|0,0:0|3:0,0:0:0:0:
208,280,96565,5,4,3:2:0:0:
328,232,96715,1,0,3:0:0:0:
120,176,96865,2,0,L|120:64,1,100,8|0,0:0|0:0,0:0:0:0:
240,128,97165,1,0,3:0:0:0:
120,224,97315,1,0,3:0:0:0:
336,136,97465,1,8,0:0:0:0:
120,296,97615,6,0,P|48:240|120:184,1,200,2|2,3:0|3:0,0:0:0:0:
336,104,98065,2,0,L|440:104,2,100,8|0|0,0:0|3:0|3:0,0:0:0:0:
120,136,98515,1,0,3:0:0:0:
336,208,98665,2,0,L|216:208,1,100,12|0,0:0|3:0,0:0:0:0:
440,272,98965,6,0,L|440:168,1,100,12|0,0:0|0:0,0:0:0:0:
232,112,99265,2,0,L|336:112,1,100,8|0,0:0|0:0,0:0:0:0:
128,256,99565,2,0,L|128:152,1,100,8|0,0:0|3:0,0:0:0:0:
336,160,99865,2,0,L|232:160,1,100,8|0,0:0|3:0,0:0:0:0:
32,80,100165,6,0,L|144:80,1,100,12|0,0:0|3:0,0:0:0:0:
344,264,100465,2,0,L|464:264,1,100,8|0,0:0|3:0,0:0:0:0:
232,184,100765,2,0,L|368:184,1,100,8|0,0:0|3:0,0:0:0:0:
120,96,101065,2,0,L|16:96,1,100,8|0,0:0|3:0,0:0:0:0:
240,312,101365,6,0,L|240:200,1,100,12|0,0:0|3:0,0:0:0:0:
120,152,101665,1,0,3:0:0:0:
328,264,101815,2,0,L|328:152,1,100,12|0,0:0|3:0,0:0:0:0:
208,104,102115,1,0,3:0:0:0:
424,200,102265,2,0,L|424:88,1,100,12|0,0:0|3:0,0:0:0:0:
216,192,102565,5,0,1:0:0:0:
145,192,102640,1,0,3:0:0:0:
216,192,102715,1,0,3:0:0:0:
285,191,102790,1,0,3:0:0:0:
82,279,102865,1,0,1:0:0:0:
22,239,102940,1,0,3:0:0:0:
20,184,103015,1,0,3:0:0:0:
82,279,103090,1,0,3:0:0:0:
280,272,103165,6,0,L|216:272,1,50,8|0,1:0|0:0,0:0:0:0:
24,128,103315,2,0,L|88:128,1,50,0|0,3:0|0:0,0:0:0:0:
280,224,103465,2,0,L|224:224,1,50,8|0,1:0|0:0,0:0:0:0:
24,88,103615,2,0,L|80:88,1,50,0|0,3:0|0:0,0:0:0:0:
280,176,103765,6,0,L|392:176,1,100,4|0,3:2|0:0,0:0:0:0:
160,72,104065,2,0,L|32:72,1,100,8|0,0:0|0:0,0:0:0:0:
280,120,104365,2,0,L|168:120,1,100,0|0,3:0|3:0,0:0:0:0:
392,184,104665,1,8,0:0:0:0:
184,176,104815,6,0,L|392:176,1,200,4|2,3:2|0:2,0:0:0:0:
168,112,105265,1,10,0:2:0:0:
288,104,105415,1,2,0:2:0:0:
80,224,105565,2,0,L|80:96,1,100,2|0,3:2|3:0,0:0:0:0:
288,160,105865,2,0,L|112:160,1,150,10|0,0:0|0:0,0:0:0:0:
344,304,106165,5,4,3:2:0:0:
128,256,106315,2,0,L|128:152,1,100,0|8,0:0|0:0,0:0:0:0:
344,240,106615,1,0,0:0:0:0:
128,208,106765,2,0,L|256:208,1,100,0|0,3:0|3:0,0:0:0:0:
448,192,107065,1,8,0:0:0:0:
240,304,107215,6,0,P|168:240|240:184,1,200,4|0,3:2|3:0,0:0:0:0:
448,144,107665,2,0,L|360:144,1,50,0|0,1:0|1:0,0:0:0:0:
192,104,107815,2,0,L|120:104,1,50,0|0,1:0|1:0,0:0:0:0:
336,248,107965,2,0,L|440:248,1,100,4|0,3:2|0:0,3:2:0:0:
192,160,108265,2,0,L|248:160,1,50,0|0,1:0|1:0,0:0:0:0:
440,160,108415,2,0,L|496:160,1,50,0|0,1:0|1:0,0:0:0:0:
288,272,108565,6,0,L|168:272,1,100,4|0,3:2|0:0,0:0:0:0:
400,232,108865,2,0,L|400:120,1,100,8|0,0:0|0:0,0:0:0:0:
192,96,109165,2,0,L|336:96,1,100,0|0,3:0|3:0,0:0:0:0:
80,168,109465,1,8,0:0:0:0:
288,288,109615,6,0,L|80:288,1,200,4|2,3:2|3:2,0:0:0:0:
304,208,110065,1,10,0:2:0:0:
184,176,110215,1,2,0:2:0:0:
400,192,110365,2,0,L|400:88,1,100,2|2,3:2|3:2,0:0:0:0:
184,240,110665,2,0,P|128:192|184:144,1,150,12|0,0:0|0:0,0:0:0:0:
376,228,110965,5,4,3:2:0:0:
160,244,111115,1,8,0:0:0:0:
280,196,111265,1,0,3:0:0:0:
56,172,111415,1,0,3:0:0:0:
280,140,111565,2,0,L|176:140,1,100,12|0,0:0|3:0,0:0:0:0:
400,92,111865,1,12,0:0:0:0:
184,236,112015,6,0,L|392:236,1,200,4|0,3:2|3:0,0:0:0:0:
168,152,112465,2,0,L|224:152,1,50,8|8,0:0|0:0,0:0:0:0:
424,160,112615,2,0,L|496:160,1,50,0|0,3:0|3:0,0:0:0:0:
272,200,112765,2,0,L|160:200,1,100,12|0,0:0|3:0,0:0:0:0:
384,304,113065,2,0,P|440:248|384:200,1,150,12|0,0:0|0:0,0:0:0:0:
248,184,113365,5,4,0:0:0:0:
128,144,113515,1,0,0:0:0:0:
352,168,113665,5,8,0:0:0:0:
232,128,113815,1,0,0:0:0:0:
456,240,113965,5,8,3:2:0:0:
336,200,114115,1,0,3:0:0:0:
112,272,114265,5,8,0:0:0:0:
232,200,114415,1,0,0:0:0:0:
16,200,114565,5,4,3:2:0:0:
136,120,114715,1,0,0:0:0:0:
360,312,114865,5,8,0:0:0:0:
480,240,115015,1,0,0:0:0:0:
272,264,115165,5,8,3:2:0:0:
392,184,115315,1,0,3:0:0:0:
176,240,115465,1,8,0:0:0:0:
392,144,115615,1,0,0:0:0:0:
176,296,115765,6,0,L|176:176,1,100,4|0,3:2|0:0,0:0:0:0:
392,104,116065,2,0,L|496:104,1,100,8|0,0:0|0:0,0:0:0:0:
272,88,116365,2,0,L|384:88,1,100,0|0,3:0|3:0,3:0:0:0:
144,192,116665,1,8,0:0:0:0:
360,272,116815,6,0,P|432:224|360:160,1,200,4|0,3:2|3:0,0:0:0:0:
160,136,117265,1,8,0:0:0:0:
280,104,117415,1,0,3:0:0:0:
64,272,117565,2,0,L|64:160,1,100,12|0,0:0|3:0,0:0:0:0:
280,160,117865,2,0,L|104:160,1,150,12|0,0:0|0:0,0:0:0:0:
336,312,118165,5,4,3:2:0:0:
456,232,118315,1,0,0:0:0:0:
240,240,118465,5,8,0:0:0:0:
120,152,118615,1,0,0:0:0:0:
352,200,118765,5,8,3:2:0:0:
232,112,118915,1,0,3:0:0:0:
24,240,119065,5,8,0:0:0:0:
144,152,119215,1,0,0:0:0:0:
360,320,119365,5,4,3:2:0:0:
480,232,119515,1,0,0:0:0:0:
264,272,119665,5,8,0:0:0:0:
384,184,119815,1,0,0:0:0:0:
168,240,119965,5,8,3:2:0:0:
288,152,120115,1,0,3:0:0:0:
72,200,120265,1,8,0:0:0:0:
288,96,120415,1,4,3:2:0:0:
128,176,120565,6,0,L|128:64,1,100,0|0,0:0|3:0,0:0:0:0:
336,296,120865,1,8,0:0:0:0:
216,264,121015,1,0,3:0:0:0:
440,192,121165,2,0,L|440:92,1,100,8|0,0:0|3:0,0:0:0:0:
216,208,121465,2,0,L|266:208,1,50,8|0,0:0|3:0,0:0:0:0:
440,232,121615,1,0,3:0:0:0:
184,144,121765,5,8,0:0:0:0:
280,264,122665,6,0,B|128:264|128:264|128:144,1,225.000008583069,0|0,3:0|0:0,0:0:0:0:
328,200,122965,6,0,L|440:200,1,100,4|0,0:0|0:0,0:0:0:0:
208,176,123265,2,0,L|208:64,1,100
328,144,123565,1,0,0:0:0:0:
208,120,123715,2,0,L|88:120,1,100
328,216,124015,6,0,L|392:216,2,50
200,176,124315,1,0,0:0:0:0:
333,170,124465,1,0,0:0:0:0:
280,171,124540,1,0,0:0:0:0:
225,171,124615,1,0,0:0:0:0:
360,112,124765,2,0,L|464:112,2,100
256,112,125215,1,0,0:0:0:0:
464,304,125365,6,0,L|464:192,1,100
336,144,125665,2,0,L|336:256,1,100
208,184,125965,2,0,L|208:80,1,100
336,96,126265,2,0,L|224:96,1,100
16,312,126565,6,0,L|16:208,1,100
144,144,126865,2,0,L|144:256,1,100
272,248,127165,2,0,L|272:136,1,100
144,104,127465,2,0,L|24:104,1,100
272,320,127765,5,0,0:0:0:0:
168,272,127915,1,0,0:0:0:0:
272,264,128065,1,0,0:0:0:0:
168,216,128215,1,0,0:0:0:0:
384,184,128365,1,0,0:0:0:0:
272,120,128515,1,0,0:0:0:0:
392,112,128665,1,0,0:0:0:0:
272,72,128815,1,0,0:0:0:0:
64,168,128965,5,0,0:0:0:0:
184,112,129115,1,0,0:0:0:0:
64,112,129265,1,0,0:0:0:0:
184,64,129415,1,0,0:0:0:0:
416,288,129565,5,0,0:0:0:0:
288,208,129715,1,0,0:0:0:0:
416,216,129865,1,0,0:0:0:0:
288,144,130015,1,0,0:0:0:0:
72,256,130165,6,0,L|16:256,1,50
224,160,130315,1,0,0:0:0:0:
293,160,130390,1,0,0:0:0:0:
224,160,130465,1,0,0:0:0:0:
155,160,130540,1,0,0:0:0:0:
360,248,130615,2,0,L|416:248,1,50
208,272,130765,6,0,L|264:272,1,50
440,168,130915,2,0,L|496:168,1,50
288,96,131065,2,0,L|208:96,1,50
440,120,131215,2,0,L|504:120,1,50
288,96,131365,5,0,0:0:0:0:
328,281,131965,6,0,L|328:249,1,25
440,209,132115,2,0,L|440:169,1,25
328,201,132265,2,0,L|328:169,1,25
440,145,132415,2,0,L|440:113,1,25
264,145,132565,5,4,3:2:0:0:
384,113,132715,1,0,3:0:0:0:
168,249,132865,2,0,L|168:145,1,100,0|0,3:0|0:0,0:0:0:0:
304,97,133165,1,4,0:0:0:0:
168,185,133315,2,0,L|48:185,1,100
288,184,133615,2,0,L|352:184,1,50,0|0,3:0|3:0,0:0:0:0:
128,256,133765,6,0,L|128:152,1,100,4|0,0:0|0:0,0:0:0:0:
268,143,134065,1,0,0:0:0:0:
215,143,134140,1,0,0:0:0:0:
162,142,134215,1,0,0:0:0:0:
304,200,134365,2,0,L|408:200,2,100,4|0|0,3:2|0:0|0:0,0:0:0:0:
192,200,134815,1,0,0:0:0:0:
400,328,134965,5,4,3:2:0:0:
280,280,135115,1,0,3:0:0:0:
488,232,135265,2,0,L|488:128,1,100,0|0,3:0|0:0,0:0:0:0:
352,104,135565,2,0,L|472:104,1,100,4|0,0:0|3:0,0:0:0:0:
224,320,135865,5,0,0:0:0:0:
192,304,135902,1,0,0:0:0:0:
192,256,135940,1,0,0:0:0:0:
224,240,135977,1,0,0:0:0:0:
264,240,136015,5,0,0:0:0:0:
296,216,136052,1,0,0:0:0:0:
296,168,136090,1,0,0:0:0:0:
264,160,136127,1,0,0:0:0:0:
72,176,136165,6,0,L|72:56,1,100,4|0,0:0|0:0,0:0:0:0:
280,96,136465,1,0,0:0:0:0:
160,80,136615,2,0,L|96:80,1,50,0|0,3:0|3:0,0:0:0:0:
272,360,136765,6,0,B|496:360|496:360|496:152|496:152|496:256|496:256|496:80|496:80|496:288,1,900.000034332277,8|0,0:0|0:0,0:0:0:0:
280,160,137365,1,4,3:2:0:0:
400,120,137515,2,0,L|464:120,1,50,0|0,3:0|0:0,0:0:0:0:
248,224,137665,6,0,L|128:224,1,100,0|0,3:0|0:0,0:0:0:0:
280,144,137965,1,4,0:0:0:0:
144,144,138115,2,0,L|144:256,1,100,0|0,3:0|0:0,0:0:0:0:
352,184,138415,2,0,L|416:184,1,50,0|0,3:0|3:0,0:0:0:0:
144,96,138565,6,0,L|40:96,1,100,4|0,0:0|0:0,0:0:0:0:
256,264,138865,1,0,0:0:0:0:
120,248,139015,2,0,L|112:216,1,25,0|0,3:0|0:0,0:0:0:0:
240,176,139165,2,0,L|264:176,1,25,4|0,0:0|0:0,0:0:0:0:
376,176,139315,2,0,L|376:144,1,25,0|0,3:0|0:0,0:0:0:0:
264,112,139465,2,0,L|240:112,1,25
376,128,139615,2,0,L|376:104,1,25
192,88,139765,5,4,3:2:0:0:
312,48,139915,1,0,3:0:0:0:
96,184,140065,2,0,L|96:80,1,100,0|0,3:0|0:0,0:0:0:0:
240,144,140365,1,4,0:0:0:0:
96,224,140515,2,0,L|208:224,1,100,0|0,3:0|0:0,0:0:0:0:
304,224,140815,1,0,3:0:0:0:
96,272,140965,6,0,L|96:168,1,100,4|0,0:0|0:0,0:0:0:0:
304,176,141265,1,0,3:0:0:0:
176,144,141415,1,0,3:0:0:0:
384,312,141565,2,0,L|384:240,1,50,8|8,0:0|0:0,0:0:0:0:
316,224,141715,2,0,L|316:144,1,50,0|0,3:0|3:0,0:0:0:0:
496,128,141865,1,12,0:0:0:0:
280,120,142015,1,12,0:0:0:0:
128,288,142315,6,0,L|128:248,12,25
280,192,142915,2,0,L|280:152,4,25
136,120,143215,1,0,0:0:0:0:
352,320,143365,5,12,3:2:0:0:
136,176,143515,1,8,0:0:0:0:
264,160,143665,2,0,L|264:56,1,100,0|0,3:0|0:0,0:0:0:0:
136,56,143965,1,0,3:0:0:0:
264,216,144115,2,0,L|400:216,1,100,0|0,0:0|3:0,0:0:0:0:
152,304,144415,6,0,P|80:248|152:192,1,200,12|12,0:0|0:0,0:0:0:0:
272,144,144865,2,0,L|160:144,1,100,0|0,3:0|0:0,0:0:0:0:
40,152,145165,2,0,L|40:256,1,100,0|0,3:0|0:0,0:0:0:0:
160,88,145465,1,0,3:0:0:0:
40,88,145615,1,10,0:0:0:0:
256,288,145765,6,0,L|256:152,1,100,0|0,0:0|0:0,3:0:0:0:
120,160,146065,2,0,L|120:48,1,100,0|0,3:0|0:0,0:0:0:0:
256,224,146365,1,0,3:0:0:0:
120,208,146515,2,0,L|8:208,1,100
160,128,146815,2,0,L|224:128,1,50,8|0,0:3|0:0,0:0:0:0:
24,296,146965,6,0,L|24:176,1,100,0|4,3:0|0:3,0:0:0:0:
88,176,147190,1,0,0:0:0:0:
288,280,147265,1,0,3:0:0:0:
168,232,147415,2,0,L|64:232,1,100,4|4,0:0|3:0,0:0:0:0:
200,160,147715,2,0,L|304:160,2,100,4|4|0,0:3|3:0|0:0,0:0:0:0:
424,208,148165,6,0,L|352:208,1,50,4|0,3:2|0:0,0:0:0:0:
296,176,148315,2,0,L|288:112,1,50
368,104,148465,2,0,L|376:40,1,50,8|0,0:0|0:0,0:0:0:0:
288,48,148615,2,0,L|208:40,1,50
400,248,148765,6,0,L|464:224,1,50,8|0,0:0|0:0,0:0:0:0:
376,168,148915,2,0,L|320:160,1,50
408,104,149065,2,0,L|424:32,1,50,8|0,0:0|0:0,0:0:0:0:
344,56,149215,2,0,L|336:0,1,50
480,168,149365,6,0,L|480:104,1,50,8|0,0:0|0:0,0:0:0:0:
248,104,149515,2,0,L|184:96,1,50
376,208,149665,2,0,L|312:200,1,50,8|0,0:0|0:0,0:0:0:0:
256,192,149815,2,0,L|352:184,1,50
480,216,149965,6,0,L|488:144,1,50,8|0,0:0|0:0,0:0:0:0:
264,160,150115,2,0,L|184:160,1,50
384,104,150265,2,0,L|384:40,1,50,8|0,0:0|0:0,0:0:0:0:
168,48,150415,2,0,L|88:48,1,50,8|0,0:0|0:0,0:0:0:0:
264,192,150565,5,2,3:2:0:0:
272,160,150865,1,0,3:0:0:0:
256,96,151165,1,0,3:0:0:0:
320,64,151465,1,0,3:0:0:0:
208,336,151765,5,0,3:0:0:0:
160,272,152065,1,0,3:0:0:0:
248,192,152365,1,0,3:0:0:0:
160,120,152665,1,0,3:0:0:0:
416,240,152965,6,0,L|16:240,2,389.999982147218,2|2|2,3:2|3:2|3:2,0:0:0:0:
256,192,155365,5,4,0:1:0:0:
360,304,164965,5,4,0:0:0:0:
376,280,165265,1,0,0:0:0:0:
392,256,165565,1,0,0:0:0:0:
408,232,165865,1,0,0:0:0:0:
328,176,166015,1,0,0:0:0:0:
248,136,166165,5,0,0:0:0:0:
232,96,166465,1,0,0:0:0:0:
216,56,166765,1,0,0:0:0:0:
320,64,166915,1,0,0:0:0:0:
216,56,167065,1,0,0:0:0:0:
112,48,167215,1,0,0:0:0:0:
216,304,167365,5,0,0:0:0:0:
232,264,167665,1,0,0:0:0:0:
248,224,167965,1,0,0:0:0:0:
264,192,168265,1,0,0:0:0:0:
184,144,168415,1,0,0:0:0:0:
104,120,168565,5,0,0:0:0:0:
88,80,168865,1,0,0:0:0:0:
72,40,169165,1,0,0:0:0:0:
176,32,169315,1,0,0:0:0:0:
72,40,169465,1,0,0:0:0:0:
176,96,169615,1,0,0:0:0:0:
398,343,169765,6,0,L|415:234,1,100
306,242,170065,2,0,L|289:133,1,100
407,309,170365,6,0,L|424:200,1,100
289,200,170665,2,0,L|272:91,1,100
407,309,170965,6,0,L|424:200,1,100
264,200,171265,2,0,L|247:91,1,100
472,304,171565,6,0,L|489:195,1,100
205,200,171865,2,0,L|188:91,1,100
400,240,172165,5,0,0:0:0:0:
458,201,172240,1,0,0:0:0:0:
458,145,172315,1,0,0:0:0:0:
400,120,172390,1,0,0:0:0:0:
160,304,172465,2,0,L|88:296,1,50
312,216,172615,2,0,L|368:208,1,50
104,208,172765,5,0,0:0:0:0:
46,169,172840,1,0,0:0:0:0:
46,113,172915,1,0,0:0:0:0:
104,88,172990,1,0,0:0:0:0:
304,256,173065,2,0,L|376:248,1,50
152,168,173215,2,0,L|96:160,1,50
304,256,173365,5,0,0:0:0:0:
344,259,173415,1,0,0:0:0:0:
380,237,173465,1,0,0:0:0:0:
394,200,173515,1,0,0:0:0:0:
384,160,173565,1,0,0:0:0:0:
352,135,173615,1,0,0:0:0:0:
184,136,173665,5,0,0:0:0:0:
145,139,173715,1,0,0:0:0:0:
110,118,173765,1,0,0:0:0:0:
95,80,173815,1,0,0:0:0:0:
105,41,173865,1,0,0:0:0:0:
137,16,173915,1,0,0:0:0:0:
305,13,173965,1,0,0:0:0:0:
88,128,174265,5,0,3:0:0:0:
296,240,174565,6,0,L|424:240,1,104.999996795654,4|0,0:0|0:0,0:0:0:0:
160,152,174865,2,0,L|304:152,1,104.999996795654,8|0,0:0|0:0,0:0:0:0:
16,272,175165,2,0,L|16:160,1,104.999996795654,0|0,3:0|3:0,0:0:0:0:
272,168,175465,1,8,0:0:0:0:
16,320,175615,6,0,L|264:320,1,209.999993591309,4|2,3:2|3:2,0:0:0:0:
16,256,176065,1,10,0:2:0:0:
152,256,176215,1,2,0:2:0:0:
392,240,176365,2,0,L|392:136,1,104.999996795654,2|0,3:2|3:0,0:0:0:0:
152,208,176665,2,0,L|344:208,1,157.499995193482,10|0,0:0|0:0,0:0:0:0:
96,136,176965,5,4,3:2:0:0:
344,224,177115,2,0,L|472:224,1,104.999996795654,0|8,0:0|0:0,0:0:0:0:
224,128,177415,1,0,0:0:0:0:
464,48,177565,2,0,L|336:48,1,104.999996795654,0|0,3:0|3:0,0:0:0:0:
104,48,177865,1,8,0:0:0:0:
352,328,178015,6,0,P|424:272|352:208,1,209.999993591309,4|0,3:2|3:0,0:0:0:0:
112,176,178465,2,0,L|176:176,1,52.4999983978272,0|0,1:0|1:0,0:0:0:0:
400,120,178615,2,0,L|472:120,1,52.4999983978272,0|0,1:0|1:0,0:0:0:0:
224,112,178765,2,0,L|104:112,1,104.999996795654,4|0,3:2|3:2,3:2:0:0:
368,176,179065,2,0,L|296:176,1,52.4999983978272,0|0,1:0|1:0,0:0:0:0:
80,176,179215,2,0,L|24:176,1,52.4999983978272,0|0,1:0|1:0,0:0:0:0:
256,272,179365,6,0,L|360:272,1,104.999996795654,4|0,3:2|0:0,0:0:0:0:
128,192,179665,2,0,L|128:72,1,104.999996795654,8|0,0:0|0:0,0:0:0:0:
376,64,179965,2,0,L|248:64,1,104.999996795654,0|0,3:0|3:0,0:0:0:0:
496,200,180265,1,8,0:0:0:0:
240,192,180415,6,0,L|472:192,1,209.999993591309,4|2,3:2|3:2,0:0:0:0:
216,112,180865,1,10,0:2:0:0:
360,96,181015,1,2,0:2:0:0:
112,304,181165,2,0,L|112:184,1,104.999996795654,2|2,3:2|3:2,0:0:0:0:
360,152,181465,2,0,P|416:216|352:240,1,157.499995193482,14|0,0:2|0:0,0:0:0:0:
144,216,181765,5,4,3:2:0:0:
368,232,181915,1,8,0:0:0:0:
240,184,182065,1,0,3:0:0:0:
464,160,182215,1,0,3:0:0:0:
240,128,182365,2,0,L|360:128,1,104.999996795654,12|0,0:0|3:0,0:0:0:0:
120,80,182665,1,12,0:0:0:0:
352,304,182815,6,0,L|128:304,1,209.999993591309,4|0,3:2|3:3,0:0:0:0:
384,208,183265,2,0,L|304:208,1,52.4999983978272,0|0,1:0|1:0,0:0:0:0:
120,136,183415,2,0,L|200:136,1,52.4999983978272,0|0,3:0|3:0,0:0:0:0:
384,160,183565,2,0,L|384:48,1,104.999996795654,12|0,3:2|3:0,0:0:0:0:
160,272,183865,2,0,P|104:208|160:160,1,157.499995193482,12|0,3:2|0:0,0:0:0:0:
360,152,184165,5,4,3:2:0:0:
480,112,184315,1,0,0:0:0:0:
256,136,184465,5,8,0:0:0:0:
376,96,184615,1,0,0:0:0:0:
152,208,184765,5,8,3:2:0:0:
272,168,184915,1,0,3:0:0:0:
48,192,185065,5,8,0:0:0:0:
168,152,185215,1,0,0:0:0:0:
376,304,185365,5,4,3:2:0:0:
496,232,185515,1,0,0:0:0:0:
280,264,185665,5,8,0:0:0:0:
400,192,185815,1,0,0:0:0:0:
184,240,185965,5,8,3:2:0:0:
64,168,186115,1,0,3:0:0:0:
288,104,186265,1,8,0:0:0:0:
64,112,186415,1,8,0:0:0:0:
288,168,186565,6,0,L|392:168,1,100,4|0,3:2|0:0,0:0:0:0:
168,296,186865,2,0,L|168:184,1,100,8|0,0:0|0:0,0:0:0:0:
376,216,187165,2,0,L|376:104,1,100,0|0,3:0|3:0,0:0:0:0:
168,240,187465,1,8,0:0:0:0:
376,264,187615,6,0,L|144:264,1,200,4|2,0:0|3:2,0:0:0:0:
400,152,188065,1,10,0:2:0:0:
280,112,188215,1,2,3:2:0:0:
56,192,188365,2,0,L|56:80,1,100,12|0,0:0|3:0,0:0:0:0:
272,168,188665,2,0,L|88:168,1,150,12|0,0:0|0:0,0:0:0:0:
328,336,188965,5,4,3:2:0:0:
448,264,189115,1,0,0:0:0:0:
232,296,189265,5,8,0:0:0:0:
352,216,189415,1,0,0:0:0:0:
136,232,189565,5,8,3:2:0:0:
256,160,189715,1,0,3:0:0:0:
472,168,189865,5,8,0:0:0:0:
352,88,190015,1,0,0:0:0:0:
136,72,190165,5,4,3:2:0:0:
16,8,190315,1,0,0:0:0:0:
232,352,190465,5,8,0:0:0:0:
112,296,190615,1,0,0:0:0:0:
328,256,190765,5,8,3:2:0:0:
448,184,190915,1,0,3:0:0:0:
224,216,191065,1,8,0:0:0:0:
448,120,191215,1,4,3:2:0:0:
224,168,191365,6,0,L|112:168,1,100,0|0,0:0|3:0,0:0:0:0:
336,304,191665,1,8,0:0:0:0:
208,280,191815,1,0,0:0:0:0:
432,264,191965,2,0,L|432:144,1,100,0|0,3:0|3:0,0:0:0:0:
208,224,192265,1,8,0:0:0:0:
432,208,192415,6,0,L|272:208,1,150,4|0,0:0|0:0,0:0:0:0:
456,120,192715,1,4,0:0:0:0:
208,128,192865,1,8,0:0:0:0:
88,104,193015,1,0,0:0:0:0:
368,184,193165,2,0,L|488:184,1,100,4|0,3:2|3:0,0:0:0:0:
240,80,193465,2,0,L|416:80,1,150,8|0,0:0|0:0,0:0:0:0:
184,296,193765,5,4,3:2:0:0:
64,232,193915,1,0,0:0:0:0:
280,272,194065,5,8,0:0:0:0:
160,184,194215,1,0,0:0:0:0:
376,240,194365,5,8,3:2:0:0:
496,160,194515,1,0,3:0:0:0:
280,272,194665,5,8,0:0:0:0:
400,152,194815,1,0,0:0:0:0:
168,312,194965,5,4,3:2:0:0:
288,216,195115,1,0,0:0:0:0:
496,304,195265,5,8,0:0:0:0:
376,224,195415,1,0,0:0:0:0:
160,160,195565,5,8,3:2:0:0:
40,88,195715,1,0,3:0:0:0:
256,224,195865,1,8,0:0:0:0:
40,48,196015,1,8,0:0:0:0:
256,288,196165,6,0,L|384:288,1,100,4|0,3:2|0:0,0:0:0:0:
144,224,196465,2,0,L|144:120,1,100,8|0,0:0|0:0,0:0:0:0:
360,64,196765,2,0,L|240:64,1,100,0|0,3:0|3:0,0:0:0:0:
48,64,197065,1,8,0:0:0:0:
256,144,197215,6,0,L|48:144,1,200,4|2,3:2|3:2,3:2:0:0:
264,272,197665,1,10,0:0:0:0:
392,224,197815,1,2,3:2:0:0:
144,200,197965,2,0,L|280:200,1,100,14|0,0:0|3:0,0:0:0:0:
448,224,198265,2,0,P|496:168|448:112,1,150,12|0,0:0|0:0,0:0:0:0:
256,328,198565,5,12,0:0:0:0:
40,224,198715,1,0,0:0:0:0:
256,248,198865,5,8,0:0:0:0:
48,176,199015,1,0,0:0:0:0:
256,192,199165,5,8,0:0:0:0:
472,168,199315,1,0,3:0:0:0:
256,144,199465,5,8,0:0:0:0:
472,120,199615,1,0,3:0:0:0:
256,248,199765,5,12,0:0:0:0:
48,176,199915,1,0,3:0:0:0:
256,192,200065,5,8,0:0:0:0:
472,168,200215,1,0,3:0:0:0:
256,136,200365,5,8,0:0:0:0:
472,120,200515,1,0,3:0:0:0:
256,88,200665,1,8,0:0:0:0:
32,224,200815,6,0,L|32:16,1,200,2|0,3:0|0:0,0:0:0:0:
128,88,201265,1,2,0:0:0:0:
224,88,201415,1,2,0:0:0:0:
128,88,201565,1,2,0:0:0:0:
328,192,201865,1,2,0:0:0:0:
224,144,202015,6,0,L|432:144,1,200,2|2,0:0|0:0,0:0:0:0:
320,88,202465,1,2,0:0:0:0:
224,80,202615,1,2,0:0:0:0:
368,32,202765,5,2,0:0:0:0:
