osu file format v14

[General]
AudioFilename: audio.mp3
AudioLeadIn: 0
PreviewTime: 103540
Countdown: 0
SampleSet: Soft
StackLeniency: 0.7
Mode: 0
LetterboxInBreaks: 0
WidescreenStoryboard: 1

[Editor]
DistanceSpacing: 1.8
BeatDivisor: 4
GridSize: 16
TimelineZoom: 2.5

[Metadata]
Title:HIBANA feat. Hatsune Miku
TitleUnicode:ヒバナ feat. 初音ミク
Artist:DECO*27
ArtistUnicode:DECO*27
Creator:Pho
Version:Lock On
Source:
Tags:10th anniversary re:start 八三 vocaloid rockwell mes neonat
BeatmapID:1419243
BeatmapSetID:671199

[Difficulty]
HPDrainRate:5.5
CircleSize:4.2
OverallDifficulty:9
ApproachRate:9.5
SliderMultiplier:2.1
SliderTickRate:1

[Events]
//Background and Video events
0,0,"bg.jpg",0,0
//Break Periods
2,123165,127240
2,155564,164440
//Storyboard Layer 0 (Background)
//Storyboard Layer 1 (Fail)
//Storyboard Layer 2 (Pass)
//Storyboard Layer 3 (Foreground)
//Storyboard Sound Samples

[TimingPoints]
565,300,4,2,1,60,1,0
2665,-83.3333333333333,4,2,1,60,0,0
2890,-83.3333333333333,4,2,1,5,0,0
2965,-133.333333333333,4,2,1,60,0,0
4165,-111.111111111111,4,2,1,60,0,0
6565,-100,4,2,1,60,0,0
7765,-100,4,2,1,90,0,0
17365,-133.333333333333,4,2,1,90,0,0
17440,-133.333333333333,4,2,1,60,0,0
19690,-133.333333333333,4,2,1,5,0,0
19765,-133.333333333333,4,2,1,60,0,0
20890,-133.333333333333,4,2,1,5,0,0
20965,-133.333333333333,4,2,1,60,0,0
22090,-133.333333333333,4,2,1,5,0,0
22165,-133.333333333333,4,2,1,80,0,0
22615,-133.333333333333,4,2,1,60,0,0
23365,-83.3333333333333,4,2,1,80,0,0
23665,-133.333333333333,4,2,1,60,0,0
24565,-133.333333333333,4,2,1,80,0,0
24865,-133.333333333333,4,2,1,60,0,0
25765,-100,4,2,1,60,0,0
26665,-200,4,2,1,60,0,0
26890,-200,4,2,1,5,0,0
26965,-83.3333333333333,4,2,1,60,0,0
27115,-100,4,2,1,80,0,0
31690,-100,4,2,1,5,0,0
31765,-100,4,2,1,80,0,0
36565,-100,4,2,1,80,0,0
36715,-133.333333333333,4,2,1,60,0,0
37615,-100,4,2,1,80,0,0
38065,-133.333333333333,4,2,1,60,0,0
38965,-100,4,2,1,60,0,0
39265,-133.333333333333,4,2,1,60,0,0
41065,-83.3333333333333,4,2,1,60,0,0
41365,-100,4,2,1,60,0,0
42565,-90.9090909090909,4,2,1,70,0,0
43765,-83.3333333333333,4,2,1,80,0,0
46165,-90.9090909090909,4,2,1,95,0,0
55465,-200,4,2,1,95,0,0
55690,-200,4,2,1,5,0,0
55765,-90.9090909090909,4,2,1,95,0,0
64165,-600,4,2,1,80,0,0
64465,-600,4,2,1,20,0,0
64615,-600,4,2,1,5,0,0
64765,-66.6666666666667,4,2,1,60,0,0
64990,-66.6666666666667,4,2,1,5,0,0
65065,-133.333333333333,4,2,1,60,0,0
65215,-133.333333333333,4,2,1,5,0,0
65365,-100,4,2,1,80,0,0
72565,-133.333333333333,4,2,1,70,0,0
72940,-133.333333333333,4,2,1,60,0,0
73765,-133.333333333333,4,2,1,77,0,0
74665,-200,4,2,1,60,0,0
74890,-200,4,2,1,5,0,0
74965,-133.333333333333,4,2,1,50,0,0
83215,-83.3333333333333,4,2,1,60,0,0
83515,-100,4,2,1,70,0,0
84565,-100,4,2,1,80,0,0
94165,-111.111111111111,4,2,1,60,0,0
98665,-83.3333333333333,4,2,1,60,0,0
98965,-111.111111111111,4,2,1,70,0,0
103165,-100,4,2,1,60,0,0
103240,-100,4,2,1,5,0,0
103315,-100,4,2,1,60,0,0
103390,-100,4,2,1,5,0,0
103465,-100,4,2,1,60,0,0
103540,-100,4,2,1,5,0,0
103615,-100,4,2,1,60,0,0
103690,-100,4,2,1,5,0,0
103765,-90.9090909090909,4,2,1,95,0,0
113065,-200,4,2,1,95,0,0
113290,-200,4,2,1,5,0,0
113365,-90.9090909090909,4,2,1,95,0,0
117865,-200,4,2,1,95,0,0
118090,-200,4,2,1,5,0,0
118165,-90.9090909090909,4,2,1,95,0,0
120640,-90.9090909090909,4,2,1,5,0,0
120715,-90.9090909090909,4,2,1,95,0,0
121765,-600,4,2,1,60,0,0
122215,-600,4,2,1,10,0,0
122365,-71.4285714285714,4,2,1,60,0,0
122590,-71.4285714285714,4,2,1,5,0,0
122665,-71.4285714285714,4,2,1,60,0,0
122890,-71.4285714285714,4,2,1,5,0,0
122965,-133.333333333333,4,2,1,60,0,0
127765,-133.333333333333,4,2,2,40,0,0
130165,-133.333333333333,4,2,2,50,0,0
131365,-133.333333333333,4,2,2,60,0,0
131965,-100,4,2,1,60,0,0
132565,-133.333333333333,4,2,1,80,0,0
133765,-133.333333333333,4,2,2,80,0,0
133840,-133.333333333333,4,2,1,80,0,0
136165,-133.333333333333,4,2,2,80,0,0
136240,-133.333333333333,4,2,1,80,0,0
137365,-100,4,2,1,80,0,0
137515,-133.333333333333,4,2,1,80,0,0
138565,-133.333333333333,4,2,2,80,0,0
138640,-133.333333333333,4,2,1,80,0,0
140965,-83.3333333333333,4,2,2,80,0,0
141115,-133.333333333333,4,2,1,80,0,0
142765,-200,4,2,1,40,0,0
143290,-200,4,2,1,5,0,0
143365,-111.111111111111,4,2,1,60,0,0
144415,-90.9090909090909,4,2,1,60,0,0
144865,-111.111111111111,4,2,1,60,0,0
146815,-111.111111111111,4,2,1,80,0,0
147415,-111.111111111111,4,2,1,70,0,0
149365,-111.111111111111,4,2,1,80,0,0
150865,-111.111111111111,4,2,1,70,0,0
153040,-111.111111111111,4,2,1,5,0,0
153115,-111.111111111111,4,2,1,60,0,0
153190,-111.111111111111,4,2,1,5,0,0
153265,-111.111111111111,4,2,1,60,0,0
153490,-111.111111111111,4,2,1,5,0,0
153565,-111.111111111111,4,2,1,60,0,0
153640,-111.111111111111,4,2,1,5,0,0
153715,-111.111111111111,4,2,1,60,0,0
153865,-200,4,2,1,60,0,0
153940,-200,4,2,1,5,0,0
155365,-200,4,2,1,60,0,0
164965,-133.333333333333,4,2,2,60,0,0
168715,-133.333333333333,4,2,2,5,0,0
168865,-133.333333333333,4,2,2,60,0,0
169015,-133.333333333333,4,2,2,5,0,0
169165,-133.333333333333,4,2,2,60,0,0
170965,-133.333333333333,4,2,2,70,0,0
172165,-133.333333333333,4,2,2,80,0,0
173965,-133.333333333333,4,2,1,50,0,0
174265,-200,4,2,1,80,0,0
174490,-200,4,2,1,5,0,0
174565,-83.3333333333333,4,2,1,100,0,1
183865,-200,4,2,1,100,0,1
184090,-200,4,2,1,5,0,1
184165,-83.3333333333333,4,2,1,100,0,1
200815,-166.666666666667,4,2,1,50,0,0

[Colours]
Combo1 : 221,221,221
Combo2 : 253,236,176
Combo3 : 247,193,104
Combo4 : 39,55,88
Combo5 : 154,231,206
Combo6 : 98,244,226
Combo7 : 231,118,237
Combo8 : 255,51,51

[HitObjects]
102,106,565,5,4,1:0:0:0:
289,201,765,1,0,1:0:0:0:
110,313,965,1,0,1:0:0:0:
184,47,1165,5,4,1:0:0:0:
331,64,1365,1,4,1:0:0:0:
470,85,1565,1,0,1:0:0:0:
363,277,1765,85,4,1:0:0:0:
320,149,1965,1,0,1:0:0:0:
498,305,2165,1,0,1:0:0:0:
267,378,2365,1,0,1:0:0:0:
267,378,2665,86,2,B|229:378|205:353|205:353|166:368|166:368|137:335|71:342,1,188.999994232178,2|0,0:1|0:0,0:1:0:0:
23,364,2965,38,0,L|6:314,5,39.3750015020371,4|0|0|0|0|0,1:2|0:0|0:0|0:0|0:0|0:0,0:0:0:0:
83,263,3415,1,0,1:0:0:0:
97,226,3490,1,0,0:0:0:0:
98,186,3565,1,0,0:0:0:0:
68,159,3640,1,0,0:0:0:0:
61,120,3715,1,0,0:0:0:0:
82,86,3790,1,0,0:0:0:0:
82,46,3865,5,0,1:0:0:0:
122,69,3940,1,0,0:0:0:0:
169,71,4015,1,0,0:0:0:0:
216,68,4090,1,0,0:0:0:0:
265,94,4165,102,0,P|277:129|268:157,5,47.2499985580445,4|0|0|0|0|0,1:2|0:0|0:0|0:0|0:0|0:0,0:0:0:0:
354,49,4615,2,0,P|379:37|396:-4,5,47.2499985580445,0|0|0|0|0|0,1:0|0:0|0:0|0:0|0:0|0:0,0:0:0:0:
493,22,5065,1,0,1:0:0:0:
455,61,5140,1,0,0:0:0:0:
446,114,5215,1,0,0:0:0:0:
466,164,5290,1,0,0:0:0:0:
495,201,5365,5,4,1:0:0:0:
444,187,5440,1,0,0:0:0:0:
400,215,5515,1,0,0:0:0:0:
384,264,5590,1,0,0:0:0:0:
418,302,5665,1,0,1:0:0:0:
420,353,5740,1,0,0:0:0:0:
375,380,5815,1,0,0:0:0:0:
323,374,5890,1,0,0:0:0:0:
297,332,5965,5,0,1:0:0:0:
248,320,6040,1,0,0:0:0:0:
199,329,6115,5,0,1:0:0:0:
150,318,6190,1,0,0:0:0:0:
135,270,6265,5,0,1:0:0:0:
86,259,6340,1,0,0:0:0:0:
46,289,6415,5,0,1:0:0:0:
2,264,6490,1,0,1:0:0:0:
12,208,6565,22,0,B|28:164|28:164|25:98,1,105,0|0,1:0|0:0,0:0:0:0:
116,19,6865,1,0,0:0:0:0:
386,98,7015,2,0,B|343:79|343:79|250:101,1,105,0|0,1:0|0:0,0:0:0:0:
165,189,7315,1,0,0:0:0:0:
361,188,7465,2,0,L|339:258,3,52.5,0|0|0|0,1:0|0:0|0:0|0:0,0:0:0:0:
334,260,7765,6,0,P|299:231|275:131,1,105,4|0,0:0|0:0,0:0:0:0:
442,7,8065,2,0,L|472:148,1,105,8|0,0:0|0:0,0:0:0:0:
506,270,8365,1,0,3:0:0:0:
351,160,8515,1,0,0:0:0:0:
295,384,8665,1,10,0:0:0:0:
414,284,8815,1,0,0:0:0:0:
233,325,8965,6,0,P|179:328|126:311,1,105,2|0,3:2|0:0,0:0:0:0:
38,215,9265,2,0,B|15:265|15:265|23:345,1,105,8|0,0:0|0:0,0:0:0:0:
162,211,9565,2,0,L|133:75,1,105,2|0,3:2|0:0,0:0:0:0:
222,33,9865,1,10,0:0:0:0:
25,136,10015,1,10,0:0:0:0:
233,306,10165,102,0,L|255:180,1,105,4|0,3:2|0:0,0:0:0:0:
383,180,10465,2,0,L|349:56,1,105,8|0,0:0|0:0,0:0:0:0:
250,13,10765,1,0,3:0:0:0:
450,27,10915,1,0,0:0:0:0:
302,165,11065,1,10,0:0:0:0:
175,49,11215,1,0,0:0:0:0:
401,138,11365,6,0,P|458:133|502:95,1,105,2|0,3:2|0:0,0:0:0:0:
287,253,11665,2,0,P|230:238|161:268,1,105,8|8,0:0|0:0,0:0:0:0:
444,236,11965,2,0,B|460:281|460:281|444:318|444:318|469:396,1,157.5,2|0,3:2|0:0,0:0:0:0:
481,359,12265,1,10,0:0:0:0:
430,354,12340,1,8,0:0:0:0:
379,348,12415,1,8,0:0:0:0:
327,342,12490,1,8,0:0:0:0:
279,335,12565,101,6,3:2:0:0:
102,383,12715,1,0,0:0:0:0:
82,224,12865,1,8,0:0:0:0:
179,347,13015,1,0,0:0:0:0:
70,256,13165,1,0,3:0:0:0:
247,210,13315,1,0,0:0:0:0:
0,169,13465,1,10,0:0:0:0:
78,357,13615,1,0,0:0:0:0:
92,185,13765,6,0,B|93:122|93:122|71:69,1,105,2|0,3:2|0:0,0:0:0:0:
269,103,14065,2,0,B|257:44|257:44|267:-13,1,105,8|0,0:0|0:0,0:0:0:0:
404,246,14365,2,0,B|440:196|440:196|445:125,1,105,2|0,3:2|0:0,0:0:0:0:
501,36,14665,1,8,0:0:0:0:
290,142,14815,101,0,3:0:0:0:
290,142,14890,1,0,3:0:0:0:
290,142,14965,1,4,0:0:0:0:
52,42,15115,1,0,3:0:0:0:
231,19,15265,1,0,3:0:0:0:
188,258,15415,5,8,0:0:0:0:
149,73,15565,1,0,3:0:0:0:
301,223,15715,1,0,3:0:0:0:
473,91,15865,101,14,0:0:0:0:
216,167,16015,1,0,3:0:0:0:
423,299,16165,5,8,0:0:0:0:
415,181,16315,1,8,0:0:0:0:
415,181,16390,1,8,0:0:0:0:
415,181,16465,1,8,0:0:0:0:
294,146,16615,1,8,0:0:0:0:
214,251,16765,85,0,3:0:0:0:
227,262,16915,1,0,3:0:0:0:
235,252,17065,1,8,3:0:0:0:
223,240,17215,1,0,3:0:0:0:
84,362,17365,38,0,B|41:324|41:324|66:217,1,157.500006008148,4|0,0:0|0:0,0:0:0:0:
63,226,17815,2,0,L|156:241,1,78.7500030040742,2|0,0:0|0:0,0:0:0:0:
284,356,18115,1,0,0:0:0:0:
380,304,18265,2,0,P|367:271|369:219,1,78.7500030040742
432,170,18565,2,0,L|522:186,1,78.7500030040742
300,13,19015,2,0,L|285:171,1,157.500006008148,2|0,0:0|0:0,0:0:0:0:
13,120,19465,6,0,P|67:117|119:82,1,118.125004506111
128,53,19765,2,0,P|108:103|126:206,1,157.500006008148
229,158,20215,1,2,0:0:0:0:
251,384,20515,101,0,0:0:0:0:
179,305,20665,2,0,P|124:281|50:325,1,118.125004506111
58,319,20965,2,0,B|43:259|43:259|54:231|54:231|34:163,1,157.500006008148
79,14,21415,1,2,0:0:0:0:
188,130,21565,5,0,0:0:0:0:
198,118,21640,1,0,0:0:0:0:
207,105,21715,1,0,0:0:0:0:
216,92,21790,1,0,0:0:0:0:
225,78,21865,2,0,B|249:205,1,118.125004506111,2|0,0:0|0:0,0:0:0:0:
253,209,22165,37,0,1:0:0:0:
383,36,22315,1,0,1:0:0:0:
411,167,22615,53,0,0:0:0:0:
408,151,22690,1,0,0:0:0:0:
406,136,22765,1,0,0:0:0:0:
486,259,22915,1,0,0:0:0:0:
499,263,22990,1,0,0:0:0:0:
512,267,23065,1,0,0:0:0:0:
377,277,23215,1,0,0:0:0:0:
368,286,23290,1,0,0:0:0:0:
355,297,23365,54,0,L|213:322,1,125.999996154785,0|0,1:0|1:0,0:0:0:0:
13,354,23665,1,0,0:0:0:0:
158,381,23815,69,0,0:0:0:0:
158,381,23890,1,0,0:0:0:0:
158,381,23965,2,0,L|137:285,1,78.7500030040742
69,273,24190,1,0,0:0:0:0:
56,263,24265,2,0,L|75:177,1,78.7500030040742
166,284,24565,37,0,1:0:0:0:
21,35,24715,1,0,1:0:0:0:
0,156,24865,53,0,0:0:0:0:
139,31,25015,1,0,3:3:0:0:
168,51,25090,1,0,3:3:0:0:
180,81,25165,1,8,1:2:0:0:
228,235,25315,1,0,3:0:0:0:
101,103,25465,1,0,3:0:0:0:
349,158,25615,1,0,3:0:0:0:
259,355,25765,5,0,1:0:0:0:
321,234,25915,2,0,B|370:244|370:244|423:274,1,105,0|0,1:0|0:0,0:0:0:0:
269,128,26215,2,0,B|302:95|302:95|355:74,1,105,0|0,1:0|0:0,0:0:0:0:
159,23,26515,1,0,1:0:0:0:
186,197,26665,54,0,P|190:259|177:286,1,78.75,0|0,1:0|0:0,0:0:0:0:
172,263,26965,6,0,L|128:109,1,125.999996154785,4|0,0:0|0:0,0:0:0:0:
54,103,27265,1,8,0:0:0:0:
232,58,27415,1,0,0:0:0:0:
88,15,27565,1,0,3:0:0:0:
252,81,27715,2,0,P|306:74|367:29,1,105,0|8,0:0|0:0,0:0:0:0:
114,37,28015,1,0,0:0:0:0:
244,223,28165,5,0,3:0:0:0:
344,173,28315,2,0,B|381:209|381:209|401:289,1,105,0|8,0:0|0:0,0:0:0:0:
190,384,28615,1,0,0:0:0:0:
92,332,28765,2,0,B|97:273|97:273|134:217,1,105,0|0,3:0|0:0,0:0:0:0:
140,211,28990,1,0,0:0:0:0:
140,211,29065,2,0,L|257:225,1,105,8|8,0:0|0:0,0:0:0:0:
453,51,29365,102,0,L|326:83,1,105,0|0,3:0|0:0,0:0:0:0:
246,17,29665,1,8,0:0:0:0:
423,191,29815,1,0,0:0:0:0:
272,149,29965,1,0,3:0:0:0:
441,204,30115,2,0,L|422:314,1,105,0|8,0:0|0:0,0:0:0:0:
224,222,30415,5,0,0:0:0:0:
375,144,30565,1,0,3:0:0:0:
206,243,30715,2,0,L|176:134,1,105,0|8,0:0|0:0,0:0:0:0:
160,327,31015,1,0,0:0:0:0:
290,110,31165,1,0,3:0:0:0:
13,35,31315,1,0,0:0:0:0:
13,35,31390,1,0,0:0:0:0:
13,35,31465,2,0,B|-24:91|-24:91|13:181,1,157.5,12|0,0:0|0:0,0:0:0:0:
24,197,31765,102,0,P|67:195|141:136,1,105,4|0,3:2|0:0,0:0:0:0:
159,31,32065,1,8,0:0:0:0:
210,204,32215,1,0,0:0:0:0:
298,89,32365,1,0,3:0:0:0:
323,263,32515,1,0,0:0:0:0:
208,90,32665,1,8,0:0:0:0:
416,152,32815,6,0,B|480:139|480:139|521:110,2,105,0|0|0,0:0|3:0|0:0,0:0:0:0:
342,30,33265,1,8,0:0:0:0:
222,228,33415,2,0,B|182:201|182:201|134:117,2,105,0|0|0,0:0|3:0|0:0,0:0:0:0:
405,366,33865,1,12,0:0:0:0:
123,275,34015,1,0,0:0:0:0:
323,300,34165,102,0,P|272:311|232:344,1,105,4|0,3:2|0:0,0:0:0:0:
442,291,34465,2,0,P|389:230|338:212,1,105,8|0,0:0|0:0,0:0:0:0:
240,159,34765,1,0,3:0:0:0:
312,324,34915,1,0,0:0:0:0:
158,190,35065,1,8,0:0:0:0:
420,95,35215,5,0,3:0:0:0:
420,95,35290,1,0,3:0:0:0:
420,95,35365,1,12,3:2:0:0:
219,235,35515,1,0,3:0:0:0:
304,7,35665,1,0,3:0:0:0:
299,234,35815,101,8,0:2:0:0:
159,22,35965,1,10,0:0:0:0:
199,313,36115,1,0,3:0:0:0:
337,163,36265,1,8,3:0:0:0:
32,119,36415,1,4,3:0:0:0:
93,332,36565,22,0,B|121:283|121:283|132:209,1,105,4|0,3:2|0:0,0:0:0:0:
56,133,36865,1,8,1:0:0:0:
179,69,37015,1,0,3:0:0:0:
173,54,37090,1,0,3:0:0:0:
168,38,37165,1,0,3:0:0:0:
82,47,37315,1,0,3:0:0:0:
148,162,37465,1,8,1:0:0:0:
305,157,37615,6,0,B|278:118|278:118|273:61,1,105,2|0,3:2|0:0,0:0:0:0:
444,115,37915,2,0,B|466:66|466:66|469:15,1,105,2|8,3:2|0:0,0:0:0:0:
406,215,38215,1,0,3:0:0:0:
406,215,38290,1,0,3:0:0:0:
406,215,38365,1,0,3:0:0:0:
472,270,38515,1,0,3:0:0:0:
439,350,38665,1,8,0:0:0:0:
352,347,38815,1,0,3:0:0:0:
123,322,38965,102,0,B|171:301|171:301|265:315,1,105,4|0,3:2|3:3,0:0:0:0:
44,370,39265,1,8,0:0:0:0:
72,243,39415,1,0,3:0:0:0:
68,227,39490,1,0,0:0:0:0:
63,211,39565,1,0,3:0:0:0:
0,296,39715,1,0,3:0:0:0:
164,204,39865,2,0,L|150:150,1,39.3750015020371,8|0,0:0|0:0,0:0:0:0:
93,95,40015,6,0,B|53:97|53:97|2:85,1,78.7500030040742,2|0,3:2|0:0,0:0:0:0:
179,31,40315,2,0,B|212:17|212:17|288:15,1,78.7500030040742,2|8,3:2|0:0,0:0:0:0:
309,156,40615,1,0,3:3:0:0:
251,91,40765,1,0,3:3:0:0:
337,74,40915,1,0,3:3:0:0:
235,226,41065,6,0,P|187:272|119:278,1,125.999996154785,4|0,0:0|3:0,0:0:0:0:
47,250,41290,1,0,3:3:0:0:
28,234,41365,86,0,L|48:347,1,105,12|0,1:2|0:0,0:0:0:0:
136,85,41665,2,0,L|156:198,1,105,8|0,1:0|0:0,0:0:0:0:
313,242,41965,2,0,L|333:355,1,105,8|0,1:0|0:3,0:0:0:0:
434,43,42265,2,0,L|454:156,1,105,8|0,1:0|0:3,0:0:0:0:
417,365,42565,5,12,1:0:0:0:
481,285,42715,1,0,0:0:0:0:
241,148,42865,101,8,1:0:0:0:
217,289,43015,1,0,0:3:0:0:
403,191,43165,5,8,1:0:0:0:
302,21,43315,1,0,0:3:0:0:
81,131,43465,1,8,1:0:0:0:
409,369,43615,101,0,3:3:0:0:
409,369,43690,1,0,3:3:0:0:
409,369,43765,2,0,L|428:276,1,62.9999980773926,8|0,1:0|0:0,0:0:0:0:
350,213,43915,2,0,L|368:138,1,62.9999980773926,0|0,3:3|0:0,0:0:0:0:
430,67,44065,1,0,3:0:0:0:
228,96,44215,6,0,L|309:128,1,62.9999980773926,4|0,1:0|0:0,0:0:0:0:
491,197,44365,2,0,L|420:224,1,62.9999980773926,0|0,3:0|0:0,0:0:0:0:
328,322,44515,1,0,3:0:0:0:
188,154,44665,102,0,L|169:27,1,125.999996154785,0|0,1:0|1:0,1:0:0:0:
337,72,45565,69,0,1:0:0:0:
324,95,45640,1,0,1:0:0:0:
327,120,45715,1,0,1:0:0:0:
315,142,45790,1,0,1:0:0:0:
318,168,45865,1,0,1:0:0:0:
305,191,45940,1,0,1:0:0:0:
311,215,46015,1,0,1:0:0:0:
298,237,46090,1,0,1:0:0:0:
304,258,46165,70,0,P|388:261|436:215,1,115.50000352478,4|0,1:0|0:0,1:0:0:0:
214,91,46465,2,0,P|136:63|86:88,1,115.50000352478,8|0,0:0|0:0,0:0:0:0:
70,305,46765,1,0,3:0:0:0:
154,144,46915,1,0,3:0:0:0:
232,377,47065,1,8,0:0:0:0:
40,201,47215,6,0,L|167:221,1,115.50000352478,6|0,3:2|0:0,0:0:0:0:
290,294,47515,1,2,3:2:0:0:
385,176,47665,1,10,0:0:0:0:
220,178,47815,1,0,0:0:0:0:
393,316,47965,101,2,3:2:0:0:
350,95,48115,1,2,3:2:0:0:
139,230,48265,5,10,0:0:0:0:
202,25,48415,1,0,0:0:0:0:
350,248,48565,101,4,3:2:0:0:
272,319,48715,2,0,P|218:323|140:286,1,115.50000352478,0|8,0:0|0:0,0:0:0:0:
278,135,49015,1,0,0:0:0:0:
397,177,49165,2,0,P|470:172|535:125,1,115.50000352478,0|0,3:0|3:0,3:0:0:0:
277,23,49465,5,8,0:0:0:0:
277,23,49540,1,0,0:0:0:0:
277,23,49615,2,0,L|328:267,1,231.000007049561,4|0,3:2|3:0,0:0:0:0:
40,349,50065,101,0,1:0:0:0:
47,297,50140,1,0,1:0:0:0:
55,245,50215,1,0,1:0:0:0:
63,193,50290,1,0,1:0:0:0:
72,141,50365,2,0,P|145:114|224:147,1,115.50000352478,4|0,0:0|3:0,0:0:0:0:
387,340,50665,1,0,1:0:0:0:
338,371,50740,1,0,1:0:0:0:
280,378,50815,1,0,1:0:0:0:
222,370,50890,1,0,1:0:0:0:
168,350,50965,6,0,L|149:220,1,115.50000352478,4|0,3:2|0:0,0:0:0:0:
340,138,51265,2,0,L|360:21,1,115.50000352478,8|0,0:0|0:0,0:0:0:0:
250,150,51565,1,0,3:0:0:0:
442,214,51715,1,0,3:0:0:0:
301,347,51865,1,8,0:0:0:0:
167,96,52015,102,0,P|107:108|55:160,1,115.50000352478,4|0,3:2|0:0,0:0:0:0:
248,7,52315,1,2,3:2:0:0:
439,89,52465,2,2,P|381:132|319:135,1,115.50000352478,10|2,0:0|0:0,0:0:0:0:
29,119,52765,5,2,3:2:0:0:
103,292,52915,1,0,3:0:0:0:
248,130,53065,101,12,0:0:0:0:
173,363,53215,1,0,3:0:0:0:
1,194,53365,5,4,3:2:0:0:
89,166,53515,1,8,0:0:0:0:
176,196,53665,1,0,3:0:0:0:
244,257,53815,1,0,3:0:0:0:
392,196,53965,1,12,0:0:0:0:
264,104,54115,1,0,3:0:0:0:
171,318,54265,102,0,L|233:351,1,57.7500017623902,12|0,0:0|0:0,0:0:0:0:
432,326,54415,2,0,P|460:248|433:74,1,231.000007049561,4|0,0:0|0:0,0:0:0:0:
107,233,54865,1,8,0:3:0:0:
66,211,54940,1,8,0:3:0:0:
38,172,55015,1,8,0:3:0:0:
21,129,55090,1,4,0:3:0:0:
19,86,55165,1,4,3:2:0:0:
69,302,55315,1,4,3:0:0:0:
234,163,55465,38,0,P|225:130|226:81,1,78.75,4|0,1:0|0:0,0:0:0:0:
272,23,55765,101,4,3:2:0:0:
492,178,55915,1,0,0:0:0:0:
332,114,56065,5,8,0:0:0:0:
426,93,56215,1,0,0:0:0:0:
271,181,56365,101,8,3:2:0:0:
361,28,56515,1,0,3:0:0:0:
371,199,56665,5,8,0:0:0:0:
264,55,56815,1,0,0:0:0:0:
174,287,56965,101,4,3:2:0:0:
286,192,57115,1,0,0:0:0:0:
224,361,57265,5,8,0:0:0:0:
91,208,57415,1,0,0:0:0:0:
310,348,57565,101,8,3:2:0:0:
94,377,57715,1,0,3:0:0:0:
149,144,57865,5,8,0:0:0:0:
327,266,58015,1,8,0:0:0:0:
374,49,58165,70,0,P|444:20|495:32,1,115.50000352478,4|2,3:2|0:0,0:0:0:0:
225,109,58465,2,2,P|176:68|83:80,1,115.50000352478,10|2,0:0|0:0,0:0:0:0:
287,20,58765,1,2,3:2:0:0:
352,134,58915,2,0,L|343:260,1,115.50000352478,0|10,3:0|0:0,0:0:0:0:
34,35,59215,6,0,L|75:281,1,231.000007049561,4|0,3:2|3:0,0:0:0:0:
209,178,59665,1,10,0:0:0:0:
211,331,59815,1,2,3:2:0:0:
56,252,59965,1,14,0:0:0:0:
309,155,60115,1,0,0:0:0:0:
195,5,60265,2,0,L|168:148,1,115.50000352478,12|0,0:0|0:0,0:0:0:0:
64,358,60565,5,4,3:2:0:0:
27,186,60715,1,0,0:0:0:0:
141,308,60865,5,8,0:0:0:0:
157,188,61015,1,0,0:0:0:0:
277,286,61165,101,8,3:2:0:0:
243,138,61315,1,0,3:0:0:0:
377,310,61465,5,8,0:0:0:0:
421,158,61615,1,0,0:0:0:0:
265,43,61765,101,4,3:2:0:0:
322,195,61915,1,0,0:0:0:0:
180,337,62065,5,8,0:0:0:0:
232,172,62215,1,0,0:0:0:0:
62,74,62365,101,8,3:2:0:0:
106,274,62515,1,0,3:0:0:0:
157,29,62665,5,8,0:0:0:0:
0,205,62815,2,0,B|73:299|136:176|215:261,1,231.000007049561,4|0,0:0|3:2,0:0:0:0:
412,130,63265,70,0,P|439:125|469:107,1,57.7500017623902,8|0,0:0|0:0,0:0:0:0:
508,26,63415,1,0,3:0:0:0:
277,195,63565,6,0,P|241:186|191:153,1,57.7500017623902,12|0,0:0|0:0,0:0:0:0:
179,99,63715,1,0,3:0:0:0:
373,293,63865,101,8,0:0:0:0:
378,315,63940,1,0,3:0:0:0:
381,337,64015,1,0,3:0:0:0:
386,359,64090,1,0,3:0:0:0:
393,383,64165,2,0,P|393:351|404:330,1,52.5,8|0,0:0|0:0,0:0:0:0:
458,283,64765,22,0,P|366:228|235:274,1,236.250009012223,2|0,0:0|0:0,0:0:0:0:
226,282,65065,6,0,P|188:279|152:246,1,78.7500030040742,8|0,3:0|0:0,0:0:0:0:
173,30,65365,6,0,B|208:72|208:72|204:150,1,105,4|0,3:2|0:0,0:0:0:0:
18,313,65665,2,0,B|8:259|8:259|51:193,1,105,8|0,0:0|0:0,0:0:0:0:
112,110,65965,1,0,3:0:0:0:
223,204,66115,1,0,0:0:0:0:
21,90,66265,1,10,0:0:0:0:
135,223,66415,1,0,0:0:0:0:
173,30,66565,6,0,P|231:49|303:34,1,105,2|0,3:2|0:0,0:0:0:0:
491,73,66865,2,0,P|424:85|377:123,1,105,8|0,0:0|0:0,0:0:0:0:
307,263,67165,2,0,L|291:144,1,105,2|0,3:2|0:0,0:0:0:0:
175,338,67465,1,8,0:0:0:0:
212,182,67615,1,8,0:0:0:0:
392,349,67765,102,0,B|439:356|439:356|530:321,1,105,6|0,3:2|0:0,0:0:0:0:
227,271,68065,1,8,0:0:0:0:
339,186,68215,2,0,L|320:319,1,105,0|0,0:0|3:0,0:0:0:0:
26,268,68515,1,0,0:0:0:0:
173,185,68665,1,10,0:0:0:0:
31,98,68815,1,0,0:0:0:0:
102,290,68965,5,2,3:2:0:0:
236,78,69115,1,0,0:0:0:0:
123,309,69265,1,8,0:0:0:0:
118,113,69415,1,0,0:0:0:0:
243,249,69565,2,0,P|293:270|359:257,1,105,2|8,3:2|0:0,0:0:0:0:
512,61,69865,101,8,1:0:0:0:
460,41,69940,1,8,1:0:0:0:
406,53,70015,1,8,1:0:0:0:
364,89,70090,1,8,1:0:0:0:
351,145,70165,6,0,B|321:106|321:106|306:34,1,105,4|0,0:0|0:0,0:0:0:0:
453,162,70465,2,0,L|436:284,1,105,8|0,0:0|0:0,0:0:0:0:
367,355,70765,1,0,3:0:0:0:
291,190,70915,1,0,0:0:0:0:
184,298,71065,2,0,P|263:277|307:297,1,105,10|0,0:0|0:0,0:0:0:0:
121,178,71365,102,0,P|69:213|1:212,1,105,2|0,3:2|0:0,0:0:0:0:
51,15,71665,2,0,P|107:45|133:112,1,105,8|0,0:0|0:0,0:0:0:0:
203,204,71965,1,2,3:2:0:0:
282,175,72115,1,0,0:0:0:0:
302,79,72265,1,8,0:0:0:0:
408,38,72415,1,0,3:0:0:0:
506,121,72565,6,0,P|523:171|391:222,1,223.125008511544,8|0,0:0|0:0,0:0:0:0:
390,237,73065,2,0,L|380:287,2,39.3750015020371,0|0|0,3:0|3:0|3:0,3:0:0:0:
427,115,73615,2,0,L|362:122,1,39.3750015020371,0|0,3:0|3:0,3:0:0:0:
255,192,73765,69,8,1:0:0:0:
233,268,73865,5,8,1:0:0:0:
308,252,73965,101,8,1:0:0:0:
334,178,74065,5,8,1:0:0:0:
280,117,74165,101,8,1:0:0:0:
197,139,74265,5,8,1:0:0:0:
177,214,74365,101,8,1:0:0:0:
173,219,74665,6,0,L|91:206,1,78.75,2|0,0:0|0:0,0:0:0:0:
80,199,74965,38,0,B|54:139|54:139|90:45,1,157.500006008148,4|0,3:2|0:0,0:0:0:0:
283,12,75415,1,0,3:0:0:0:
275,94,75565,1,2,3:2:0:0:
199,124,75715,2,0,L|208:211,1,78.7500030040742,2|0,0:0|0:0,0:0:0:0:
356,276,76015,6,0,L|270:286,1,78.7500030040742,2|0,3:2|0:0,0:0:0:0:
170,360,76315,1,0,3:0:0:0:
108,298,76465,1,0,0:0:0:0:
35,345,76615,2,0,P|20:285|26:249,1,78.7500030040742,0|2,3:0|3:2,3:0:0:0:
89,117,76915,1,2,0:0:0:0:
89,117,77065,2,0,P|101:170|90:202,1,78.7500030040742,2|0,0:0|0:0,0:0:0:0:
181,275,77365,102,0,B|239:263|239:263|268:229|268:229|330:217,1,157.500006008148,2|0,3:2|0:0,0:0:0:0:
387,272,77815,1,0,3:0:0:0:
407,159,77965,1,2,3:2:0:0:
457,224,78115,2,0,P|498:245|535:251,1,78.7500030040742
367,91,78415,6,0,P|366:40|378:4,1,78.7500030040742,2|2,3:2|0:2,0:2:0:0:
479,127,78715,1,2,3:2:0:0:
407,159,78865,1,0,0:0:0:0:
202,144,79015,101,2,3:2:0:0:
280,90,79165,1,0,3:0:0:0:
388,254,79315,5,2,0:2:0:0:
293,211,79465,1,2,0:2:0:0:
82,283,79615,101,0,0:0:0:0:
117,183,79765,2,0,B|142:129|142:129|106:30,1,157.500006008148,0|0,3:0|0:0,0:0:0:0:
19,215,80215,5,2,3:2:0:0:
96,183,80365,1,2,3:2:0:0:
153,248,80515,1,2,0:2:0:0:
112,316,80665,1,0,0:0:0:0:
30,304,80815,102,0,L|18:391,1,78.7500030040742,2|0,3:2|0:0,0:0:0:0:
175,239,81115,2,0,L|243:298,1,78.7500030040742,2|0,3:2|0:0,0:0:0:0:
76,210,81415,1,2,3:2:0:0:
123,338,81565,6,0,P|172:344|209:374,1,78.7500030040742,0|0,3:0|0:0,0:0:0:0:
275,381,81790,1,0,0:0:0:0:
282,382,81865,1,2,0:0:0:0:
289,382,81940,1,0,0:0:0:0:
296,380,82015,1,0,0:0:0:0:
303,376,82090,1,0,0:0:0:0:
309,369,82165,102,0,L|293:274,1,78.7500030040742,4|0,3:2|0:0,0:0:0:0:
277,197,82465,1,0,0:0:0:0:
384,301,82615,1,0,3:0:0:0:
212,270,82765,1,0,3:0:0:0:
192,148,82915,1,0,0:0:0:0:
303,192,83065,1,0,3:0:0:0:
62,169,83215,22,0,B|54:210|68:246|68:246|129:266|168:230|168:230|172:277|222:313,1,251.999992309571,12|8,1:0|0:0,0:0:0:0:
275,311,83590,1,8,0:0:0:0:
275,311,83665,1,8,0:0:0:0:
300,153,83815,1,0,3:0:0:0:
170,369,83965,1,8,0:0:0:0:
438,333,84115,5,8,0:0:0:0:
403,320,84190,1,8,0:0:0:0:
368,306,84265,1,8,0:0:0:0:
170,237,84415,1,8,0:0:0:0:
202,220,84490,1,8,0:0:0:0:
235,204,84565,38,0,L|213:96,1,105,4|0,0:0|0:0,0:0:0:0:
35,36,84865,1,8,0:0:0:0:
19,178,85015,1,0,0:0:0:0:
145,111,85165,1,0,3:0:0:0:
107,311,85315,1,0,0:0:0:0:
31,153,85465,1,8,0:0:0:0:
0,342,85615,1,0,0:0:0:0:
199,298,85765,6,0,P|171:244|122:217,1,105,0|0,3:0|3:0,0:0:0:0:
357,237,86065,2,0,P|395:184|461:177,1,105,8|0,0:0|0:0,0:0:0:0:
503,203,86290,1,0,0:0:0:0:
503,203,86365,1,0,3:0:0:0:
433,297,86515,1,0,0:0:0:0:
404,105,86665,1,8,0:0:0:0:
435,311,86815,1,8,0:0:0:0:
266,165,86965,102,0,L|240:45,1,105,0|0,3:0|0:0,0:0:0:0:
476,167,87265,1,8,0:0:0:0:
379,45,87415,1,0,0:0:0:0:
391,227,87565,1,0,3:0:0:0:
507,146,87715,1,0,0:0:0:0:
307,241,87865,1,8,0:0:0:0:
504,328,88015,1,0,0:0:0:0:
415,380,88165,6,0,B|361:382|361:382|301:365,1,105,0|0,3:0|0:0,0:0:0:0:
179,218,88465,1,8,0:0:0:0:
208,366,88615,1,0,0:0:0:0:
208,366,88690,1,0,0:0:0:0:
208,366,88765,1,0,3:0:0:0:
263,234,88915,1,0,0:0:0:0:
15,309,89065,1,12,0:0:0:0:
184,349,89215,1,0,0:0:0:0:
214,172,89365,102,0,L|192:49,1,105,4|0,3:2|0:0,0:0:0:0:
293,18,89665,1,8,0:0:0:0:
115,164,89815,1,0,0:0:0:0:
115,164,89890,1,0,0:0:0:0:
115,164,89965,1,0,3:0:0:0:
22,96,90115,1,0,0:0:0:0:
214,53,90265,1,8,0:0:0:0:
176,262,90415,1,0,0:0:0:0:
176,262,90490,1,0,0:0:0:0:
176,262,90565,6,0,P|234:258|284:235,1,105
46,356,90865,2,0,L|148:379,1,105,8|0,0:0|3:0,0:0:0:0:
222,359,91090,1,0,0:0:0:0:
222,359,91165,1,0,3:0:0:0:
276,240,91315,1,0,0:0:0:0:
355,339,91465,1,12,0:0:0:0:
219,167,91615,2,0,L|292:139,1,52.5
347,157,91765,102,0,B|359:217|359:217|334:293,1,105,4|0,3:2|0:0,0:0:0:0:
119,125,92065,2,0,B|109:78|109:78|138:2,1,105,8|0,0:0|0:0,0:0:0:0:
207,80,92365,1,0,3:0:0:0:
179,260,92515,1,0,0:0:0:0:
224,53,92665,1,8,0:0:0:0:
267,312,92815,85,0,3:0:0:0:
232,344,92890,1,0,3:0:0:0:
185,352,92965,1,12,0:0:0:0:
137,348,93040,1,0,0:0:0:0:
102,315,93115,1,8,0:0:0:0:
55,305,93190,1,0,3:0:0:0:
11,323,93265,2,0,P|5:363|13:388,1,52.5,0|0,3:0|0:0,0:0:0:0:
179,260,93415,2,0,P|179:203|152:169,1,52.5,8|0,3:2|0:0,0:0:0:0:
82,76,93565,1,8,0:0:0:0:
258,236,93715,5,0,3:0:0:0:
307,164,93865,1,0,3:0:0:0:
215,131,94015,1,0,3:0:0:0:
246,28,94165,38,0,P|284:72|350:87,1,94.499997116089,4|0,3:2|0:0,0:0:0:0:
497,167,94465,2,0,P|417:176|399:196,1,94.499997116089,8|0,0:0|3:0,0:0:0:0:
400,223,94690,1,0,0:0:0:0:
400,223,94765,2,0,B|441:249|441:249|497:260,1,94.499997116089,0|0,3:0|3:0,0:0:0:0:
473,80,95065,1,8,0:0:0:0:
250,167,95215,6,0,P|267:236|251:290,1,94.499997116089,2|0,3:0|0:0,0:0:0:0:
89,374,95515,1,2,3:0:0:0:
167,243,95665,1,8,0:0:0:0:
253,384,95815,1,0,3:0:0:0:
233,378,95890,1,0,3:0:0:0:
212,373,95965,1,0,3:0:0:0:
243,290,96115,1,0,3:0:0:0:
327,299,96265,1,8,0:0:0:0:
360,377,96415,1,0,3:0:0:0:
511,238,96565,102,0,P|492:187|483:136,1,94.499997116089,4|0,3:2|3:0,0:0:0:0:
371,32,96865,2,0,P|369:90|350:144,1,94.499997116089,8|0,0:0|0:0,0:0:0:0:
253,237,97165,2,0,P|206:189|191:150,1,94.499997116089,0|0,3:0|3:0,3:0:0:0:
251,21,97465,1,8,0:0:0:0:
55,63,97615,6,0,B|147:83,1,94.499997116089,2|0,3:0|0:0,0:0:0:0:
276,111,97915,1,2,3:0:0:0:
388,194,98065,1,8,0:0:0:0:
282,226,98215,1,0,3:0:0:0:
362,183,98365,2,0,B|380:231|380:231|386:291,1,94.499997116089,0|0,3:0|3:0,0:0:0:0:
148,368,98665,6,0,B|148:297|148:297|163:227,1,125.999996154785,12|0,0:0|3:0,0:0:0:0:
89,207,98890,1,0,3:0:0:0:
89,207,98965,86,0,P|147:200|197:191,1,94.499997116089,12|0,0:0|0:0,0:0:0:0:
422,177,99265,2,0,P|374:181|328:189,1,94.499997116089,8|0,0:0|0:0,0:0:0:0:
241,24,99566,2,0,P|245:72|253:118,1,94.499997116089,8|0,0:0|3:0,0:0:0:0:
271,359,99865,2,0,P|266:311|258:265,1,94.499997116089,8|0,0:0|3:0,0:0:0:0:
170,115,100165,5,12,0:0:0:0:
342,269,100315,1,0,3:0:0:0:
343,103,100465,1,8,0:0:0:0:
169,281,100615,1,0,3:0:0:0:
256,194,100765,101,8,0:0:0:0:
159,373,100915,2,0,P|124:367|103:355,1,47.2499985580445,0|0,3:0|0:0,0:0:0:0:
30,340,101065,2,0,P|32:298|56:274,1,47.2499985580445,8|0,0:0|0:0,0:0:0:0:
1,216,101215,2,0,P|35:188|53:184,1,47.2499985580445,0|0,3:0|3:0,3:0:0:0:
163,177,101365,5,12,0:0:0:0:
205,140,101440,1,0,0:0:0:0:
210,83,101515,1,0,3:0:0:0:
180,34,101590,1,0,0:0:0:0:
124,24,101665,2,0,P|97:41|59:44,1,47.2499985580445,0|0,3:0|0:0,0:0:0:0:
85,243,101815,101,12,0:0:0:0:
129,277,101890,1,0,0:0:0:0:
185,271,101965,1,0,3:0:0:0:
228,234,102040,1,0,0:0:0:0:
285,231,102115,2,0,P|311:237|334:252,1,47.2499985580445,0|0,3:0|0:0,0:0:0:0:
469,359,102265,5,12,0:0:0:0:
417,382,102340,1,0,0:0:0:0:
361,368,102415,2,0,L|355:304,1,47.2499985580445,0|0,3:0|3:0,3:0:0:0:
369,187,102565,53,0,1:0:0:0:
406,167,102640,1,0,3:0:0:0:
448,163,102715,1,0,3:0:0:0:
483,186,102790,1,0,3:0:0:0:
512,137,102865,1,0,1:0:0:0:
491,99,102940,1,0,3:0:0:0:
452,79,103015,1,0,3:0:0:0:
409,81,103090,1,0,3:0:0:0:
367,103,103165,102,0,L|345:26,1,52.5,8|0,1:0|0:0,0:0:0:0:
250,17,103315,2,0,L|267:73,1,52.5,0|0,3:0|0:0,0:0:0:0:
204,149,103465,2,0,L|180:72,1,52.5,8|0,1:0|0:0,0:0:0:0:
88,53,103615,2,0,L|104:106,1,52.5,0|0,3:0|0:0,0:0:0:0:
30,200,103765,86,0,B|3:160|3:160|-5:73,1,115.50000352478,4|0,3:2|0:0,0:0:0:0:
168,273,104065,2,0,B|161:322|161:322|119:410,1,115.50000352478,8|0,0:0|0:0,0:0:0:0:
287,208,104365,1,0,3:0:0:0:
107,174,104515,1,0,3:0:0:0:
233,357,104665,1,8,0:0:0:0:
360,145,104815,6,0,P|392:69|385:19,1,115.50000352478,4|0,3:2|0:0,0:0:0:0:
180,196,105115,1,2,0:2:0:0:
338,310,105265,2,0,P|417:342|459:332,1,115.50000352478,10|2,0:2|0:2,0:2:0:0:
222,105,105565,1,2,3:2:0:0:
253,372,105715,1,0,3:0:0:0:
443,246,105865,2,0,L|417:114,1,115.50000352478,10|0,0:0|0:0,0:0:0:0:
141,303,106165,101,4,3:2:0:0:
66,197,106315,2,0,L|85:66,1,115.50000352478,0|8,0:0|0:0,0:0:0:0:
334,40,106615,1,0,0:0:0:0:
168,163,106765,1,0,3:0:0:0:
344,241,106915,1,0,3:0:0:0:
165,22,107065,1,8,0:0:0:0:
277,318,107215,6,0,B|256:242|256:242|284:172|284:172|252:79,1,231.000007049561,4|0,3:2|3:0,0:0:0:0:
0,253,107665,101,0,1:0:0:0:
48,284,107740,1,0,1:0:0:0:
104,293,107815,1,0,1:0:0:0:
157,270,107890,1,0,1:0:0:0:
186,220,107965,2,0,B|139:171|139:171|54:154,1,115.50000352478,4|0,3:2|0:0,3:2:0:0:
402,22,108265,1,0,1:0:0:0:
352,49,108340,1,0,1:0:0:0:
326,100,108415,1,0,1:0:0:0:
326,157,108490,1,0,1:0:0:0:
354,207,108565,6,0,B|404:233|404:233|487:243,1,115.50000352478,4|0,3:2|0:0,0:0:0:0:
251,348,108865,2,0,B|190:355|190:355|125:396,1,115.50000352478,8|0,0:0|0:0,0:0:0:0:
376,336,109165,1,0,3:0:0:0:
424,132,109315,1,0,3:0:0:0:
205,179,109465,2,0,L|269:190,1,57.7500017623902,8|0,0:0|0:0,0:0:0:0:
323,125,109615,102,0,P|343:57|322:0,1,115.50000352478,4|0,3:2|0:0,0:0:0:0:
130,170,109915,1,2,3:2:0:0:
254,62,110065,1,10,0:2:0:0:
16,28,110215,1,2,0:2:0:0:
169,238,110365,1,2,3:2:0:0:
169,58,110515,1,2,3:2:0:0:
17,191,110665,2,0,L|61:328,1,115.50000352478,12|0,0:0|0:0,0:0:0:0:
251,376,110965,5,4,3:2:0:0:
325,322,111115,1,8,0:0:0:0:
272,245,111265,1,0,3:0:0:0:
191,300,111415,1,0,3:0:0:0:
401,361,111565,101,12,0:0:0:0:
123,272,111715,1,0,3:0:0:0:
437,40,111865,2,0,L|420:109,1,57.7500017623902,12|0,0:0|0:0,0:0:0:0:
365,262,112015,6,0,B|378:190|378:190|325:130|325:130|348:15,1,231.000007049561,4|0,3:2|3:0,0:0:0:0:
103,31,112465,1,8,0:0:0:0:
121,73,112540,1,8,0:0:0:0:
150,108,112615,1,0,3:0:0:0:
190,130,112690,1,0,3:0:0:0:
235,134,112765,1,12,0:0:0:0:
14,69,112915,1,0,3:0:0:0:
115,230,113065,22,0,P|172:248|212:241,1,78.75,12|0,0:0|0:0,0:0:0:0:
253,210,113365,101,4,0:0:0:0:
91,159,113515,1,0,0:0:0:0:
277,216,113665,5,8,0:0:0:0:
68,152,113815,1,0,0:0:0:0:
200,99,113965,101,8,3:2:0:0:
141,283,114115,1,0,3:0:0:0:
208,76,114265,5,8,0:0:0:0:
136,301,114415,1,0,0:0:0:0:
479,209,114565,101,4,3:2:0:0:
267,287,114715,1,0,0:0:0:0:
497,203,114865,5,8,0:0:0:0:
248,298,115015,1,0,0:0:0:0:
418,365,115165,101,8,3:2:0:0:
316,127,115315,1,0,3:0:0:0:
424,379,115465,5,8,0:0:0:0:
305,107,115615,1,0,0:0:0:0:
412,236,115765,70,0,P|347:207|294:215,1,115.50000352478,4|0,3:2|0:0,0:0:0:0:
91,248,116065,1,8,0:0:0:0:
292,130,116215,1,0,0:0:0:0:
130,42,116365,2,0,L|169:183,1,115.50000352478,0|0,3:0|3:0,3:0:0:0:
215,362,116665,1,8,0:0:0:0:
15,268,116815,6,0,B|91:247|91:247|147:278|147:278|234:251,1,231.000007049561,4|0,3:2|3:0,0:0:0:0:
432,336,117265,1,8,0:0:0:0:
305,171,117415,1,0,3:0:0:0:
479,88,117565,1,12,0:0:0:0:
344,372,117715,1,0,3:0:0:0:
205,23,117865,22,0,P|185:57|182:96,1,78.75,12|0,0:0|0:0,0:0:0:0:
223,160,118165,101,4,3:2:0:0:
472,219,118315,1,0,0:0:0:0:
296,94,118465,5,8,0:0:0:0:
217,291,118615,1,0,0:0:0:0:
392,119,118765,101,8,3:2:0:0:
151,85,118915,1,0,3:0:0:0:
394,212,119065,5,8,0:0:0:0:
145,277,119215,1,0,0:0:0:0:
278,107,119365,101,4,3:2:0:0:
248,326,119515,1,0,0:0:0:0:
76,198,119665,5,8,0:0:0:0:
328,359,119815,1,0,0:0:0:0:
89,111,119965,101,8,3:2:0:0:
161,349,120115,1,0,3:0:0:0:
223,58,120265,5,8,0:0:0:0:
438,223,120415,2,0,B|353:260|342:169|252:225,1,173.250005287171,4|0,3:2|0:0,0:0:0:0:
271,214,120715,1,0,3:0:0:0:
410,6,120865,70,0,P|415:48|392:99,1,57.7500017623902,8|0,0:0|0:0,0:0:0:0:
344,127,121015,1,0,3:0:0:0:
119,265,121165,6,0,P|157:248|196:209,1,57.7500017623902,8|0,0:0|0:0,0:0:0:0:
192,144,121315,1,0,3:0:0:0:
468,332,121465,101,8,0:0:0:0:
439,295,121540,1,0,3:0:0:0:
397,274,121615,1,0,3:0:0:0:
350,272,121690,1,0,3:0:0:0:
304,295,121765,2,0,P|306:329|296:352,1,52.5,8|0,0:0|0:0,0:0:0:0:
201,384,122365,38,0,B|175:309|175:309|198:252|198:252|174:161,1,220.499993270874,2|0,0:0|0:0,0:0:0:0:
189,157,122665,2,0,P|152:175|180:59,1,220.499993270874,0|0,3:0|0:0,0:0:0:0:
130,70,122965,1,4,0:0:0:0:
442,96,127765,37,0,0:0:0:0:
439,111,127915,1,0,0:0:0:0:
436,126,128065,1,0,0:0:0:0:
433,141,128215,1,0,0:0:0:0:
375,205,128365,1,0,0:0:0:0:
289,191,128515,1,0,0:0:0:0:
268,106,128665,1,0,0:0:0:0:
182,94,128815,1,0,0:0:0:0:
111,167,128965,5,0,0:0:0:0:
163,269,129115,1,0,0:0:0:0:
197,106,129265,1,0,0:0:0:0:
38,164,129415,1,0,0:0:0:0:
189,288,129565,101,0,0:0:0:0:
192,81,129715,1,0,0:0:0:0:
12,183,129865,1,0,0:0:0:0:
211,312,130015,1,0,0:0:0:0:
385,144,130165,5,0,0:0:0:0:
390,104,130240,1,0,0:0:0:0:
380,65,130315,1,0,0:0:0:0:
352,36,130390,1,0,0:0:0:0:
315,22,130465,5,0,0:0:0:0:
287,60,130540,1,0,0:0:0:0:
288,107,130615,1,0,0:0:0:0:
309,148,130690,1,0,0:0:0:0:
339,184,130765,5,0,0:0:0:0:
351,237,130840,1,0,0:0:0:0:
338,290,130915,1,0,0:0:0:0:
300,330,130990,1,0,0:0:0:0:
251,357,131065,5,0,0:0:0:0:
201,318,131140,1,0,0:0:0:0:
172,261,131215,1,0,0:0:0:0:
181,198,131290,1,0,0:0:0:0:
217,146,131365,5,0,0:0:0:0:
217,146,131965,2,0,B|242:196|242:196|241:257,1,105
31,100,132265,2,0,B|46:48|46:48|95:-1,1,105
326,51,132565,37,4,3:2:0:0:
137,243,132715,1,0,3:0:0:0:
419,194,132865,2,0,P|465:160|464:58,1,157.500006008148,0|4,3:0|0:0,0:0:0:0:
276,188,133315,1,0,0:0:0:0:
163,84,133465,1,0,0:0:0:0:
356,143,133615,5,0,3:0:0:0:
356,143,133690,1,0,3:0:0:0:
356,143,133765,2,0,B|375:190|375:190|357:246|357:246|391:320,1,157.500006008148,4|0,0:0|0:0,0:0:0:0:
123,378,134215,1,0,0:0:0:0:
123,378,134290,1,0,0:0:0:0:
123,378,134365,2,0,B|125:327|125:327|149:293,1,78.7500030040742,4|0,3:2|0:0,0:0:0:0:
29,174,134665,2,0,B|66:148|66:148|114:146,1,78.7500030040742
449,219,134965,101,4,3:2:0:0:
296,373,135115,1,0,3:0:0:0:
240,193,135265,2,0,B|246:161|231:140|231:140|264:111|264:111|272:69|240:33,1,157.500006008148,0|4,3:0|0:0,0:0:0:0:
374,263,135715,1,0,3:0:0:0:
351,258,135790,1,0,0:0:0:0:
325,252,135865,1,0,0:0:0:0:
427,37,136015,6,0,B|430:36|423:41|445:57,1,19.6875007510186
435,37,136090,2,0,B|455:63,1,19.6875007510186
442,37,136165,2,0,B|485:92|485:92|468:180,1,157.500006008148,4|0,0:0|0:0,0:0:0:0:
214,346,136615,37,0,3:0:0:0:
214,346,136690,1,0,3:0:0:0:
214,346,136765,2,0,B|170:333|150:305|150:305|78:318|78:318|36:267|-20:274,1,236.250009012223,8|0,0:0|0:0,0:0:0:0:
228,218,137365,54,0,P|239:162|219:97,1,105,4|0,3:2|3:0,3:0:0:0:
156,72,137590,1,0,0:0:0:0:
156,72,137665,2,0,B|65:49|65:49|-16:73,1,157.500006008148,0|4,3:0|0:0,0:0:0:0:
250,34,138115,1,0,3:0:0:0:
101,172,138265,1,0,0:0:0:0:
370,258,138415,5,0,3:0:0:0:
370,258,138490,1,0,3:0:0:0:
370,258,138565,2,0,B|414:246|414:246|436:219|436:219|478:250|533:231,1,157.500006008148,4|0,0:0|0:0,0:0:0:0:
162,332,139015,1,0,3:0:0:0:
240,121,139165,101,4,0:0:0:0:
304,351,139315,1,0,3:0:0:0:
335,63,139465,1,0,0:0:0:0:
217,283,139615,1,0,0:0:0:0:
83,63,139765,6,0,P|129:42|148:45,1,39.3750015020371,4|0,3:2|0:0,0:0:0:0:
199,70,139915,2,0,P|223:106|221:123,1,39.3750015020371,0|0,3:0|0:0,0:0:0:0:
195,180,140065,2,0,B|145:208|145:208|84:194|84:194|35:216,1,157.500006008148,0|4,3:0|0:0,0:0:0:0:
137,370,140515,1,0,3:0:0:0:
49,234,140665,1,0,0:0:0:0:
22,349,140815,1,0,3:0:0:0:
209,294,140965,102,0,P|267:304|349:250,1,125.999996154785,4|0,0:0|0:0,0:0:0:0:
474,89,141265,1,0,3:0:0:0:
471,41,141340,1,0,0:0:0:0:
429,18,141415,1,0,3:0:0:0:
379,22,141490,1,0,0:0:0:0:
352,60,141565,1,8,0:0:0:0:
359,106,141640,1,8,0:0:0:0:
386,144,141715,1,0,3:0:0:0:
370,188,141790,1,0,3:0:0:0:
330,204,141865,5,12,0:0:0:0:
330,204,142015,1,12,0:0:0:0:
164,307,142765,2,0,P|153:222|244:177,1,183.75
228,176,143365,69,12,3:2:0:0:
228,176,143515,1,8,0:0:0:0:
125,99,143665,2,0,B|123:45|123:45|94:-6,1,94.499997116089,0|0,3:0|0:0,0:0:0:0:
26,161,143965,2,0,B|19:214|19:214|35:264,1,94.499997116089,0|0,3:0|0:0,0:0:0:0:
66,355,144265,1,0,3:0:0:0:
274,328,144415,6,0,P|223:331|159:303,1,115.50000352478,12|0,0:0|3:0,0:0:0:0:
431,222,144715,2,0,P|378:221|325:250,1,115.50000352478,12|0,0:0|3:0,0:0:0:0:
403,313,145015,1,0,0:0:0:0:
379,147,145165,1,0,3:0:0:0:
512,219,145315,1,0,0:0:0:0:
324,250,145465,1,0,3:0:0:0:
268,39,145615,1,10,0:0:0:0:
118,157,145765,102,0,P|71:142|27:103,1,94.499997116089,0|0,0:0|0:0,3:0:0:0:
77,268,146065,2,0,P|129:263|189:281,1,94.499997116089,0|0,3:0|0:0,0:0:0:0:
270,367,146365,2,0,L|291:252,2,94.499997116089,0|0|0,3:0|0:0|0:0,0:0:0:0:
323,162,146815,5,8,0:3:0:0:
323,162,146890,1,0,0:0:0:0:
323,162,146965,1,0,3:0:0:0:
409,365,147115,1,4,0:3:0:0:
409,365,147190,1,0,0:0:0:0:
409,365,147265,1,0,3:0:0:0:
484,223,147415,101,4,0:0:0:0:
398,183,147565,1,4,3:0:0:0:
319,235,147715,1,4,0:3:0:0:
326,329,147865,2,0,P|283:370|237:381,1,94.499997116089,4|0,3:0|0:0,0:0:0:0:
35,334,148165,21,4,3:2:0:0:
22,320,148240,1,0,0:0:0:0:
20,301,148315,1,0,0:0:0:0:
23,282,148390,1,0,0:0:0:0:
34,267,148465,1,8,0:0:0:0:
52,261,148540,1,0,0:0:0:0:
70,264,148615,1,0,0:0:0:0:
84,275,148690,1,0,0:0:0:0:
94,290,148765,5,8,0:0:0:0:
125,269,148840,1,0,0:0:0:0:
142,235,148915,1,0,0:0:0:0:
138,197,148990,1,0,0:0:0:0:
118,164,149065,1,8,0:0:0:0:
104,128,149140,1,0,0:0:0:0:
112,91,149215,1,0,0:0:0:0:
137,63,149290,1,0,0:0:0:0:
174,55,149365,5,8,0:0:0:0:
209,93,149440,1,0,0:0:0:0:
256,113,149515,1,0,0:0:0:0:
307,109,149590,1,0,0:0:0:0:
345,74,149665,1,8,0:0:0:0:
336,23,149740,1,0,0:0:0:0:
286,5,149815,1,0,0:0:0:0:
245,36,149890,1,0,0:0:0:0:
244,87,149965,5,8,0:0:0:0:
286,131,150040,1,0,0:0:0:0:
298,191,150115,1,0,0:0:0:0:
275,248,150190,1,0,0:0:0:0:
218,271,150265,5,8,0:0:0:0:
171,217,150340,1,0,0:0:0:0:
100,223,150415,1,8,0:0:0:0:
59,281,150490,1,0,0:0:0:0:
98,349,150565,5,2,3:2:0:0:
125,373,150865,1,0,3:0:0:0:
125,373,151165,1,0,3:0:0:0:
125,373,151465,1,0,3:0:0:0:
125,373,151765,1,0,3:0:0:0:
125,373,152065,1,0,3:0:0:0:
125,373,152365,1,0,3:0:0:0:
125,373,152665,1,0,3:0:0:0:
393,306,152965,38,0,L|470:281,1,47.2499985580445,2|0,3:2|0:0,0:0:0:0:
293,203,153115,2,0,L|318:280,1,47.2499985580445,0|0,3:0|0:0,0:0:0:0:
334,378,153265,1,0,3:0:0:0:
105,281,153415,6,0,L|173:262,1,47.2499985580445,2|0,3:2|0:0,0:0:0:0:
175,152,153565,2,0,L|247:133,1,47.2499985580445,0|0,3:0|0:0,0:0:0:0:
417,118,153715,1,0,3:0:0:0:
417,118,153865,54,0,B|426:69|401:27|345:0|345:0|302:28|281:85|307:153|307:153|373:199|442:188|442:188|399:208|397:244,1,525,2|4,3:2|0:1,0:0:0:0:
33,138,164965,117,4,0:0:0:0:
33,138,165265,1,0,0:0:0:0:
33,138,165565,1,0,0:0:0:0:
33,138,165865,1,0,0:0:0:0:
209,231,166015,1,0,0:0:0:0:
92,239,166165,37,0,0:0:0:0:
92,239,166465,1,0,0:0:0:0:
92,239,166765,1,0,0:0:0:0:
305,169,166915,1,0,0:0:0:0:
204,268,167065,1,0,0:0:0:0:
217,110,167215,1,0,0:0:0:0:
295,338,167365,69,0,0:0:0:0:
295,338,167665,1,0,0:0:0:0:
295,338,167965,1,0,0:0:0:0:
295,338,168265,1,0,0:0:0:0:
462,186,168415,1,0,0:0:0:0:
378,124,168565,38,0,L|395:21,1,78.7500030040742
273,166,168865,2,0,L|292:65,1,78.7500030040742
108,49,169165,1,0,0:0:0:0:
91,186,169315,1,0,0:0:0:0:
188,92,169465,1,0,0:0:0:0:
45,114,169615,1,0,0:0:0:0:
177,182,169765,5,0,0:0:0:0:
266,113,169915,1,0,0:0:0:0:
335,202,170065,1,0,0:0:0:0:
246,271,170215,1,0,0:0:0:0:
145,207,170365,5,0,0:0:0:0:
240,81,170515,1,0,0:0:0:0:
366,176,170665,1,0,0:0:0:0:
271,302,170815,1,0,0:0:0:0:
112,252,170965,5,0,0:0:0:0:
195,48,171115,1,0,0:0:0:0:
399,131,171265,1,0,0:0:0:0:
316,335,171415,1,0,0:0:0:0:
91,319,171565,5,0,0:0:0:0:
128,27,171715,1,0,0:0:0:0:
420,64,171865,1,0,0:0:0:0:
383,356,172015,1,0,0:0:0:0:
208,182,172165,53,0,0:0:0:0:
193,133,172240,1,0,0:0:0:0:
216,87,172315,1,0,0:0:0:0:
257,56,172390,1,0,0:0:0:0:
299,97,172465,1,0,0:0:0:0:
313,154,172540,1,0,0:0:0:0:
296,210,172615,1,0,0:0:0:0:
302,265,172690,1,0,0:0:0:0:
355,290,172765,5,0,0:0:0:0:
411,272,172840,1,0,0:0:0:0:
425,214,172915,1,0,0:0:0:0:
390,166,172990,1,0,0:0:0:0:
331,162,173065,1,0,0:0:0:0:
283,196,173140,1,0,0:0:0:0:
224,204,173215,1,0,0:0:0:0:
166,191,173290,1,0,0:0:0:0:
142,138,173365,5,0,0:0:0:0:
78,169,173440,1,0,0:0:0:0:
18,130,173515,1,0,0:0:0:0:
29,60,173590,1,0,0:0:0:0:
97,39,173665,5,0,0:0:0:0:
122,105,173740,5,0,0:0:0:0:
100,172,173815,101,0,0:0:0:0:
119,240,173890,5,0,0:0:0:0:
102,309,173965,101,0,0:0:0:0:
110,320,174265,22,0,P|129:353|182:378,1,78.75,0|0,3:0|0:0,0:0:0:0:
175,373,174565,70,0,P|238:352|321:381,1,125.999996154785,4|0,0:0|0:0,0:0:0:0:
492,240,174865,2,0,P|406:203|358:150,1,125.999996154785,8|0,0:0|0:0,0:0:0:0:
209,50,175165,1,0,3:0:0:0:
285,271,175315,1,0,3:0:0:0:
384,22,175465,1,8,0:0:0:0:
83,79,175615,6,0,L|103:252,1,125.999996154785,4|0,3:2|0:0,0:0:0:0:
302,378,175915,1,2,3:2:0:0:
238,181,176065,1,10,0:2:0:0:
107,333,176215,1,2,0:2:0:0:
435,319,176365,2,0,L|443:233,1,62.9999980773926,2|0,3:2|0:0,0:0:0:0:
321,68,176515,2,0,L|316:131,1,62.9999980773926,0|0,3:0|0:0,0:0:0:0:
358,280,176665,2,0,B|368:202|368:202|398:177|398:177|404:78,1,188.999994232178,10|0,0:0|0:0,0:0:0:0:
404,29,176965,101,4,3:2:0:0:
131,182,177115,2,0,P|82:185|-2:118,1,125.999996154785,0|8,0:0|0:0,0:0:0:0:
177,342,177415,1,0,0:0:0:0:
296,230,177565,2,0,P|351:177|411:184,1,125.999996154785,0|0,3:0|3:0,0:0:0:0:
466,215,177790,1,0,0:0:0:0:
466,216,177865,1,8,0:0:0:0:
232,384,178015,6,0,L|194:102,1,251.999992309571,4|0,3:2|3:0,0:0:0:0:
438,298,178465,101,0,1:0:0:0:
446,241,178540,1,0,1:0:0:0:
454,185,178615,1,0,1:0:0:0:
463,129,178690,1,0,1:0:0:0:
476,73,178765,2,0,B|400:84|400:84|342:72,1,125.999996154785,4|0,3:2|3:2,3:2:0:0:
94,264,179065,1,0,1:0:0:0:
82,208,179140,1,0,1:0:0:0:
70,152,179215,1,0,1:0:0:0:
58,96,179290,1,0,1:0:0:0:
50,39,179365,6,0,B|107:20|107:20|208:24,1,125.999996154785,4|0,3:2|0:0,0:0:0:0:
347,218,179665,2,0,B|292:265|292:265|240:284,1,125.999996154785,8|0,0:0|0:0,0:0:0:0:
4,202,179965,1,0,3:0:0:0:
184,103,180115,1,0,3:0:0:0:
224,384,180265,1,8,0:0:0:0:
136,319,180415,102,0,P|119:241|186:187,1,125.999996154785,4|0,3:2|0:0,0:0:0:0:
284,119,180715,1,2,3:2:0:0:
434,215,180865,1,10,0:2:0:0:
255,302,181015,1,2,0:2:0:0:
375,100,181165,1,2,3:2:0:0:
187,22,181315,1,2,3:2:0:0:
350,323,181465,1,14,0:2:0:0:
392,78,181615,1,0,0:2:0:0:
171,116,181765,6,0,L|183:188,1,62.9999980773926,4|0,3:2|0:0,0:0:0:0:
187,264,181915,2,0,P|113:273|45:246,1,125.999996154785,8|0,0:0|3:0,0:0:0:0:
287,199,182215,1,0,3:0:0:0:
202,18,182365,1,12,0:0:0:0:
85,178,182515,1,0,3:0:0:0:
354,126,182665,2,0,L|278:108,1,62.9999980773926,12|0,0:0|0:0,0:0:0:0:
79,73,182815,102,0,P|17:136|41:309,1,251.999992309571,4|0,3:2|3:3,0:0:0:0:
324,370,183265,1,0,1:0:0:0:
342,321,183340,1,0,1:0:0:0:
340,270,183415,1,0,3:0:0:0:
324,222,183490,1,0,3:0:0:0:
289,185,183565,1,12,3:2:0:0:
61,365,183715,1,0,3:0:0:0:
20,208,183865,38,0,L|5:128,1,78.75,12|0,3:2|0:0,0:0:0:0:
66,66,184165,101,4,3:2:0:0:
130,278,184315,1,0,0:0:0:0:
186,92,184465,5,8,0:0:0:0:
245,255,184615,1,0,0:0:0:0:
298,80,184765,101,8,3:2:0:0:
377,280,184915,1,0,3:0:0:0:
369,18,185065,5,8,0:0:0:0:
498,204,185215,1,0,0:0:0:0:
217,219,185365,101,4,3:2:0:0:
382,161,185515,1,0,0:0:0:0:
267,282,185665,5,8,0:0:0:0:
279,100,185815,1,0,0:0:0:0:
182,330,185965,101,8,3:2:0:0:
142,62,186115,1,0,3:0:0:0:
92,370,186265,5,8,0:0:0:0:
0,41,186415,1,8,0:0:0:0:
15,240,186565,70,0,P|75:268|154:245,1,125.999996154785,4|0,3:2|0:0,0:0:0:0:
255,124,186865,2,0,L|233:-30,1,125.999996154785,8|0,0:0|0:0,0:0:0:0:
114,160,187165,1,0,3:0:0:0:
397,238,187315,1,0,3:0:0:0:
185,376,187465,1,8,0:0:0:0:
191,217,187615,6,0,L|323:191,1,125.999996154785,4|0,0:0|0:0,0:0:0:0:
384,319,187915,1,2,3:2:0:0:
233,135,188065,1,10,0:2:0:0:
449,86,188215,1,2,3:2:0:0:
314,192,188365,102,0,L|261:229,1,62.9999980773926,12|0,0:0|0:0,0:0:0:0:
38,337,188515,2,0,L|112:361,1,62.9999980773926,0|0,3:0|0:0,0:0:0:0:
194,376,188665,2,0,L|175:247,1,125.999996154785,12|0,0:0|0:0,0:0:0:0:
33,59,188965,21,4,3:2:0:0:
260,27,189115,1,0,0:0:0:0:
25,155,189265,5,8,0:0:0:0:
200,134,189415,1,0,0:0:0:0:
55,246,189565,101,8,3:2:0:0:
285,263,189715,1,0,3:0:0:0:
13,331,189865,5,8,0:0:0:0:
258,178,190015,1,0,0:0:0:0:
462,363,190165,101,4,3:2:0:0:
197,322,190315,1,0,0:0:0:0:
451,241,190465,5,8,0:0:0:0:
184,197,190615,1,0,0:0:0:0:
501,145,190765,101,8,3:2:0:0:
238,107,190915,1,0,3:0:0:0:
488,28,191065,5,8,0:0:0:0:
185,24,191215,70,0,P|117:17|55:46,1,125.999996154785,4|0,3:2|0:0,0:0:0:0:
34,270,191515,1,0,3:0:0:0:
34,270,191590,1,0,0:0:0:0:
34,270,191665,2,0,P|71:240|96:147,1,125.999996154785,8|0,0:0|0:0,0:0:0:0:
0,123,191965,1,0,3:0:0:0:
182,283,192115,1,0,3:0:0:0:
230,311,192190,1,0,0:0:0:0:
286,304,192265,1,8,0:0:0:0:
259,31,192415,6,0,L|274:167,1,125.999996154785,4|0,0:0|3:0,0:0:0:0:
353,341,192715,1,4,0:0:0:0:
137,205,192865,1,8,0:0:0:0:
424,244,193015,1,0,0:0:0:0:
68,355,193165,2,0,P|51:315|59:272,1,62.9999980773926,4|0,3:2|0:0,0:0:0:0:
147,124,193315,2,0,P|198:154|210:175,1,62.9999980773926,0|0,3:0|0:0,0:0:0:0:
266,257,193465,2,0,P|217:297|143:303,1,125.999996154785,8|0,0:0|0:0,0:0:0:0:
8,84,193765,5,4,3:2:0:0:
336,192,193915,1,0,0:0:0:0:
72,23,194065,5,8,0:0:0:0:
208,211,194215,1,0,0:0:0:0:
147,63,194365,101,8,3:2:0:0:
164,288,194515,1,0,3:0:0:0:
53,159,194665,5,8,0:0:0:0:
284,268,194815,1,0,0:0:0:0:
18,379,194965,101,4,3:2:0:0:
134,145,195115,1,0,0:0:0:0:
437,347,195265,5,8,0:0:0:0:
88,298,195415,1,0,0:0:0:0:
349,25,195565,101,8,3:2:0:0:
255,352,195715,1,0,3:0:0:0:
31,48,195865,5,8,0:0:0:0:
479,161,196015,1,8,0:0:0:0:
22,270,196165,70,0,B|5:214|5:214|6:146,1,125.999996154785,4|0,3:2|0:0,0:0:0:0:
192,27,196465,2,0,B|243:49|243:49|293:120,1,125.999996154785,8|0,0:0|0:0,0:0:0:0:
261,363,196765,1,0,3:0:0:0:
240,171,196915,1,0,3:0:0:0:
403,258,197065,1,8,0:0:0:0:
93,190,197215,6,0,B|177:158|177:158|243:171|243:171|356:128,1,251.999992309571,4|2,3:2|3:2,3:2:0:0:
384,39,197665,1,10,0:0:0:0:
115,39,197815,102,0,P|102:66|100:101,1,62.9999980773926,2|0,3:2|3:0,3:0:0:0:
159,293,197965,2,0,P|176:256|183:205,1,62.9999980773926,14|0,0:0|0:0,0:0:0:0:
238,64,198115,2,0,L|315:37,1,62.9999980773926,0|0,3:0|3:0,3:0:0:0:
479,113,198265,6,0,L|353:154,1,125.999996154785,12|0,0:0|3:0,0:0:0:0:
34,240,198565,21,12,0:0:0:0:
389,357,198715,1,0,0:0:0:0:
73,112,198865,101,8,0:0:0:0:
440,246,199015,1,0,0:0:0:0:
73,112,199165,1,8,0:0:0:0:
440,246,199315,1,0,3:0:0:0:
126,349,199465,1,8,0:0:0:0:
349,49,199615,1,0,3:0:0:0:
280,383,199765,5,12,0:0:0:0:
187,9,199915,1,0,3:0:0:0:
474,138,200065,101,8,0:0:0:0:
48,233,200215,1,0,3:0:0:0:
474,138,200365,1,8,0:0:0:0:
48,233,200515,1,0,3:0:0:0:
429,62,200665,1,8,0:0:0:0:
50,348,200815,22,0,P|27:283|68:217,1,125.999996154785,0|0,3:0|0:0,0:0:0:0:
125,206,201265,2,0,L|196:225,1,62.9999980773926
250,187,201565,2,0,P|274:136|247:67,1,125.999996154785
360,245,202015,6,0,P|343:297|380:361,1,125.999996154785
483,285,202465,1,0,0:0:0:0:
465,206,202615,1,0,0:0:0:0:
450,122,202765,1,0,0:0:0:0:
