osu file format v14

[General]
AudioFilename: audio.mp3
AudioLeadIn: 0
PreviewTime: 103540
Countdown: 0
SampleSet: Soft
StackLeniency: 0.7
Mode: 0
LetterboxInBreaks: 0
WidescreenStoryboard: 1

[Editor]
DistanceSpacing: 0.5
BeatDivisor: 12
GridSize: 16
TimelineZoom: 2.5

[Metadata]
Title:HIBANA feat. Hatsune Miku
TitleUnicode:ヒバナ feat. 初音ミク
Artist:DECO*27
ArtistUnicode:DECO*27
Creator:Pho
Version:Insane
Source:
Tags:10th anniversary re:start 八三 vocaloid rockwell mes neonat
BeatmapID:1420861
BeatmapSetID:671199

[Difficulty]
HPDrainRate:5.5
CircleSize:4
OverallDifficulty:8
ApproachRate:9
SliderMultiplier:1.5
SliderTickRate:1

[Events]
//Background and Video events
0,0,"bg.jpg",0,0
//Break Periods
2,17565,20965
2,65565,71965
2,123165,127165
2,155565,164365
//Storyboard Layer 0 (Background)
//Storyboard Layer 1 (Fail)
//Storyboard Layer 2 (Pass)
//Storyboard Layer 3 (Foreground)
//Storyboard Sound Samples

[TimingPoints]
565,300,4,2,1,60,1,0
2665,-83.3333333333333,4,2,1,60,0,0
2890,-83.3333333333333,4,2,1,5,0,0
2965,-111.111111111111,4,2,1,60,0,0
4165,-100,4,2,1,60,0,0
5365,-90.9090909090909,4,2,1,60,0,0
6565,-100,4,2,1,60,0,0
7765,-100,4,2,1,90,0,0
17290,-100,4,2,1,5,0,0
17365,-133.333333333333,4,2,1,90,0,0
17440,-133.333333333333,4,2,1,60,0,0
19690,-133.333333333333,4,2,1,5,0,0
19765,-133.333333333333,4,2,1,60,0,0
20890,-133.333333333333,4,2,1,5,0,0
20965,-133.333333333333,4,2,1,60,0,0
22090,-133.333333333333,4,2,1,5,0,0
22165,-83.3333333333333,4,2,1,80,0,0
22615,-133.333333333333,4,2,1,60,0,0
23365,-83.3333333333333,4,2,1,80,0,0
23665,-133.333333333333,4,2,1,60,0,0
24565,-83.3333333333333,4,2,1,80,0,0
24865,-133.333333333333,4,2,1,60,0,0
25765,-83.3333333333333,4,2,1,60,0,0
26665,-200,4,2,1,60,0,0
26890,-200,4,2,1,5,0,0
26965,-83.3333333333333,4,2,1,60,0,0
27115,-100,4,2,1,80,0,0
31690,-100,4,2,1,5,0,0
31765,-100,4,2,1,80,0,0
36565,-100,4,2,1,80,0,0
36715,-133.333333333333,4,2,1,60,0,0
37615,-100,4,2,1,80,0,0
38065,-133.333333333333,4,2,1,60,0,0
38965,-80,4,2,1,60,0,0
39265,-133.333333333333,4,2,1,60,0,0
41065,-76.9230769230769,4,2,1,60,0,0
41365,-100,4,2,1,60,0,0
42565,-90.9090909090909,4,2,1,70,0,0
43765,-83.3333333333333,4,2,1,80,0,0
46165,-90.9090909090909,4,2,1,95,0,0
55465,-200,4,2,1,95,0,0
55690,-200,4,2,1,5,0,0
55765,-90.9090909090909,4,2,1,95,0,0
64165,-200,4,2,1,80,0,0
64465,-600,4,2,1,20,0,0
64615,-600,4,2,1,5,0,0
64765,-66.6666666666667,4,2,1,60,0,0
64990,-66.6666666666667,4,2,1,5,0,0
65065,-133.333333333333,4,2,1,60,0,0
65215,-133.333333333333,4,2,1,5,0,0
65365,-100,4,2,1,80,0,0
72565,-133.333333333333,4,2,1,70,0,0
72940,-133.333333333333,4,2,1,60,0,0
73765,-83.3333333333333,4,2,1,77,0,0
74665,-200,4,2,1,60,0,0
74890,-200,4,2,1,5,0,0
74965,-133.333333333333,4,2,1,50,0,0
83215,-83.3333333333333,4,2,1,60,0,0
83515,-100,4,2,1,70,0,0
84565,-100,4,2,1,80,0,0
94165,-111.111111111111,4,2,1,60,0,0
98665,-83.3333333333333,4,2,1,60,0,0
98965,-100,4,2,1,70,0,0
100165,-90.9090909090909,4,2,1,70,0,0
101365,-100,4,2,1,70,0,0
103165,-100,4,2,1,60,0,0
103240,-100,4,2,1,5,0,0
103315,-100,4,2,1,60,0,0
103390,-100,4,2,1,5,0,0
103465,-100,4,2,1,60,0,0
103540,-100,4,2,1,5,0,0
103615,-100,4,2,1,60,0,0
103690,-100,4,2,1,5,0,0
103765,-90.9090909090909,4,2,1,95,0,0
113065,-200,4,2,1,95,0,0
113290,-200,4,2,1,5,0,0
113365,-90.9090909090909,4,2,1,95,0,0
117040,-90.9090909090909,4,2,1,5,0,0
117115,-90.9090909090909,4,2,1,95,0,0
117865,-200,4,2,1,95,0,0
118090,-200,4,2,1,5,0,0
118165,-90.9090909090909,4,2,1,95,0,0
120640,-90.9090909090909,4,2,1,5,0,0
120715,-90.9090909090909,4,2,1,95,0,0
121765,-200,4,2,1,80,0,0
122215,-333.333333333333,4,2,1,5,0,0
122365,-71.4285714285714,4,2,1,60,0,0
122590,-71.4285714285714,4,2,1,5,0,0
122665,-100,4,2,1,60,0,0
122815,-71.4285714285714,4,2,1,5,0,0
122965,-133.333333333333,4,2,1,60,0,0
127765,-133.333333333333,4,2,2,40,0,0
130165,-133.333333333333,4,2,2,50,0,0
131365,-133.333333333333,4,2,2,60,0,0
131965,-100,4,2,1,60,0,0
132565,-111.111111111111,4,2,1,80,0,0
133765,-111.111111111111,4,2,2,80,0,0
133840,-111.111111111111,4,2,1,80,0,0
136165,-111.111111111111,4,2,2,80,0,0
136240,-111.111111111111,4,2,1,80,0,0
137365,-100,4,2,1,80,0,0
137515,-133.333333333333,4,2,1,80,0,0
138565,-133.333333333333,4,2,2,80,0,0
138640,-133.333333333333,4,2,1,80,0,0
140965,-83.3333333333333,4,2,2,80,0,0
141115,-133.333333333333,4,2,1,80,0,0
141865,-83.3333333333333,4,2,1,80,0,0
142165,-133.333333333333,4,2,1,80,0,0
142765,-133.333333333333,4,2,1,20,0,0
143365,-111.111111111111,4,2,1,60,0,0
144415,-90.9090909090909,4,2,1,60,0,0
144865,-111.111111111111,4,2,1,60,0,0
146815,-111.111111111111,4,2,1,80,0,0
147415,-111.111111111111,4,2,1,70,0,0
148090,-111.111111111111,4,2,1,5,0,0
148165,-100,4,2,1,70,0,0
149365,-100,4,2,1,80,0,0
150865,-100,4,2,1,70,0,0
153040,-100,4,2,1,5,0,0
153115,-100,4,2,1,60,0,0
153190,-100,4,2,1,5,0,0
153265,-100,4,2,1,60,0,0
153490,-100,4,2,1,5,0,0
153565,-100,4,2,1,60,0,0
153640,-100,4,2,1,5,0,0
153715,-100,4,2,1,60,0,0
153865,-200,4,2,1,60,0,0
153940,-200,4,2,1,5,0,0
155365,-200,4,2,1,60,0,0
164965,-133.333333333333,4,2,2,60,0,0
168715,-133.333333333333,4,2,2,5,0,0
168865,-133.333333333333,4,2,2,60,0,0
169015,-133.333333333333,4,2,2,5,0,0
169165,-133.333333333333,4,2,2,60,0,0
170965,-133.333333333333,4,2,2,70,0,0
172165,-133.333333333333,4,2,2,80,0,0
173965,-133.333333333333,4,2,1,50,0,0
174265,-200,4,2,1,80,0,0
174490,-200,4,2,1,5,0,0
174565,-83.3333333333333,4,2,1,100,0,1
183865,-200,4,2,1,100,0,1
184090,-200,4,2,1,5,0,1
184165,-83.3333333333333,4,2,1,100,0,1
200815,-166.666666666667,4,2,1,50,0,0

[Colours]
Combo1 : 221,221,221
Combo2 : 253,236,176
Combo3 : 247,193,104
Combo4 : 39,55,88
Combo5 : 154,231,206
Combo6 : 98,244,226
Combo7 : 231,118,237
Combo8 : 255,51,51

[HitObjects]
321,243,565,6,0,B|331:295|331:295|310:355,2,100,4|0|0,1:0|1:0|1:0,0:0:0:0:
246,148,1165,2,0,B|254:104|254:104|307:51,2,100,4|4|0,1:0|1:0|1:0,0:0:0:0:
167,285,1765,1,4,1:0:0:0:
54,243,1965,1,0,1:0:0:0:
76,360,2165,1,0,1:0:0:0:
167,285,2365,1,0,1:0:0:0:
167,285,2665,6,2,B|187:284|205:292|205:292|257:268|257:268|284:278|309:276,1,134.999995880127,2|0,0:1|0:0,0:0:0:0:
386,249,2965,6,0,P|405:261|417:285,5,33.7499989700318,4|0|0|0|0|0,1:2|0:0|0:0|0:0|0:0|0:0,0:0:0:0:
326,180,3415,2,0,P|316:147|324:123,5,33.7499989700318,0|0|0|0|0|0,1:0|0:0|0:0|0:0|0:0|0:0,0:0:0:0:
413,124,3865,1,0,1:0:0:0:
415,101,3940,1,0,0:0:0:0:
417,78,4015,1,0,0:0:0:0:
418,55,4090,1,0,0:0:0:0:
422,28,4165,6,0,L|357:13,5,37.5,4|0|0|0|0|0,1:2|0:0|0:0|0:0|0:0|0:0,0:0:0:0:
324,88,4615,2,0,L|253:107,5,37.5,0|0|0|0|0|0,1:0|0:0|0:0|0:0|0:0|0:0,0:0:0:0:
215,37,5065,1,0,1:0:0:0:
187,56,5140,1,0,0:0:0:0:
153,61,5215,1,0,0:0:0:0:
119,55,5290,1,0,0:0:0:0:
91,35,5365,102,0,B|75:82|75:82|99:130,1,82.5000025177003,4|0,1:0|0:0,0:0:0:0:
191,149,5665,2,0,B|200:198|200:198|182:232,1,82.5000025177003,0|0,1:0|0:0,0:0:0:0:
17,259,5965,2,0,P|55:256|108:285,1,82.5000025177003,0|0,1:0|1:0,0:0:0:0:
261,357,6265,2,0,P|220:379|182:375,1,82.5000025177003,0|0,1:0|1:0,0:0:0:0:
161,366,6490,1,0,1:0:0:0:
161,366,6565,5,0,1:0:0:0:
175,337,7015,1,0,1:0:0:0:
191,310,7465,2,0,L|172:257,3,37.5,0|0|0|0,1:0|0:0|0:0|0:0,0:0:0:0:
240,213,7765,70,0,L|249:113,1,75,4|0,0:0|0:0,0:0:0:0:
313,68,8065,2,0,P|363:59|402:21,1,75,8|0,0:0|0:0,0:0:0:0:
464,181,8365,2,0,P|434:152|388:137,1,75,0|0,3:0|0:0,0:0:0:0:
318,243,8665,1,10,0:0:0:0:
244,118,8815,1,0,0:0:0:0:
336,231,8965,6,0,L|427:243,1,75,2|0,3:2|0:0,0:0:0:0:
286,313,9265,2,0,L|198:333,1,75,8|0,0:0|0:0,0:0:0:0:
56,289,9565,1,2,3:2:0:0:
128,356,9715,1,0,0:0:0:0:
105,197,9865,1,10,0:0:0:0:
52,308,10015,1,10,0:0:0:0:
174,264,10165,102,0,P|197:230|202:185,1,75,4|0,3:2|0:0,0:0:0:0:
288,166,10465,2,0,P|273:117|240:88,1,75,8|0,0:0|0:0,0:0:0:0:
102,76,10765,1,0,3:0:0:0:
184,19,10915,1,0,0:0:0:0:
78,82,11065,1,10,0:0:0:0:
192,168,11215,1,0,0:0:0:0:
106,228,11365,6,0,L|9:210,1,75,2|0,3:2|0:0,0:0:0:0:
144,378,11665,2,0,L|162:299,1,75,8|8,0:0|0:0,0:0:0:0:
274,150,11965,2,0,P|298:192|269:266,1,112.5,2|0,3:2|0:0,0:0:0:0:
243,343,12265,2,0,L|288:355,3,37.5,10|8|8|8,0:0|0:0|0:0|0:0,0:0:0:0:
323,361,12565,102,0,P|364:336|407:341,1,75,6|0,3:2|0:0,0:0:0:0:
502,250,12865,2,0,P|463:237|423:198,1,75,8|0,0:0|0:0,0:0:0:0:
364,82,13165,2,0,P|356:36|362:0,1,75,0|0,3:0|0:0,0:0:0:0:
345,171,13465,1,10,0:0:0:0:
455,115,13615,1,0,0:0:0:0:
335,195,13765,6,0,L|238:167,1,75,2|0,3:2|0:0,0:0:0:0:
121,139,14065,2,0,L|157:215,1,75,8|0,0:0|0:0,0:0:0:0:
204,364,14365,1,2,3:2:0:0:
220,272,14515,1,0,0:0:0:0:
135,298,14665,1,8,0:0:0:0:
286,330,14815,101,0,3:0:0:0:
286,330,14890,1,0,3:0:0:0:
286,330,14965,2,0,B|307:290|307:290|306:249,2,75,4|0|0,0:0|3:0|3:0,0:0:0:0:
372,187,15415,2,0,B|343:157|343:157|298:145,2,75,8|0|0,0:0|3:0|3:0,0:0:0:0:
225,171,15865,2,0,L|213:86,1,75,14|0,0:0|3:0,0:0:0:0:
170,248,16165,5,8,0:0:0:0:
94,170,16315,1,8,0:0:0:0:
94,170,16390,1,8,0:0:0:0:
94,170,16465,1,8,0:0:0:0:
0,238,16615,1,8,0:0:0:0:
75,353,16765,2,0,P|113:358|170:331,1,75,0|0,3:0|3:0,0:0:0:0:
373,296,17065,2,0,L|247:274,1,112.5,8|0,3:0|0:0,0:0:0:0:
245,273,17365,1,4,0:0:0:0:
219,138,21565,6,0,L|231:185,3,28.1250010728836,0|0|0|0,0:0|0:0|0:0|0:0,0:0:0:0:
233,185,21865,6,0,L|249:90,1,84.3750032186509,2|0,0:0|0:0,0:0:0:0:
293,41,22165,102,0,P|337:59|387:57,1,89.9999972534181,0|0,1:0|1:0,0:0:0:0:
162,88,22615,1,0,0:0:0:0:
162,88,22690,1,0,0:0:0:0:
162,88,22765,1,0,0:0:0:0:
81,40,22915,1,0,0:0:0:0:
18,111,23065,2,0,L|35:183,1,56.2500021457673,0|0,0:0|0:0,0:0:0:0:
143,247,23365,6,0,L|123:372,1,89.9999972534181,0|0,1:0|1:0,0:0:0:0:
128,335,23815,1,0,0:0:0:0:
219,362,23965,1,0,0:0:0:0:
270,295,24115,1,0,0:0:0:0:
352,347,24265,2,0,L|432:335,1,56.2500021457673,0|0,0:0|0:0,0:0:0:0:
251,277,24565,102,0,L|136:258,1,89.9999972534181,0|0,1:0|1:0,0:0:0:0:
374,114,25015,1,0,3:3:0:0:
374,114,25090,1,0,3:3:0:0:
374,114,25165,1,8,1:2:0:0:
291,178,25315,1,0,3:0:0:0:
234,95,25465,1,0,3:0:0:0:
318,31,25615,1,0,3:0:0:0:
210,176,25765,5,0,1:0:0:0:
210,176,25915,2,0,P|158:179|117:162,1,89.9999972534181,0|0,1:0|0:0,0:0:0:0:
292,253,26215,2,0,P|340:280|384:284,1,89.9999972534181,0|0,1:0|0:0,0:0:0:0:
197,329,26515,53,0,1:0:0:0:
197,329,26665,2,0,L|188:397,1,56.25,0|0,1:0|0:0,0:0:0:0:
188,367,26965,6,0,L|177:256,1,89.9999972534181,4|0,0:0|0:0,0:0:0:0:
100,172,27265,1,8,0:0:0:0:
168,103,27415,1,0,0:0:0:0:
102,28,27565,2,0,P|52:32|25:48,1,75,0|0,3:0|0:0,0:0:0:0:
176,118,27865,2,0,P|223:126|256:110,1,75,8|0,0:0|0:0,0:0:0:0:
361,47,28165,5,0,3:0:0:0:
240,23,28315,1,0,0:0:0:0:
339,127,28465,2,0,L|357:217,1,75,8|0,0:0|0:0,0:0:0:0:
443,312,28765,2,0,L|461:223,2,75,0|0|8,3:0|0:0|0:0,0:0:0:0:
212,377,29215,1,8,0:0:0:0:
282,309,29365,102,0,P|316:279|360:278,1,75,0|0,3:0|0:0,0:0:0:0:
428,165,29665,2,0,P|390:140|341:132,1,75,8|0,0:0|0:0,0:0:0:0:
225,205,29965,1,0,3:0:0:0:
225,205,30115,1,0,0:0:0:0:
136,141,30265,2,0,L|117:47,1,75,8|0,0:0|0:0,0:0:0:0:
82,234,30565,6,0,P|31:226|-12:242,1,75,0|0,3:0|0:0,0:0:0:0:
112,376,30865,2,0,P|156:362|188:322,1,75,8|0,0:0|0:0,0:0:0:0:
45,298,31165,1,0,3:0:0:0:
157,210,31315,1,0,0:0:0:0:
270,384,31465,2,0,L|255:268,1,112.5,12|0,0:0|0:0,0:0:0:0:
254,248,31765,102,0,P|303:212|335:212,1,75,4|0,3:2|0:0,0:0:0:0:
420,273,32065,1,8,0:0:0:0:
459,102,32215,1,0,0:0:0:0:
459,102,32365,2,0,P|477:145|472:197,1,75,0|0,3:0|0:0,0:0:0:0:
344,214,32665,2,0,L|257:195,1,75,8|0,0:0|0:0,0:0:0:0:
146,62,32965,6,0,L|162:153,2,75,0|0|8,3:0|0:0|0:0,0:0:0:0:
48,245,33415,1,0,0:0:0:0:
48,245,33565,2,0,L|75:161,1,75,0|0,3:0|0:0,0:0:0:0:
138,26,33865,1,4,3:2:0:0:
11,101,34015,1,0,0:0:0:0:
157,153,34165,102,0,P|212:121|302:138,1,150,4|8,3:2|0:0,0:0:0:0:
361,210,34615,1,0,0:0:0:0:
469,151,34765,1,0,3:0:0:0:
368,77,34915,1,0,0:0:0:0:
381,224,35065,1,8,0:0:0:0:
224,236,35215,5,0,3:0:0:0:
224,236,35290,1,0,3:0:0:0:
224,236,35365,2,0,L|245:333,1,75,12|0,3:2|3:0,0:0:0:0:
355,384,35665,2,0,L|375:299,1,75,0|8,3:0|0:2,0:0:0:0:
274,169,35965,1,10,0:0:0:0:
140,258,36115,1,0,3:0:0:0:
184,149,36265,1,8,3:0:0:0:
302,255,36415,1,4,3:0:0:0:
343,70,36565,5,4,3:2:0:0:
172,93,36865,2,0,P|137:117|85:120,1,84.3750032186509,8|0,1:0|3:0,0:0:0:0:
70,120,37165,2,0,P|37:108|9:84,1,56.2500021457673,0|0,3:0|3:0,0:0:0:0:
101,21,37465,1,8,1:0:0:0:
248,197,37615,6,0,L|265:114,1,75,2|0,3:2|0:0,0:0:0:0:
182,290,37915,2,0,L|153:213,1,75,2|8,3:2|0:0,0:0:0:0:
258,349,38215,1,0,3:0:0:0:
258,349,38290,1,0,3:0:0:0:
258,349,38365,2,0,P|295:331|325:330,1,56.2500021457673,0|0,3:0|3:0,0:0:0:0:
322,231,38665,2,0,P|365:259|377:277,1,56.2500021457673,8|0,0:0|3:0,0:0:0:0:
450,384,38965,102,0,L|460:253,1,93.75,4|0,3:2|3:3,0:0:0:0:
356,149,39265,2,0,P|402:148|444:116,1,84.3750032186509,8|0,0:0|0:0,0:0:0:0:
456,101,39565,2,0,P|466:64|460:37,1,56.2500021457673,0|0,3:0|3:0,0:0:0:0:
353,44,39865,1,8,0:0:0:0:
190,156,40015,2,0,L|270:133,1,56.2500021457673,2|0,3:2|0:0,0:0:0:0:
115,83,40315,2,0,L|61:65,1,56.2500021457673,2|8,3:2|0:0,0:0:0:0:
112,223,40615,1,0,3:3:0:0:
4,166,40765,1,0,3:3:0:0:
16,289,40915,1,0,3:3:0:0:
126,204,41065,6,0,L|146:325,1,97.4999955368044,4|0,0:0|3:3,0:0:0:0:
134,332,41290,1,0,3:0:0:0:
134,332,41365,102,0,L|224:311,1,75,12|0,1:2|0:0,0:0:0:0:
371,380,41665,2,0,L|289:361,1,75,8|0,1:0|0:0,0:0:0:0:
197,238,41965,2,0,L|222:150,1,75,8|0,1:0|0:3,0:0:0:0:
333,121,42265,2,0,L|301:34,1,75,8|0,1:0|0:3,0:0:0:0:
144,45,42565,5,12,1:0:0:0:
144,45,42715,1,0,0:0:0:0:
62,147,42865,1,8,1:0:0:0:
62,147,43015,1,0,0:3:0:0:
240,107,43165,1,8,1:0:0:0:
240,107,43315,1,0,0:3:0:0:
185,255,43465,1,8,1:0:0:0:
185,255,43615,1,0,3:3:0:0:
349,206,43765,102,0,P|396:179|415:134,1,89.9999972534181,8|0,1:0|3:3,0:0:0:0:
368,55,44065,1,0,3:0:0:0:
276,268,44215,2,0,P|258:204|226:179,1,89.9999972534181,4|0,1:0|3:0,0:0:0:0:
126,173,44515,1,0,3:0:0:0:
212,346,44665,5,0,1:0:0:0:
401,298,44815,1,0,1:0:0:0:
392,308,45565,54,0,L|349:296,3,44.999998626709,0|0|0|0,1:0|1:0|1:0|1:0,0:0:0:0:
300,361,45865,2,0,L|257:373,3,44.999998626709,0|0|0|0,1:0|1:0|1:0|1:0,0:0:0:0:
199,312,46165,70,0,P|215:261|198:218,1,82.5000025177003,4|0,1:0|0:0,0:0:0:0:
109,156,46465,2,0,L|-3:143,1,82.5000025177003,8|0,0:0|0:0,0:0:0:0:
190,72,46765,2,0,L|278:43,1,82.5000025177003,0|0,3:0|3:0,0:0:0:0:
96,23,47065,1,8,0:0:0:0:
201,155,47215,6,0,P|262:157|342:234,1,165.000005035401,6|2,3:2|3:2,0:0:0:0:
336,342,47665,1,10,0:0:0:0:
270,263,47815,1,0,0:0:0:0:
412,209,47965,2,0,L|424:120,1,82.5000025177003,2|2,3:2|3:2,0:0:0:0:
492,299,48265,2,0,L|513:144,1,123.75000377655,10|0,0:0|0:0,0:0:0:0:
512,150,48565,101,4,3:2:0:0:
431,41,48715,2,0,P|387:65|342:66,1,82.5000025177003,0|8,0:0|0:0,0:0:0:0:
286,11,49015,1,0,0:0:0:0:
197,32,49165,2,0,P|162:85|163:124,1,82.5000025177003,0|0,3:0|3:0,0:0:0:0:
214,256,49465,1,8,0:0:0:0:
388,195,49615,6,0,B|318:146|318:146|216:173,1,165.000005035401,4|0,3:2|3:0,0:0:0:0:
58,267,50065,2,0,L|35:215,3,41.2500012588501,0|0|0|0,1:0|1:0|1:0|1:0,0:0:0:0:
27,200,50365,2,0,P|62:181|95:127,1,82.5000025177003,4|0,0:0|3:0,0:0:0:0:
138,18,50665,1,0,1:0:0:0:
154,28,50740,1,0,1:0:0:0:
168,35,50815,1,0,1:0:0:0:
179,45,50890,1,0,1:0:0:0:
192,52,50965,102,0,L|171:142,1,82.5000025177003,4|0,3:2|0:0,0:0:0:0:
222,220,51265,2,0,P|272:246|322:241,1,82.5000025177003,8|0,0:0|0:0,0:0:0:0:
136,272,51565,2,0,P|77:260|36:282,1,82.5000025177003,0|0,3:0|3:0,0:0:0:0:
170,367,51865,1,8,0:0:0:0:
285,170,52015,6,0,B|329:220|329:220|312:342,1,165.000005035401,4|2,3:2|3:2,0:0:0:0:
254,384,52465,1,10,0:0:0:0:
403,308,52615,1,2,0:0:0:0:
240,255,52765,1,2,3:2:0:0:
240,255,52915,1,0,3:0:0:0:
371,151,53065,2,0,P|429:180|466:178,1,82.5000025177003,12|0,0:0|3:0,0:0:0:0:
331,37,53365,101,4,3:2:0:0:
223,107,53515,2,0,L|206:24,1,82.5000025177003,8|0,0:0|3:0,0:0:0:0:
291,161,53815,1,0,3:0:0:0:
160,205,53965,2,0,L|78:179,1,82.5000025177003,12|0,0:0|3:0,0:0:0:0:
141,361,54265,1,12,0:0:0:0:
216,267,54415,6,0,P|286:248|378:328,1,165.000005035401,4|0,0:0|0:0,0:0:0:0:
464,307,54865,2,0,L|451:346,3,41.2500012588501,8|8|8|4,0:3|0:3|0:3|0:3,0:0:0:0:
434,378,55165,1,4,3:2:0:0:
375,291,55315,1,4,3:0:0:0:
404,200,55465,2,0,L|426:130,1,56.25,4|0,1:0|0:0,0:0:0:0:
428,123,55765,6,0,P|383:124|326:82,1,82.5000025177003,4|0,3:2|0:0,0:0:0:0:
274,161,56065,2,0,P|257:107|276:48,1,82.5000025177003,8|0,0:0|0:0,0:0:0:0:
161,220,56365,2,0,P|184:258|176:328,1,82.5000025177003,8|0,3:2|3:0,0:0:0:0:
270,334,56665,2,0,P|231:375|171:388,1,82.5000025177003,8|0,0:0|0:0,0:0:0:0:
19,306,56965,6,0,L|110:284,1,82.5000025177003,4|0,3:2|0:0,0:0:0:0:
253,128,57265,2,0,L|162:150,1,82.5000025177003,8|0,0:0|0:0,0:0:0:0:
56,200,57565,2,0,P|58:144|52:107,1,82.5000025177003,8|0,3:2|3:0,0:0:0:0:
199,228,57865,2,0,P|192:287|201:328,1,82.5000025177003,8|8,0:0|0:0,0:0:0:0:
315,365,58165,70,0,P|413:369|501:337,1,165.000005035401,4|10,3:2|0:0,0:0:0:0:
503,245,58615,1,2,0:0:0:0:
383,193,58765,1,2,3:2:0:0:
383,193,58915,1,0,3:0:0:0:
413,335,59065,1,10,0:0:0:0:
492,225,59215,6,0,P|474:162|472:57,1,165.000005035401,4|0,3:2|3:0,0:0:0:0:
374,23,59665,2,0,P|305:20|263:47,1,82.5000025177003,10|2,0:0|3:2,0:0:0:0:
183,137,59965,1,14,0:0:0:0:
303,106,60115,1,0,0:0:0:0:
153,43,60265,2,0,L|164:148,1,82.5000025177003,12|0,0:0|0:0,0:0:0:0:
128,286,60565,6,0,P|78:325|43:327,1,82.5000025177003,4|0,3:2|0:0,0:0:0:0:
203,240,60865,2,0,P|217:297|199:339,1,82.5000025177003,8|0,0:0|0:0,0:0:0:0:
334,186,61165,6,0,P|325:123|340:91,1,82.5000025177003,8|0,3:2|3:0,0:0:0:0:
369,299,61465,2,0,P|312:282|285:246,1,82.5000025177003,8|0,0:0|0:0,0:0:0:0:
408,136,61765,102,0,L|504:117,1,82.5000025177003,4|0,3:2|0:0,0:0:0:0:
277,47,62065,2,0,L|189:23,1,82.5000025177003,8|0,0:0|0:0,0:0:0:0:
375,157,62365,6,0,L|471:138,1,82.5000025177003,8|0,3:2|3:0,0:0:0:0:
257,21,62665,1,8,0:0:0:0:
234,179,62815,70,0,B|267:261|215:311|215:311|205:280,1,165.000005035401,4|0,0:0|3:2,0:0:0:0:
176,108,63265,1,8,0:0:0:0:
302,125,63415,1,0,3:0:0:0:
114,192,63565,5,12,0:0:0:0:
99,58,63715,1,0,3:0:0:0:
199,128,63865,1,8,0:0:0:0:
204,152,63940,1,0,3:0:0:0:
209,176,64015,1,0,3:0:0:0:
214,200,64090,1,0,3:0:0:0:
221,226,64165,6,0,L|338:250,1,112.5,8|0,0:0|0:0,0:0:0:0:
331,248,64765,6,0,P|273:276|260:371,1,168.750006437302,2|0,0:0|0:0,0:0:0:0:
272,383,65065,2,0,P|297:371|314:332,1,56.2500021457673,8|0,3:0|0:0,0:0:0:0:
348,128,65365,5,4,3:2:0:0:
348,72,72565,6,0,P|311:104|333:209,1,159.375006079674,8|0,0:0|0:0,0:0:0:0:
397,232,73065,2,0,L|427:232,2,28.1250010728836,0|0|0,3:0|0:0|0:0,0:0:0:0:
190,297,73615,2,0,L|222:305,1,28.1250010728836,0|0,3:0|3:0,0:0:0:0:
298,349,73765,70,0,L|321:267,2,59.9999981689454,8|8|8,1:0|1:0|1:0,0:0:0:0:
230,180,74065,2,0,L|255:253,2,59.9999981689454,8|8|8,1:0|1:0|1:0,0:0:0:0:
424,216,74365,1,8,1:0:0:0:
424,216,74665,2,0,P|390:183|384:162,1,56.25,2|0,0:0|0:0,0:0:0:0:
386,151,74965,54,0,P|436:125|457:58,1,112.500004291535,4|0,3:2|0:0,0:0:0:0:
305,29,75415,1,0,3:0:0:0:
305,29,75565,2,0,L|315:103,1,56.2500021457673,2|2,3:2|0:0,0:0:0:0:
271,171,75865,1,0,0:0:0:0:
128,127,76015,6,0,P|90:99|76:20,2,112.500004291535,2|0|0,3:2|3:0|3:0,0:0:0:0:
206,221,76765,1,2,3:2:0:0:
138,287,76915,1,2,0:0:0:0:
207,353,77065,2,0,L|280:333,1,56.2500021457673,2|0,0:0|0:0,0:0:0:0:
284,335,77290,1,0,0:0:0:0:
284,335,77365,102,0,L|159:320,1,112.500004291535,2|0,3:2|0:0,0:0:0:0:
30,254,77815,1,0,3:0:0:0:
30,254,77965,2,0,L|39:324,2,56.2500021457673,2|0|0,3:2|0:0|0:0,0:0:0:0:
92,135,78415,1,2,3:2:0:0:
175,184,78565,6,0,P|209:196|241:194,1,56.2500021457673,2|2,0:2|3:2,0:0:0:0:
272,121,78865,2,0,P|305:110|329:110,1,56.2500021457673,0|2,0:0|3:2,0:0:0:0:
407,178,79165,1,0,3:0:0:0:
479,127,79315,1,2,0:2:0:0:
403,93,79465,1,2,0:2:0:0:
405,189,79615,1,0,0:0:0:0:
409,79,79765,102,0,P|353:75|288:34,1,112.500004291535,0|0,3:0|0:0,0:0:0:0:
183,104,80215,1,2,3:2:0:0:
183,104,80365,2,0,P|221:110|243:121,2,56.2500021457673,2|2|0,3:2|0:2|0:0,0:0:0:0:
134,233,80815,6,0,L|121:162,1,56.2500021457673,2|0,3:2|0:0,0:0:0:0:
215,280,81115,2,0,L|204:342,1,56.2500021457673,2|0,3:2|0:0,0:0:0:0:
93,359,81415,1,2,3:2:0:0:
93,359,81565,2,0,P|155:341|202:357,1,112.500004291535,0|2,3:0|0:0,0:0:0:0:
294,380,82015,1,0,0:0:0:0:
255,207,82165,102,0,P|222:231|141:225,1,112.500004291535,4|0,3:2|0:0,0:0:0:0:
69,279,82615,1,0,3:0:0:0:
41,188,82765,2,0,B|12:146|12:146|25:73,1,112.500004291535,0|0,3:0|3:0,0:0:0:0:
167,214,83215,22,0,B|170:181|193:161|193:161|169:96|169:96|189:75|188:41,1,179.999994506836,12|8,1:0|0:0,0:0:0:0:
188,20,83590,1,8,0:0:0:0:
188,20,83665,1,8,0:0:0:0:
258,101,83815,1,0,3:0:0:0:
428,66,83965,1,8,0:0:0:0:
329,211,84115,6,0,L|319:154,2,37.5,8|8|8,0:0|0:0|0:0,0:0:0:0:
447,150,84415,2,0,L|400:131,1,37.5,8|8,0:0|0:0,0:0:0:0:
355,86,84565,38,0,L|368:171,1,75,4|0,0:0|0:0,0:0:0:0:
428,263,84865,1,8,0:0:0:0:
302,314,85015,1,0,0:0:0:0:
375,377,85165,2,0,P|421:380|454:364,2,75,0|0|8,3:0|0:0|0:0,0:0:0:0:
214,342,85615,1,0,0:0:0:0:
282,198,85765,5,0,3:0:0:0:
191,252,85915,1,0,3:0:0:0:
124,173,86065,2,0,P|71:156|46:123,1,75,8|0,0:0|0:0,0:0:0:0:
185,94,86365,2,0,P|229:104|257:150,1,75,0|0,3:0|0:0,0:0:0:0:
142,322,86665,1,8,0:0:0:0:
142,322,86815,1,8,0:0:0:0:
307,361,86965,102,0,L|281:206,1,150,0|8,3:0|0:0,0:0:0:0:
311,16,87415,1,0,0:0:0:0:
444,54,87565,1,0,3:0:0:0:
332,112,87715,1,0,0:0:0:0:
446,165,87865,2,0,P|395:182|359:173,1,75,8|0,0:0|0:0,0:0:0:0:
171,165,88165,6,0,L|191:243,1,75,0|0,3:0|0:0,0:0:0:0:
259,97,88465,2,0,L|278:15,2,75,8|0|0,0:0|0:0|3:0,0:0:0:0:
135,59,88915,1,0,0:0:0:0:
87,243,89065,2,0,P|130:207|208:214,1,112.5,12|0,0:0|0:0,0:0:0:0:
258,249,89365,102,0,P|302:272|344:268,2,75,4|0|8,3:2|0:0|0:0,0:0:0:0:
285,107,89815,1,0,0:0:0:0:
367,54,89965,2,0,L|451:80,1,75,0|0,3:0|0:0,0:0:0:0:
364,187,90265,2,0,L|282:208,1,75,8|0,0:0|0:0,0:0:0:0:
80,263,90565,5,0,0:0:0:0:
144,183,90715,1,0,0:0:0:0:
168,328,90865,1,8,0:0:0:0:
86,247,91015,1,0,3:0:0:0:
221,221,91165,2,0,P|234:184|230:134,1,75,0|0,3:0|0:0,0:0:0:0:
72,127,91465,2,0,P|50:87|71:7,1,112.5,12|0,0:0|0:0,0:0:0:0:
69,14,91765,102,0,P|97:47|99:96,1,75,4|0,3:2|0:0,0:0:0:0:
47,205,92065,1,8,0:0:0:0:
177,125,92215,1,0,0:0:0:0:
177,125,92365,2,0,L|257:112,2,75,0|0|8,3:0|0:0|0:0,0:0:0:0:
124,248,92815,5,0,3:0:0:0:
138,252,92890,1,0,3:0:0:0:
152,255,92965,1,12,0:0:0:0:
277,351,93115,1,8,0:0:0:0:
266,357,93190,1,0,3:0:0:0:
255,367,93265,2,0,L|240:280,1,75,0|8,3:0|3:2,0:0:0:0:
417,206,93565,101,8,0:0:0:0:
327,165,93715,1,0,3:0:0:0:
492,150,93865,1,0,3:0:0:0:
468,52,94015,1,0,3:0:0:0:
322,81,94165,22,0,L|337:9,1,67.4999979400635,4|0,3:2|0:0,0:0:0:0:
213,136,94465,2,0,P|166:103|103:99,1,101.249996910095,8|0,0:0|3:0,0:0:0:0:
97,98,94765,2,0,P|51:108|23:139,1,67.4999979400635,0|0,3:0|3:0,0:0:0:0:
65,214,95065,1,8,0:0:0:0:
218,309,95215,6,0,L|146:294,1,67.4999979400635,2|0,3:0|0:0,0:0:0:0:
298,202,95515,2,0,L|229:231,1,67.4999979400635,2|8,3:0|0:0,0:0:0:0:
83,360,95815,1,0,3:0:0:0:
83,360,95890,1,0,3:0:0:0:
83,360,95965,1,0,3:0:0:0:
146,264,96115,1,0,3:0:0:0:
234,345,96265,2,0,P|277:360|330:349,1,101.249996910095,8|0,0:0|0:0,0:0:0:0:
348,362,96565,102,0,L|333:270,1,67.4999979400635,4|0,3:2|3:0,0:0:0:0:
299,80,96865,2,0,P|346:47|409:43,1,101.249996910095,8|0,0:0|0:0,0:0:0:0:
415,42,97165,2,0,P|461:52|489:83,1,67.4999979400635,0|0,3:0|3:0,0:0:0:0:
483,167,97465,1,8,0:0:0:0:
304,193,97615,6,0,L|221:167,1,67.4999979400635,2|0,3:0|0:0,0:0:0:0:
377,336,97915,2,0,L|364:258,1,67.4999979400635,2|8,3:0|0:0,0:0:0:0:
349,117,98215,1,0,3:0:0:0:
234,259,98365,1,0,3:0:0:0:
154,196,98515,1,0,3:0:0:0:
80,267,98665,2,0,L|99:362,1,89.9999972534181,12|0,0:0|3:0,0:0:0:0:
109,374,98890,1,0,3:0:0:0:
109,374,98965,102,0,P|169:345|195:348,1,75,12|0,0:0|0:0,0:0:0:0:
297,325,99265,2,0,P|323:285|326:247,1,75,8|0,0:0|0:0,0:0:0:0:
202,161,99565,2,0,P|225:189|234:225,1,75,8|0,0:0|3:0,0:0:0:0:
111,194,99865,2,0,P|61:198|28:225,1,75,8|0,0:0|3:0,0:0:0:0:
189,65,100165,5,12,0:0:0:0:
189,65,100315,1,0,3:0:0:0:
229,214,100465,1,8,0:0:0:0:
229,214,100615,1,0,3:0:0:0:
384,139,100765,1,8,0:0:0:0:
348,26,100915,1,0,3:0:0:0:
444,58,101065,1,8,0:0:0:0:
295,128,101215,1,0,3:0:0:0:
295,128,101290,1,0,3:0:0:0:
295,128,101365,102,0,L|313:217,1,75,12|0,0:0|3:0,0:0:0:0:
308,201,101665,1,0,3:0:0:0:
205,31,101815,6,0,L|187:120,1,75,12|0,0:0|3:0,0:0:0:0:
190,104,102115,1,0,3:0:0:0:
149,298,102265,102,0,L|126:207,1,75,12|0,0:0|3:0,0:0:0:0:
12,51,102565,70,0,L|22:104,3,37.5,0|0|0|0,1:0|3:0|3:0|3:0,0:0:0:0:
61,187,102865,2,0,L|75:129,3,37.5,0|0|0|0,1:0|3:0|3:0|3:0,0:0:0:0:
138,99,103165,2,0,P|173:90|181:93,1,37.5,8|0,1:0|0:0,0:0:0:0:
235,52,103315,2,0,P|266:64|273:80,1,37.5,0|0,3:0|0:0,0:0:0:0:
334,89,103465,2,0,P|336:119|332:130,1,37.5,8|0,1:0|0:0,0:0:0:0:
369,191,103615,2,0,P|353:216|336:227,1,37.5,0|0,3:0|0:0,0:0:0:0:
277,285,103765,70,0,L|244:180,1,82.5000025177003,4|0,3:2|0:0,0:0:0:0:
357,46,104065,2,0,L|333:125,1,82.5000025177003,8|0,0:0|0:0,0:0:0:0:
171,209,104365,1,0,3:0:0:0:
138,99,104515,1,0,3:0:0:0:
264,57,104665,1,8,0:0:0:0:
158,192,104815,6,0,P|104:175|18:231,1,165.000005035401,4|2,3:2|0:2,0:0:0:0:
55,339,105265,2,0,P|100:351|155:358,1,82.5000025177003,10|2,0:2|0:2,0:0:0:0:
315,309,105565,1,2,3:2:0:0:
200,254,105715,1,0,3:0:0:0:
305,322,105865,2,0,P|296:249|308:174,1,123.75000377655,10|0,0:0|0:0,0:0:0:0:
307,186,106165,101,4,3:2:0:0:
406,149,106315,2,0,P|440:180|487:189,1,82.5000025177003,0|8,0:0|0:0,0:0:0:0:
332,70,106615,1,0,0:0:0:0:
332,70,106765,2,0,P|381:43|411:42,1,82.5000025177003,0|0,3:0|3:0,0:0:0:0:
247,126,107065,2,0,L|235:177,1,41.2500012588501,8|0,0:0|0:0,0:0:0:0:
213,242,107215,6,0,L|172:83,1,165.000005035401,4|0,3:2|3:0,0:0:0:0:
0,36,107665,2,0,L|19:104,3,41.2500012588501,0|0|0|0,1:0|1:0|1:0|1:0,0:0:0:0:
69,138,107965,2,0,P|111:181|113:226,1,82.5000025177003,4|0,3:2|0:0,0:0:0:0:
280,269,108265,1,0,1:0:0:0:
267,285,108340,1,0,1:0:0:0:
259,304,108415,1,0,1:0:0:0:
259,324,108490,1,0,1:0:0:0:
266,343,108565,102,0,P|209:318|162:328,1,82.5000025177003,4|0,3:2|0:0,0:0:0:0:
98,371,108865,2,0,P|52:354|26:306,1,82.5000025177003,8|0,0:0|0:0,0:0:0:0:
16,212,109165,1,0,3:0:0:0:
79,117,109315,1,0,3:0:0:0:
116,287,109465,1,8,0:0:0:0:
72,92,109615,6,0,P|126:101|262:93,1,165.000005035401,4|2,3:2|3:2,0:0:0:0:
315,34,110065,2,0,P|334:75|332:140,1,82.5000025177003,10|2,0:2|0:2,0:0:0:0:
312,300,110365,1,2,3:2:0:0:
276,222,110515,1,2,3:2:0:0:
412,315,110665,2,0,P|410:255|433:194,1,123.75000377655,12|0,0:0|0:0,0:0:0:0:
442,184,110965,101,4,3:2:0:0:
337,111,111115,2,0,L|236:100,1,82.5000025177003,8|0,0:0|3:0,0:0:0:0:
53,173,111415,1,0,3:0:0:0:
133,112,111565,2,0,P|135:48|129:18,1,82.5000025177003,12|0,0:0|3:0,0:0:0:0:
116,260,111865,6,0,P|122:226|122:202,1,41.2500012588501,12|0,0:0|0:0,0:0:0:0:
198,180,112015,2,0,P|248:178|335:270,1,165.000005035401,4|0,3:2|3:0,0:0:0:0:
256,371,112465,2,0,L|208:365,3,41.2500012588501,8|8|0|0,0:0|0:0|3:0|3:0,0:0:0:0:
338,339,112765,1,12,0:0:0:0:
241,252,112915,1,0,3:0:0:0:
386,188,113065,2,0,P|425:208|450:208,1,56.25,12|0,0:0|0:0,0:0:0:0:
455,220,113365,6,0,L|464:127,1,82.5000025177003,4|0,0:0|0:0,0:0:0:0:
361,101,113665,2,0,L|370:8,1,82.5000025177003,8|0,0:0|0:0,0:0:0:0:
236,166,113965,2,0,L|213:70,1,82.5000025177003,8|0,3:2|3:0,0:0:0:0:
106,110,114265,2,0,L|83:14,1,82.5000025177003,8|0,0:0|0:0,0:0:0:0:
1,193,114565,6,0,P|48:208|99:196,1,82.5000025177003,4|0,3:2|0:0,0:0:0:0:
247,233,114865,2,0,P|184:242|161:266,1,82.5000025177003,8|0,0:0|0:0,0:0:0:0:
54,126,115165,2,0,P|96:113|129:78,1,82.5000025177003,8|0,3:2|3:0,0:0:0:0:
220,309,115465,2,0,P|198:350|207:403,1,82.5000025177003,8|0,0:0|0:0,0:0:0:0:
18,276,115765,70,0,P|60:238|175:237,1,165.000005035401,4|8,3:2|0:0,0:0:0:0:
220,309,116215,1,0,0:0:0:0:
357,268,116365,1,0,3:0:0:0:
357,268,116515,1,0,3:0:0:0:
242,189,116665,1,8,0:0:0:0:
377,289,116815,6,0,B|370:237|370:237|405:193|405:193|396:114,1,165.000005035401,4|0,3:2|3:0,0:0:0:0:
392,42,117265,2,0,P|437:14|480:16,1,82.5000025177003,8|0,0:0|3:0,0:0:0:0:
308,127,117565,2,0,P|265:111|239:82,1,82.5000025177003,12|0,0:0|3:0,0:0:0:0:
76,11,117865,2,0,L|79:78,1,56.25,12|0,0:0|0:0,0:0:0:0:
97,86,118165,6,0,P|49:88|10:111,1,82.5000025177003,4|0,3:2|0:0,0:0:0:0:
128,210,118465,2,0,P|174:194|202:166,1,82.5000025177003,8|0,0:0|0:0,0:0:0:0:
271,27,118765,2,0,P|269:73|276:115,1,82.5000025177003,8|0,3:2|3:0,0:0:0:0:
350,255,119065,2,0,P|363:209|360:159,1,82.5000025177003,8|0,0:0|0:0,0:0:0:0:
173,69,119365,5,4,3:2:0:0:
173,69,119515,1,0,0:0:0:0:
73,158,119665,2,0,L|90:248,1,82.5000025177003,8|0,0:0|0:0,0:0:0:0:
249,304,119965,1,8,3:2:0:0:
249,304,120115,1,0,3:0:0:0:
82,376,120265,1,8,0:0:0:0:
329,380,120415,70,0,P|384:348|493:351,1,165.000005035401,4|0,3:2|3:0,0:0:0:0:
364,274,120865,2,0,P|341:230|349:190,1,82.5000025177003,8|0,0:0|3:0,0:0:0:0:
423,44,121165,2,0,P|444:93|427:135,1,82.5000025177003,8|0,0:0|3:0,0:0:0:0:
250,150,121465,2,0,L|190:136,3,41.2500012588501,8|0|0|0,0:0|3:0|3:0|3:0,0:0:0:0:
196,132,121765,38,0,L|323:107,1,112.5,8|0,0:0|0:0,0:0:0:0:
306,110,122365,102,0,P|265:46|155:49,1,157.499995193482,2|0,0:0|0:0,0:0:0:0:
175,36,122665,2,0,P|131:74|131:109,1,75,0|0,3:0|0:0,0:0:0:0:
111,271,122965,5,4,0:0:0:0:
143,46,127765,37,0,0:0:0:0:
145,56,127915,1,0,0:0:0:0:
148,66,128065,1,0,0:0:0:0:
151,76,128215,1,0,0:0:0:0:
154,86,128365,1,0,0:0:0:0:
157,96,128515,1,0,0:0:0:0:
161,106,128665,1,0,0:0:0:0:
164,116,128815,1,0,0:0:0:0:
267,182,128965,5,0,0:0:0:0:
265,193,129115,1,0,0:0:0:0:
263,204,129265,1,0,0:0:0:0:
261,215,129415,1,0,0:0:0:0:
259,226,129565,1,0,0:0:0:0:
258,237,129715,1,0,0:0:0:0:
256,248,129865,1,0,0:0:0:0:
254,259,130015,1,0,0:0:0:0:
184,338,130165,102,0,L|198:385,7,28.1250010728836
108,273,130765,6,0,L|63:264,3,28.1250010728836
184,205,131065,2,0,L|220:188,3,28.1250010728836,0|0|0|0,0:0|0:0|0:0|0:0,0:0:0:0:
96,154,131365,53,0,0:0:0:0:
96,154,131965,2,0,P|79:110|85:76,1,75
208,98,132265,2,0,P|212:59|197:11,1,75,0|0,0:0|0:0,0:0:0:0:
305,184,132565,37,4,3:2:0:0:
290,169,132715,1,0,3:0:0:0:
358,86,132865,2,0,B|395:69|395:69|428:90|428:90|456:71|500:79,1,134.999995880127,0|4,3:0|0:0,0:0:0:0:
465,235,133315,1,0,0:0:0:0:
384,178,133465,1,0,0:0:0:0:
316,265,133615,5,0,3:0:0:0:
316,265,133690,1,0,3:0:0:0:
316,265,133765,2,0,B|373:298|373:298|427:363,1,134.999995880127,4|0,0:0|0:0,0:0:0:0:
194,316,134215,1,0,0:0:0:0:
121,257,134365,2,0,B|101:228|101:228|88:174,1,67.4999979400635,4|0,3:2|0:0,0:0:0:0:
171,121,134665,2,0,B|189:85|189:85|200:36,1,67.4999979400635,0|0,0:0|0:0,0:0:0:0:
234,206,134965,101,4,3:2:0:0:
218,219,135115,1,0,3:0:0:0:
85,122,135265,2,0,B|73:72|73:72|17:7,1,134.999995880127,0|4,3:0|0:0,0:0:0:0:
59,203,135715,1,0,3:0:0:0:
170,146,135865,1,0,0:0:0:0:
218,34,136015,1,0,0:0:0:0:
218,34,136090,1,0,0:0:0:0:
218,34,136165,2,0,B|265:62|265:62|377:74,1,134.999995880127,4|0,0:0|0:0,0:0:0:0:
512,246,136615,53,0,3:0:0:0:
512,246,136690,1,0,3:0:0:0:
512,246,136765,2,0,B|454:269|454:269|411:266|411:266|373:295|373:295|334:280|333:280|284:300,1,236.249992790222,8|0,0:0|0:0,0:0:0:0:
225,259,137365,54,0,B|225:216|225:216|201:180,1,75,4|0,3:2|3:0,0:0:0:0:
121,342,137665,2,0,B|90:306|90:306|106:224,1,112.500004291535,0|4,3:0|0:0,0:0:0:0:
143,113,138115,1,0,3:0:0:0:
207,189,138265,1,0,0:0:0:0:
287,88,138415,5,0,3:0:0:0:
287,88,138490,1,0,3:0:0:0:
287,88,138565,2,0,B|315:140|315:140|324:206,1,112.500004291535,4|0,0:0|0:0,0:0:0:0:
207,309,139015,1,0,3:0:0:0:
207,309,139165,2,0,L|269:297,1,56.2500021457673,4|0,0:0|3:0,0:0:0:0:
363,367,139465,2,0,L|430:359,1,56.2500021457673
466,250,139765,101,4,3:2:0:0:
337,342,139915,1,0,3:0:0:0:
335,218,140065,2,0,B|343:164|343:164|393:105,1,112.500004291535,0|4,3:0|0:0,0:0:0:0:
474,78,140515,1,0,3:0:0:0:
354,17,140665,1,0,0:0:0:0:
465,68,140815,1,0,3:0:0:0:
292,110,140965,6,0,P|255:77|202:73,1,89.9999972534181,4|0,0:0|0:0,0:0:0:0:
80,145,141265,1,0,3:0:0:0:
243,213,141415,1,0,3:0:0:0:
151,332,141565,2,0,L|188:321,3,28.1250010728836,8|8|0|0,0:0|0:0|3:0|3:0,0:0:0:0:
185,296,141865,2,0,L|84:279,1,89.9999972534181,12|12,0:0|0:0,0:0:0:0:
96,281,142765,54,0,L|301:261,1,196.875007510186
308,271,143365,6,0,L|390:265,1,67.4999979400635,12|8,3:2|0:0,0:0:0:0:
469,211,143665,2,0,P|443:178|438:109,1,101.249996910095,0|0,3:0|0:0,0:0:0:0:
441,99,143965,2,0,P|395:69|365:72,1,67.4999979400635,0|0,3:0|0:0,0:0:0:0:
315,136,144265,1,0,3:0:0:0:
204,43,144415,6,0,L|282:3,1,82.5000025177003,12|0,0:0|3:0,0:0:0:0:
162,169,144715,2,0,L|240:123,1,82.5000025177003,12|0,0:0|3:0,0:0:0:0:
80,92,145015,1,0,0:0:0:0:
18,173,145165,2,0,P|32:214|32:260,1,67.4999979400635,0|0,3:0|0:0,0:0:0:0:
62,359,145465,1,0,3:0:0:0:
154,248,145615,2,0,P|141:289|141:308,1,33.7499989700318,10|0,0:0|0:0,0:0:0:0:
191,346,145765,102,0,P|233:354|282:345,1,67.4999979400635
442,311,146065,2,0,P|393:286|332:290,1,101.249996910095,0|0,3:0|0:0,0:0:0:0:
336,299,146365,2,0,P|309:260|303:232,1,67.4999979400635,0|0,3:0|0:0,0:0:0:0:
369,102,146665,1,0,0:0:0:0:
397,204,146815,5,8,0:3:0:0:
386,208,146890,1,0,0:0:0:0:
376,212,146965,1,0,3:0:0:0:
279,141,147115,1,4,0:3:0:0:
290,145,147190,1,0,0:0:0:0:
300,149,147265,1,0,3:0:0:0:
395,90,147415,2,0,L|407:23,2,67.4999979400635,4|4|4,0:0|3:0|0:3,0:0:0:0:
300,228,147865,2,0,P|253:217|186:228,1,101.249996910095,4|0,3:0|0:0,0:0:0:0:
145,292,148165,6,0,L|160:343,7,37.5,4|0|0|0|8|0|0|0,3:2|0:0|0:0|0:0|0:0|0:0|0:0|0:0,0:0:0:0:
49,280,148765,2,0,L|59:316,7,37.5,8|0|0|0|8|0|0|0,0:0|0:0|0:0|0:0|0:0|0:0|0:0|0:0,0:0:0:0:
122,217,149365,6,0,L|112:181,3,37.5,8|0|0|0,0:0|0:0|0:0|0:0,0:0:0:0:
21,172,149665,2,0,L|11:136,3,37.5,8|0|8|8,0:0|0:0|0:0|0:0,0:0:0:0:
91,67,149965,2,0,L|84:114,3,37.5,8|0|0|0,0:0|0:0|0:0|0:0,0:0:0:0:
163,19,150265,1,8,0:0:0:0:
188,24,150340,1,0,0:0:0:0:
212,29,150415,1,8,0:0:0:0:
233,34,150490,1,0,0:0:0:0:
256,39,150565,53,2,3:2:0:0:
386,200,150865,1,0,3:0:0:0:
386,200,151165,1,0,3:0:0:0:
386,200,151465,1,0,3:0:0:0:
386,200,151765,1,0,3:0:0:0:
386,200,152065,1,0,3:0:0:0:
386,200,152365,1,0,3:0:0:0:
386,200,152665,1,0,3:0:0:0:
410,78,152965,38,0,P|422:32|404:-15,2,75,2|0|0,3:2|3:0|3:0,0:0:0:0:
411,214,153415,2,0,P|433:254|432:283,2,75,2|0|0,3:2|3:0|3:0,0:0:0:0:
511,138,153865,2,0,B|477:86|411:99|385:128|385:128|358:157|349:173|289:189|258:152|238:106|255:64|294:47,1,375,2|4,3:2|0:1,0:0:0:0:
140,187,164965,117,4,0:0:0:0:
111,110,165265,1,0,0:0:0:0:
157,41,165565,1,0,0:0:0:0:
140,187,165865,5,0,0:0:0:0:
111,110,166015,1,0,0:0:0:0:
157,41,166165,101,0,0:0:0:0:
241,35,166465,1,0,0:0:0:0:
140,187,166765,5,0,0:0:0:0:
111,110,166915,1,0,0:0:0:0:
157,41,167065,1,0,0:0:0:0:
241,35,167215,1,0,0:0:0:0:
297,95,167365,101,0,0:0:0:0:
293,172,167665,1,0,0:0:0:0:
226,216,167965,1,0,0:0:0:0:
297,95,168265,5,0,0:0:0:0:
293,172,168415,1,0,0:0:0:0:
226,216,168565,101,0,0:0:0:0:
192,292,168865,1,0,0:0:0:0:
297,95,169165,5,0,0:0:0:0:
293,172,169315,1,0,0:0:0:0:
226,216,169465,1,0,0:0:0:0:
192,292,169615,1,0,0:0:0:0:
236,369,169765,102,0,L|303:361,3,56.2500021457673
404,293,170365,2,0,L|346:284,3,56.2500021457673,0|0|0|0,0:0|0:0|0:0|0:0,0:0:0:0:
305,173,170965,6,0,P|259:173|229:190,1,56.2500021457673
210,92,171265,2,0,P|174:121|162:153,1,56.2500021457673,0|0,0:0|0:0,0:0:0:0:
89,111,171565,2,0,P|81:156|92:188,1,56.2500021457673,0|0,0:0|0:0,0:0:0:0:
3,199,171865,2,0,P|26:238|55:256,1,56.2500021457673,0|0,0:0|0:0,0:0:0:0:
208,303,172165,102,0,L|166:314,7,28.1250010728836
43,353,172765,2,0,L|76:366,7,28.1250010728836
109,284,173365,6,0,L|101:260,14,14.0625005364418,0|0|0|0|0|0|0|0|0|0|0|0|0|0|0,0:0|0:0|0:0|0:0|0:0|0:0|0:0|0:0|0:0|0:0|0:0|0:0|0:0|0:0|0:0,0:0:0:0:
153,202,173965,2,0,L|163:129,1,56.2500021457673,0|0,0:0|0:0,0:0:0:0:
228,283,174265,54,0,P|279:259|292:260,1,56.25,0|0,3:0|0:0,0:0:0:0:
297,264,174565,70,0,P|352:289|402:279,1,89.9999972534181,4|0,0:0|0:0,0:0:0:0:
425,125,174865,2,0,P|403:174|366:197,1,89.9999972534181,8|0,0:0|0:0,0:0:0:0:
214,111,175165,2,0,L|113:69,1,89.9999972534181,0|0,3:0|3:0,0:0:0:0:
308,32,175465,1,8,0:0:0:0:
209,222,175615,6,0,P|151:196|39:222,1,179.999994506836,4|2,3:2|3:2,0:0:0:0:
107,288,176065,1,10,0:2:0:0:
33,349,176215,1,2,0:2:0:0:
2,156,176365,1,2,3:2:0:0:
2,156,176515,1,0,3:0:0:0:
128,179,176665,2,0,P|157:129|143:34,1,134.999995880127,10|0,0:0|0:0,0:0:0:0:
146,36,176965,101,4,3:2:0:0:
261,169,177115,2,0,L|273:77,1,89.9999972534181,0|8,0:0|0:0,0:0:0:0:
352,22,177415,1,0,0:0:0:0:
420,97,177565,2,0,P|460:136|500:144,1,89.9999972534181,0|0,3:0|3:0,0:0:0:0:
431,320,177865,1,8,0:0:0:0:
509,267,178015,6,0,P|461:239|311:281,1,179.999994506836,4|0,3:2|3:0,0:0:0:0:
229,384,178465,2,0,L|208:342,3,44.999998626709,0|0|0|0,1:0|1:0|1:0|1:0,0:0:0:0:
201,328,178765,2,0,L|298:312,1,89.9999972534181,4|0,3:2|3:2,0:0:0:0:
112,232,179065,1,0,1:0:0:0:
110,248,179140,1,0,1:0:0:0:
106,267,179215,1,0,1:0:0:0:
105,286,179290,1,0,1:0:0:0:
101,305,179365,102,0,P|57:272|44:231,1,89.9999972534181,4|0,3:2|0:0,0:0:0:0:
119,150,179665,2,0,P|136:103|131:50,1,89.9999972534181,8|0,0:0|0:0,0:0:0:0:
17,24,179965,1,0,3:0:0:0:
17,24,180115,1,0,3:0:0:0:
26,150,180265,1,8,0:0:0:0:
163,227,180415,6,0,B|218:212|218:212|264:166|264:166|359:151,1,179.999994506836,4|2,3:2|3:2,0:0:0:0:
427,214,180865,1,10,0:2:0:0:
397,31,181015,2,0,L|415:129,2,89.9999972534181,2|2|2,0:2|3:2|3:2,0:0:0:0:
304,109,181465,2,0,P|244:87|169:129,1,134.999995880127,14|0,0:2|0:0,0:0:0:0:
176,128,181765,101,4,3:2:0:0:
82,229,181915,2,0,B|47:194|47:194|47:148,1,89.9999972534181,8|0,0:0|3:0,0:0:0:0:
178,297,182215,1,0,3:0:0:0:
178,297,182365,2,0,B|211:261|211:261|212:207,1,89.9999972534181,12|0,0:0|3:0,0:0:0:0:
104,362,182665,1,12,0:0:0:0:
255,356,182815,6,0,B|319:319|319:319|455:334,1,179.999994506836,4|0,3:2|3:3,0:0:0:0:
424,330,183265,2,0,L|441:277,3,44.999998626709,0|0|0|0,1:0|1:0|3:0|3:0,0:0:0:0:
506,257,183565,1,12,3:2:0:0:
345,323,183715,1,0,3:0:0:0:
358,169,183865,22,0,P|381:134|396:132,1,56.25,12|0,3:2|0:0,0:0:0:0:
414,134,184165,102,0,P|371:94|355:55,1,89.9999972534181,4|0,3:2|0:0,0:0:0:0:
253,102,184465,2,0,P|250:45|276:4,1,89.9999972534181,8|0,0:0|0:0,0:0:0:0:
282,217,184765,2,0,P|242:260|202:276,1,89.9999972534181,8|0,3:2|3:0,0:0:0:0:
249,377,185065,2,0,P|192:380|151:354,1,89.9999972534181,8|0,0:0|0:0,0:0:0:0:
35,216,185365,6,4,P|43:159|39:111,1,89.9999972534181,4|0,3:2|0:2,0:2:0:0:
173,15,185665,2,0,P|175:68|186:116,1,89.9999972534181,8|0,0:0|0:0,0:0:0:0:
87,34,185965,2,0,P|31:49|-10:50,1,89.9999972534181,8|0,3:2|3:0,0:0:0:0:
128,196,186265,2,0,P|177:191|224:174,1,89.9999972534181,8|8,0:0|0:0,0:0:0:0:
343,13,186565,70,0,P|399:46|372:166,1,179.999994506836,4|8,3:2|0:0,0:0:0:0:
293,114,187015,1,0,0:0:0:0:
271,284,187165,1,0,3:0:0:0:
341,221,187315,1,0,3:0:0:0:
185,272,187465,1,8,0:0:0:0:
349,349,187615,6,0,P|286:328|173:373,1,179.999994506836,4|2,0:0|3:2,0:0:0:0:
74,341,188065,2,0,L|49:249,1,89.9999972534181,10|2,0:2|3:2,0:0:0:0:
175,120,188365,1,12,0:0:0:0:
51,36,188515,1,0,3:0:0:0:
65,126,188665,2,0,L|179:106,1,89.9999972534181,12|0,0:0|0:0,0:0:0:0:
366,103,188965,6,0,P|404:65|412:20,1,89.9999972534181,4|0,3:2|0:0,0:0:0:0:
503,161,189265,2,0,P|466:186|422:188,1,89.9999972534181,8|0,0:0|0:0,0:0:0:0:
377,278,189565,2,0,P|421:308|466:308,1,89.9999972534181,8|0,3:2|3:0,0:0:0:0:
313,384,189865,2,0,P|287:345|279:302,1,89.9999972534181,8|0,0:0|0:0,0:0:0:0:
100,250,190165,6,0,P|149:254|202:246,1,89.9999972534181,4|0,3:2|0:0,0:0:0:0:
361,155,190465,2,0,P|308:156|255:152,1,89.9999972534181,8|0,0:0|0:0,0:0:0:0:
94,105,190765,2,0,P|148:102|189:87,1,89.9999972534181,8|0,3:2|3:0,0:0:0:0:
328,15,191065,1,8,0:0:0:0:
197,173,191215,70,0,P|193:229|214:355,1,179.999994506836,4|0,3:2|3:0,0:0:0:0:
273,256,191665,1,8,0:0:0:0:
106,333,191815,1,0,0:0:0:0:
30,253,191965,2,0,L|39:151,1,89.9999972534181,0|0,3:0|3:0,0:0:0:0:
48,53,192265,1,8,0:0:0:0:
159,181,192415,5,4,0:0:0:0:
217,62,192565,2,0,P|186:20|127:13,1,89.9999972534181,0|4,3:0|0:0,0:0:0:0:
286,145,192865,2,0,P|342:125|361:75,1,89.9999972534181,8|0,0:0|0:0,0:0:0:0:
224,212,193165,1,4,3:2:0:0:
290,70,193315,1,0,3:0:0:0:
367,211,193465,22,0,P|357:291|380:352,1,134.999995880127,8|0,0:0|0:0,0:0:0:0:
389,360,193765,102,0,L|480:335,1,89.9999972534181,4|0,3:2|0:0,0:0:0:0:
281,272,194065,2,0,L|179:250,1,89.9999972534181,8|0,0:0|0:0,0:0:0:0:
403,342,194365,2,0,L|494:317,1,89.9999972534181,8|0,3:2|3:0,0:0:0:0:
268,252,194665,2,0,L|166:230,1,89.9999972534181,8|0,0:0|0:0,0:0:0:0:
398,92,194965,5,4,3:2:0:0:
398,92,195115,1,0,0:0:0:0:
476,174,195265,2,0,P|419:197|376:191,1,89.9999972534181,8|0,0:0|0:0,0:0:0:0:
218,34,195565,1,8,3:2:0:0:
218,34,195715,1,0,3:0:0:0:
139,109,195865,2,0,P|182:135|254:139,1,89.9999972534181,8|8,0:0|0:0,0:0:0:0:
344,20,196165,70,0,B|331:84|331:84|359:127|359:127|347:212,1,179.999994506836,4|8,3:2|0:0,0:0:0:0:
336,294,196615,1,0,0:0:0:0:
257,229,196765,2,0,L|152:241,1,89.9999972534181,0|0,3:0|3:0,0:0:0:0:
11,373,197065,1,8,0:0:0:0:
97,299,197215,6,0,P|129:236|119:108,1,179.999994506836,4|2,3:2|3:2,0:0:0:0:
42,75,197665,1,10,0:0:0:0:
39,194,197815,1,2,3:2:0:0:
170,50,197965,6,0,L|230:65,1,44.999998626709,14|0,0:0|0:0,0:0:0:0:
329,99,198115,2,0,L|274:114,1,44.999998626709,0|0,3:0|3:0,0:0:0:0:
228,168,198265,2,0,P|236:232|258:264,1,89.9999972534181,12|0,0:0|3:0,0:0:0:0:
336,351,198565,5,12,0:0:0:0:
336,351,198715,1,0,0:0:0:0:
402,180,198865,1,8,0:0:0:0:
402,180,199015,1,0,0:0:0:0:
433,347,199165,101,8,0:0:0:0:
433,347,199315,1,0,3:0:0:0:
314,182,199465,1,8,0:0:0:0:
314,182,199615,1,0,3:0:0:0:
167,287,199765,5,12,0:0:0:0:
167,287,199915,1,0,3:0:0:0:
219,109,200065,1,8,0:0:0:0:
219,109,200215,1,0,3:0:0:0:
60,223,200365,101,8,0:0:0:0:
123,66,200515,1,0,3:0:0:0:
143,214,200665,1,8,0:0:0:0:
164,362,200815,22,0,P|209:330|259:327,1,89.9999972534181,0|0,3:0|0:0,0:0:0:0:
316,351,201265,2,0,P|346:367|366:367,1,44.999998626709,0|0,0:0|0:0,0:0:0:0:
426,321,201565,2,0,L|446:231,1,89.9999972534181,0|0,0:0|0:0,0:0:0:0:
333,80,202015,6,0,L|362:183,1,89.9999972534181,0|0,0:0|0:0,0:0:0:0:
301,232,202465,1,0,0:0:0:0:
221,223,202615,1,0,0:0:0:0:
187,151,202765,1,0,0:0:0:0:
