osu file format v14

[General]
AudioFilename: audio.mp3
AudioLeadIn: 0
PreviewTime: 103540
Countdown: 0
SampleSet: Soft
StackLeniency: 0.7
Mode: 0
LetterboxInBreaks: 0
WidescreenStoryboard: 1

[Editor]
DistanceSpacing: 1.2
BeatDivisor: 4
GridSize: 16
TimelineZoom: 2.5

[Metadata]
Title:HIBANA feat. Hatsune Miku
TitleUnicode:ヒバナ feat. 初音ミク
Artist:DECO*27
ArtistUnicode:DECO*27
Creator:Pho
Version:Extra
Source:
Tags:10th anniversary re:start 八三 vocaloid rockwell mes neonat
BeatmapID:1466471
BeatmapSetID:671199

[Difficulty]
HPDrainRate:5.5
CircleSize:4.2
OverallDifficulty:8
ApproachRate:9.5
SliderMultiplier:1.8
SliderTickRate:1

[Events]
//Background and Video events
0,0,"bg.jpg",0,0
//Break Periods
2,17565,21640
2,123165,127240
2,155565,164440
//Storyboard Layer 0 (Background)
//Storyboard Layer 1 (Fail)
//Storyboard Layer 2 (Pass)
//Storyboard Layer 3 (Foreground)
//Storyboard Sound Samples

[TimingPoints]
565,300,4,2,1,60,1,0
2665,-83.3333333333333,4,2,1,60,0,0
2890,-83.3333333333333,4,2,1,5,0,0
2965,-133.333333333333,4,2,1,60,0,0
4165,-111.111111111111,4,2,1,60,0,0
6565,-100,4,2,1,60,0,0
7765,-100,4,2,1,90,0,0
17290,-100,4,2,1,5,0,0
17365,-133.333333333333,4,2,1,90,0,0
17440,-133.333333333333,4,2,1,60,0,0
19690,-133.333333333333,4,2,1,5,0,0
19765,-133.333333333333,4,2,1,60,0,0
20890,-133.333333333333,4,2,1,5,0,0
20965,-133.333333333333,4,2,1,60,0,0
22090,-133.333333333333,4,2,1,5,0,0
22165,-83.3333333333333,4,2,1,80,0,0
22615,-133.333333333333,4,2,1,60,0,0
23365,-83.3333333333333,4,2,1,80,0,0
23665,-133.333333333333,4,2,1,60,0,0
24565,-83.3333333333333,4,2,1,80,0,0
24865,-133.333333333333,4,2,1,60,0,0
25765,-83.3333333333333,4,2,1,60,0,0
26665,-200,4,2,1,60,0,0
26890,-200,4,2,1,5,0,0
26965,-83.3333333333333,4,2,1,60,0,0
27115,-100,4,2,1,80,0,0
31690,-100,4,2,1,5,0,0
31765,-100,4,2,1,80,0,0
36565,-100,4,2,1,80,0,0
36715,-133.333333333333,4,2,1,60,0,0
37615,-100,4,2,1,80,0,0
38065,-133.333333333333,4,2,1,60,0,0
38965,-100,4,2,1,60,0,0
39265,-133.333333333333,4,2,1,60,0,0
41065,-83.3333333333333,4,2,1,60,0,0
41365,-100,4,2,1,60,0,0
42565,-90.9090909090909,4,2,1,70,0,0
43765,-83.3333333333333,4,2,1,80,0,0
46165,-90.9090909090909,4,2,1,95,0,0
55465,-200,4,2,1,95,0,0
55690,-200,4,2,1,5,0,0
55765,-90.9090909090909,4,2,1,95,0,0
64165,-200,4,2,1,80,0,0
64465,-600,4,2,1,20,0,0
64615,-600,4,2,1,5,0,0
64765,-66.6666666666667,4,2,1,60,0,0
64990,-66.6666666666667,4,2,1,5,0,0
65065,-133.333333333333,4,2,1,60,0,0
65215,-133.333333333333,4,2,1,5,0,0
65365,-100,4,2,1,80,0,0
72565,-133.333333333333,4,2,1,70,0,0
72940,-133.333333333333,4,2,1,60,0,0
73765,-83.3333333333333,4,2,1,77,0,0
74665,-200,4,2,1,60,0,0
74890,-200,4,2,1,5,0,0
74965,-133.333333333333,4,2,1,50,0,0
83215,-83.3333333333333,4,2,1,60,0,0
83515,-100,4,2,1,70,0,0
84565,-100,4,2,1,80,0,0
94165,-111.111111111111,4,2,1,60,0,0
98665,-83.3333333333333,4,2,1,60,0,0
98965,-100,4,2,1,70,0,0
100165,-90.9090909090909,4,2,1,70,0,0
101365,-100,4,2,1,70,0,0
103165,-100,4,2,1,60,0,0
103240,-100,4,2,1,5,0,0
103315,-100,4,2,1,60,0,0
103390,-100,4,2,1,5,0,0
103465,-100,4,2,1,60,0,0
103540,-100,4,2,1,5,0,0
103615,-100,4,2,1,60,0,0
103690,-100,4,2,1,5,0,0
103765,-90.9090909090909,4,2,1,95,0,0
113065,-200,4,2,1,95,0,0
113290,-200,4,2,1,5,0,0
113365,-90.9090909090909,4,2,1,95,0,0
117040,-90.9090909090909,4,2,1,5,0,0
117115,-90.9090909090909,4,2,1,95,0,0
117865,-200,4,2,1,95,0,0
118090,-200,4,2,1,5,0,0
118165,-90.9090909090909,4,2,1,95,0,0
120640,-90.9090909090909,4,2,1,5,0,0
120715,-90.9090909090909,4,2,1,95,0,0
121765,-333.333333333333,4,2,1,80,0,0
122215,-333.333333333333,4,2,1,5,0,0
122365,-71.4285714285714,4,2,1,60,0,0
122590,-71.4285714285714,4,2,1,5,0,0
122665,-100,4,2,1,60,0,0
122815,-71.4285714285714,4,2,1,5,0,0
122965,-133.333333333333,4,2,1,60,0,0
127765,-133.333333333333,4,2,2,40,0,0
130165,-133.333333333333,4,2,2,50,0,0
131365,-133.333333333333,4,2,2,60,0,0
131965,-100,4,2,1,60,0,0
132565,-133.333333333333,4,2,1,80,0,0
133765,-133.333333333333,4,2,2,80,0,0
133840,-133.333333333333,4,2,1,80,0,0
136165,-133.333333333333,4,2,2,80,0,0
136240,-133.333333333333,4,2,1,80,0,0
137365,-100,4,2,1,80,0,0
137515,-133.333333333333,4,2,1,80,0,0
138565,-133.333333333333,4,2,2,80,0,0
138640,-133.333333333333,4,2,1,80,0,0
140965,-83.3333333333333,4,2,2,80,0,0
141115,-133.333333333333,4,2,1,80,0,0
141865,-83.3333333333333,4,2,1,80,0,0
142165,-133.333333333333,4,2,1,80,0,0
142765,-133.333333333333,4,2,1,20,0,0
143365,-111.111111111111,4,2,1,60,0,0
144415,-90.9090909090909,4,2,1,60,0,0
144865,-111.111111111111,4,2,1,60,0,0
146815,-111.111111111111,4,2,1,80,0,0
147415,-111.111111111111,4,2,1,70,0,0
148090,-111.111111111111,4,2,1,5,0,0
148165,-111.111111111111,4,2,1,70,0,0
149365,-111.111111111111,4,2,1,80,0,0
150865,-111.111111111111,4,2,1,70,0,0
153040,-111.111111111111,4,2,1,5,0,0
153115,-111.111111111111,4,2,1,60,0,0
153190,-111.111111111111,4,2,1,5,0,0
153265,-111.111111111111,4,2,1,60,0,0
153490,-111.111111111111,4,2,1,5,0,0
153565,-111.111111111111,4,2,1,60,0,0
153640,-111.111111111111,4,2,1,5,0,0
153715,-111.111111111111,4,2,1,60,0,0
153865,-200,4,2,1,60,0,0
153940,-200,4,2,1,5,0,0
155365,-200,4,2,1,60,0,0
164965,-133.333333333333,4,2,2,60,0,0
168715,-133.333333333333,4,2,2,5,0,0
168865,-133.333333333333,4,2,2,60,0,0
169015,-133.333333333333,4,2,2,5,0,0
169165,-133.333333333333,4,2,2,60,0,0
170965,-133.333333333333,4,2,2,70,0,0
172165,-133.333333333333,4,2,2,80,0,0
173965,-133.333333333333,4,2,1,50,0,0
174265,-200,4,2,1,80,0,0
174490,-200,4,2,1,5,0,0
174565,-83.3333333333333,4,2,1,100,0,1
183865,-200,4,2,1,100,0,1
184090,-200,4,2,1,5,0,1
184165,-83.3333333333333,4,2,1,100,0,1
200815,-166.666666666667,4,2,1,50,0,0

[Colours]
Combo1 : 221,221,221
Combo2 : 253,236,176
Combo3 : 247,193,104
Combo4 : 39,55,88
Combo5 : 154,231,206
Combo6 : 98,244,226
Combo7 : 231,118,237
Combo8 : 255,51,51

[HitObjects]
132,154,565,5,4,1:0:0:0:
178,77,765,1,0,1:0:0:0:
109,19,965,1,0,1:0:0:0:
47,148,1165,5,4,1:0:0:0:
55,237,1365,1,4,1:0:0:0:
63,326,1565,1,0,1:0:0:0:
265,347,1765,85,4,1:0:0:0:
130,204,1965,1,0,1:0:0:0:
155,381,2165,1,0,1:0:0:0:
243,224,2365,1,0,1:0:0:0:
243,224,2665,102,2,B|255:189|236:156|236:156|249:121|249:121|233:88|250:29,1,161.999995056152,2|0,0:1|0:0,0:0:0:0:
302,20,2965,54,0,L|347:35,5,33.7500012874604,4|0|0|0|0|0,1:2|0:0|0:0|0:0|0:0|0:0,0:0:0:0:
432,79,3415,2,0,L|387:94,5,33.7500012874604,0|0|0|0|0|0,1:0|0:0|0:0|0:0|0:0|0:0,0:0:0:0:
335,170,3865,1,0,1:0:0:0:
345,202,3940,1,0,0:0:0:0:
367,227,4015,1,0,0:0:0:0:
395,244,4090,1,0,0:0:0:0:
435,239,4165,6,0,L|448:170,5,40.4999987640381,4|0|0|0|0|0,1:2|0:0|0:0|0:0|0:0|0:0,0:0:0:0:
486,328,4615,2,0,P|495:342|519:353,5,40.4999987640381,0|0|0|0|0|0,1:0|0:0|0:0|0:0|0:0|0:0,0:0:0:0:
385,364,5065,1,0,1:0:0:0:
350,342,5140,1,0,0:0:0:0:
309,336,5215,1,0,0:0:0:0:
268,336,5290,1,0,0:0:0:0:
232,354,5365,102,0,B|242:306|242:306|219:263,1,80.9999975280763,4|0,1:0|0:0,0:0:0:0:
112,178,5665,2,0,B|102:226|102:226|125:269,1,80.9999975280763,0|0,1:0|0:0,0:0:0:0:
213,109,5965,1,0,1:0:0:0:
192,106,6040,1,0,0:0:0:0:
171,103,6115,1,0,1:0:0:0:
150,100,6190,1,0,0:0:0:0:
129,98,6265,1,0,1:0:0:0:
108,96,6340,1,0,0:0:0:0:
87,94,6415,1,0,1:0:0:0:
66,92,6490,1,0,1:0:0:0:
43,89,6565,5,0,1:0:0:0:
208,23,7015,1,0,1:0:0:0:
234,189,7465,2,0,L|344:168,1,90,0|0,1:0|0:0,0:0:0:0:
512,140,7765,69,4,0:0:0:0:
354,66,7915,1,0,0:0:0:0:
475,12,8065,1,8,0:0:0:0:
421,173,8215,2,0,L|420:272,1,90,0|0,0:0|3:0,0:0:0:0:
498,330,8515,1,0,0:0:0:0:
327,384,8665,1,10,0:0:0:0:
279,183,8815,1,0,0:0:0:0:
173,323,8965,6,0,P|216:335|260:326,1,90,2|0,3:2|0:0,0:0:0:0:
80,241,9265,2,0,B|44:256|44:256|-12:258,1,90,8|0,0:0|0:0,0:0:0:0:
144,109,9565,1,2,3:2:0:0:
139,189,9715,1,0,0:0:0:0:
70,60,9865,1,10,0:0:0:0:
213,228,10015,1,10,0:0:0:0:
231,62,10165,102,0,P|192:30|141:22,1,90,4|0,3:2|0:0,0:0:0:0:
271,165,10465,1,8,0:0:0:0:
352,107,10615,2,0,L|340:13,1,90,0|0,0:0|3:0,0:0:0:0:
271,165,10915,1,0,0:0:0:0:
374,226,11065,2,0,P|432:221|490:257,1,90,10|0,0:0|0:0,0:0:0:0:
302,372,11365,5,2,3:2:0:0:
188,322,11515,1,0,0:0:0:0:
320,379,11665,1,8,0:0:0:0:
170,313,11815,1,8,0:0:0:0:
290,251,11965,2,0,B|286:202|286:202|263:146,1,90,2|0,3:2|0:0,0:0:0:0:
438,41,12265,1,10,0:0:0:0:
428,70,12340,1,8,0:0:0:0:
419,100,12415,1,8,0:0:0:0:
411,130,12490,1,8,0:0:0:0:
404,156,12565,102,0,P|464:188|502:184,1,90,6|0,3:2|0:0,0:0:0:0:
307,38,12865,2,0,P|250:49|215:82,1,90,8|0,0:0|0:0,0:0:0:0:
217,158,13165,1,0,3:0:0:0:
95,244,13315,1,0,0:0:0:0:
85,100,13465,1,10,0:0:0:0:
178,282,13615,1,0,0:0:0:0:
258,224,13765,6,0,L|374:209,1,90,2|0,3:2|0:0,0:0:0:0:
297,134,14065,1,8,0:0:0:0:
323,297,14215,1,0,0:0:0:0:
317,121,14365,1,2,3:2:0:0:
258,224,14515,1,0,0:0:0:0:
425,264,14665,1,8,0:0:0:0:
251,381,14815,101,0,3:0:0:0:
251,381,14890,1,0,3:0:0:0:
251,381,14965,2,0,P|204:375|167:344,1,90,4|0,0:0|3:0,0:0:0:0:
189,255,15265,1,0,3:0:0:0:
35,110,15415,2,0,P|6:164|14:217,1,90,8|0,0:0|3:0,0:0:0:0:
71,245,15715,1,0,3:0:0:0:
244,100,15865,2,0,L|227:11,1,90,14|0,0:0|3:0,0:0:0:0:
165,177,16165,5,8,0:0:0:0:
385,216,16315,1,8,0:0:0:0:
385,216,16390,1,8,0:0:0:0:
385,216,16465,1,8,0:0:0:0:
345,105,16615,1,8,0:0:0:0:
183,210,16765,1,0,3:0:0:0:
169,316,16915,1,0,3:0:0:0:
275,361,17065,2,0,L|434:321,1,135,8|0,3:0|0:0,0:0:0:0:
418,311,17365,5,4,0:0:0:0:
398,157,22165,6,0,L|381:37,1,107.999996704102,0|0,1:0|1:0,0:0:0:0:
343,238,22615,1,0,0:0:0:0:
343,238,22690,1,0,0:0:0:0:
343,238,22765,1,0,0:0:0:0:
447,302,22915,1,0,0:0:0:0:
343,362,23065,1,0,0:0:0:0:
477,232,23215,1,0,0:0:0:0:
240,191,23365,102,0,L|232:299,1,107.999996704102,0|0,1:0|1:0,0:0:0:0:
232,298,23815,1,0,0:0:0:0:
143,295,23965,1,0,0:0:0:0:
100,372,24115,1,0,0:0:0:0:
145,270,24265,1,0,0:0:0:0:
2,258,24415,1,0,0:0:0:0:
71,155,24565,6,0,L|56:16,1,107.999996704102,0|0,1:0|1:0,0:0:0:0:
0,241,25015,1,0,3:3:0:0:
0,241,25090,1,0,3:3:0:0:
0,241,25165,1,8,1:2:0:0:
63,318,25315,1,0,3:0:0:0:
137,257,25465,1,0,3:0:0:0:
75,179,25615,1,0,3:0:0:0:
76,339,25765,101,0,1:0:0:0:
211,382,25915,2,0,P|256:350|316:344,1,107.999996704102,0|0,1:0|0:0,0:0:0:0:
272,134,26215,2,0,P|283:190|317:239,1,107.999996704102,0|0,1:0|0:0,0:0:0:0:
403,309,26515,1,0,1:0:0:0:
480,119,26665,6,0,P|423:122|399:137,1,67.5,0|0,1:0|0:0,0:0:0:0:
399,138,26965,70,0,P|429:55|412:15,1,107.999996704102,4|0,0:0|0:0,0:0:0:0:
318,0,27265,1,8,0:0:0:0:
131,121,27415,2,0,L|41:91,2,90,0|0|0,0:0|3:0|0:0,0:0:0:0:
323,94,27865,1,8,0:0:0:0:
351,282,28015,6,0,L|448:252,2,90,0|0|0,0:0|3:0|0:0,0:0:0:0:
186,205,28465,1,8,0:0:0:0:
380,182,28615,1,0,0:0:0:0:
292,141,28765,1,0,3:0:0:0:
373,80,28915,1,0,0:0:0:0:
427,274,29065,1,8,0:0:0:0:
481,151,29215,1,8,0:0:0:0:
282,224,29365,102,0,P|240:264|228:321,1,90,0|0,3:0|0:0,0:0:0:0:
293,384,29665,1,8,0:0:0:0:
44,362,29815,2,0,L|167:372,2,90,0|0|0,0:0|3:0|0:0,0:0:0:0:
0,273,30265,1,8,0:0:0:0:
167,146,30415,1,0,0:0:0:0:
64,80,30565,6,0,P|82:120|67:195,1,90,0|0,3:0|0:0,0:0:0:0:
157,228,30865,2,0,P|201:222|238:196,1,90,8|0,0:0|0:0,0:0:0:0:
159,354,31165,2,0,P|99:323|80:271,1,90,0|0,3:0|0:0,0:0:0:0:
276,288,31465,2,0,L|443:272,1,135,12|0,0:0|0:0,0:0:0:0:
428,270,31765,102,0,L|313:250,1,90,4|0,3:2|0:0,0:0:0:0:
353,148,32065,1,8,0:0:0:0:
511,282,32215,1,0,0:0:0:0:
377,350,32365,1,0,3:0:0:0:
469,202,32515,2,0,P|480:154|463:104,1,90,0|8,0:0|0:0,0:0:0:0:
274,19,32815,5,0,0:0:0:0:
172,79,32965,1,0,3:0:0:0:
264,173,33115,2,0,L|245:280,1,90,0|8,0:0|0:0,0:0:0:0:
353,152,33415,1,0,0:0:0:0:
416,333,33565,1,0,3:0:0:0:
329,233,33715,1,0,0:0:0:0:
497,314,33865,1,12,0:0:0:0:
265,355,34015,101,0,0:0:0:0:
265,355,34090,1,0,0:0:0:0:
265,355,34165,2,0,P|212:337|149:344,1,90,4|0,3:2|0:0,0:0:0:0:
90,384,34465,1,8,0:0:0:0:
9,267,34615,2,0,L|105:247,2,90,0|0|0,0:0|3:0|0:0,0:0:0:0:
119,153,35065,1,8,0:0:0:0:
187,315,35215,5,0,3:0:0:0:
193,300,35290,1,0,3:0:0:0:
197,284,35365,1,12,3:2:0:0:
149,71,35515,1,0,3:0:0:0:
101,230,35665,1,0,3:0:0:0:
246,181,35815,1,8,0:2:0:0:
69,22,35965,101,10,0:0:0:0:
156,175,36115,1,0,3:0:0:0:
299,90,36265,1,8,3:0:0:0:
207,9,36415,1,4,3:0:0:0:
265,180,36565,22,0,L|353:154,1,90,4|0,3:2|0:0,0:0:0:0:
476,307,36865,2,0,P|412:282|361:302,1,101.250003862381,8|0,1:0|3:0,0:0:0:0:
361,296,37165,2,0,L|378:370,1,67.5000025749208,0|0,3:0|3:0,0:0:0:0:
405,209,37465,1,8,1:0:0:0:
268,325,37615,6,0,P|235:287|231:240,1,90,2|0,3:2|0:0,0:0:0:0:
129,227,37915,2,0,P|155:170|197:152,1,90,2|8,3:2|0:0,0:0:0:0:
163,333,38215,1,0,3:0:0:0:
163,333,38290,1,0,3:0:0:0:
163,333,38365,1,0,3:0:0:0:
253,358,38515,1,0,3:0:0:0:
313,282,38665,2,0,L|405:262,1,67.5000025749208,8|0,0:0|3:0,0:0:0:0:
189,175,38965,102,0,L|170:79,1,90,4|0,3:2|3:3,0:0:0:0:
322,134,39265,2,0,L|337:10,1,101.250003862381,8|0,0:0|0:0,0:0:0:0:
337,19,39565,2,0,P|374:34|422:28,1,67.5000025749208,0|0,3:0|3:0,0:0:0:0:
249,80,39865,1,8,0:0:0:0:
114,26,40015,6,0,P|97:69|116:116,1,67.5000025749208,2|0,3:2|0:0,0:0:0:0:
42,158,40315,2,0,P|78:195|118:202,1,67.5000025749208,2|8,3:2|0:0,0:0:0:0:
221,161,40615,1,0,3:3:0:0:
283,244,40765,1,0,3:3:0:0:
198,294,40915,1,0,3:3:0:0:
407,347,41065,6,0,L|295:357,1,107.999996704102,4|0,0:0|3:0,0:0:0:0:
281,381,41290,1,0,3:3:0:0:
281,381,41365,86,0,L|291:292,1,90,12|0,1:2|0:0,0:0:0:0:
372,114,41665,2,0,L|382:203,1,90,8|0,1:0|0:0,0:0:0:0:
202,220,41965,2,0,P|254:194|311:204,1,90,8|0,1:0|0:3,0:0:0:0:
499,241,42265,1,8,1:0:0:0:
381,289,42415,1,0,0:3:0:0:
459,134,42565,6,0,P|485:90|484:24,1,99.0000030212403,12|0,1:0|0:0,0:0:0:0:
364,11,42865,2,0,L|247:39,1,99.0000030212403,8|0,1:0|0:3,0:0:0:0:
59,83,43165,1,8,1:0:0:0:
243,144,43315,1,0,0:3:0:0:
61,230,43465,1,8,1:0:0:0:
150,61,43615,2,0,L|177:137,1,49.5000015106202,0|0,3:3|3:3,0:0:0:0:
133,178,43765,102,0,L|176:308,1,107.999996704102,8|0,1:0|3:3,0:0:0:0:
109,355,44065,1,0,3:0:0:0:
310,229,44215,2,0,L|288:349,1,107.999996704102,4|0,1:0|3:0,0:0:0:0:
365,382,44515,1,0,3:0:0:0:
512,192,44665,5,0,1:0:0:0:
382,301,44815,1,0,1:0:0:0:
186,191,45565,53,0,1:0:0:0:
211,182,45640,1,0,1:0:0:0:
237,181,45715,1,0,1:0:0:0:
262,189,45790,1,0,1:0:0:0:
287,196,45865,1,0,1:0:0:0:
313,202,45940,1,0,1:0:0:0:
339,197,46015,1,0,1:0:0:0:
364,189,46090,1,0,1:0:0:0:
384,174,46165,70,0,B|390:118|390:118|373:72,1,99.0000030212403,4|0,1:0|0:0,0:0:0:0:
235,8,46465,2,0,B|214:60|214:60|219:109,1,99.0000030212403,8|0,0:0|0:0,0:0:0:0:
231,266,46765,1,0,3:0:0:0:
298,154,46915,1,0,3:0:0:0:
139,224,47065,1,8,0:0:0:0:
323,307,47215,6,0,L|425:275,1,99.0000030212403,6|0,3:2|0:0,0:0:0:0:
212,377,47515,1,2,3:2:0:0:
138,245,47665,1,10,0:0:0:0:
69,325,47815,1,0,0:0:0:0:
0,243,47965,2,0,P|6:187|39:154,1,99.0000030212403,2|2,3:2|3:2,0:0:0:0:
163,144,48265,2,0,B|204:86|168:24|168:24|142:55,1,148.50000453186,10|0,0:0|0:2,0:0:0:0:
149,54,48565,101,4,3:2:0:0:
236,214,48715,2,0,P|281:176|305:113,1,99.0000030212403,0|8,0:0|0:0,0:0:0:0:
155,249,49015,1,0,0:0:0:0:
282,293,49165,2,0,L|386:299,1,99.0000030212403,0|0,3:0|3:0,0:0:0:0:
503,109,49465,2,0,L|514:170,1,49.5000015106202,8|0,0:0|0:0,0:0:0:0:
507,232,49615,6,0,L|475:100,1,99.0000030212403,4|0,3:2|0:0,0:0:0:0:
418,14,49915,1,0,3:0:0:0:
243,24,50065,1,0,1:0:0:0:
230,56,50140,1,0,1:0:0:0:
226,90,50215,1,0,1:0:0:0:
236,122,50290,1,0,1:0:0:0:
259,147,50365,2,0,P|314:142|370:81,1,99.0000030212403,4|0,0:0|3:0,0:0:0:0:
121,161,50665,101,0,1:0:0:0:
126,185,50740,1,0,1:0:0:0:
125,209,50815,1,0,1:0:0:0:
118,232,50890,1,0,1:0:0:0:
106,254,50965,2,0,P|54:234|15:161,1,99.0000030212403,4|0,3:2|0:0,0:0:0:0:
107,371,51265,2,0,P|165:342|226:349,1,99.0000030212403,8|0,0:0|0:0,0:0:0:0:
301,362,51565,1,0,3:0:0:0:
405,245,51715,1,0,3:0:0:0:
203,210,51865,1,8,0:0:0:0:
308,338,52015,6,0,L|334:201,1,99.0000030212403,4|0,3:2|0:0,0:0:0:0:
422,368,52315,1,2,3:2:0:0:
488,305,52465,1,10,0:0:0:0:
424,232,52615,1,2,0:0:0:0:
454,96,52765,2,0,P|399:109|369:147,1,99.0000030212403,2|0,3:2|3:0,0:0:0:0:
236,1,53065,2,0,L|271:140,1,99.0000030212403,12|0,0:0|3:0,0:0:0:0:
206,283,53365,101,4,3:2:0:0:
37,123,53515,1,8,0:0:0:0:
160,218,53665,1,0,3:0:0:0:
78,194,53815,1,0,3:0:0:0:
176,74,53965,5,12,0:0:0:0:
63,215,54115,1,0,3:0:0:0:
263,255,54265,2,0,L|198:280,1,49.5000015106202,12|0,0:0|0:0,0:0:0:0:
184,358,54415,102,0,L|152:162,1,198.000006042481,4|0,0:0|0:0,0:0:0:0:
285,110,54865,1,8,0:3:0:0:
314,127,54940,1,8,0:3:0:0:
347,137,55015,1,8,0:3:0:0:
381,138,55090,1,4,0:3:0:0:
414,129,55165,1,4,3:2:0:0:
449,25,55315,1,4,3:0:0:0:
493,237,55465,6,0,P|460:216|413:216,1,67.5,4|0,1:0|0:0,0:0:0:0:
365,264,55765,6,0,P|331:315|289:334,1,99.0000030212403,4|0,3:2|0:0,0:0:0:0:
211,168,56065,2,0,P|191:222|198:273,1,99.0000030212403,8|0,0:0|0:0,0:0:0:0:
394,303,56365,2,0,P|352:341|286:350,1,99.0000030212403,8|0,3:2|3:0,0:0:0:0:
174,176,56665,2,0,P|171:247|202:297,1,99.0000030212403,8|0,0:0|0:0,0:0:0:0:
325,59,56965,6,0,B|274:78|274:78|224:117,1,99.0000030212403,4|0,3:2|0:0,0:0:0:0:
17,78,57265,2,0,B|69:85|69:85|133:122,1,99.0000030212403,8|0,0:0|0:0,0:0:0:0:
345,35,57565,2,0,B|301:73|301:73|288:112,1,99.0000030212403,8|0,3:2|3:0,0:0:0:0:
12,61,57865,2,0,B|61:91|61:91|80:127,1,99.0000030212403,8|8,0:0|0:0,0:0:0:0:
107,354,58165,69,4,3:2:0:0:
27,290,58315,1,2,0:0:0:0:
109,220,58465,2,0,L|219:225,1,99.0000030212403,10|2,0:0|0:0,0:0:0:0:
382,229,58765,1,2,3:2:0:0:
243,321,58915,1,0,3:0:0:0:
227,140,59065,1,10,0:0:0:0:
396,247,59215,6,0,B|380:111|380:111|336:196,1,198.000006042481,4|0,3:2|3:0,0:0:0:0:
272,303,59665,1,10,0:0:0:0:
356,345,59815,1,2,3:2:0:0:
261,203,59965,1,14,0:0:0:0:
194,360,60115,1,0,0:0:0:0:
90,264,60265,2,0,P|61:208|72:146,1,99.0000030212403,12|0,0:0|0:0,0:0:0:0:
278,179,60565,6,0,P|294:124|274:69,1,99.0000030212403,4|0,3:2|0:0,0:0:0:0:
68,45,60865,2,0,P|120:17|171:17,1,99.0000030212403,8|0,0:0|0:0,0:0:0:0:
315,206,61165,2,0,P|319:128|288:77,1,99.0000030212403,8|0,3:2|3:0,0:0:0:0:
22,42,61465,2,0,P|71:13|124:8,1,99.0000030212403,8|0,0:0|0:0,0:0:0:0:
417,220,61765,5,4,3:2:0:0:
354,78,61915,1,0,0:0:0:0:
290,196,62065,101,8,0:0:0:0:
489,116,62215,1,0,0:0:0:0:
346,64,62365,5,8,3:2:0:0:
427,233,62515,1,0,3:0:0:0:
459,45,62665,1,8,0:0:0:0:
283,120,62815,70,0,P|247:80|107:90,1,198.000006042481,4|0,0:0|3:2,0:0:0:0:
55,250,63265,2,0,L|156:223,1,99.0000030212403,8|0,0:0|3:0,0:0:0:0:
263,384,63565,2,0,L|156:361,1,99.0000030212403,12|0,0:0|3:0,0:0:0:0:
263,176,63865,1,8,0:0:0:0:
274,208,63940,1,0,3:0:0:0:
285,240,64015,1,0,3:0:0:0:
296,272,64090,1,0,3:0:0:0:
306,300,64165,38,0,P|368:257|441:263,1,135,8|0,0:0|0:0,0:0:0:0:
500,329,64765,102,0,B|443:271|443:271|469:108,1,202.500007724762,2|0,0:0|0:0,0:0:0:0:
463,128,65065,6,0,P|414:144|384:140,1,67.5000025749208,8|0,3:0|0:0,0:0:0:0:
68,76,65365,5,4,3:2:0:0:
226,40,65515,1,0,0:0:0:0:
136,12,65665,2,0,L|167:133,1,90,8|0,0:0|0:0,0:0:0:0:
86,180,65965,2,0,L|107:274,1,90,0|0,3:0|0:0,0:0:0:0:
218,365,66265,1,10,0:0:0:0:
197,231,66415,1,0,0:0:0:0:
242,375,66565,6,0,P|271:319|264:271,1,90,2|0,3:2|0:0,0:0:0:0:
360,220,66865,2,0,P|408:243|473:245,1,90,8|0,0:0|0:0,0:0:0:0:
288,115,67165,1,2,3:2:0:0:
182,122,67315,1,0,0:0:0:0:
160,223,67465,1,8,0:0:0:0:
314,114,67615,1,8,0:0:0:0:
190,15,67765,102,0,L|172:136,1,90,6|0,3:2|0:0,0:0:0:0:
255,195,68065,2,0,L|237:316,1,90,8|0,0:0|0:0,0:0:0:0:
308,371,68365,1,0,3:0:0:0:
348,221,68515,1,0,0:0:0:0:
225,304,68665,1,10,0:0:0:0:
337,382,68815,1,0,0:0:0:0:
508,293,68965,6,0,P|437:300|408:339,1,90,2|0,3:2|0:0,0:0:0:0:
377,207,69265,2,0,P|420:157|464:141,1,90,8|0,0:0|0:0,0:0:0:0:
287,0,69565,2,0,B|309:71|309:71|285:136,1,135,2|0,3:2|0:0,0:0:0:0:
210,156,69865,1,8,1:0:0:0:
178,152,69940,1,8,1:0:0:0:
146,148,70015,1,8,1:0:0:0:
114,144,70090,1,8,1:0:0:0:
83,137,70165,102,0,P|135:126|187:109,1,90,4|0,0:0|0:0,0:0:0:0:
105,317,70465,2,0,P|80:282|28:240,1,90,8|0,0:0|0:0,0:0:0:0:
253,212,70765,2,0,P|237:252|225:316,1,90,0|0,3:0|0:0,0:0:0:0:
331,171,71065,1,10,0:0:0:0:
152,224,71215,1,0,0:0:0:0:
308,369,71365,6,0,P|377:373|419:346,1,90,2|0,3:2|0:0,0:0:0:0:
455,206,71665,1,8,0:0:0:0:
479,292,71815,1,0,0:0:0:0:
341,153,71965,1,2,3:2:0:0:
373,55,72115,1,0,0:0:0:0:
252,193,72265,1,8,0:0:0:0:
440,101,72415,1,0,3:0:0:0:
204,60,72565,102,0,P|123:62|112:157,1,191.250007295609,8|0,0:0|0:0,0:0:0:0:
130,165,73065,2,0,L|135:204,2,33.7500012874604,0|0|0,3:0|0:0|0:0,0:0:0:0:
185,373,73615,1,0,3:0:0:0:
185,373,73690,1,0,3:0:0:0:
185,373,73765,6,0,B|205:327|205:327|197:277,2,71.9999978027344,8|8|8,1:0|1:0|1:0,0:0:0:0:
39,320,74065,2,0,B|9:295|9:295|-1:263,2,71.9999978027344,8|8|8,1:0|1:0|1:0,0:0:0:0:
121,216,74365,1,8,1:0:0:0:
121,216,74665,86,0,L|193:206,1,67.5,2|0,0:0|0:0,0:0:0:0:
202,205,74965,38,0,B|231:156|231:156|205:71,1,135.000005149842,4|0,3:2|0:0,0:0:0:0:
293,26,75415,1,0,3:0:0:0:
293,26,75565,2,0,L|371:8,1,67.5000025749208,2|2,3:2|0:0,0:0:0:0:
439,62,75865,1,0,0:0:0:0:
379,209,76015,6,0,P|355:175|318:163,1,67.5000025749208,2|0,3:2|0:0,0:0:0:0:
378,291,76315,2,0,P|417:321|458:320,1,67.5000025749208,0|0,3:0|0:0,0:0:0:0:
301,259,76615,1,0,3:0:0:0:
301,259,76765,2,0,L|210:268,2,67.5000025749208,2|2|2,3:2|0:0|0:0,0:0:0:0:
152,354,77215,101,0,0:0:0:0:
152,354,77365,2,0,B|117:300|117:300|133:217,1,135.000005149842,2|0,3:2|0:0,0:0:0:0:
229,150,77815,1,0,3:0:0:0:
152,91,77965,2,0,P|115:77|77:82,2,67.5000025749208,2|0|0,3:2|0:0|0:0,0:0:0:0:
102,240,78415,6,0,L|94:153,1,67.5000025749208,2|2,3:2|0:2,0:0:0:0:
0,249,78715,2,0,L|8:330,1,67.5000025749208,2|0,3:2|0:0,0:0:0:0:
131,365,79015,1,2,3:2:0:0:
211,371,79165,1,0,3:0:0:0:
268,314,79315,1,2,0:2:0:0:
315,248,79465,1,2,0:2:0:0:
395,260,79615,1,0,0:0:0:0:
453,336,79765,102,0,P|483:287|476:197,1,135.000005149842,0|0,3:0|0:0,0:0:0:0:
390,158,80215,2,0,L|302:175,1,67.5000025749208,2|2,3:2|3:2,0:0:0:0:
205,66,80515,2,0,L|296:91,1,67.5000025749208,2|0,0:2|0:0,0:0:0:0:
299,254,80815,6,0,P|268:226|249:185,1,67.5000025749208,2|0,3:2|0:0,0:0:0:0:
174,241,81115,2,0,P|168:200|180:157,1,67.5000025749208,2|0,3:2|0:0,0:0:0:0:
81,155,81415,2,0,P|102:120|190:81,1,135.000005149842,2|0,3:2|0:0,0:0:0:0:
266,101,81790,1,0,0:0:0:0:
269,110,81865,1,2,0:0:0:0:
272,119,81940,1,0,0:0:0:0:
275,128,82015,1,0,0:0:0:0:
278,137,82090,1,0,0:0:0:0:
281,146,82165,102,0,P|326:141|369:110,1,67.5000025749208,4|0,3:2|0:0,0:0:0:0:
487,206,82465,2,0,P|462:182|444:147,1,67.5000025749208,0|0,0:0|3:0,0:0:0:0:
416,66,82765,1,0,3:0:0:0:
373,215,82915,1,0,0:0:0:0:
416,66,83065,1,0,3:0:0:0:
442,299,83215,22,0,B|389:282|371:240|371:240|333:283|257:270,1,215.999993408203,12|8,1:0|0:0,0:0:0:0:
202,223,83590,1,8,0:0:0:0:
202,223,83665,2,0,L|186:109,1,90,8|0,0:0|3:0,0:0:0:0:
54,77,83965,2,0,L|67:188,1,90,8|8,0:0|0:0,0:0:0:0:
75,198,84190,1,8,0:0:0:0:
75,198,84265,1,8,0:0:0:0:
145,35,84415,1,8,0:0:0:0:
145,35,84490,1,8,0:0:0:0:
145,35,84565,54,0,L|248:48,1,90,4|0,0:0|0:0,0:0:0:0:
429,58,84865,1,8,0:0:0:0:
363,127,85015,1,0,0:0:0:0:
425,202,85165,2,0,P|474:204|516:175,1,90,0|0,3:0|0:0,0:0:0:0:
360,271,85465,1,8,0:0:0:0:
280,98,85615,1,0,0:0:0:0:
213,160,85765,6,0,L|184:278,1,90,0|0,3:0|3:0,0:0:0:0:
56,276,86065,2,0,L|92:377,1,90,8|0,0:0|0:0,0:0:0:0:
196,383,86365,1,0,3:0:0:0:
375,327,86515,1,0,0:0:0:0:
260,297,86665,1,8,0:0:0:0:
437,378,86815,1,8,0:0:0:0:
369,302,86965,102,0,P|365:242|384:202,1,90,0|0,3:0|0:0,0:0:0:0:
481,163,87265,1,8,0:0:0:0:
270,71,87415,2,0,L|359:58,2,90,0|0|0,0:0|3:0|0:0,0:0:0:0:
451,45,87865,1,8,0:0:0:0:
281,174,88015,1,0,0:0:0:0:
173,43,88165,6,0,P|181:99|173:137,1,90,0|0,3:0|0:0,0:0:0:0:
31,226,88465,1,8,0:0:0:0:
178,213,88615,1,0,0:0:0:0:
43,136,88765,1,0,3:0:0:0:
50,303,88915,1,0,0:0:0:0:
251,253,89065,2,0,P|234:303|240:371,1,90,12|0,0:0|0:0,0:0:0:0:
352,192,89365,102,0,L|339:85,1,90,4|0,3:2|0:0,0:0:0:0:
397,25,89665,1,8,0:0:0:0:
254,139,89815,1,0,0:0:0:0:
254,139,89890,1,0,0:0:0:0:
254,139,89965,2,0,P|198:122|170:98,1,90,0|0,3:0|0:0,0:0:0:0:
233,20,90265,1,8,0:0:0:0:
78,156,90415,5,0,0:0:0:0:
69,136,90490,1,0,0:0:0:0:
63,116,90565,1,0,0:0:0:0:
172,203,90715,1,0,0:0:0:0:
10,263,90865,1,8,0:0:0:0:
147,353,91015,1,0,3:0:0:0:
160,337,91090,1,0,0:0:0:0:
177,317,91165,2,0,L|297:290,1,90,0|0,3:0|0:0,0:0:0:0:
418,250,91465,2,0,P|432:294|410:339,1,90,12|0,0:0|0:0,0:0:0:0:
320,129,91765,102,0,P|321:75|358:26,1,90,4|0,3:2|0:0,0:0:0:0:
343,206,92065,1,8,0:0:0:0:
448,96,92215,1,0,0:0:0:0:
226,63,92365,1,0,3:0:0:0:
327,220,92515,1,0,0:0:0:0:
437,111,92665,1,8,0:0:0:0:
242,187,92815,5,0,3:0:0:0:
242,187,92890,1,0,3:0:0:0:
242,187,92965,2,0,L|269:288,1,90,12|8,0:0|0:0,0:0:0:0:
230,346,93190,1,0,3:0:0:0:
230,346,93265,2,0,L|175:360,1,45,0|0,3:0|0:0,0:0:0:0:
108,304,93415,2,0,L|64:290,1,45,8|0,3:2|0:0,0:0:0:0:
14,232,93565,2,0,P|45:177|104:170,1,90,8|0,0:0|3:0,0:0:0:0:
175,193,93865,1,0,3:0:0:0:
114,282,94015,1,0,3:0:0:0:
58,57,94165,5,4,3:2:0:0:
383,23,94465,2,0,L|272:42,1,80.9999975280763,8|0,0:0|0:0,0:0:0:0:
244,91,94690,1,0,3:0:0:0:
244,91,94765,2,0,L|255:185,1,80.9999975280763,0|0,3:0|3:0,0:0:0:0:
214,275,95065,1,8,0:0:0:0:
426,365,95215,6,0,P|472:331|484:294,1,80.9999975280763,2|0,3:0|0:0,0:0:0:0:
340,212,95515,2,0,P|358:248|360:289,1,80.9999975280763,2|8,3:0|0:0,0:0:0:0:
187,364,95815,1,0,3:0:0:0:
187,364,95890,1,0,3:0:0:0:
187,364,95965,1,0,3:0:0:0:
121,301,96115,1,0,3:0:0:0:
143,209,96265,1,8,0:0:0:0:
228,158,96415,1,0,3:0:0:0:
115,48,96565,102,0,P|166:71|203:62,1,80.9999975280763,4|0,3:2|3:0,0:0:0:0:
391,50,96865,2,0,P|335:52|293:119,1,121.499996292114,8|0,0:0|0:0,0:0:0:0:
295,99,97165,2,0,L|271:7,1,80.9999975280763,0|0,3:0|3:0,0:0:0:0:
372,160,97465,1,8,0:0:0:0:
179,257,97615,6,0,L|195:170,1,80.9999975280763,2|0,3:0|0:0,0:0:0:0:
324,229,97915,2,0,L|339:309,1,80.9999975280763,2|8,3:0|0:0,0:0:0:0:
202,365,98215,1,0,3:0:0:0:
202,365,98365,2,0,P|138:383|72:358,1,121.499996292114,0|0,3:0|0:0,0:0:0:0:
69,357,98665,2,0,P|105:309|105:257,1,107.999996704102,12|0,0:0|3:0,0:0:0:0:
113,41,98965,102,0,L|7:59,1,90,12|0,0:0|0:0,0:0:0:0:
252,137,99265,2,0,L|151:153,1,90,8|0,0:0|0:0,0:0:0:0:
351,32,99565,2,0,L|250:46,1,90,8|0,0:0|3:0,0:0:0:0:
446,177,99865,2,0,L|348:192,1,90,8|0,0:0|3:0,0:0:0:0:
144,286,100165,6,0,L|170:397,1,99.0000030212403,12|0,0:0|3:0,0:0:0:0:
352,204,100465,2,0,L|382:312,1,99.0000030212403,8|0,0:0|3:0,0:0:0:0:
68,116,100765,2,0,L|96:224,1,99.0000030212403,8|0,0:0|3:0,0:0:0:0:
229,12,101065,2,0,L|255:119,1,99.0000030212403,8|0,0:0|3:0,0:0:0:0:
325,142,101290,1,0,3:0:0:0:
325,142,101365,102,0,L|436:121,1,90,12|0,0:0|3:0,0:0:0:0:
454,44,101665,1,0,3:0:0:0:
278,246,101815,2,0,L|385:218,1,90,12|0,0:0|3:0,0:0:0:0:
427,141,102115,1,0,3:0:0:0:
225,350,102265,2,0,L|331:323,1,90,12|0,0:0|3:0,0:0:0:0:
393,374,102490,1,0,3:0:0:0:
393,374,102565,70,0,L|404:305,3,45,0|0|0|0,1:0|3:0|3:0|3:0,0:0:0:0:
485,306,102865,2,0,L|457:240,3,45,0|0|0|0,1:0|3:0|3:0|3:0,0:0:0:0:
397,222,103165,102,0,L|337:237,1,45,8|0,1:0|0:0,0:0:0:0:
266,180,103315,2,0,L|206:195,1,45,0|0,3:0|0:0,0:0:0:0:
170,266,103465,2,0,L|189:321,1,45,8|0,1:0|0:0,0:0:0:0:
7,261,103615,2,0,L|23:314,1,45,0|0,3:0|0:0,0:0:0:0:
108,364,103765,86,0,P|104:309|73:243,1,99.0000030212403,4|0,3:2|0:0,0:0:0:0:
168,28,104065,2,0,P|172:83|203:149,1,99.0000030212403,8|0,0:0|0:0,0:0:0:0:
269,75,104365,1,0,3:0:0:0:
86,118,104515,1,0,3:0:0:0:
269,45,104665,1,8,0:0:0:0:
240,225,104815,6,0,L|346:216,1,99.0000030212403,4|0,3:2|0:0,0:0:0:0:
491,246,105115,1,2,0:2:0:0:
338,114,105265,1,10,0:2:0:0:
512,69,105415,1,2,0:2:0:0:
352,193,105565,1,2,3:2:0:0:
512,268,105715,1,0,3:0:0:0:
373,319,105865,2,0,P|293:302|252:346,1,148.50000453186,10|0,0:0|0:0,0:0:0:0:
258,362,106165,101,4,3:2:0:0:
140,311,106315,2,0,L|132:203,1,99.0000030212403,0|8,0:0|0:0,0:0:0:0:
36,244,106615,1,0,0:0:0:0:
216,123,106765,2,0,L|228:262,1,99.0000030212403,0|0,3:0|3:0,0:0:0:0:
13,136,107065,2,0,L|75:164,1,66.0000020141602,8|0,0:0|0:0,0:0:0:0:
130,103,107215,6,0,P|126:33|26:64,1,198.000006042481,4|0,3:2|3:0,0:0:0:0:
147,207,107665,1,0,1:0:0:0:
184,219,107740,1,0,1:0:0:0:
223,221,107815,1,0,1:0:0:0:
261,211,107890,1,0,1:0:0:0:
292,186,107965,2,0,P|356:147|406:166,1,99.0000030212403,4|0,3:2|0:0,0:0:0:0:
310,357,108265,101,0,1:0:0:0:
292,347,108340,1,0,1:0:0:0:
274,337,108415,1,0,1:0:0:0:
256,327,108490,1,0,1:0:0:0:
238,318,108565,2,0,L|215:174,1,99.0000030212403,4|0,3:2|0:0,0:0:0:0:
186,122,108865,2,0,P|127:95|61:112,1,99.0000030212403,8|0,0:0|0:0,0:0:0:0:
270,31,109165,1,0,3:0:0:0:
345,137,109315,2,0,P|402:155|461:128,1,99.0000030212403,0|8,3:0|0:0,0:0:0:0:
275,256,109615,6,0,P|297:304|401:348,1,148.50000453186,4|0,3:2|0:0,0:0:0:0:
395,345,109915,1,2,3:2:0:0:
505,265,110065,1,10,0:2:0:0:
386,199,110215,1,2,0:2:0:0:
238,361,110365,102,0,L|177:357,1,49.5000015106202,2|0,3:2|0:0,0:0:0:0:
18,258,110515,2,0,L|24:321,1,49.5000015106202,2|0,3:2|0:0,0:0:0:0:
96,365,110665,2,0,B|113:304|113:304|84:203,1,148.50000453186,12|0,0:0|0:0,0:0:0:0:
95,145,110965,5,4,3:2:0:0:
95,145,111115,2,0,P|150:145|206:124,1,99.0000030212403,8|0,0:0|3:0,0:0:0:0:
130,59,111415,1,0,3:0:0:0:
217,218,111565,2,0,P|262:177|279:124,1,99.0000030212403,12|0,0:0|3:0,0:0:0:0:
202,313,111865,2,0,L|260:333,1,49.5000015106202,12|0,0:0|0:0,0:0:0:0:
355,278,112015,102,0,P|382:217|359:81,1,198.000006042481,4|0,3:2|3:0,0:0:0:0:
167,26,112465,1,8,0:0:0:0:
147,30,112540,1,8,0:0:0:0:
127,34,112615,1,0,3:0:0:0:
107,39,112690,1,0,3:0:0:0:
87,44,112765,1,12,0:0:0:0:
223,111,112915,1,0,3:0:0:0:
62,178,113065,38,0,L|71:261,1,67.5,12|0,0:0|0:0,0:0:0:0:
79,320,113365,102,0,P|134:309|193:330,1,99.0000030212403,4|0,0:0|0:0,0:0:0:0:
395,378,113665,2,0,P|321:346|283:358,1,99.0000030212403,8|0,0:0|0:0,0:0:0:0:
165,144,113965,2,0,P|161:210|187:262,1,99.0000030212403,8|0,3:2|3:0,0:0:0:0:
375,182,114265,2,0,P|359:244|309:279,1,99.0000030212403,8|0,0:0|0:0,0:0:0:0:
208,68,114565,5,4,3:2:0:0:
371,97,114715,1,0,0:0:0:0:
269,182,114865,101,8,0:0:0:0:
303,15,115015,1,0,0:0:0:0:
389,102,115165,5,8,3:2:0:0:
195,65,115315,1,0,3:0:0:0:
303,1,115465,101,8,0:0:0:0:
268,196,115615,1,0,0:0:0:0:
178,55,115765,86,0,P|128:76|75:79,1,99.0000030212403,4|0,3:2|0:0,0:0:0:0:
93,209,116065,2,0,P|40:178|14:128,1,99.0000030212403,8|0,0:0|0:0,0:0:0:0:
188,149,116365,1,0,3:0:0:0:
257,235,116515,1,0,3:0:0:0:
113,309,116665,1,8,0:0:0:0:
313,372,116815,6,0,L|487:347,1,148.50000453186,4|0,3:2|0:0,0:0:0:0:
473,339,117115,1,0,3:0:0:0:
362,189,117265,2,0,B|337:228|337:228|352:301,1,99.0000030212403,8|0,0:0|3:0,0:0:0:0:
503,143,117565,102,0,L|434:128,1,49.5000015106202,12|0,0:0|0:0,0:0:0:0:
409,56,117715,2,0,L|352:48,1,49.5000015106202,0|0,3:0|0:0,0:0:0:0:
280,95,117865,38,0,L|290:170,1,67.5,12|0,0:0|0:0,0:0:0:0:
242,221,118165,101,4,3:2:0:0:
130,301,118315,1,0,0:0:0:0:
82,165,118465,1,8,0:0:0:0:
118,319,118615,1,0,0:0:0:0:
187,164,118765,2,0,P|170:105|133:80,1,99.0000030212403,8|0,3:2|3:0,0:0:0:0:
16,228,119065,2,0,L|44:338,1,99.0000030212403,8|0,0:0|0:0,0:0:0:0:
169,373,119365,5,4,3:2:0:0:
253,359,119515,1,0,0:0:0:0:
371,200,119665,101,8,0:0:0:0:
276,211,119815,1,0,0:0:0:0:
398,376,119965,5,8,3:2:0:0:
498,358,120115,1,0,3:0:0:0:
433,156,120265,101,8,0:0:0:0:
325,323,120415,86,0,B|287:273|287:273|305:128,1,198.000006042481,4|0,3:2|3:0,0:0:0:0:
268,27,120865,2,0,P|219:15|152:61,1,99.0000030212403,8|0,0:0|3:0,0:0:0:0:
378,94,121165,2,0,P|432:67|452:11,1,99.0000030212403,8|0,0:0|3:0,0:0:0:0:
224,104,121465,1,8,0:0:0:0:
219,132,121540,1,0,3:0:0:0:
215,161,121615,1,0,3:0:0:0:
212,190,121690,1,0,3:0:0:0:
210,218,121765,38,0,L|187:129,1,80.9999975280763,8|0,0:0|0:0,0:0:0:0:
116,23,122365,102,0,P|48:56|127:133,1,188.999994232178,2|0,0:0|0:0,0:0:0:0:
110,124,122665,6,0,P|122:170|100:215,1,90,0|0,3:0|0:0,0:0:0:0:
0,384,122965,1,4,0:0:0:0:
230,349,127765,37,0,0:0:0:0:
243,348,127915,1,0,0:0:0:0:
256,347,128065,1,0,0:0:0:0:
269,346,128215,1,0,0:0:0:0:
282,345,128365,1,0,0:0:0:0:
295,344,128515,1,0,0:0:0:0:
308,343,128665,1,0,0:0:0:0:
321,342,128815,1,0,0:0:0:0:
385,292,128965,5,0,0:0:0:0:
371,212,129115,1,0,0:0:0:0:
295,183,129265,1,0,0:0:0:0:
229,230,129415,1,0,0:0:0:0:
136,231,129565,101,0,0:0:0:0:
76,157,129715,1,0,0:0:0:0:
84,62,129865,1,0,0:0:0:0:
168,19,130015,1,0,0:0:0:0:
284,113,130165,5,0,0:0:0:0:
319,132,130240,1,0,0:0:0:0:
359,130,130315,1,0,0:0:0:0:
394,110,130390,1,0,0:0:0:0:
407,71,130465,1,0,0:0:0:0:
379,41,130540,1,0,0:0:0:0:
341,56,130615,1,0,0:0:0:0:
335,96,130690,1,0,0:0:0:0:
357,139,130765,101,0,0:0:0:0:
370,141,130840,1,0,0:0:0:0:
383,143,130915,1,0,0:0:0:0:
396,145,130990,1,0,0:0:0:0:
409,147,131065,5,0,0:0:0:0:
407,188,131140,1,0,0:0:0:0:
423,226,131215,1,0,0:0:0:0:
457,248,131290,1,0,0:0:0:0:
497,246,131365,53,0,0:0:0:0:
497,246,131965,2,0,B|512:198|512:198|508:138,1,90
328,278,132265,2,0,B|317:324|317:324|338:382,1,90,0|0,0:0|0:0,0:0:0:0:
233,143,132565,37,4,3:2:0:0:
181,279,132715,1,0,3:0:0:0:
70,179,132865,2,0,P|41:123|51:37,1,135.000005149842,0|4,3:0|0:0,0:0:0:0:
168,201,133315,1,0,0:0:0:0:
46,276,133465,1,0,0:0:0:0:
176,353,133615,5,0,3:0:0:0:
176,353,133690,1,0,3:0:0:0:
176,353,133765,2,0,B|211:354|232:337|232:337|272:335|272:335|294:318|320:317,1,135.000005149842,4|0,0:0|0:0,0:0:0:0:
431,280,134215,1,0,0:0:0:0:
325,209,134365,1,4,3:2:0:0:
445,303,134515,1,0,0:0:0:0:
418,119,134665,1,0,0:0:0:0:
456,322,134815,1,0,0:0:0:0:
253,258,134965,101,4,3:2:0:0:
267,256,135115,1,0,3:0:0:0:
262,264,135265,2,0,B|245:220|245:220|249:185|249:185|229:130,1,135.000005149842,0|4,3:0|0:0,0:0:0:0:
157,49,135715,1,0,3:0:0:0:
308,94,135865,1,0,0:0:0:0:
169,187,136015,1,0,0:0:0:0:
169,187,136090,1,0,0:0:0:0:
169,187,136165,2,0,P|119:191|57:244,1,135.000005149842,4|0,0:0|0:0,0:0:0:0:
327,227,136615,53,0,3:0:0:0:
327,227,136690,1,0,3:0:0:0:
327,227,136765,2,0,B|366:225|378:183|378:183|405:213|446:215|446:215|464:203|483:182|479:128|471:134,1,225.000008583069,8|0,0:0|0:0,0:0:0:0:
475,128,137365,54,0,B|425:113|425:113|378:75,1,90,4|0,3:2|3:0,0:0:0:0:
290,17,137665,2,0,L|286:157,1,135.000005149842,0|4,3:0|0:0,0:0:0:0:
256,314,138115,1,0,3:0:0:0:
349,236,138265,1,0,0:0:0:0:
479,373,138415,5,0,3:0:0:0:
479,373,138490,1,0,3:0:0:0:
479,373,138565,2,0,B|449:371|425:345|425:345|393:354|393:354|373:338|352:335,1,135.000005149842,4|0,0:0|0:0,0:0:0:0:
178,369,139015,1,0,3:0:0:0:
98,232,139165,1,4,0:0:0:0:
66,342,139315,1,0,3:0:0:0:
174,187,139465,1,0,0:0:0:0:
208,355,139615,1,0,0:0:0:0:
67,218,139765,102,0,B|54:177|54:177|54:136,1,67.5000025749208,4|0,3:2|3:0,0:0:0:0:
100,84,139990,1,0,0:0:0:0:
100,84,140065,2,0,B|174:85|174:85|240:61,1,135.000005149842,0|4,3:0|0:0,0:0:0:0:
32,33,140515,1,0,3:0:0:0:
138,170,140665,1,0,0:0:0:0:
208,50,140815,1,0,3:0:0:0:
282,212,140965,6,0,L|303:87,1,107.999996704102,4|0,0:0|0:0,0:0:0:0:
512,159,141265,1,0,3:0:0:0:
371,198,141415,1,0,3:0:0:0:
476,302,141565,1,8,0:0:0:0:
446,324,141640,1,8,0:0:0:0:
409,332,141715,1,0,3:0:0:0:
372,328,141790,1,0,3:0:0:0:
341,307,141865,6,0,B|283:284|283:284|210:292,1,107.999996704102,12|12,0:0|0:0,0:0:0:0:
151,343,142765,22,0,B|122:372|73:337|61:228|198:223,1,225.000008583069,0|0,0:0|0:0,0:0:0:0:
188,225,143365,22,0,L|183:144,1,80.9999975280763,12|8,3:2|0:0,0:0:0:0:
81,154,143665,2,0,L|76:73,1,80.9999975280763,0|0,3:0|0:0,0:0:0:0:
239,45,143965,1,0,3:0:0:0:
153,22,144115,1,0,0:0:0:0:
277,121,144265,1,0,3:0:0:0:
389,29,144415,6,0,P|412:84|399:134,1,99.0000030212403,12|0,0:0|3:0,0:0:0:0:
343,289,144715,2,0,P|323:217|343:178,1,99.0000030212403,12|0,0:0|3:0,0:0:0:0:
406,235,145015,1,0,0:0:0:0:
345,375,145165,1,0,3:0:0:0:
444,314,145315,1,0,0:0:0:0:
248,252,145465,1,0,3:0:0:0:
91,354,145615,2,0,L|78:292,1,40.4999987640381,10|0,0:0|0:0,0:0:0:0:
34,254,145765,102,0,L|138:226,1,80.9999975280763,0|0,0:0|0:0,0:0:0:0:
236,178,146065,2,0,L|132:150,1,80.9999975280763,0|0,3:0|0:0,0:0:0:0:
77,68,146365,1,0,3:0:0:0:
185,56,146515,1,0,0:0:0:0:
145,147,146665,1,0,0:0:0:0:
325,114,146815,5,8,0:3:0:0:
322,102,146890,1,0,0:0:0:0:
319,90,146965,1,0,3:0:0:0:
428,49,147115,1,4,0:3:0:0:
425,61,147190,1,0,0:0:0:0:
422,73,147265,1,0,3:0:0:0:
500,180,147415,1,4,0:0:0:0:
422,230,147565,1,4,3:0:0:0:
444,315,147715,1,4,0:3:0:0:
379,378,147865,2,0,P|315:383|253:357,1,121.499996292114,4|0,3:0|0:0,0:0:0:0:
260,280,148165,6,0,L|270:228,7,40.4999987640381,4|0|0|0|8|0|0|0,3:2|0:0|0:0|0:0|0:0|0:0|0:0|0:0,0:0:0:0:
180,321,148765,2,0,L|190:373,7,40.4999987640381,8|0|0|0|8|0|0|0,0:0|0:0|0:0|0:0|0:0|0:0|0:0|0:0,0:0:0:0:
104,380,149365,5,8,0:0:0:0:
68,360,149440,1,0,0:0:0:0:
52,322,149515,1,0,0:0:0:0:
57,281,149590,1,0,0:0:0:0:
73,244,149665,1,8,0:0:0:0:
78,203,149740,1,0,0:0:0:0:
67,163,149815,1,8,0:0:0:0:
38,134,149890,1,8,0:0:0:0:
79,108,149965,101,8,0:0:0:0:
127,108,150040,1,0,0:0:0:0:
166,136,150115,1,0,0:0:0:0:
195,174,150190,1,0,0:0:0:0:
238,195,150265,1,8,0:0:0:0:
286,194,150340,1,0,0:0:0:0:
323,162,150415,1,8,0:0:0:0:
342,117,150490,1,0,0:0:0:0:
326,71,150565,69,2,3:2:0:0:
276,140,150865,1,0,3:0:0:0:
276,140,151165,1,0,3:0:0:0:
276,140,151465,1,0,3:0:0:0:
276,140,151765,1,0,3:0:0:0:
276,140,152065,1,0,3:0:0:0:
276,140,152365,1,0,3:0:0:0:
276,140,152665,1,0,3:0:0:0:
470,174,152965,38,0,L|409:183,1,40.4999987640381,2|0,3:2|0:0,0:0:0:0:
375,248,153115,2,0,L|314:257,1,40.4999987640381,0|0,3:0|0:0,0:0:0:0:
246,207,153265,1,0,3:0:0:0:
67,141,153415,6,0,L|73:180,1,40.4999987640381,2|0,3:2|0:0,0:0:0:0:
159,226,153565,2,0,L|142:293,1,40.4999987640381,0|0,3:0|0:0,0:0:0:0:
123,361,153715,1,0,3:0:0:0:
123,361,153865,54,0,B|180:329|232:322|263:360|279:388|302:394|349:427|372:393|404:351|448:302|369:254|340:240|296:259,1,450,2|4,3:2|0:1,0:0:0:0:
297,237,164965,5,4,0:0:0:0:
196,275,165265,1,0,0:0:0:0:
213,168,165565,1,0,0:0:0:0:
297,237,165865,1,0,0:0:0:0:
196,275,166015,1,0,0:0:0:0:
258,82,166165,5,0,0:0:0:0:
355,35,166465,1,0,0:0:0:0:
347,140,166765,1,0,0:0:0:0:
258,82,166915,1,0,0:0:0:0:
355,35,167065,1,0,0:0:0:0:
347,140,167215,1,0,0:0:0:0:
148,77,167365,101,0,0:0:0:0:
43,48,167665,1,0,0:0:0:0:
71,152,167965,1,0,0:0:0:0:
148,77,168265,1,0,0:0:0:0:
43,48,168415,1,0,0:0:0:0:
71,152,168565,2,0,L|77:237,1,67.5000025749208,0|0,0:0|0:0,0:0:0:0:
154,341,168865,2,0,L|158:273,1,67.5000025749208,0|0,0:0|0:0,0:0:0:0:
273,194,169165,5,0,0:0:0:0:
409,232,169315,1,0,0:0:0:0:
310,332,169465,1,0,0:0:0:0:
273,194,169615,1,0,0:0:0:0:
402,104,169765,102,0,L|495:96,3,67.5000025749208,0|0|0|0,0:0|0:0|0:0|0:0,0:0:0:0:
334,25,170365,2,0,L|237:35,3,67.5000025749208,0|0|0|0,0:0|0:0|0:0|0:0,0:0:0:0:
189,107,170965,2,0,L|168:194,1,67.5000025749208,0|0,0:0|0:0,0:0:0:0:
38,169,171265,2,0,L|68:244,1,67.5000025749208,0|0,0:0|0:0,0:0:0:0:
248,240,171565,2,0,L|225:327,1,67.5000025749208,0|0,0:0|0:0,0:0:0:0:
16,319,171865,2,0,L|50:382,1,67.5000025749208,0|0,0:0|0:0,0:0:0:0:
198,382,172165,5,0,0:0:0:0:
230,363,172240,1,0,0:0:0:0:
265,353,172315,1,0,0:0:0:0:
301,357,172390,1,0,0:0:0:0:
335,369,172465,1,0,0:0:0:0:
371,376,172540,1,0,0:0:0:0:
406,364,172615,1,0,0:0:0:0:
430,335,172690,1,0,0:0:0:0:
384,322,172765,101,0,0:0:0:0:
349,289,172840,1,0,0:0:0:0:
328,246,172915,1,0,0:0:0:0:
330,198,172990,1,0,0:0:0:0:
358,160,173065,1,0,0:0:0:0:
394,190,173140,1,0,0:0:0:0:
438,206,173215,1,0,0:0:0:0:
483,195,173290,1,0,0:0:0:0:
506,154,173365,6,0,L|502:137,14,16.8750006437302,0|0|0|0|0|0|0|0|0|0|0|0|0|0|0,0:0|0:0|0:0|0:0|0:0|0:0|0:0|0:0|0:0|0:0|0:0|0:0|0:0|0:0|0:0,0:0:0:0:
435,85,173965,2,0,L|447:14,1,67.5000025749208,0|0,0:0|0:0,0:0:0:0:
349,118,174265,86,0,P|299:133|276:127,1,67.5,0|0,3:0|0:0,0:0:0:0:
262,121,174565,70,0,P|204:88|143:101,1,107.999996704102,4|0,0:0|0:0,0:0:0:0:
23,266,174865,2,0,B|78:251|78:251|119:199,1,107.999996704102,8|0,0:0|0:0,0:0:0:0:
90,24,175165,1,0,3:0:0:0:
229,215,175315,1,0,3:0:0:0:
69,122,175465,1,8,0:0:0:0:
320,127,175615,6,0,L|340:240,1,107.999996704102,4|0,3:2|0:0,0:0:0:0:
296,355,175915,1,2,3:2:0:0:
463,379,176065,1,10,0:2:0:0:
272,364,176215,1,2,0:2:0:0:
357,213,176365,1,2,3:2:0:0:
245,378,176515,1,0,3:0:0:0:
146,286,176665,2,0,L|24:319,1,107.999996704102,10|0,0:0|0:0,0:0:0:0:
212,113,176965,101,4,3:2:0:0:
266,239,177115,2,0,P|297:283|351:301,1,107.999996704102,0|8,0:0|0:0,0:0:0:0:
503,198,177415,1,0,0:0:0:0:
368,82,177565,1,0,3:0:0:0:
501,62,177715,1,0,3:0:0:0:
303,165,177865,2,0,L|288:101,1,53.9999983520508,8|0,0:0|0:0,0:0:0:0:
242,39,178015,6,0,B|185:65|185:65|92:40|92:40|35:73,1,215.999993408203,4|0,3:2|3:0,0:0:0:0:
40,290,178465,1,0,1:0:0:0:
82,296,178540,1,0,1:0:0:0:
122,282,178615,1,0,1:0:0:0:
150,249,178690,1,0,1:0:0:0:
160,207,178765,2,0,P|115:170|44:173,1,107.999996704102,4|0,3:2|3:2,0:0:0:0:
212,357,179065,101,0,1:0:0:0:
238,353,179140,1,0,1:0:0:0:
264,349,179215,1,0,1:0:0:0:
290,345,179290,1,0,1:0:0:0:
316,342,179365,2,0,L|329:220,1,107.999996704102,4|0,3:2|0:0,0:0:0:0:
386,40,179665,2,0,B|424:80|424:80|410:179,1,107.999996704102,8|0,0:0|0:0,0:0:0:0:
282,172,179965,1,0,3:0:0:0:
407,249,180115,1,0,3:0:0:0:
339,108,180265,1,8,0:0:0:0:
224,276,180415,6,0,L|104:259,1,107.999996704102,4|0,3:2|0:0,0:0:0:0:
69,33,180715,1,2,3:2:0:0:
178,110,180865,1,10,0:2:0:0:
58,166,181015,2,0,L|61:99,1,53.9999983520508,2|0,0:2|0:0,0:0:0:0:
69,33,181165,2,0,L|140:67,1,53.9999983520508,2|0,3:2|0:0,0:0:0:0:
178,110,181315,2,0,L|129:136,1,53.9999983520508,2|0,3:2|0:0,0:0:0:0:
10,223,181465,2,0,P|75:227|93:334,1,161.999995056153,14|0,0:2|0:0,0:0:0:0:
92,328,181765,101,4,3:2:0:0:
228,384,181915,2,0,L|362:373,1,107.999996704102,8|0,0:0|3:0,0:0:0:0:
408,234,182215,1,0,3:0:0:0:
449,321,182365,1,12,0:0:0:0:
304,258,182515,1,0,3:0:0:0:
496,199,182665,2,0,L|475:286,1,53.9999983520508,12|0,0:0|0:0,0:0:0:0:
372,308,182815,6,0,P|336:259|359:103,1,215.999993408203,4|0,3:2|3:3,0:0:0:0:
162,32,183265,1,0,1:0:0:0:
177,66,183340,1,0,1:0:0:0:
182,103,183415,1,0,3:0:0:0:
172,139,183490,1,0,3:0:0:0:
149,169,183565,1,12,3:2:0:0:
44,118,183715,1,0,3:0:0:0:
58,263,183865,22,0,L|129:245,1,67.5,12|0,3:2|0:0,0:0:0:0:
191,298,184165,102,0,B|257:282|257:282|310:303,1,107.999996704102,4|0,3:2|0:0,0:0:0:0:
421,145,184465,2,0,B|374:194|374:194|365:250,1,107.999996704102,8|0,0:0|0:0,0:0:0:0:
167,290,184765,2,0,B|234:297|234:297|277:335,1,107.999996704102,8|0,3:2|3:0,0:0:0:0:
414,120,185065,2,0,B|386:182|386:182|398:238,1,107.999996704102,8|0,0:0|0:0,0:0:0:0:
339,33,185365,6,0,P|281:56|214:39,1,107.999996704102,6|0,3:2|0:0,0:0:0:0:
36,146,185665,2,0,P|116:177|141:233,1,107.999996704102,8|0,0:0|0:0,0:0:0:0:
357,26,185965,2,0,P|316:80|264:104,1,107.999996704102,8|0,3:2|3:0,0:0:0:0:
22,128,186265,2,0,P|74:177|80:237,1,107.999996704102,8|8,0:0|0:0,0:0:0:0:
231,384,186565,69,4,3:2:0:0:
312,324,186715,1,0,0:0:0:0:
248,249,186865,2,0,L|134:264,1,107.999996704102,8|0,0:0|0:0,0:0:0:0:
284,167,187165,1,0,3:0:0:0:
369,225,187315,2,0,P|395:283|384:344,1,107.999996704102,0|8,3:0|0:0,0:0:0:0:
186,171,187615,6,0,B|136:121|176:22|176:22|231:117,1,215.999993408203,4|2,0:0|3:2,0:0:0:0:
89,173,188065,1,10,0:2:0:0:
228,269,188215,1,2,3:2:0:0:
37,340,188365,2,0,P|54:308|102:298,1,53.9999983520508,12|0,0:0|0:0,0:0:0:0:
150,298,188515,2,0,P|177:322|190:352,1,53.9999983520508,0|0,3:0|0:0,0:0:0:0:
265,378,188665,2,0,L|385:354,1,107.999996704102,12|0,0:0|0:0,0:0:0:0:
447,160,188965,6,0,P|434:87|385:50,1,107.999996704102,4|0,3:2|0:0,0:0:0:0:
394,233,189265,2,0,P|321:234|283:204,1,107.999996704102,8|0,0:0|0:0,0:0:0:0:
473,157,189565,2,0,P|491:94|465:23,1,107.999996704102,8|0,3:2|3:0,0:0:0:0:
397,261,189865,2,0,P|336:292|262:282,1,107.999996704102,8|0,0:0|0:0,0:0:0:0:
177,128,190165,5,4,3:2:0:0:
341,76,190315,1,0,0:0:0:0:
234,29,190465,101,8,0:0:0:0:
291,199,190615,1,0,0:0:0:0:
158,136,190765,5,8,3:2:0:0:
363,68,190915,1,0,3:0:0:0:
298,221,191065,101,8,0:0:0:0:
227,12,191215,86,0,L|84:41,1,107.999996704102,4|0,3:2|0:0,0:0:0:0:
262,100,191515,1,0,3:0:0:0:
347,43,191665,2,0,P|402:21|469:35,1,107.999996704102,8|0,0:0|0:0,0:0:0:0:
464,210,191965,2,0,P|397:195|364:149,1,107.999996704102,0|0,3:0|3:0,0:0:0:0:
408,100,192190,1,0,0:0:0:0:
408,100,192265,1,8,0:0:0:0:
372,316,192415,6,0,P|302:293|195:341,1,161.999995056153,4|0,0:0|0:0,0:0:0:0:
216,344,192715,1,4,0:0:0:0:
83,203,192865,1,8,0:0:0:0:
33,293,193015,1,0,0:0:0:0:
123,328,193165,2,0,L|107:207,1,107.999996704102,4|0,3:2|3:0,0:0:0:0:
297,358,193465,6,0,L|312:187,1,161.999995056153,8|0,0:0|0:0,0:0:0:0:
315,124,193765,5,4,3:2:0:0:
385,201,193915,1,0,0:0:0:0:
372,354,194065,1,8,0:0:0:0:
216,227,194215,1,0,0:0:0:0:
467,252,194365,2,0,B|489:209|489:209|463:123,1,107.999996704102,8|0,3:2|3:0,0:0:0:0:
342,17,194665,2,0,B|306:49|306:49|301:139,1,107.999996704102,8|0,0:0|0:0,0:0:0:0:
287,333,194965,101,4,3:2:0:0:
191,348,195115,1,0,0:0:0:0:
39,232,195265,5,8,0:0:0:0:
134,251,195415,1,0,0:0:0:0:
329,133,195565,101,8,3:2:0:0:
235,157,195715,1,0,3:0:0:0:
67,75,195865,1,8,0:0:0:0:
224,6,196015,1,8,0:0:0:0:
100,173,196165,86,0,P|45:164|0:119,1,107.999996704102,4|0,3:2|0:0,0:0:0:0:
231,255,196465,2,0,P|296:234|333:181,1,107.999996704102,8|0,0:0|0:0,0:0:0:0:
62,289,196765,1,0,3:0:0:0:
160,348,196915,2,0,L|138:214,1,107.999996704102,0|8,3:0|0:0,0:0:0:0:
312,316,197215,6,0,B|316:251|316:251|360:201|360:201|361:100,1,215.999993408203,4|2,3:2|3:2,0:0:0:0:
272,18,197665,1,10,0:0:0:0:
253,174,197815,1,2,3:2:0:0:
390,44,197965,2,0,P|427:66|442:113,1,53.9999983520508,14|0,0:0|0:0,0:0:0:0:
502,131,198115,2,0,P|469:176|437:181,1,53.9999983520508,0|0,3:0|3:0,0:0:0:0:
440,246,198265,2,0,L|316:230,1,107.999996704102,12|0,0:0|3:0,0:0:0:0:
47,226,198565,5,12,0:0:0:0:
271,162,198715,1,0,0:0:0:0:
125,344,198865,5,8,0:0:0:0:
138,109,199015,1,0,0:0:0:0:
266,305,199165,101,8,0:0:0:0:
34,224,199315,1,0,3:0:0:0:
280,152,199465,5,8,0:0:0:0:
120,355,199615,1,0,3:0:0:0:
136,97,199765,101,12,0:0:0:0:
276,312,199915,1,0,3:0:0:0:
388,172,200065,5,8,0:0:0:0:
157,178,200215,1,0,3:0:0:0:
278,337,200365,101,8,0:0:0:0:
316,72,200515,1,0,3:0:0:0:
227,213,200665,1,8,0:0:0:0:
156,57,200815,22,0,P|95:53|45:92,1,107.999996704102,0|0,3:0|0:0,0:0:0:0:
22,157,201265,2,0,L|37:221,1,53.9999983520508,0|0,0:0|0:0,0:0:0:0:
101,349,201565,2,0,L|121:233,1,107.999996704102,0|0,0:0|0:0,0:0:0:0:
244,116,202015,6,0,L|265:233,1,107.999996704102,0|0,0:0|0:0,0:0:0:0:
351,288,202465,1,0,0:0:0:0:
426,245,202615,1,0,0:0:0:0:
412,159,202765,1,0,0:0:0:0:
