osu file format v14

[General]
AudioFilename: audio.mp3
AudioLeadIn: 0
PreviewTime: 103540
Countdown: 0
SampleSet: Soft
StackLeniency: 0.7
Mode: 0
LetterboxInBreaks: 0
WidescreenStoryboard: 1

[Editor]
DistanceSpacing: 1.14
BeatDivisor: 4
GridSize: 16
TimelineZoom: 2.5

[Metadata]
Title:HIBANA feat. Hatsune Miku
TitleUnicode:ヒバナ feat. 初音ミク
Artist:DECO*27
ArtistUnicode:DECO*27
Creator:Pho
Version:Easy
Source:
Tags:10th anniversary re:start 八三 vocaloid rockwell mes neonat
BeatmapID:1421864
BeatmapSetID:671199

[Difficulty]
HPDrainRate:2
CircleSize:3
OverallDifficulty:2
ApproachRate:4
SliderMultiplier:0.799999999999999
SliderTickRate:1

[Events]
//Background and Video events
0,0,"bg.jpg",0,0
//Break Periods
2,7965,16045
2,65565,71245
2,123165,126445
2,155565,163645
//Storyboard Layer 0 (Background)
//Storyboard Layer 1 (Fail)
//Storyboard Layer 2 (Pass)
//Storyboard Layer 3 (Foreground)
//Storyboard Sound Samples

[TimingPoints]
565,300,4,2,1,60,1,0
2665,-111.111111111111,4,2,1,60,0,0
2890,-111.111111111111,4,2,1,5,0,0
2965,-111.111111111111,4,2,1,60,0,0
4165,-111.111111111111,4,2,1,60,0,0
6565,-111.111111111111,4,2,1,60,0,0
7765,-100,4,2,1,90,0,0
17365,-111.111111111111,4,2,1,90,0,0
17440,-111.111111111111,4,2,1,60,0,0
19690,-111.111111111111,4,2,1,5,0,0
19765,-111.111111111111,4,2,1,60,0,0
20890,-111.111111111111,4,2,1,5,0,0
20965,-111.111111111111,4,2,1,60,0,0
22090,-111.111111111111,4,2,1,5,0,0
22165,-100,4,2,1,80,0,0
22615,-111.111111111111,4,2,1,60,0,0
23365,-100,4,2,1,80,0,0
23665,-111.111111111111,4,2,1,60,0,0
24565,-100,4,2,1,80,0,0
24865,-111.111111111111,4,2,1,60,0,0
25765,-111.111111111111,4,2,1,60,0,0
26665,-111.111111111111,4,2,1,60,0,0
26890,-111.111111111111,4,2,1,5,0,0
26965,-111.111111111111,4,2,1,60,0,0
27115,-100,4,2,1,80,0,0
36565,-111.111111111111,4,2,1,80,0,0
36715,-111.111111111111,4,2,1,60,0,0
37615,-111.111111111111,4,2,1,80,0,0
38065,-111.111111111111,4,2,1,60,0,0
38965,-111.111111111111,4,2,1,60,0,0
39265,-111.111111111111,4,2,1,60,0,0
41065,-111.111111111111,4,2,1,60,0,0
41365,-111.111111111111,4,2,1,60,0,0
42565,-111.111111111111,4,2,1,70,0,0
43765,-111.111111111111,4,2,1,80,0,0
46165,-100,4,2,1,95,0,0
55465,-100,4,2,1,95,0,0
55690,-100,4,2,1,5,0,0
55765,-100,4,2,1,95,0,0
64165,-111.111111111111,4,2,1,80,0,0
64465,-111.111111111111,4,2,1,20,0,0
64615,-111.111111111111,4,2,1,5,0,0
64765,-111.111111111111,4,2,1,60,0,0
64990,-111.111111111111,4,2,1,5,0,0
65065,-111.111111111111,4,2,1,60,0,0
65215,-111.111111111111,4,2,1,5,0,0
65365,-100,4,2,1,80,0,0
72565,-111.111111111111,4,2,1,70,0,0
72940,-111.111111111111,4,2,1,60,0,0
73765,-111.111111111111,4,2,1,77,0,0
74665,-111.111111111111,4,2,1,60,0,0
74890,-111.111111111111,4,2,1,5,0,0
74965,-111.111111111111,4,2,1,50,0,0
83215,-100,4,2,1,60,0,0
83515,-100,4,2,1,70,0,0
84565,-100,4,2,1,80,0,0
94165,-111.111111111111,4,2,1,60,0,0
98665,-111.111111111111,4,2,1,60,0,0
98965,-111.111111111111,4,2,1,70,0,0
100165,-111.111111111111,4,2,1,70,0,0
101365,-111.111111111111,4,2,1,70,0,0
103165,-111.111111111111,4,2,1,60,0,0
103240,-111.111111111111,4,2,1,5,0,0
103315,-111.111111111111,4,2,1,60,0,0
103390,-111.111111111111,4,2,1,5,0,0
103465,-111.111111111111,4,2,1,60,0,0
103540,-111.111111111111,4,2,1,5,0,0
103615,-111.111111111111,4,2,1,60,0,0
103690,-111.111111111111,4,2,1,5,0,0
103765,-100,4,2,1,95,0,0
113065,-100,4,2,1,95,0,0
113290,-100,4,2,1,5,0,0
113365,-100,4,2,1,95,0,0
117865,-100,4,2,1,95,0,0
118090,-100,4,2,1,5,0,0
118165,-100,4,2,1,95,0,0
120640,-100,4,2,1,5,0,0
120715,-100,4,2,1,95,0,0
121765,-111.111111111111,4,2,1,80,0,0
122215,-111.111111111111,4,2,1,5,0,0
122365,-111.111111111111,4,2,1,60,0,0
122590,-111.111111111111,4,2,1,5,0,0
122665,-111.111111111111,4,2,1,60,0,0
122890,-111.111111111111,4,2,1,5,0,0
122965,-111.111111111111,4,2,1,60,0,0
127765,-111.111111111111,4,2,2,40,0,0
130165,-111.111111111111,4,2,2,50,0,0
131365,-111.111111111111,4,2,2,60,0,0
131965,-111.111111111111,4,2,1,60,0,0
132565,-111.111111111111,4,2,1,80,0,0
133765,-111.111111111111,4,2,2,80,0,0
133840,-111.111111111111,4,2,1,80,0,0
136165,-111.111111111111,4,2,2,80,0,0
136240,-111.111111111111,4,2,1,80,0,0
137365,-111.111111111111,4,2,1,80,0,0
137515,-111.111111111111,4,2,1,80,0,0
138565,-111.111111111111,4,2,2,80,0,0
138640,-111.111111111111,4,2,1,80,0,0
140965,-111.111111111111,4,2,2,80,0,0
141115,-111.111111111111,4,2,1,80,0,0
141865,-111.111111111111,4,2,1,80,0,0
142165,-111.111111111111,4,2,1,80,0,0
143365,-111.111111111111,4,2,1,60,0,0
144415,-111.111111111111,4,2,1,60,0,0
144865,-111.111111111111,4,2,1,60,0,0
146815,-111.111111111111,4,2,1,80,0,0
147415,-111.111111111111,4,2,1,70,0,0
149365,-111.111111111111,4,2,1,80,0,0
150865,-111.111111111111,4,2,1,70,0,0
153040,-111.111111111111,4,2,1,5,0,0
153115,-111.111111111111,4,2,1,60,0,0
153190,-111.111111111111,4,2,1,5,0,0
153265,-111.111111111111,4,2,1,60,0,0
153490,-111.111111111111,4,2,1,5,0,0
153565,-111.111111111111,4,2,1,60,0,0
153640,-111.111111111111,4,2,1,5,0,0
153715,-111.111111111111,4,2,1,60,0,0
153865,-111.111111111111,4,2,1,60,0,0
153940,-111.111111111111,4,2,1,5,0,0
155365,-111.111111111111,4,2,1,60,0,0
164965,-111.111111111111,4,2,2,60,0,0
168715,-111.111111111111,4,2,2,5,0,0
168865,-111.111111111111,4,2,2,60,0,0
169015,-111.111111111111,4,2,2,5,0,0
169165,-111.111111111111,4,2,2,60,0,0
170965,-111.111111111111,4,2,2,70,0,0
172165,-111.111111111111,4,2,2,80,0,0
173965,-111.111111111111,4,2,1,50,0,0
174265,-111.111111111111,4,2,1,80,0,0
174490,-111.111111111111,4,2,1,5,0,0
174565,-100,4,2,1,100,0,1
183865,-100,4,2,1,100,0,1
184090,-100,4,2,1,5,0,1
184165,-100,4,2,1,100,0,1
200815,-111.111111111111,4,2,1,50,0,0

[Colours]
Combo1 : 221,221,221
Combo2 : 253,236,176
Combo3 : 247,193,104
Combo4 : 39,55,88
Combo5 : 154,231,206
Combo6 : 98,244,226
Combo7 : 231,118,237
Combo8 : 255,51,51

[HitObjects]
60,111,565,6,0,P|141:70|210:81,2,160,4|4|4,1:0|1:0|1:0,0:0:0:0:
78,269,2365,2,0,L|170:276,1,79.9999999999999,0|2,1:0|0:1,0:0:0:0:
225,228,2965,22,0,B|251:186|251:186|234:125,2,107.999996704102,4|0|0,1:2|1:0|1:0,0:0:0:0:
283,286,4165,2,0,B|257:328|257:328|274:389,2,107.999996704102,4|0|0,1:2|1:0|1:0,0:0:0:0:
355,247,5365,2,0,P|398:252|481:190,1,143.999995605469,4|0,1:0|1:0,0:0:0:0:
415,45,6565,5,0,1:0:0:0:
307,105,7015,2,0,L|192:86,1,107.999996704102,0|0,1:0|1:0,0:0:0:0:
110,70,7765,69,4,0:0:0:0:
62,63,17365,22,0,L|77:179,2,107.999996704102,4|2|0,0:0|0:0|0:0,0:0:0:0:
140,38,18565,2,0,B|175:87|175:87|169:182,1,143.999995605469,0|0,0:0|0:0,0:0:0:0:
256,310,19765,2,0,P|301:294|370:307,2,107.999996704102,0|2|0,0:0|0:0|0:0,0:0:0:0:
193,364,20965,2,0,L|34:355,1,143.999995605469,0|0,0:0|0:0,0:0:0:0:
94,179,22165,6,0,L|74:131,1,40,0|0,1:0|1:0,0:0:0:0:
361,289,23365,2,0,L|378:239,1,40,0|0,1:0|1:0,0:0:0:0:
135,73,24565,2,0,L|120:27,1,40,0|0,1:0|1:0,0:0:0:0:
431,44,25765,2,0,L|405:158,2,107.999996704102,0|0|0,1:0|1:0|1:0,0:0:0:0:
351,23,26965,70,0,P|305:17|221:73,1,143.999995605469,4|0,0:0|3:0,0:0:0:0:
189,150,27865,1,8,0:0:0:0:
117,206,28165,2,0,B|58:205|58:205|9:162,2,120,0|0|8,3:0|0:0|0:0,0:0:0:0:
162,284,29365,6,0,L|336:264,1,160,0|0,3:0|3:0,0:0:0:0:
410,284,30265,1,0,0:0:0:0:
478,344,30565,2,0,P|511:289|510:223,2,120,0|0|12,3:0|0:0|0:0,0:0:0:0:
391,374,31765,101,4,3:2:0:0:
274,235,32365,1,0,3:0:0:0:
343,66,32965,2,0,L|431:61,1,79.9999999999999,0|8,3:0|0:0,0:0:0:0:
464,142,33565,2,0,L|376:147,1,79.9999999999999,0|12,3:0|0:0,0:0:0:0:
299,181,34165,6,0,P|240:177|162:100,1,160,4|0,3:2|3:0,0:0:0:0:
9,21,35365,2,0,L|31:105,1,79.9999999999999,12|0,3:2|3:0,0:0:0:0:
98,158,35965,2,0,L|82:247,1,79.9999999999999,10|8,0:0|3:0,0:0:0:0:
27,296,36565,6,0,P|104:281|167:314,1,143.999995605469,4|0,3:2|3:0,0:0:0:0:
271,363,37615,2,0,L|288:250,1,107.999996704102,2|8,3:2|0:0,0:0:0:0:
342,195,38365,2,0,B|369:220|369:220|373:256,1,71.9999978027344,0|8,3:0|0:0,0:0:0:0:
454,267,38965,6,0,L|467:111,1,143.999995605469,4|0,3:2|3:0,0:0:0:0:
378,36,40015,2,0,P|318:33|274:65,1,107.999996704102,2|8,3:2|0:0,0:0:0:0:
214,108,40765,2,0,P|173:103|138:86,1,71.9999978027344,0|4,3:3|0:0,0:0:0:0:
76,45,41365,101,12,1:2:0:0:
99,207,41965,1,8,1:0:0:0:
262,190,42565,1,12,1:0:0:0:
247,26,43165,2,0,L|211:93,1,71.9999978027344,8|8,1:0|1:0,0:0:0:0:
144,135,43765,6,0,P|103:152|26:142,1,107.999996704102,8|4,1:0|1:0,0:0:0:0:
80,31,44665,1,0,1:0:0:0:
269,179,45565,2,0,L|272:263,1,71.9999978027344,0|0,1:0|1:0,0:0:0:0:
357,282,46165,6,0,B|415:265|415:265|524:299,1,160,4|0,1:0|3:0,0:0:0:0:
402,379,47215,2,0,L|271:361,1,120,6|10,3:2|0:0,0:0:0:0:
205,315,47965,2,0,L|111:337,1,79.9999999999999,2|10,3:2|0:0,0:0:0:0:
46,290,48565,5,4,3:2:0:0:
151,141,49165,1,0,3:0:0:0:
252,226,49615,2,0,P|290:177|296:109,1,120,4|0,3:2|1:0,0:0:0:0:
238,52,50365,2,0,L|157:50,1,79.9999999999999,4|0,0:0|1:0,0:0:0:0:
66,50,50965,102,0,B|85:103|85:103|52:204,1,160,4|0,3:2|3:0,0:0:0:0:
22,335,52015,2,0,P|93:277|202:295,1,200,4|2,3:2|3:2,0:0:0:0:
257,357,53065,1,12,0:0:0:0:
329,303,53365,6,0,P|408:319|496:286,1,160,4|12,3:2|0:0,0:0:0:0:
476,158,54415,2,0,P|436:141|346:156,1,120,4|8,0:0|0:3,0:0:0:0:
300,215,55165,1,4,3:2:0:0:
115,194,55765,6,0,P|116:153|107:111,1,79.9999999999999,4|8,3:2|0:0,0:0:0:0:
167,45,56365,2,0,P|216:48|260:41,1,79.9999999999999,8|8,3:2|0:0,0:0:0:0:
316,102,56965,2,0,P|314:142|324:185,1,79.9999999999999,4|8,3:2|0:0,0:0:0:0:
264,251,57565,2,0,P|215:248|171:255,1,79.9999999999999,8|8,3:2|0:0,0:0:0:0:
121,318,58165,86,0,P|154:345|279:348,1,160,4|2,3:2|3:2,0:0:0:0:
379,275,59215,2,0,B|361:193|361:193|386:144,1,120,4|10,3:2|0:0,0:0:0:0:
450,107,59965,1,14,0:0:0:0:
286,26,60565,22,0,L|194:41,1,79.9999999999999,4|8,3:2|0:0,0:0:0:0:
198,129,61165,2,0,L|106:105,1,79.9999999999999,8|8,3:2|0:0,0:0:0:0:
31,91,61765,2,0,L|15:183,1,79.9999999999999,4|8,3:2|0:0,0:0:0:0:
77,238,62365,1,8,3:2:0:0:
164,343,62815,102,0,P|223:312|284:327,1,120,4|8,0:0|0:0,0:0:0:0:
361,347,63565,2,0,L|452:333,1,79.9999999999999,12|8,0:0|0:0,0:0:0:0:
485,266,64165,2,0,B|454:211|464:164|464:164|439:175|413:185|358:164,1,215.999993408203,8|8,0:0|3:0,0:0:0:0:
317,82,65365,37,4,3:2:0:0:
82,84,72565,6,0,B|128:107|128:107|165:97|165:97|186:120|226:128,1,155.999995239258,8|0,0:0|0:0,0:0:0:0:
383,114,73765,70,0,B|390:78|382:47|382:47|341:30|297:52,1,143.999995605469,8|8,1:0|1:0,0:0:0:0:
255,203,74965,54,0,P|268:236|194:352,1,179.999994506836,4|2,3:2|0:0,0:0:0:0:
119,341,76015,2,0,B|97:294|97:294|109:230|109:230|85:167,1,179.999994506836,2|2,3:2|3:2,0:0:0:0:
1,30,77365,2,0,P|71:63|146:57,1,143.999995605469,2|2,3:2|3:2,0:0:0:0:
253,22,78415,2,0,P|343:12|413:151,1,251.99999230957,2|2,3:2|0:2,0:0:0:0:
374,207,79765,6,0,P|314:228|226:217,1,143.999995605469,0|2,3:0|3:2,0:0:0:0:
114,195,80815,2,0,B|102:277|102:277|136:327,1,143.999995605469,2|2,3:2|3:2,0:0:0:0:
253,366,81865,1,2,0:0:0:0:
316,314,82165,2,0,P|300:160|300:160,1,143.999995605469,4|0,3:2|3:0,0:0:0:0:
354,44,83215,2,0,P|403:39|469:85,1,120,12|8,1:0|0:0,0:0:0:0:
477,164,83965,2,0,P|460:199|423:221,1,79.9999999999999,8|8,0:0|0:0,0:0:0:0:
387,137,84565,70,0,B|322:117|322:117|215:144,1,160,4|0,0:0|3:0,0:0:0:0:
177,212,85465,1,8,0:0:0:0:
90,182,85765,2,0,P|64:139|69:67,2,120,0|0|8,3:0|0:0|0:0,0:0:0:0:
172,144,86965,6,0,L|346:171,1,160,0|0,3:0|3:0,0:0:0:0:
400,110,87865,1,8,0:0:0:0:
453,36,88165,2,0,P|488:64|511:148,2,120,0|0|12,3:0|0:0|0:0,0:0:0:0:
361,40,89365,102,0,L|273:51,1,79.9999999999999,4|8,3:2|0:0,0:0:0:0:
190,60,89965,1,0,3:0:0:0:
149,245,90565,2,0,P|212:283|306:268,1,160,0|0,0:0|3:0,0:0:0:0:
344,197,91465,1,12,0:0:0:0:
416,252,91765,6,0,L|413:337,1,79.9999999999999,4|8,3:2|0:0,0:0:0:0:
499,360,92365,2,0,L|502:275,1,79.9999999999999,0|8,3:0|0:0,0:0:0:0:
509,189,92965,1,12,0:0:0:0:
330,151,93565,1,8,0:0:0:0:
423,15,94165,6,0,P|378:30|279:17,1,143.999995605469,4|0,3:2|3:0,0:0:0:0:
163,45,95215,2,0,L|188:166,1,107.999996704102,2|8,3:0|0:0,0:0:0:0:
257,188,95965,2,0,L|245:261,1,71.9999978027344,0|8,3:0|0:0,0:0:0:0:
180,309,96565,5,4,3:2:0:0:
52,205,97165,1,0,3:0:0:0:
135,114,97615,2,0,P|186:91|249:95,1,107.999996704102,2|8,3:0|0:0,0:0:0:0:
305,137,98365,2,0,P|362:152|391:149,1,71.9999978027344,0|12,3:0|0:0,0:0:0:0:
434,95,98965,101,12,0:0:0:0:
506,242,99565,1,8,0:0:0:0:
384,351,100165,2,0,L|313:336,1,71.9999978027344,12|8,0:0|0:0,0:0:0:0:
262,271,100765,2,0,L|184:289,1,71.9999978027344,8|8,0:0|0:0,0:0:0:0:
124,334,101365,6,0,P|100:307|85:234,1,107.999996704102,12|12,0:0|0:0,0:0:0:0:
102,116,102265,1,12,0:0:0:0:
162,60,102565,2,0,B|216:55|216:55|257:79|257:79|301:72,1,143.999995605469,0|8,1:0|1:0,0:0:0:0:
353,10,103465,1,8,1:0:0:0:
434,51,103765,6,0,P|462:119|441:200,1,160,4|0,3:2|3:0,0:0:0:0:
376,320,104815,2,0,B|320:284|320:284|259:293,1,120,4|10,3:2|0:2,0:0:0:0:
190,242,105565,2,0,L|175:162,1,79.9999999999999,2|10,3:2|0:0,0:0:0:0:
245,104,106165,5,4,3:2:0:0:
71,47,106765,1,0,3:0:0:0:
41,180,107215,2,0,B|51:260|51:260|90:295,1,120,4|0,3:2|1:0,0:0:0:0:
158,332,107965,2,0,P|209:315|242:324,1,79.9999999999999,4|0,3:2|1:0,0:0:0:0:
316,357,108565,102,0,P|341:309|329:202,1,160,4|0,3:2|3:0,0:0:0:0:
274,81,109615,2,0,B|317:34|317:34|455:26,1,200,4|2,3:2|3:2,0:0:0:0:
498,105,110665,1,12,0:0:0:0:
462,189,110965,6,0,L|297:171,1,160,4|12,3:2|0:0,0:0:0:0:
175,234,112015,2,0,B|141:186|141:186|160:112,1,120,4|8,3:2|0:0,0:0:0:0:
205,50,112765,1,12,0:0:0:0:
379,102,113365,6,0,P|362:149|368:182,1,79.9999999999999,4|8,0:0|0:0,0:0:0:0:
423,249,113965,2,0,P|436:295|426:333,1,79.9999999999999,8|8,3:2|0:0,0:0:0:0:
346,362,114565,2,0,L|261:350,1,79.9999999999999,4|8,3:2|0:0,0:0:0:0:
217,273,115165,2,0,L|125:286,1,79.9999999999999,8|8,3:2|0:0,0:0:0:0:
71,347,115765,86,0,B|109:279|22:266|62:182,1,160,4|0,3:2|3:0,0:0:0:0:
25,62,116815,2,0,P|65:85|147:77,1,120,4|8,3:2|0:0,0:0:0:0:
201,17,117565,1,12,0:0:0:0:
309,163,118165,22,0,P|306:200|319:249,1,79.9999999999999,4|8,3:2|0:0,0:0:0:0:
401,274,118765,2,0,P|420:230|420:183,1,79.9999999999999,8|8,3:2|0:0,0:0:0:0:
423,106,119365,2,0,P|461:106|508:83,1,79.9999999999999,4|8,3:2|0:0,0:0:0:0:
442,18,119965,1,8,3:2:0:0:
317,75,120415,102,0,P|264:41|199:39,1,120,4|8,3:2|0:0,0:0:0:0:
132,87,121165,2,0,P|127:130|141:165,1,79.9999999999999,8|8,0:0|0:0,0:0:0:0:
200,219,121765,2,0,B|282:236|316:166|316:166|329:212|377:221,1,215.999993408203,8|0,0:0|3:0,0:0:0:0:
395,141,122965,21,4,0:0:0:0:
256,192,127765,12,0,131365,0:0:0:0:
140,51,132565,38,0,B|132:106|132:106|162:147|162:147|141:258,1,215.999993408203,4|0,3:2|0:0,0:0:0:0:
141,337,133765,2,0,B|190:372|190:372|288:362,1,143.999995605469,4|4,0:0|3:2,0:0:0:0:
424,299,134965,2,0,P|406:260|318:214,1,143.999995605469,4|4,3:2|0:0,0:0:0:0:
157,240,136165,1,4,0:0:0:0:
211,85,136765,6,0,B|266:50|266:50|294:66|332:71|357:57,1,143.999995605469,8|4,0:0|3:2,0:0:0:0:
500,17,137965,1,4,0:0:0:0:
425,163,138565,2,0,B|420:241|420:241|463:294,1,143.999995605469,4|4,0:0|0:0,0:0:0:0:
437,370,139465,1,0,0:0:0:0:
355,362,139765,102,0,P|310:325|191:328,1,179.999994506836,4|0,3:2|3:0,0:0:0:0:
70,338,140965,2,0,L|54:254,1,71.9999978027344,4|0,0:0|3:0,0:0:0:0:
117,212,141565,2,0,L|117:89,1,107.999996704102,8|12,0:0|0:0,0:0:0:0:
482,49,143365,6,0,P|448:93|355:107,1,143.999995605469,12|0,3:2|3:0,0:0:0:0:
257,48,144415,2,0,L|141:65,1,107.999996704102,12|0,0:0|3:0,0:0:0:0:
74,96,145165,2,0,L|88:180,1,71.9999978027344,0|0,3:0|3:0,0:0:0:0:
37,233,145765,101,0,0:0:0:0:
151,351,146365,1,0,3:0:0:0:
249,276,146815,2,0,P|297:259|363:276,1,107.999996704102,8|0,0:3|3:0,0:0:0:0:
415,322,147565,2,0,L|490:300,1,71.9999978027344,4|4,3:0|3:0,0:0:0:0:
497,220,148165,5,4,3:2:0:0:
421,74,148765,1,8,0:0:0:0:
273,145,149365,1,8,0:0:0:0:
348,290,149965,2,0,L|375:220,1,71.9999978027344,8|8,0:0|0:0,0:0:0:0:
403,146,150565,102,0,P|373:87|305:49,3,143.999995605469,2|0|0|0,3:2|3:0|3:0|3:0,0:0:0:0:
143,47,152965,6,0,L|156:156,1,107.999996704102,2|2,3:2|3:2,0:0:0:0:
179,275,153865,2,0,B|223:281|251:265|251:265|256:291|280:312|313:312|313:312|341:312|378:291|395:246|374:220|353:180|320:182|298:202,1,359.999989013672,2|4,3:2|0:1,0:0:0:0:
282,185,164965,101,4,0:0:0:0:
125,135,165565,1,0,0:0:0:0:
284,97,166165,1,0,0:0:0:0:
125,135,166765,1,0,0:0:0:0:
282,185,167365,6,0,P|329:177|377:87,1,143.999995605469,0|0,0:0|0:0,0:0:0:0:
326,36,168265,1,0,0:0:0:0:
249,65,168565,2,0,L|99:50,1,143.999995605469,0|0,0:0|0:0,0:0:0:0:
4,179,169765,101,0,0:0:0:0:
67,330,170365,1,0,0:0:0:0:
182,213,170965,2,0,L|211:295,1,71.9999978027344,0|0,0:0|0:0,0:0:0:0:
282,310,171565,2,0,L|360:284,1,71.9999978027344
431,297,172165,6,0,P|482:271|311:158,1,431.999986816406,0|0,0:0|0:0,0:0:0:0:
349,224,174265,1,0,3:0:0:0:
280,284,174565,6,0,P|197:301|128:272,1,160,4|0,0:0|3:0,0:0:0:0:
46,163,175615,2,0,B|78:117|78:117|146:111,1,120,4|10,3:2|0:2,0:0:0:0:
220,158,176365,2,0,L|303:146,1,79.9999999999999,2|10,3:2|0:0,0:0:0:0:
371,89,176965,6,0,L|410:245,1,160,4|0,3:2|3:0,0:0:0:0:
342,363,178015,2,0,P|282:361|231:311,1,120,4|0,3:2|1:0,0:0:0:0:
148,305,178765,2,0,P|153:255|172:223,1,79.9999999999999,4|0,3:2|1:0,0:0:0:0:
252,197,179365,102,0,P|269:144|222:47,1,160,4|0,3:2|3:0,0:0:0:0:
94,23,180415,2,0,B|74:75|74:75|95:152,1,120,4|10,3:2|0:2,0:0:0:0:
166,188,181165,2,0,L|257:170,1,79.9999999999999,2|14,3:2|0:2,0:0:0:0:
296,96,181765,5,4,3:2:0:0:
458,177,182365,1,12,0:0:0:0:
409,304,182815,2,0,P|368:285|285:294,1,120,4|0,3:2|1:0,0:0:0:0:
231,355,183565,1,12,3:2:0:0:
53,312,184165,6,0,P|72:289|80:235,1,79.9999999999999,4|8,3:2|0:0,0:0:0:0:
23,170,184765,2,0,P|10:124|20:89,1,79.9999999999999,8|8,3:2|0:0,0:0:0:0:
90,38,185365,2,0,L|172:29,1,79.9999999999999,4|8,3:2|0:0,0:0:0:0:
228,99,185965,2,0,L|310:90,1,79.9999999999999,8|8,3:2|0:0,0:0:0:0:
375,29,186565,86,0,P|413:67|416:180,1,160,4|0,3:2|3:0,0:0:0:0:
302,236,187615,2,0,B|274:284|274:284|298:361,1,120,4|10,0:0|0:2,0:0:0:0:
379,374,188365,1,12,0:0:0:0:
502,239,188965,22,0,L|414:231,1,79.9999999999999,4|8,3:2|0:0,0:0:0:0:
393,145,189565,2,0,L|309:162,1,79.9999999999999,8|8,3:2|0:0,0:0:0:0:
228,191,190165,2,0,P|210:230|175:254,1,79.9999999999999,4|8,3:2|0:0,0:0:0:0:
90,237,190765,1,8,3:2:0:0:
12,124,191215,102,0,P|52:84|127:85,1,120,4|8,3:2|0:0,0:0:0:0:
197,113,191965,2,0,L|188:205,1,79.9999999999999,0|8,3:0|0:0,0:0:0:0:
209,281,192565,2,0,P|252:308|293:310,2,79.9999999999999,0|8|4,3:0|0:0|3:2,0:0:0:0:
283,114,193765,6,0,P|318:120|360:155,1,79.9999999999999,4|8,3:2|0:0,0:0:0:0:
441,121,194365,2,0,P|453:154|443:208,1,79.9999999999999,8|8,3:2|0:0,0:0:0:0:
503,270,194965,2,0,P|480:297|428:316,1,79.9999999999999,4|8,3:2|0:0,0:0:0:0:
374,379,195565,2,0,P|339:373|297:338,1,79.9999999999999,8|8,3:2|0:0,0:0:0:0:
244,277,196165,86,0,P|174:263|90:292,1,160,4|0,3:2|3:0,0:0:0:0:
30,168,197215,2,0,P|88:143|123:94,1,120,4|10,3:2|0:0,0:0:0:0:
158,15,197965,2,0,L|242:27,1,79.9999999999999,14|12,0:0|0:0,0:0:0:0:
315,73,198565,22,0,L|300:162,1,79.9999999999999,12|8,0:0|0:0,0:0:0:0:
220,193,199165,2,0,L|235:282,1,79.9999999999999,8|8,0:0|0:0,0:0:0:0:
299,334,199765,2,0,P|336:345|392:337,1,79.9999999999999,12|8,0:0|0:0,0:0:0:0:
452,290,200365,1,8,0:0:0:0:
442,167,200815,22,0,L|325:176,1,107.999996704102,0|0,3:0|0:0,0:0:0:0:
276,116,201565,1,0,0:0:0:0:
152,116,202015,2,0,P|132:170|144:219,1,107.999996704102,0|0,0:0|0:0,0:0:0:0:
221,241,202765,1,0,0:0:0:0:
