osu file format v14

[General]
AudioFilename: audio.mp3
AudioLeadIn: 0
PreviewTime: 46100
Countdown: 0
SampleSet: Soft
StackLeniency: 0.7
Mode: 0
LetterboxInBreaks: 0
WidescreenStoryboard: 0

[Editor]
Bookmarks: 650,17450,22250,27050,36650,55850,74450
DistanceSpacing: 1.1
BeatDivisor: 4
GridSize: 4
TimelineZoom: 3.400004

[Metadata]
Title:HIBANA feat. Hatsune Miku (Cut Ver.)
TitleUnicode:ヒバナ feat. 初音ミク
Artist:DECO*27
ArtistUnicode:DECO*27
Creator:- Sophia
Version:Light Insane
Source:
Tags:10th anniversary re:start vocaloid rockwell cut edit seto kousuke alexsander victorfernando
BeatmapID:1656638
BeatmapSetID:789390

[Difficulty]
HPDrainRate:5
CircleSize:4
OverallDifficulty:7
ApproachRate:8
SliderMultiplier:1.6
SliderTickRate:1

[Events]
//Background and Video events
0,0,"BG.jpg",0,0
//Break Periods
2,17650,20900
//Storyboard Layer 0 (Background)
//Storyboard Layer 1 (Fail)
//Storyboard Layer 2 (Pass)
//Storyboard Layer 3 (Foreground)
//Storyboard Layer 4 (Overlay)
//Storyboard Sound Samples

[TimingPoints]
650,300,4,2,1,60,1,0
2750,-90.9090909090909,4,2,1,60,0,0
2975,-90.9090909090909,4,2,1,5,0,0
3050,-100,4,2,1,60,0,0
21950,-200,4,2,1,60,0,0
22250,-100,4,2,1,60,0,0
26750,-142.857142857143,4,2,1,80,0,0
26975,-142.857142857143,4,2,1,5,0,0
27050,-100,4,2,1,60,0,0
31550,-142.857142857143,4,2,1,60,0,0
31775,-142.857142857143,4,2,1,5,0,0
31850,-100,4,2,1,60,0,0
36650,-125,4,2,1,60,0,0
41450,-100,4,2,1,60,0,0
46250,-100,4,2,1,60,0,1
47525,-100,4,2,1,5,0,1
47600,-100,4,2,1,60,0,1
48575,-100,4,2,1,5,0,1
48650,-100,4,2,1,60,0,1
52325,-100,4,2,1,5,0,1
52400,-100,4,2,1,60,0,1
59525,-100,4,2,1,5,0,1
59600,-100,4,2,1,60,0,1
64250,-400,4,2,1,60,0,0
64775,-400,4,2,1,5,0,0
64850,-83.3333333333333,4,2,1,60,0,0
65075,-83.3333333333333,4,2,1,5,0,0
65150,-100,4,2,1,60,0,0
69650,-111.111111111111,4,2,1,60,0,0
69950,-100,4,2,1,60,0,0
73025,-100,4,2,1,60,0,0
73100,-100,4,2,1,60,0,0

[Colours]
Combo1 : 154,231,206
Combo2 : 253,236,176
Combo3 : 255,170,255
Combo4 : 39,55,88

[HitObjects]
109,117,650,6,0,B|159:95|159:95|231:102,2,106.666666666667,4|4|4,3:2|3:2|3:2,0:0:0:0:
153,226,1250,2,0,B|203:248|203:248|275:241,2,106.666666666667,4|4|4,3:2|3:2|3:2,0:0:0:0:
276,160,1850,2,0,P|320:180|348:248,2,106.666666666667,4|4|4,3:2|3:2|3:2,0:0:0:0:
153,226,2450,1,4,3:2:0:0:
308,28,2750,6,0,B|275:36|275:36|239:24|239:24|207:32|207:32|156:16,1,132.00000402832,2|0,0:0|0:0,0:0:0:0:
132,40,3050,2,0,L|137:95,5,40,8|0|0|0|0|0,3:2|3:2|3:2|3:2|3:2|3:2,0:0:0:0:
79,131,3500,2,0,L|75:170,5,40,8|0|0|0|0|0,3:2|3:2|3:2|3:2|3:2|3:2,0:0:0:0:
144,212,3950,1,8,3:2:0:0:
144,220,4025,1,0,3:2:0:0:
144,228,4100,1,0,3:2:0:0:
144,236,4175,1,0,3:2:0:0:
146,255,4250,6,0,L|192:251,5,40,8|0|0|0|0|0,3:2|3:2|3:2|3:2|3:2|3:2,0:0:0:0:
227,313,4700,2,0,L|266:316,5,40,8|0|0|0|0|0,3:2|3:2|3:2|3:2|3:2|3:2,0:0:0:0:
327,273,5150,1,8,3:2:0:0:
336,265,5225,1,0,3:2:0:0:
342,255,5300,1,0,3:2:0:0:
350,246,5375,1,0,3:2:0:0:
359,238,5450,6,0,L|279:233,1,80,8|2,3:2|3:2,0:0:0:0:
179,143,5750,2,0,L|259:139,1,80,8|2,3:2|3:2,0:0:0:0:
181,238,6050,2,0,L|101:234,1,80,8|2,3:2|3:2,0:0:0:0:
6,247,6350,1,8,3:2:0:0:
47,333,6500,1,2,3:2:0:0:
141,348,6650,6,0,L|190:350,1,40,12|0,3:2|0:0,0:0:0:0:
452,216,7100,2,0,L|412:214,1,40,12|0,3:2|0:0,0:0:0:0:
188,84,7550,2,0,P|207:77|243:80,3,40,12|0|0|0,0:0|0:0|0:0|0:0,0:0:0:0:
137,142,7850,6,0,L|126:221,1,80,2|2,0:0|0:0,0:0:0:0:
238,330,8150,2,0,L|228:251,1,80,8|2,0:0|0:0,0:0:0:0:
315,100,8450,2,0,L|305:180,1,80,2|2,0:0|0:0,0:0:0:0:
381,252,8750,2,0,L|460:254,1,80,8|2,0:0|0:0,0:0:0:0:
507,161,9050,6,0,P|512:121|507:81,1,80,0|2,0:0|0:0,0:0:0:0:
420,24,9350,2,0,P|379:22|340:30,1,80,8|2,0:0|0:0,0:0:0:0:
280,116,9650,2,0,P|239:121|196:114,1,80,0|2,0:0|0:0,0:0:0:0:
136,32,9950,1,8,0:0:0:0:
136,32,10100,1,10,0:0:0:0:
68,112,10250,6,0,P|63:153|70:196,1,80,0|2,0:0|0:0,0:0:0:0:
117,274,10550,2,0,L|202:278,1,80,8|2,0:0|0:0,0:0:0:0:
286,242,10850,2,0,P|315:217|327:179,1,80,0|2,0:0|0:0,0:0:0:0:
290,89,11150,1,8,0:0:0:0:
290,89,11300,1,2,0:0:0:0:
384,70,11450,6,0,P|415:90|443:139,1,80,0|2,0:0|0:0,0:0:0:0:
466,218,11750,2,0,L|453:307,1,80,8|2,0:0|0:0,0:0:0:0:
365,335,12050,2,0,L|272:330,1,80,0|2,0:0|0:0,0:0:0:0:
190,314,12350,1,8,0:0:0:0:
190,302,12425,1,8,0:0:0:0:
190,290,12500,1,10,0:0:0:0:
190,278,12575,1,8,0:0:0:0:
190,266,12650,6,0,L|190:178,1,80,2|2,0:0|0:0,0:0:0:0:
145,84,12950,2,0,P|105:80|66:87,1,80,8|2,0:0|0:0,0:0:0:0:
111,183,13250,2,0,P|150:190|189:186,1,80,0|2,0:0|0:0,0:0:0:0:
240,88,13550,2,0,P|279:80|318:84,1,80,8|2,0:0|0:0,0:0:0:0:
407,102,13850,6,0,P|398:140|372:169,1,80,0|2,0:0|0:0,0:0:0:0:
323,236,14150,2,0,P|319:275|332:312,1,80,8|2,0:0|0:0,0:0:0:0:
428,308,14450,2,0,P|441:270|437:231,1,80,0|2,0:0|0:0,0:0:0:0:
372,170,14750,1,8,0:0:0:0:
372,170,14900,1,2,0:0:0:0:
288,156,15050,6,0,P|208:154|152:216,1,160,8|0,0:0|0:0,0:0:0:0:
244,248,15500,2,0,L|424:260,1,160,10|2,0:0|0:0,0:0:0:0:
452,176,15950,2,0,L|372:170,1,80,8|2,0:0|0:0,0:0:0:0:
276,164,16250,5,8,0:0:0:0:
180,184,16400,1,10,0:0:0:0:
180,184,16475,1,8,0:0:0:0:
180,184,16550,2,0,L|180:267,1,80,8|10,0:0|0:0,0:0:0:0:
276,360,16850,2,0,L|276:280,1,80,8|2,0:0|0:3,0:0:0:0:
372,170,17150,2,0,L|372:250,1,80,2|2,1:3|1:3,0:0:0:0:
436,320,17450,5,4,0:0:0:0:
180,76,21650,5,2,0:0:0:0:
180,76,21725,1,2,0:0:0:0:
180,76,21800,1,2,0:0:0:0:
180,76,21875,1,0,0:0:0:0:
180,76,21950,2,0,L|184:132,1,40,2|0,0:3|0:0,0:0:0:0:
200,292,22250,5,0,1:0:0:0:
304,172,22400,1,0,1:0:0:0:
328,288,23450,5,0,1:0:0:0:
232,168,23600,1,0,1:0:0:0:
180,140,24650,5,0,1:0:0:0:
180,140,24800,2,0,L|200:248,1,80,0|0,1:0|0:0,0:0:0:0:
272,272,25100,1,0,0:0:0:0:
272,272,25175,1,0,0:0:0:0:
272,272,25250,1,8,1:2:0:0:
340,208,25400,1,2,0:3:0:0:
408,276,25550,2,0,L|404:364,1,80,2|2,0:3|0:3,0:0:0:0:
308,368,25850,6,0,L|224:360,1,80,2|4,0:3|3:1,0:0:0:0:
116,204,26300,1,4,3:1:0:0:
366,169,26600,1,4,3:1:0:0:
192,56,26750,2,0,L|200:144,1,83.9999974365235,2|0,0:0|0:0,0:0:0:0:
208,188,27050,6,0,B|380:168,1,160,4|8,0:0|0:0,0:0:0:0:
464,156,27500,1,2,0:0:0:0:
436,248,27650,2,0,L|348:260,1,80,0|2,0:0|0:0,0:0:0:0:
312,344,27950,1,8,0:0:0:0:
312,344,28100,2,0,P|264:280|280:200,1,160,2|2,0:0|0:0,0:0:0:0:
320,120,28550,2,0,P|276:108|232:120,2,80,8|2|0,0:0|0:0|0:0,0:0:0:0:
388,188,29000,1,10,0:0:0:0:
388,188,29150,2,0,L|384:272,1,80,8|2,0:0|0:0,0:0:0:0:
312,344,29450,6,0,P|232:360|144:340,1,160,6|8,0:0|0:0,0:0:0:0:
92,272,29900,1,2,0:0:0:0:
92,272,30050,2,0,P|88:232|96:188,1,80,0|2,0:0|0:0,0:0:0:0:
172,136,30350,1,8,0:0:0:0:
260,176,30500,2,0,B|344:192|344:192|424:172,2,160,2|2|2,0:0|0:0|0:0,0:0:0:0:
172,136,31250,2,0,P|165:175|169:215,1,80,0|2,0:0|0:0,0:0:0:0:
92,339,31550,2,0,P|94:297|88:256,1,83.9999974365235,10|0,0:0|0:0,0:0:0:0:
49,225,31850,6,0,L|41:65,1,160,4|8,0:1|0:0,0:0:0:0:
112,4,32300,1,2,0:0:0:0:
188,60,32450,2,0,P|228:68|272:64,1,80,0|2,0:0|0:0,0:0:0:0:
348,12,32750,1,8,0:0:0:0:
348,12,32900,2,0,P|368:72|316:152,2,160,2|2|2,0:0|0:0|0:0,0:0:0:0:
266,65,33650,2,0,P|227:67|188:60,1,80,0|2,0:0|0:0,0:0:0:0:
112,4,33950,2,0,P|100:44|112:124,1,120,8|0,0:0|0:0,0:0:0:0:
147,151,34250,6,0,P|159:223|131:307,1,160,4|8,0:0|0:0,0:0:0:0:
53,359,34700,1,2,0:0:0:0:
16,268,34850,2,0,L|12:184,1,80,0|2,0:0|0:0,0:0:0:0:
68,108,35150,1,8,0:0:0:0:
147,151,35300,5,2,0:0:0:0:
147,151,35375,1,2,0:0:0:0:
147,151,35450,1,4,0:0:0:0:
278,84,35600,1,2,0:0:0:0:
233,165,35750,2,0,L|229:255,1,80,0|2,0:0|0:0,0:0:0:0:
304,291,36050,2,0,L|308:205,1,80,4|2,0:0|0:0,0:0:0:0:
385,169,36350,2,0,L|381:259,1,80,0|2,0:0|0:0,0:0:0:0:
444,323,36650,5,4,0:0:0:0:
225,323,36950,2,0,L|89:343,1,128,8|0,0:0|3:0,0:0:0:0:
64,264,37400,2,0,L|56:180,1,64,2|8,0:0|0:0,0:0:0:0:
108,136,37700,2,0,P|168:160|256:136,1,128,2|2,0:0|0:0,0:0:0:0:
296,96,38150,1,8,0:0:0:0:
324,176,38300,2,0,L|316:232,2,32,2|0|0,3:0|3:0|3:0,0:0:0:0:
380,116,38600,1,2,0:0:0:0:
424,188,38750,2,0,L|408:272,1,64,8|0,0:0|0:0,0:0:0:0:
380,328,39050,5,2,0:0:0:0:
220,288,39350,2,0,P|212:256|216:212,1,64,8|2,0:0|0:3,0:0:0:0:
168,156,39650,2,0,P|136:160|88:152,2,64,0|2|8,3:0|0:0|0:0,0:0:0:0:
248,136,40100,2,0,L|388:136,1,128,2|2,0:0|0:0,0:0:0:0:
448,68,40550,2,0,P|464:96|464:140,1,64,8|2,0:0|3:0,0:0:0:0:
436,204,40850,2,0,P|438:235|457:260,1,64,0|2,3:0|0:0,0:0:0:0:
408,328,41150,2,0,L|320:336,1,64,8|4,0:0|0:0,0:0:0:0:
268,296,41450,6,0,L|264:216,1,80,8|0,0:0|0:0,0:0:0:0:
92,174,41750,2,0,L|172:168,1,80,8|0,0:0|0:0,0:0:0:0:
252,28,42050,2,0,L|256:108,1,80,8|0,0:0|0:0,0:0:0:0:
427,149,42350,2,0,L|348:156,1,80,8|0,0:0|0:0,0:0:0:0:
416,72,42650,6,0,P|452:76|488:100,1,80,8|0,0:0|0:0,0:0:0:0:
484,203,42950,2,0,P|451:225|412:230,1,80,8|0,0:0|0:0,0:0:0:0:
320,264,43250,2,0,L|316:348,1,80,8|0,0:0|0:0,0:0:0:0:
212,352,43550,2,0,L|208:272,1,80,8|0,0:0|0:0,0:0:0:0:
268,188,43850,6,0,B|208:168|152:188|152:188|144:180|144:180|88:208|12:180,2,240,12|12|12,0:0|0:0|0:0,0:0:0:0:
296,40,45650,5,8,0:0:0:0:
296,40,45725,1,8,0:0:0:0:
296,40,45800,1,8,0:0:0:0:
296,40,45875,1,8,0:0:0:0:
296,40,45950,2,8,L|356:36,2,40,8|8|8,0:0|0:0|0:0,0:0:0:0:
416,72,46250,6,0,P|428:108|420:156,1,80,6|2,0:0|0:0,0:0:0:0:
360,232,46550,2,0,P|320:224|272:228,1,80,8|2,0:0|0:0,0:0:0:0:
224,312,46850,2,0,P|184:314|145:306,1,80,0|2,3:0|0:0,0:0:0:0:
84,220,47150,1,8,0:0:0:0:
84,220,47300,6,0,P|64:140|88:64,1,160,6|2,0:0|0:0,0:0:0:0:
184,32,47750,2,0,P|224:36|268:32,1,80,8|2,0:0|0:0,0:0:0:0:
364,56,48050,2,0,P|360:95|364:135,1,80,0|2,3:0|0:0,0:0:0:0:
416,228,48350,2,0,P|358:211|301:226,1,120,8|0,0:0|0:0,0:0:0:0:
272,268,48650,5,6,3:2:0:0:
187,335,48800,2,0,P|143:287|131:191,1,160,2|2,0:0|0:0,0:0:0:0:
188,108,49250,2,0,P|192:68|188:28,1,80,0|2,3:0|0:0,0:0:0:0:
92,68,49550,1,8,0:0:0:0:
130,196,49700,6,0,P|208:208|288:132,1,160,6|2,0:0|0:0,0:0:0:0:
332,80,50150,1,8,0:0:0:0:
332,80,50225,1,8,0:0:0:0:
332,80,50300,1,10,0:0:0:0:
332,80,50375,1,8,0:0:0:0:
332,80,50450,1,8,3:2:0:0:
412,136,50600,1,2,0:0:0:0:
376,244,50750,2,0,P|375:263|378:283,3,40,8|8|10|8,0:0|0:0|0:0|0:0,0:0:0:0:
344,324,51050,6,0,P|304:336|256:328,1,80,4|2,3:2|0:0,0:0:0:0:
192,260,51350,2,0,L|104:256,1,80,8|2,0:0|0:0,0:0:0:0:
48,172,51650,2,0,L|136:168,1,80,0|2,3:0|0:0,0:0:0:0:
176,76,51950,1,8,0:0:0:0:
176,76,52100,6,0,B|248:104|248:104|340:76,1,160,6|2,0:0|0:0,0:0:0:0:
432,88,52550,2,0,B|448:124|448:124|432:172,1,80,8|2,0:0|0:0,0:0:0:0:
368,240,52850,2,0,B|352:276|352:276|364:314,1,80,0|2,3:0|0:0,0:0:0:0:
264,332,53150,2,0,P|208:320|140:332,1,120,12|0,0:0|0:0,0:0:0:0:
104,356,53450,5,0,3:0:0:0:
48,268,53600,2,0,P|36:196|104:128,1,160,2|2,0:0|0:0,0:0:0:0:
144,224,54050,2,0,L|228:232,1,80,0|2,3:0|0:0,0:0:0:0:
300,160,54350,1,8,0:0:0:0:
312,264,54500,6,0,P|264:328|188:320,1,160,6|2,0:0|0:0,0:0:0:0:
224,232,54950,1,8,0:0:0:0:
224,232,55025,1,8,0:0:0:0:
224,232,55100,1,8,0:0:0:0:
300,160,55250,2,0,P|304:120|300:80,1,80,8|0,0:0|0:0,0:0:0:0:
200,48,55550,2,0,P|164:36|120:40,1,80,4|0,0:1|0:0,0:0:0:0:
52,116,55850,6,0,L|60:204,1,80,4|2,3:2|0:0,0:0:0:0:
123,309,56150,2,0,L|131:230,1,80,8|2,0:0|0:0,0:0:0:0:
199,125,56450,2,0,L|207:205,1,80,0|2,3:2|0:0,0:0:0:0:
264,330,56750,2,0,L|272:251,1,80,8|2,0:0|0:0,0:0:0:0:
367,206,57050,6,0,P|362:166|370:127,1,80,0|2,3:2|0:0,0:0:0:0:
430,51,57350,2,0,P|454:79|467:122,1,80,8|2,0:0|0:0,0:0:0:0:
466,216,57650,2,0,P|454:254|429:284,1,80,0|2,3:0|0:0,0:0:0:0:
277,336,57950,1,8,0:0:0:0:
370,361,58100,1,2,0:0:0:0:
352,276,58250,6,0,P|336:200|360:96,1,160,0|8,2:0|0:0,0:0:0:0:
424,48,58700,1,2,0:0:0:0:
320,32,58850,2,0,P|244:52|152:40,1,160,0|8,3:0|0:0,0:0:0:0:
60,24,59300,6,0,P|64:100|164:144,1,160,6|2,0:0|0:0,0:0:0:0:
328,116,59750,1,8,0:0:0:0:
232,156,59900,1,2,0:0:0:0:
316,216,60050,2,0,P|320:256|316:300,1,80,4|2,3:2|0:0,0:0:0:0:
220,336,60350,2,0,P|216:296|220:252,1,80,12|2,0:0|0:0,0:0:0:0:
316,216,60650,6,0,P|352:208|404:208,1,80,0|2,3:0|0:0,0:0:0:0:
432,108,60950,2,0,P|444:68|436:28,1,80,8|2,0:0|0:0,0:0:0:0:
340,68,61250,2,0,L|260:75,1,80,0|2,3:0|0:0,0:0:0:0:
124,171,61550,2,0,L|204:164,1,80,8|2,0:0|0:0,0:0:0:0:
256,256,61850,6,0,P|264:296|256:336,1,80,0|2,3:0|0:0,0:0:0:0:
160,296,62150,2,0,P|120:292|80:296,1,80,8|2,0:0|0:0,0:0:0:0:
16,212,62450,2,0,L|8:116,1,80,0|2,3:0|0:0,0:0:0:0:
84,60,62750,1,8,0:0:0:0:
172,112,62900,6,0,P|240:136|324:84,1,160,6|2,0:0|0:0,0:0:0:0:
396,36,63350,2,0,P|415:78|414:110,1,80,8|2,0:0|0:0,0:0:0:0:
352,196,63650,2,0,P|348:284|408:344,1,160,0|8,3:2|0:0,0:0:0:0:
444,328,64025,1,8,0:0:0:0:
456,312,64100,1,8,0:0:0:0:
464,292,64175,1,8,0:0:0:0:
472,272,64250,2,0,L|476:208,1,60,4|0,0:0|0:0,0:0:0:0:
424,96,64850,6,0,B|384:104|360:88|360:88|328:92|328:92|276:80,1,143.999995605469,2|0,0:0|0:0,0:0:0:0:
232,72,65150,1,4,3:0:0:0:
84,216,65450,6,0,P|80:252|92:316,1,80,0|2,0:0|0:0,0:0:0:0:
192,316,65750,2,0,P|232:308|276:312,1,80,8|2,0:0|0:0,0:0:0:0:
348,244,66050,2,0,L|352:148,1,80,0|2,0:0|0:0,0:0:0:0:
256,120,66350,2,0,L|156:116,1,80,8|2,0:0|0:0,0:0:0:0:
260,40,66650,6,0,P|295:50|327:82,1,80,0|2,0:0|0:0,0:0:0:0:
172,40,66950,2,0,P|134:52|106:79,1,80,8|2,0:0|0:0,0:0:0:0:
100,184,67250,2,0,P|128:211|165:223,1,80,0|2,0:0|0:0,0:0:0:0:
268,200,67550,1,8,0:0:0:0:
268,200,67700,1,10,0:0:0:0:
256,304,67850,6,0,L|248:400,1,80,0|2,0:0|0:0,0:0:0:0:
144,372,68150,2,0,L|137:292,1,80,8|2,0:0|0:0,0:0:0:0:
44,248,68450,2,0,L|37:327,1,80,0|2,0:0|0:0,0:0:0:0:
119,197,68750,1,8,0:0:0:0:
198,251,68900,1,2,0:0:0:0:
292,192,69050,6,0,P|288:152|248:108,1,80,0|2,0:0|0:0,0:0:0:0:
192,48,69350,2,0,P|169:80|165:120,1,80,8|2,0:0|0:0,0:0:0:0:
265,119,69650,2,0,L|351:125,1,71.9999978027344,0|2,0:0|0:0,0:0:0:0:
438,145,69950,1,8,0:0:0:0:
438,164,70025,1,8,0:0:0:0:
439,184,70100,1,8,0:0:0:0:
439,204,70175,1,8,0:0:0:0:
440,224,70250,6,0,L|440:316,1,80,0|2,0:0|0:0,0:0:0:0:
364,360,70550,2,0,P|332:380|284:380,1,80,8|2,0:0|0:0,0:0:0:0:
232,304,70850,2,0,P|192:306|158:326,1,80,0|2,0:0|0:0,0:0:0:0:
68,364,71150,2,0,L|72:268,1,80,8|2,0:0|0:0,0:0:0:0:
136,148,71450,6,0,P|160:180|172:228,1,80,0|2,0:0|0:0,0:0:0:0:
232,304,71750,2,0,P|255:272|267:234,1,80,8|2,0:0|0:0,0:0:0:0:
324,156,72050,2,0,P|362:167|394:191,1,80,0|2,0:0|0:0,0:0:0:0:
448,272,72350,1,8,0:0:0:0:
448,272,72500,1,10,0:0:0:0:
388,348,72650,6,0,L|168:332,1,200,4|0,0:0|3:0,0:0:0:0:
140,332,73100,1,0,3:0:0:0:
140,332,73175,1,0,0:0:0:0:
140,332,73250,1,0,3:0:0:0:
284,116,73700,5,0,3:0:0:0:
284,116,73775,1,0,3:0:0:0:
284,116,73850,2,0,L|288:52,2,53.3333333333333,8|8|8,3:2|0:0|0:0,0:0:0:0:
232,208,74150,2,0,L|236:272,2,53.3333333333333,8|8|8,0:0|0:0|0:0,0:0:0:0:
196,120,74450,5,12,0:0:0:0:
