osu file format v14

[General]
AudioFilename: audio.mp3
AudioLeadIn: 0
PreviewTime: 45415
Countdown: 0
SampleSet: Normal
StackLeniency: 0.7
Mode: 1
LetterboxInBreaks: 0
WidescreenStoryboard: 1

[Editor]
DistanceSpacing: 0.9
BeatDivisor: 4
GridSize: 4
TimelineZoom: 1.2

[Metadata]
Title:HIBANA feat. Hatsune Miku
TitleUnicode:ヒバナ feat. 初音ミク
Artist:DECO*27
ArtistUnicode:DECO*27
Creator:Chromoxx
Version:Oni
Source:
Tags:japanese electronic 10th anniversary re:start 八三 vocaloid rockwell mes
BeatmapID:2350653
BeatmapSetID:875020

[Difficulty]
HPDrainRate:5
CircleSize:5
OverallDifficulty:6
ApproachRate:5
SliderMultiplier:1.4
SliderTickRate:1

[Events]
//Background and Video events
0,0,"bg.jpg",0,150
//Break Periods
//Storyboard Layer 0 (Background)
//Storyboard Layer 1 (Fail)
//Storyboard Layer 2 (Pass)
//Storyboard Layer 3 (Foreground)
//Storyboard Layer 4 (Overlay)
//Storyboard Sound Samples

[TimingPoints]
565,300,4,1,0,80,1,0
6640,-100,4,1,0,60,0,0
7765,-100,4,1,0,80,0,0
17515,-100,4,1,0,60,0,0
26965,-100,4,1,0,80,0,0
46165,-100,4,1,0,90,0,1
64165,-100,4,1,0,90,0,0
65365,-100,4,1,0,80,0,0
74965,-100,4,1,0,60,0,0
84565,-100,4,1,0,80,0,0
103765,-100,4,1,0,90,0,1
121765,-100,4,1,0,90,0,0
122965,-100,4,1,0,60,0,0
130165,-100,4,1,0,65,0,0
130765,-100,4,1,0,70,0,0
132565,-100,4,1,0,80,0,0
155365,-100,4,1,0,70,0,0
174565,-100,4,1,0,90,0,1
200815,-100,4,1,0,60,0,0

[HitObjects]
275,162,565,5,12,0:0:0:0:
253,156,765,1,12,0:0:0:0:
250,149,965,1,12,0:0:0:0:
250,149,1165,1,12,0:0:0:0:
250,149,1365,1,12,0:0:0:0:
250,149,1565,1,12,0:0:0:0:
250,149,1765,1,12,0:0:0:0:
250,149,1965,1,12,0:0:0:0:
250,149,2165,1,12,0:0:0:0:
250,149,2365,1,12,0:0:0:0:
288,162,2665,1,0,0:0:0:0:
315,110,2965,1,8,0:0:0:0:
365,139,3115,1,0,0:0:0:0:
365,139,3190,1,0,0:0:0:0:
365,139,3265,1,0,0:0:0:0:
365,139,3415,1,8,0:0:0:0:
365,139,3565,1,0,0:0:0:0:
365,139,3640,1,0,0:0:0:0:
365,139,3715,1,0,0:0:0:0:
365,139,3865,1,8,0:0:0:0:
365,139,4015,1,0,0:0:0:0:
365,139,4165,1,8,0:0:0:0:
365,139,4315,1,8,0:0:0:0:
365,139,4390,1,8,0:0:0:0:
365,139,4465,1,0,0:0:0:0:
365,139,4615,1,8,0:0:0:0:
365,139,4765,1,8,0:0:0:0:
365,139,4840,1,8,0:0:0:0:
365,139,4915,1,0,0:0:0:0:
365,139,5065,1,8,0:0:0:0:
365,139,5215,1,0,0:0:0:0:
355,192,5365,1,0,0:0:0:0:
251,224,5440,1,0,0:0:0:0:
239,197,5515,1,0,0:0:0:0:
220,157,5665,1,8,0:0:0:0:
214,146,5815,1,0,0:0:0:0:
300,116,5965,1,8,0:0:0:0:
300,116,6040,1,8,0:0:0:0:
300,116,6115,1,0,0:0:0:0:
300,116,6190,1,0,0:0:0:0:
300,116,6265,1,8,0:0:0:0:
300,116,6340,1,0,0:0:0:0:
300,116,6415,1,8,0:0:0:0:
300,116,6565,1,0,0:0:0:0:
361,168,7015,1,0,0:0:0:0:
329,150,7465,1,8,0:0:0:0:
324,135,7765,1,4,0:0:0:0:
259,190,8065,1,8,0:0:0:0:
304,115,8215,1,0,0:0:0:0:
304,115,8290,1,0,0:0:0:0:
304,115,8365,1,0,0:0:0:0:
304,115,8515,1,8,0:0:0:0:
304,115,8665,1,0,0:0:0:0:
304,115,8815,1,8,0:0:0:0:
304,115,8890,1,8,0:0:0:0:
304,115,8965,1,0,0:0:0:0:
304,235,9115,1,0,0:0:0:0:
268,177,9265,1,8,0:0:0:0:
232,139,9415,1,0,0:0:0:0:
264,187,9565,1,8,0:0:0:0:
248,210,9640,1,8,0:0:0:0:
227,227,9715,1,8,0:0:0:0:
230,252,9865,1,0,0:0:0:0:
230,252,10015,1,0,0:0:0:0:
230,252,10165,1,8,0:0:0:0:
327,246,10465,1,0,0:0:0:0:
325,221,10615,1,8,0:0:0:0:
230,138,10690,1,8,0:0:0:0:
325,221,10765,1,8,0:0:0:0:
269,117,10915,1,0,0:0:0:0:
269,117,11065,1,8,0:0:0:0:
269,117,11215,1,0,0:0:0:0:
269,117,11290,1,0,0:0:0:0:
269,117,11365,1,8,0:0:0:0:
231,97,11515,1,8,0:0:0:0:
231,97,11665,1,0,0:0:0:0:
183,139,11815,1,8,0:0:0:0:
183,139,11965,1,0,0:0:0:0:
183,139,12040,1,0,0:0:0:0:
183,139,12115,1,0,0:0:0:0:
183,139,12265,1,8,0:0:0:0:
291,176,12340,1,8,0:0:0:0:
183,139,12415,1,8,0:0:0:0:
262,218,12490,1,8,0:0:0:0:
223,233,12565,1,0,0:0:0:0:
259,190,12865,1,8,0:0:0:0:
304,115,13015,1,0,0:0:0:0:
304,115,13090,1,0,0:0:0:0:
304,115,13165,1,0,0:0:0:0:
304,115,13315,1,8,0:0:0:0:
304,115,13465,1,0,0:0:0:0:
304,115,13615,1,8,0:0:0:0:
304,115,13690,1,8,0:0:0:0:
304,115,13765,1,0,0:0:0:0:
304,235,13915,1,0,0:0:0:0:
268,177,14065,1,8,0:0:0:0:
232,139,14215,1,0,0:0:0:0:
264,187,14365,1,8,0:0:0:0:
248,210,14440,1,8,0:0:0:0:
227,227,14515,1,8,0:0:0:0:
230,252,14665,1,0,0:0:0:0:
230,252,14815,1,0,0:0:0:0:
230,252,14965,1,8,0:0:0:0:
124,126,15265,1,0,0:0:0:0:
142,135,15415,1,12,0:0:0:0:
244,135,15715,1,0,0:0:0:0:
227,126,15865,1,12,0:0:0:0:
335,196,16165,1,4,0:0:0:0:
312,271,16315,1,8,0:0:0:0:
152,260,16390,1,8,0:0:0:0:
312,271,16465,1,8,0:0:0:0:
202,279,16615,1,0,0:0:0:0:
202,279,16765,1,8,0:0:0:0:
202,279,16915,1,0,0:0:0:0:
202,279,17065,1,8,0:0:0:0:
337,190,17365,1,4,0:0:0:0:
356,264,17815,1,8,0:0:0:0:
213,203,18115,1,0,0:0:0:0:
213,203,18265,1,0,0:0:0:0:
213,203,18415,1,8,0:0:0:0:
219,202,18715,1,0,0:0:0:0:
219,202,19015,1,8,0:0:0:0:
219,202,19315,1,0,0:0:0:0:
284,246,19465,1,0,0:0:0:0:
178,128,19765,1,8,0:0:0:0:
290,94,20215,1,0,0:0:0:0:
231,105,20515,1,8,0:0:0:0:
231,105,20665,1,8,0:0:0:0:
231,105,20815,1,0,0:0:0:0:
179,92,21115,1,8,0:0:0:0:
187,153,21415,1,0,0:0:0:0:
244,150,21715,1,8,0:0:0:0:
244,150,21865,1,8,0:0:0:0:
335,179,22165,1,4,0:0:0:0:
347,257,22315,1,4,0:0:0:0:
178,244,22615,1,8,0:0:0:0:
315,122,22915,1,0,0:0:0:0:
199,240,23065,1,8,0:0:0:0:
199,240,23215,1,0,0:0:0:0:
199,239,23365,1,12,0:0:0:0:
199,239,23515,1,12,0:0:0:0:
283,234,23815,1,0,0:0:0:0:
358,113,24115,1,8,0:0:0:0:
358,113,24265,1,0,0:0:0:0:
358,113,24415,1,8,0:0:0:0:
358,113,24565,1,4,0:0:0:0:
358,113,24715,1,4,0:0:0:0:
185,149,25015,1,0,0:0:0:0:
184,229,25090,1,0,0:0:0:0:
149,203,25165,1,8,0:0:0:0:
318,163,25315,1,0,0:0:0:0:
318,163,25465,1,8,0:0:0:0:
318,163,25615,1,0,0:0:0:0:
220,171,25765,1,12,0:0:0:0:
220,171,25915,1,12,0:0:0:0:
220,171,26215,1,4,0:0:0:0:
220,171,26515,1,4,0:0:0:0:
220,171,26665,1,12,0:0:0:0:
316,286,26965,1,4,0:0:0:0:
340,88,27265,1,8,0:0:0:0:
334,89,27415,1,0,0:0:0:0:
309,110,27490,1,0,0:0:0:0:
307,114,27565,1,8,0:0:0:0:
306,114,27715,1,8,0:0:0:0:
201,110,27865,1,0,0:0:0:0:
357,212,28015,1,8,0:0:0:0:
202,212,28090,1,8,0:0:0:0:
190,218,28165,1,0,0:0:0:0:
235,200,28315,1,0,0:0:0:0:
232,181,28465,1,8,0:0:0:0:
232,181,28615,1,0,0:0:0:0:
201,218,28690,1,0,0:0:0:0:
193,208,28765,1,8,0:0:0:0:
167,186,28840,1,8,0:0:0:0:
167,186,28915,1,0,0:0:0:0:
167,186,29065,1,8,0:0:0:0:
214,235,29215,1,0,0:0:0:0:
167,186,29365,1,8,0:0:0:0:
236,118,29665,1,0,0:0:0:0:
208,132,29815,1,8,0:0:0:0:
208,132,29890,1,8,0:0:0:0:
208,132,29965,1,0,0:0:0:0:
208,132,30115,1,0,0:0:0:0:
208,132,30265,1,8,0:0:0:0:
229,143,30415,1,0,0:0:0:0:
229,143,30490,1,0,0:0:0:0:
228,143,30565,1,8,0:0:0:0:
220,136,30715,1,8,0:0:0:0:
220,134,30865,1,0,0:0:0:0:
220,134,31015,1,8,0:0:0:0:
220,134,31090,1,8,0:0:0:0:
220,134,31165,1,0,0:0:0:0:
220,134,31240,1,0,0:0:0:0:
220,134,31315,1,8,0:0:0:0:
277,208,31465,1,0,0:0:0:0:
297,162,31615,1,8,0:0:0:0:
282,166,31765,1,4,0:0:0:0:
340,88,32065,1,8,0:0:0:0:
334,89,32215,1,0,0:0:0:0:
309,110,32290,1,0,0:0:0:0:
307,114,32365,1,8,0:0:0:0:
306,114,32515,1,8,0:0:0:0:
201,110,32665,1,0,0:0:0:0:
357,212,32815,1,8,0:0:0:0:
202,212,32890,1,8,0:0:0:0:
190,218,32965,1,0,0:0:0:0:
235,200,33115,1,0,0:0:0:0:
232,181,33265,1,8,0:0:0:0:
232,181,33415,1,0,0:0:0:0:
201,218,33490,1,0,0:0:0:0:
193,208,33565,1,8,0:0:0:0:
167,186,33640,1,8,0:0:0:0:
167,186,33715,1,0,0:0:0:0:
167,186,33865,1,8,0:0:0:0:
214,235,34015,1,0,0:0:0:0:
167,186,34165,1,8,0:0:0:0:
233,74,34465,1,0,0:0:0:0:
233,74,34615,1,8,0:0:0:0:
233,74,34690,1,8,0:0:0:0:
248,138,34765,1,0,0:0:0:0:
248,138,34915,1,0,0:0:0:0:
248,138,35065,1,8,0:0:0:0:
248,138,35215,1,0,0:0:0:0:
248,138,35290,1,0,0:0:0:0:
248,138,35365,1,8,0:0:0:0:
239,250,35440,1,8,0:0:0:0:
181,202,35515,1,0,0:0:0:0:
181,202,35665,1,8,0:0:0:0:
308,134,35815,1,0,0:0:0:0:
201,193,35890,1,0,0:0:0:0:
298,135,35965,1,8,0:0:0:0:
300,155,36115,1,0,0:0:0:0:
299,162,36265,1,8,0:0:0:0:
299,162,36415,1,8,0:0:0:0:
297,161,36565,1,4,0:0:0:0:
292,158,36865,1,8,0:0:0:0:
317,179,37090,1,0,0:0:0:0:
317,180,37165,1,0,0:0:0:0:
317,180,37315,1,0,0:0:0:0:
317,180,37465,1,8,0:0:0:0:
147,114,37615,1,4,0:0:0:0:
147,114,37915,1,4,0:0:0:0:
228,214,38065,1,8,0:0:0:0:
273,101,38215,1,8,0:0:0:0:
273,101,38290,1,8,0:0:0:0:
273,101,38365,1,0,0:0:0:0:
273,101,38515,1,8,0:0:0:0:
273,101,38665,1,0,0:0:0:0:
315,144,38965,1,12,0:0:0:0:
315,144,39115,1,12,0:0:0:0:
275,126,39265,1,0,0:0:0:0:
252,231,39490,1,8,0:0:0:0:
192,188,39565,1,8,0:0:0:0:
212,162,39715,1,8,0:0:0:0:
260,251,39865,1,0,0:0:0:0:
254,242,40015,1,12,0:0:0:0:
254,242,40315,1,12,0:0:0:0:
220,93,40465,1,0,0:0:0:0:
306,122,40615,1,0,0:0:0:0:
306,122,40690,1,0,0:0:0:0:
306,122,40765,1,8,0:0:0:0:
306,122,40915,1,0,0:0:0:0:
306,122,41065,1,8,0:0:0:0:
325,208,41365,1,4,0:0:0:0:
267,215,41665,1,8,0:0:0:0:
239,198,41815,1,0,0:0:0:0:
200,209,41890,1,0,0:0:0:0:
173,196,41965,1,8,0:0:0:0:
185,207,42115,1,0,0:0:0:0:
170,89,42265,1,8,0:0:0:0:
170,89,42415,1,0,0:0:0:0:
170,89,42565,1,8,0:0:0:0:
289,100,42865,1,0,0:0:0:0:
289,100,43015,1,8,0:0:0:0:
289,100,43090,1,8,0:0:0:0:
289,100,43165,1,0,0:0:0:0:
289,100,43315,1,8,0:0:0:0:
289,100,43465,1,0,0:0:0:0:
289,100,43615,1,8,0:0:0:0:
289,100,43765,1,4,0:0:0:0:
336,183,44065,1,8,0:0:0:0:
315,229,44215,1,4,0:0:0:0:
295,219,44515,1,0,0:0:0:0:
246,210,44665,1,12,0:0:0:0:
366,186,45565,1,8,0:0:0:0:
366,186,45640,1,8,0:0:0:0:
366,186,45715,1,8,0:0:0:0:
366,186,45790,1,8,0:0:0:0:
366,186,45865,1,8,0:0:0:0:
366,186,45940,1,8,0:0:0:0:
366,186,46015,1,8,0:0:0:0:
366,186,46165,1,4,0:0:0:0:
263,269,46465,1,8,0:0:0:0:
263,269,46615,1,0,0:0:0:0:
249,218,46690,1,0,0:0:0:0:
204,189,46765,1,0,0:0:0:0:
211,144,46915,1,0,0:0:0:0:
211,144,47065,1,8,0:0:0:0:
217,131,47215,1,0,0:0:0:0:
296,192,47515,1,0,0:0:0:0:
280,240,47665,1,8,0:0:0:0:
267,99,47815,1,0,0:0:0:0:
267,99,47890,1,0,0:0:0:0:
267,99,47965,1,8,0:0:0:0:
267,99,48040,1,8,0:0:0:0:
267,99,48115,1,0,0:0:0:0:
377,186,48265,1,8,0:0:0:0:
250,259,48415,1,8,0:0:0:0:
229,225,48565,1,0,0:0:0:0:
215,192,48640,1,0,0:0:0:0:
198,160,48715,1,8,0:0:0:0:
178,147,48865,1,0,0:0:0:0:
178,147,49015,1,8,0:0:0:0:
178,147,49090,1,8,0:0:0:0:
140,93,49165,1,0,0:0:0:0:
140,93,49315,1,0,0:0:0:0:
307,152,49465,1,8,0:0:0:0:
302,186,49615,1,4,0:0:0:0:
272,178,49915,1,0,0:0:0:0:
272,178,50065,1,8,0:0:0:0:
389,276,50215,1,8,0:0:0:0:
194,133,50290,1,8,0:0:0:0:
194,133,50365,1,0,0:0:0:0:
194,133,50515,1,8,0:0:0:0:
194,133,50665,1,0,0:0:0:0:
194,133,50740,1,0,0:0:0:0:
194,133,50815,1,0,0:0:0:0:
366,186,50965,1,12,0:0:0:0:
263,269,51265,1,0,0:0:0:0:
263,269,51415,1,8,0:0:0:0:
249,218,51490,1,8,0:0:0:0:
204,189,51565,1,8,0:0:0:0:
211,144,51715,1,8,0:0:0:0:
211,144,51865,1,0,0:0:0:0:
217,131,52015,1,8,0:0:0:0:
296,192,52315,1,8,0:0:0:0:
280,240,52465,1,0,0:0:0:0:
267,99,52615,1,8,0:0:0:0:
267,99,52690,1,8,0:0:0:0:
267,99,52765,1,0,0:0:0:0:
267,99,52840,1,0,0:0:0:0:
267,99,52915,1,8,0:0:0:0:
377,186,53065,1,0,0:0:0:0:
250,259,53215,1,0,0:0:0:0:
229,225,53365,1,8,0:0:0:0:
215,192,53440,1,8,0:0:0:0:
198,160,53515,1,0,0:0:0:0:
178,147,53665,1,8,0:0:0:0:
178,147,53815,1,0,0:0:0:0:
178,147,53890,1,0,0:0:0:0:
140,93,53965,1,8,0:0:0:0:
140,93,54115,1,8,0:0:0:0:
307,152,54265,1,0,0:0:0:0:
302,186,54415,1,12,0:0:0:0:
272,178,54715,1,8,0:0:0:0:
272,178,54865,1,0,0:0:0:0:
389,276,55015,1,0,0:0:0:0:
194,133,55090,1,0,0:0:0:0:
194,133,55165,1,8,0:0:0:0:
194,133,55315,1,0,0:0:0:0:
194,133,55465,1,8,0:0:0:0:
194,133,55540,1,8,0:0:0:0:
194,133,55615,1,8,0:0:0:0:
354,136,55765,1,4,0:0:0:0:
270,169,56065,1,4,0:0:0:0:
270,169,56365,1,12,0:0:0:0:
366,209,56665,1,4,0:0:0:0:
201,107,56965,1,12,0:0:0:0:
192,100,57265,1,4,0:0:0:0:
192,100,57565,1,12,0:0:0:0:
192,100,57865,1,12,0:0:0:0:
278,218,58015,1,0,0:0:0:0:
255,248,58165,1,8,0:0:0:0:
253,238,58240,1,8,0:0:0:0:
204,204,58315,1,0,0:0:0:0:
200,195,58465,1,8,0:0:0:0:
318,122,58615,1,0,0:0:0:0:
318,122,58690,1,0,0:0:0:0:
318,122,58765,1,8,0:0:0:0:
312,122,58915,1,0,0:0:0:0:
312,122,59065,1,8,0:0:0:0:
280,139,59215,1,4,0:0:0:0:
307,145,59515,1,0,0:0:0:0:
307,145,59665,1,8,0:0:0:0:
307,145,59815,1,0,0:0:0:0:
307,145,59890,1,0,0:0:0:0:
307,145,59965,1,8,0:0:0:0:
307,145,60115,1,0,0:0:0:0:
307,145,60265,1,8,0:0:0:0:
405,242,60565,1,4,0:0:0:0:
405,242,60865,1,4,0:0:0:0:
405,242,61165,1,12,0:0:0:0:
405,242,61465,1,4,0:0:0:0:
405,242,61765,1,12,0:0:0:0:
286,195,62065,1,4,0:0:0:0:
286,195,62365,1,12,0:0:0:0:
286,195,62665,1,12,0:0:0:0:
178,151,62815,1,4,0:0:0:0:
307,270,63115,1,0,0:0:0:0:
347,131,63265,1,8,0:0:0:0:
347,131,63415,1,0,0:0:0:0:
249,75,63490,1,0,0:0:0:0:
249,75,63565,1,8,0:0:0:0:
249,75,63715,1,0,0:0:0:0:
249,75,63865,1,8,0:0:0:0:
242,185,64015,1,8,0:0:0:0:
238,237,64165,1,4,0:0:0:0:
272,196,65065,1,8,0:0:0:0:
324,135,65365,1,4,0:0:0:0:
259,190,65665,1,8,0:0:0:0:
304,115,65815,1,0,0:0:0:0:
304,115,65890,1,0,0:0:0:0:
304,115,65965,1,0,0:0:0:0:
304,115,66115,1,8,0:0:0:0:
304,115,66265,1,0,0:0:0:0:
304,115,66415,1,8,0:0:0:0:
304,115,66490,1,8,0:0:0:0:
304,115,66565,1,0,0:0:0:0:
304,235,66715,1,0,0:0:0:0:
268,177,66865,1,8,0:0:0:0:
232,139,67015,1,0,0:0:0:0:
264,187,67165,1,8,0:0:0:0:
248,210,67240,1,8,0:0:0:0:
227,227,67315,1,8,0:0:0:0:
230,252,67465,1,0,0:0:0:0:
230,252,67615,1,0,0:0:0:0:
230,252,67765,1,8,0:0:0:0:
327,246,68065,1,0,0:0:0:0:
325,221,68215,1,8,0:0:0:0:
230,138,68290,1,8,0:0:0:0:
325,221,68365,1,8,0:0:0:0:
269,117,68515,1,0,0:0:0:0:
269,117,68665,1,8,0:0:0:0:
269,117,68815,1,0,0:0:0:0:
269,117,68890,1,0,0:0:0:0:
269,117,68965,1,8,0:0:0:0:
231,97,69115,1,8,0:0:0:0:
231,97,69265,1,0,0:0:0:0:
183,139,69415,1,8,0:0:0:0:
183,139,69565,1,0,0:0:0:0:
183,139,69640,1,0,0:0:0:0:
183,139,69715,1,0,0:0:0:0:
183,139,69865,1,8,0:0:0:0:
291,176,69940,1,8,0:0:0:0:
183,139,70015,1,8,0:0:0:0:
262,218,70090,1,8,0:0:0:0:
223,233,70165,1,0,0:0:0:0:
259,190,70465,1,8,0:0:0:0:
304,115,70615,1,0,0:0:0:0:
304,115,70690,1,0,0:0:0:0:
304,115,70765,1,0,0:0:0:0:
304,115,70915,1,8,0:0:0:0:
304,115,71065,1,0,0:0:0:0:
304,115,71215,1,8,0:0:0:0:
304,115,71290,1,8,0:0:0:0:
304,115,71365,1,0,0:0:0:0:
304,235,71515,1,0,0:0:0:0:
268,177,71665,1,8,0:0:0:0:
232,139,71815,1,0,0:0:0:0:
264,187,71965,1,8,0:0:0:0:
248,210,72040,1,8,0:0:0:0:
227,227,72115,1,8,0:0:0:0:
230,252,72265,1,0,0:0:0:0:
230,252,72415,1,0,0:0:0:0:
230,252,72565,1,12,0:0:0:0:
377,173,73015,1,0,0:0:0:0:
377,173,73090,1,0,0:0:0:0:
377,173,73165,1,0,0:0:0:0:
363,271,73615,1,0,0:0:0:0:
440,181,73765,1,8,0:0:0:0:
440,181,73865,1,8,0:0:0:0:
440,181,73965,1,8,0:0:0:0:
440,181,74065,1,8,0:0:0:0:
440,181,74165,1,8,0:0:0:0:
440,181,74265,1,8,0:0:0:0:
440,181,74365,1,8,0:0:0:0:
262,222,74665,1,0,0:0:0:0:
296,179,74965,1,4,0:0:0:0:
229,113,75565,1,8,0:0:0:0:
381,169,76015,1,0,0:0:0:0:
266,264,76315,1,8,0:0:0:0:
266,264,76765,1,0,0:0:0:0:
266,264,77365,1,8,0:0:0:0:
266,264,77965,1,0,0:0:0:0:
266,264,78415,1,8,0:0:0:0:
266,264,78715,1,0,0:0:0:0:
266,264,79165,1,8,0:0:0:0:
390,163,79765,1,0,0:0:0:0:
281,135,80365,1,8,0:0:0:0:
281,135,80815,1,0,0:0:0:0:
281,135,81115,1,8,0:0:0:0:
281,135,81565,1,0,0:0:0:0:
343,242,82165,1,8,0:0:0:0:
343,242,82765,1,0,0:0:0:0:
278,157,83215,1,12,0:0:0:0:
278,157,83515,1,0,0:0:0:0:
211,149,83665,1,8,0:0:0:0:
196,223,83815,1,0,0:0:0:0:
220,244,83890,1,0,0:0:0:0:
358,202,83965,1,8,0:0:0:0:
336,282,84115,1,8,0:0:0:0:
284,170,84190,1,8,0:0:0:0:
287,70,84265,1,8,0:0:0:0:
273,136,84415,1,8,0:0:0:0:
316,286,84565,1,4,0:0:0:0:
340,88,84865,1,8,0:0:0:0:
334,89,85015,1,0,0:0:0:0:
309,110,85090,1,0,0:0:0:0:
307,114,85165,1,8,0:0:0:0:
306,114,85315,1,8,0:0:0:0:
201,110,85465,1,0,0:0:0:0:
357,212,85615,1,8,0:0:0:0:
202,212,85690,1,8,0:0:0:0:
190,218,85765,1,0,0:0:0:0:
235,200,85915,1,0,0:0:0:0:
232,181,86065,1,8,0:0:0:0:
232,181,86215,1,0,0:0:0:0:
201,218,86290,1,0,0:0:0:0:
193,208,86365,1,8,0:0:0:0:
167,186,86440,1,8,0:0:0:0:
167,186,86515,1,0,0:0:0:0:
167,186,86665,1,8,0:0:0:0:
214,235,86815,1,0,0:0:0:0:
167,186,86965,1,8,0:0:0:0:
236,118,87265,1,0,0:0:0:0:
208,132,87415,1,8,0:0:0:0:
208,132,87490,1,8,0:0:0:0:
208,132,87565,1,0,0:0:0:0:
208,132,87715,1,0,0:0:0:0:
208,132,87865,1,8,0:0:0:0:
229,143,88015,1,0,0:0:0:0:
229,143,88090,1,0,0:0:0:0:
228,143,88165,1,8,0:0:0:0:
220,136,88315,1,8,0:0:0:0:
220,134,88465,1,0,0:0:0:0:
220,134,88615,1,8,0:0:0:0:
220,134,88690,1,8,0:0:0:0:
220,134,88765,1,0,0:0:0:0:
220,134,88840,1,0,0:0:0:0:
220,134,88915,1,8,0:0:0:0:
277,208,89065,1,0,0:0:0:0:
297,162,89215,1,8,0:0:0:0:
282,166,89365,1,4,0:0:0:0:
340,88,89665,1,8,0:0:0:0:
334,89,89815,1,0,0:0:0:0:
309,110,89890,1,0,0:0:0:0:
307,114,89965,1,8,0:0:0:0:
306,114,90115,1,8,0:0:0:0:
201,110,90265,1,0,0:0:0:0:
357,212,90415,1,8,0:0:0:0:
202,212,90490,1,8,0:0:0:0:
190,218,90565,1,0,0:0:0:0:
235,200,90715,1,0,0:0:0:0:
232,181,90865,1,8,0:0:0:0:
232,181,91015,1,0,0:0:0:0:
201,218,91090,1,0,0:0:0:0:
193,208,91165,1,8,0:0:0:0:
167,186,91240,1,8,0:0:0:0:
167,186,91315,1,0,0:0:0:0:
167,186,91465,1,8,0:0:0:0:
214,235,91615,1,0,0:0:0:0:
167,186,91765,1,8,0:0:0:0:
233,74,92065,1,0,0:0:0:0:
233,74,92215,1,8,0:0:0:0:
233,74,92290,1,8,0:0:0:0:
248,138,92365,1,0,0:0:0:0:
248,138,92515,1,0,0:0:0:0:
248,138,92665,1,8,0:0:0:0:
248,138,92815,1,0,0:0:0:0:
248,138,92890,1,0,0:0:0:0:
248,138,92965,1,8,0:0:0:0:
239,250,93040,1,8,0:0:0:0:
181,202,93115,1,0,0:0:0:0:
181,202,93265,1,8,0:0:0:0:
308,134,93415,1,0,0:0:0:0:
201,193,93490,1,0,0:0:0:0:
298,135,93565,1,8,0:0:0:0:
300,155,93715,1,0,0:0:0:0:
299,162,93865,1,8,0:0:0:0:
299,162,94015,1,8,0:0:0:0:
297,161,94165,1,4,0:0:0:0:
292,158,94465,1,8,0:0:0:0:
317,179,94690,1,0,0:0:0:0:
317,180,94765,1,0,0:0:0:0:
317,180,94915,1,0,0:0:0:0:
317,180,95065,1,8,0:0:0:0:
147,114,95215,1,4,0:0:0:0:
147,114,95515,1,4,0:0:0:0:
228,214,95665,1,8,0:0:0:0:
273,101,95815,1,8,0:0:0:0:
273,101,95890,1,8,0:0:0:0:
273,101,95965,1,0,0:0:0:0:
273,101,96115,1,8,0:0:0:0:
273,101,96265,1,0,0:0:0:0:
315,144,96565,1,12,0:0:0:0:
315,144,96715,1,12,0:0:0:0:
275,126,96865,1,0,0:0:0:0:
252,231,97090,1,8,0:0:0:0:
192,188,97165,1,8,0:0:0:0:
212,162,97315,1,8,0:0:0:0:
260,251,97465,1,0,0:0:0:0:
254,242,97615,1,12,0:0:0:0:
254,242,97915,1,12,0:0:0:0:
220,93,98065,1,0,0:0:0:0:
306,122,98215,1,0,0:0:0:0:
306,122,98290,1,0,0:0:0:0:
306,122,98365,1,8,0:0:0:0:
306,122,98515,1,0,0:0:0:0:
306,122,98665,1,8,0:0:0:0:
325,208,98965,1,4,0:0:0:0:
267,215,99265,1,8,0:0:0:0:
239,198,99415,1,0,0:0:0:0:
200,209,99490,1,0,0:0:0:0:
173,196,99565,1,8,0:0:0:0:
185,207,99715,1,0,0:0:0:0:
170,89,99865,1,8,0:0:0:0:
170,89,100015,1,0,0:0:0:0:
170,89,100165,1,8,0:0:0:0:
289,100,100465,1,0,0:0:0:0:
289,100,100615,1,8,0:0:0:0:
289,100,100690,1,8,0:0:0:0:
289,100,100765,1,0,0:0:0:0:
289,100,100915,1,8,0:0:0:0:
289,100,101065,1,0,0:0:0:0:
289,100,101215,1,8,0:0:0:0:
289,100,101365,1,4,0:0:0:0:
336,183,101665,1,8,0:0:0:0:
315,229,101815,1,4,0:0:0:0:
295,219,102115,1,0,0:0:0:0:
246,210,102265,1,12,0:0:0:0:
314,136,102565,1,8,0:0:0:0:
278,100,102640,1,8,0:0:0:0:
278,100,102715,1,0,0:0:0:0:
278,100,102790,1,0,0:0:0:0:
278,100,102865,1,8,0:0:0:0:
278,100,102940,1,8,0:0:0:0:
278,100,103015,1,0,0:0:0:0:
400,183,103165,1,8,0:0:0:0:
252,133,103315,1,0,0:0:0:0:
252,133,103465,1,8,0:0:0:0:
252,133,103615,1,0,0:0:0:0:
366,186,103765,1,12,0:0:0:0:
263,269,104065,1,0,0:0:0:0:
263,269,104215,1,8,0:0:0:0:
249,218,104290,1,8,0:0:0:0:
204,189,104365,1,8,0:0:0:0:
211,144,104515,1,8,0:0:0:0:
211,144,104665,1,0,0:0:0:0:
217,131,104815,1,8,0:0:0:0:
296,192,105115,1,8,0:0:0:0:
280,240,105265,1,0,0:0:0:0:
267,99,105415,1,8,0:0:0:0:
267,99,105490,1,8,0:0:0:0:
267,99,105565,1,0,0:0:0:0:
267,99,105640,1,0,0:0:0:0:
267,99,105715,1,8,0:0:0:0:
377,186,105865,1,0,0:0:0:0:
250,259,106015,1,0,0:0:0:0:
229,225,106165,1,8,0:0:0:0:
215,192,106240,1,8,0:0:0:0:
198,160,106315,1,0,0:0:0:0:
178,147,106465,1,8,0:0:0:0:
178,147,106615,1,0,0:0:0:0:
178,147,106690,1,0,0:0:0:0:
140,93,106765,1,8,0:0:0:0:
140,93,106915,1,8,0:0:0:0:
307,152,107065,1,0,0:0:0:0:
302,186,107215,1,12,0:0:0:0:
272,178,107515,1,8,0:0:0:0:
272,178,107665,1,0,0:0:0:0:
389,276,107815,1,0,0:0:0:0:
194,133,107890,1,0,0:0:0:0:
194,133,107965,1,8,0:0:0:0:
194,133,108115,1,0,0:0:0:0:
194,133,108265,1,8,0:0:0:0:
194,133,108340,1,8,0:0:0:0:
194,133,108415,1,8,0:0:0:0:
366,186,108565,1,4,0:0:0:0:
263,269,108865,1,8,0:0:0:0:
263,269,109015,1,0,0:0:0:0:
249,218,109090,1,0,0:0:0:0:
204,189,109165,1,0,0:0:0:0:
211,144,109315,1,0,0:0:0:0:
211,144,109465,1,8,0:0:0:0:
217,131,109615,1,0,0:0:0:0:
296,192,109915,1,0,0:0:0:0:
280,240,110065,1,8,0:0:0:0:
267,99,110215,1,0,0:0:0:0:
267,99,110290,1,0,0:0:0:0:
267,99,110365,1,8,0:0:0:0:
267,99,110440,1,8,0:0:0:0:
267,99,110515,1,0,0:0:0:0:
377,186,110665,1,8,0:0:0:0:
250,259,110815,1,8,0:0:0:0:
229,225,110965,1,0,0:0:0:0:
215,192,111040,1,0,0:0:0:0:
198,160,111115,1,8,0:0:0:0:
178,147,111265,1,0,0:0:0:0:
178,147,111415,1,8,0:0:0:0:
178,147,111490,1,8,0:0:0:0:
140,93,111565,1,0,0:0:0:0:
140,93,111715,1,0,0:0:0:0:
307,152,111865,1,8,0:0:0:0:
302,186,112015,1,4,0:0:0:0:
272,178,112315,1,0,0:0:0:0:
272,178,112465,1,8,0:0:0:0:
389,276,112615,1,8,0:0:0:0:
194,133,112690,1,8,0:0:0:0:
194,133,112765,1,0,0:0:0:0:
194,133,112915,1,0,0:0:0:0:
194,133,113065,1,8,0:0:0:0:
194,133,113140,1,8,0:0:0:0:
194,133,113215,1,8,0:0:0:0:
354,136,113365,1,4,0:0:0:0:
270,169,113665,1,4,0:0:0:0:
270,169,113965,1,12,0:0:0:0:
366,209,114265,1,4,0:0:0:0:
201,107,114565,1,12,0:0:0:0:
192,100,114865,1,4,0:0:0:0:
192,100,115165,1,12,0:0:0:0:
192,100,115465,1,12,0:0:0:0:
278,218,115615,1,0,0:0:0:0:
255,248,115765,1,8,0:0:0:0:
253,238,115840,1,8,0:0:0:0:
204,204,115915,1,0,0:0:0:0:
200,195,116065,1,8,0:0:0:0:
318,122,116215,1,0,0:0:0:0:
318,122,116290,1,0,0:0:0:0:
318,122,116365,1,8,0:0:0:0:
312,122,116515,1,0,0:0:0:0:
312,122,116665,1,8,0:0:0:0:
280,139,116815,1,4,0:0:0:0:
307,145,117115,1,0,0:0:0:0:
307,145,117265,1,8,0:0:0:0:
307,145,117415,1,0,0:0:0:0:
307,145,117490,1,0,0:0:0:0:
307,145,117565,1,8,0:0:0:0:
307,145,117715,1,0,0:0:0:0:
307,145,117865,1,8,0:0:0:0:
405,242,118165,1,4,0:0:0:0:
405,242,118465,1,4,0:0:0:0:
405,242,118765,1,12,0:0:0:0:
405,242,119065,1,4,0:0:0:0:
405,242,119365,1,12,0:0:0:0:
286,195,119665,1,4,0:0:0:0:
286,195,119965,1,12,0:0:0:0:
286,195,120265,1,12,0:0:0:0:
178,151,120415,1,4,0:0:0:0:
307,270,120715,1,0,0:0:0:0:
347,131,120865,1,8,0:0:0:0:
347,131,121015,1,0,0:0:0:0:
249,75,121090,1,0,0:0:0:0:
249,75,121165,1,8,0:0:0:0:
249,75,121315,1,0,0:0:0:0:
249,75,121465,1,8,0:0:0:0:
242,185,121615,1,8,0:0:0:0:
238,237,121765,1,4,0:0:0:0:
323,196,122665,1,8,0:0:0:0:
359,188,122965,1,4,0:0:0:0:
377,261,123265,1,8,0:0:0:0:
377,261,123865,1,8,0:0:0:0:
377,261,124465,1,8,0:0:0:0:
377,261,124765,1,8,0:0:0:0:
377,261,125065,1,8,0:0:0:0:
307,123,125365,1,0,0:0:0:0:
307,123,125665,1,8,0:0:0:0:
307,123,126265,1,8,0:0:0:0:
301,129,126865,1,8,0:0:0:0:
301,129,127165,1,8,0:0:0:0:
301,129,127465,1,8,0:0:0:0:
301,129,127765,1,0,0:0:0:0:
301,129,128065,1,8,0:0:0:0:
301,129,128365,1,8,0:0:0:0:
301,129,128665,1,8,0:0:0:0:
330,213,128965,1,0,0:0:0:0:
283,194,129265,1,8,0:0:0:0:
283,194,129565,1,8,0:0:0:0:
283,194,129865,1,8,0:0:0:0:
283,194,130165,1,0,0:0:0:0:
310,109,130240,1,0,0:0:0:0:
310,109,130315,1,0,0:0:0:0:
310,109,130390,1,0,0:0:0:0:
310,109,130465,1,0,0:0:0:0:
310,109,130540,1,0,0:0:0:0:
310,109,130615,1,0,0:0:0:0:
310,109,130765,1,8,0:0:0:0:
310,109,130840,1,8,0:0:0:0:
310,109,130915,1,8,0:0:0:0:
310,109,130990,1,8,0:0:0:0:
310,109,131065,1,8,0:0:0:0:
310,109,131140,1,8,0:0:0:0:
310,109,131215,1,8,0:0:0:0:
284,165,131365,1,0,0:0:0:0:
338,229,131965,1,8,0:0:0:0:
338,229,132115,1,8,0:0:0:0:
338,229,132265,1,8,0:0:0:0:
338,229,132415,1,8,0:0:0:0:
311,183,132565,1,4,0:0:0:0:
286,179,132865,1,8,0:0:0:0:
287,176,133165,1,0,0:0:0:0:
286,178,133315,1,0,0:0:0:0:
238,187,133615,1,8,0:0:0:0:
238,187,133915,1,8,0:0:0:0:
266,245,134065,1,0,0:0:0:0:
198,141,134140,1,0,0:0:0:0:
266,245,134215,1,0,0:0:0:0:
412,237,134365,1,8,0:0:0:0:
412,237,134515,1,8,0:0:0:0:
262,66,134815,1,8,0:0:0:0:
262,66,134965,1,4,0:0:0:0:
319,178,135265,1,8,0:0:0:0:
319,178,135565,1,0,0:0:0:0:
319,178,135715,1,8,0:0:0:0:
319,178,136015,1,8,0:0:0:0:
319,178,136165,1,0,0:0:0:0:
279,129,136465,1,0,0:0:0:0:
279,129,136615,1,0,0:0:0:0:
219,149,136765,1,12,0:0:0:0:
176,208,137365,1,4,0:0:0:0:
255,129,137665,1,8,0:0:0:0:
255,129,137965,1,0,0:0:0:0:
347,229,138115,1,0,0:0:0:0:
347,229,138415,1,8,0:0:0:0:
347,229,138715,1,8,0:0:0:0:
334,203,138865,1,0,0:0:0:0:
346,159,139015,1,8,0:0:0:0:
346,159,139090,1,8,0:0:0:0:
276,103,139165,1,8,0:0:0:0:
276,103,139315,1,8,0:0:0:0:
276,103,139615,1,8,0:0:0:0:
237,174,139765,1,4,0:0:0:0:
378,219,140065,1,8,0:0:0:0:
378,219,140365,1,0,0:0:0:0:
334,248,140515,1,8,0:0:0:0:
334,248,140815,1,8,0:0:0:0:
251,202,141115,1,8,0:0:0:0:
235,207,141265,1,0,0:0:0:0:
212,178,141340,1,0,0:0:0:0:
207,164,141415,1,0,0:0:0:0:
326,140,141565,1,8,0:0:0:0:
326,140,141640,1,8,0:0:0:0:
326,140,141715,1,8,0:0:0:0:
326,140,141865,1,4,0:0:0:0:
326,140,142015,1,12,0:0:0:0:
297,161,143365,1,4,0:0:0:0:
292,158,143665,1,8,0:0:0:0:
317,179,143890,1,0,0:0:0:0:
317,180,143965,1,0,0:0:0:0:
317,180,144115,1,0,0:0:0:0:
317,180,144265,1,8,0:0:0:0:
147,114,144415,1,4,0:0:0:0:
147,114,144715,1,4,0:0:0:0:
228,214,144865,1,8,0:0:0:0:
273,101,145015,1,8,0:0:0:0:
273,101,145090,1,8,0:0:0:0:
273,101,145165,1,0,0:0:0:0:
273,101,145315,1,8,0:0:0:0:
273,101,145465,1,0,0:0:0:0:
315,144,145765,1,12,0:0:0:0:
315,144,145915,1,12,0:0:0:0:
275,126,146065,1,0,0:0:0:0:
252,231,146290,1,8,0:0:0:0:
192,188,146365,1,8,0:0:0:0:
212,162,146515,1,8,0:0:0:0:
260,251,146665,1,0,0:0:0:0:
254,242,146815,1,12,0:0:0:0:
254,242,147115,1,12,0:0:0:0:
220,93,147265,1,0,0:0:0:0:
306,122,147415,1,0,0:0:0:0:
306,122,147490,1,0,0:0:0:0:
306,122,147565,1,8,0:0:0:0:
306,122,147715,1,0,0:0:0:0:
306,122,147865,1,8,0:0:0:0:
325,208,148165,1,4,0:0:0:0:
267,215,148465,1,8,0:0:0:0:
239,198,148615,1,0,0:0:0:0:
200,209,148690,1,0,0:0:0:0:
173,196,148765,1,8,0:0:0:0:
185,207,148915,1,0,0:0:0:0:
170,89,149065,1,8,0:0:0:0:
170,89,149215,1,0,0:0:0:0:
170,89,149365,1,8,0:0:0:0:
289,100,149665,1,0,0:0:0:0:
289,100,149815,1,8,0:0:0:0:
289,100,149890,1,8,0:0:0:0:
289,100,149965,1,0,0:0:0:0:
289,100,150115,1,8,0:0:0:0:
289,100,150265,1,0,0:0:0:0:
289,100,150415,1,8,0:0:0:0:
289,100,150565,1,4,0:0:0:0:
336,183,150865,1,8,0:0:0:0:
315,229,151015,1,4,0:0:0:0:
295,219,151315,1,0,0:0:0:0:
246,210,151465,1,12,0:0:0:0:
278,139,151765,1,0,0:0:0:0:
163,152,152065,1,8,0:0:0:0:
163,152,152365,1,8,0:0:0:0:
163,152,152665,1,8,0:0:0:0:
216,150,152965,1,4,0:0:0:0:
257,142,153265,1,8,0:0:0:0:
257,120,153415,1,4,0:0:0:0:
226,101,153715,1,0,0:0:0:0:
250,116,153865,1,12,0:0:0:0:
287,180,155365,1,8,0:0:0:0:
229,118,155665,1,8,0:0:0:0:
229,118,155965,1,8,0:0:0:0:
229,118,156265,1,8,0:0:0:0:
229,118,156415,1,0,0:0:0:0:
229,118,156715,1,0,0:0:0:0:
229,118,156865,1,8,0:0:0:0:
229,118,157165,1,0,0:0:0:0:
229,118,157465,1,0,0:0:0:0:
262,156,157915,1,8,0:0:0:0:
262,156,158215,1,0,0:0:0:0:
343,242,158365,1,8,0:0:0:0:
262,156,158665,1,8,0:0:0:0:
310,268,158815,1,0,0:0:0:0:
178,208,159115,1,8,0:0:0:0:
302,82,159265,1,0,0:0:0:0:
302,82,159415,1,0,0:0:0:0:
302,82,159565,1,8,0:0:0:0:
313,219,160165,1,0,0:0:0:0:
313,219,160465,1,0,0:0:0:0:
313,219,160765,1,0,0:0:0:0:
316,226,161065,1,0,0:0:0:0:
316,226,161215,1,8,0:0:0:0:
316,226,161515,1,8,0:0:0:0:
315,226,161665,1,0,0:0:0:0:
265,179,161965,1,8,0:0:0:0:
265,179,162265,1,8,0:0:0:0:
276,139,162715,1,0,0:0:0:0:
261,173,163015,1,8,0:0:0:0:
261,173,163165,1,0,0:0:0:0:
261,173,163465,1,0,0:0:0:0:
261,173,163615,1,8,0:0:0:0:
264,227,163915,1,0,0:0:0:0:
181,214,164065,1,8,0:0:0:0:
181,214,164215,1,8,0:0:0:0:
181,214,164365,1,0,0:0:0:0:
234,179,164665,1,8,0:0:0:0:
293,171,164965,1,4,0:0:0:0:
292,242,165265,1,0,0:0:0:0:
292,242,165565,1,8,0:0:0:0:
233,179,165865,1,0,0:0:0:0:
233,179,166165,1,8,0:0:0:0:
233,179,166465,1,0,0:0:0:0:
233,179,166765,1,8,0:0:0:0:
233,179,167065,1,8,0:0:0:0:
214,128,167215,1,0,0:0:0:0:
177,95,167365,1,8,0:0:0:0:
252,180,167665,1,8,0:0:0:0:
252,180,167965,1,8,0:0:0:0:
252,180,168265,1,8,0:0:0:0:
252,180,168415,1,0,0:0:0:0:
248,196,168715,1,0,0:0:0:0:
248,196,168865,1,8,0:0:0:0:
248,196,169015,1,0,0:0:0:0:
248,196,169165,1,8,0:0:0:0:
238,202,169465,1,8,0:0:0:0:
238,202,169765,1,0,0:0:0:0:
238,202,170065,1,0,0:0:0:0:
238,202,170365,1,8,0:0:0:0:
238,202,170665,1,0,0:0:0:0:
238,202,170965,1,8,0:0:0:0:
238,202,171265,1,0,0:0:0:0:
238,202,171565,1,8,0:0:0:0:
238,202,171865,1,8,0:0:0:0:
238,202,172015,1,0,0:0:0:0:
238,202,172315,1,0,0:0:0:0:
238,202,172465,1,8,0:0:0:0:
324,170,172615,1,0,0:0:0:0:
324,170,172765,1,8,0:0:0:0:
324,170,173065,1,8,0:0:0:0:
323,164,173215,1,8,0:0:0:0:
358,154,173365,1,0,0:0:0:0:
358,154,173440,1,0,0:0:0:0:
358,154,173515,1,0,0:0:0:0:
358,154,173590,1,0,0:0:0:0:
358,154,173665,1,8,0:0:0:0:
358,154,173740,1,8,0:0:0:0:
358,154,173815,1,8,0:0:0:0:
358,154,173890,1,8,0:0:0:0:
358,154,173965,1,0,0:0:0:0:
349,205,174265,1,8,0:0:0:0:
366,186,174565,1,4,0:0:0:0:
263,269,174865,1,8,0:0:0:0:
263,269,175015,1,0,0:0:0:0:
249,218,175090,1,0,0:0:0:0:
204,189,175165,1,0,0:0:0:0:
212,211,175315,1,0,0:0:0:0:
162,205,175390,1,0,0:0:0:0:
211,144,175465,1,8,0:0:0:0:
217,131,175615,1,0,0:0:0:0:
296,192,175915,1,0,0:0:0:0:
280,240,176065,1,8,0:0:0:0:
267,99,176215,1,0,0:0:0:0:
267,99,176290,1,0,0:0:0:0:
267,99,176365,1,8,0:0:0:0:
267,99,176440,1,8,0:0:0:0:
267,99,176515,1,0,0:0:0:0:
377,186,176665,1,8,0:0:0:0:
250,259,176815,1,8,0:0:0:0:
229,225,176965,1,0,0:0:0:0:
215,192,177040,1,0,0:0:0:0:
198,160,177115,1,8,0:0:0:0:
178,147,177265,1,0,0:0:0:0:
178,147,177415,1,8,0:0:0:0:
178,147,177490,1,8,0:0:0:0:
140,93,177565,1,0,0:0:0:0:
256,232,177640,1,0,0:0:0:0:
140,93,177715,1,0,0:0:0:0:
307,152,177865,1,8,0:0:0:0:
302,186,178015,1,4,0:0:0:0:
272,178,178315,1,0,0:0:0:0:
272,178,178465,1,8,0:0:0:0:
167,213,178540,1,8,0:0:0:0:
389,276,178615,1,8,0:0:0:0:
194,133,178690,1,8,0:0:0:0:
194,133,178765,1,0,0:0:0:0:
194,133,178915,1,8,0:0:0:0:
194,133,179065,1,0,0:0:0:0:
194,133,179140,1,0,0:0:0:0:
194,133,179215,1,0,0:0:0:0:
366,186,179365,1,12,0:0:0:0:
263,269,179665,1,0,0:0:0:0:
263,269,179815,1,8,0:0:0:0:
249,218,179890,1,8,0:0:0:0:
204,189,179965,1,8,0:0:0:0:
211,144,180115,1,8,0:0:0:0:
296,242,180190,1,8,0:0:0:0:
211,144,180265,1,0,0:0:0:0:
217,131,180415,1,8,0:0:0:0:
296,192,180715,1,8,0:0:0:0:
280,240,180865,1,0,0:0:0:0:
267,99,181015,1,8,0:0:0:0:
267,99,181090,1,8,0:0:0:0:
267,99,181165,1,0,0:0:0:0:
267,99,181240,1,0,0:0:0:0:
267,99,181315,1,8,0:0:0:0:
377,186,181465,1,0,0:0:0:0:
250,259,181615,1,0,0:0:0:0:
229,225,181765,1,8,0:0:0:0:
215,192,181840,1,8,0:0:0:0:
198,160,181915,1,0,0:0:0:0:
178,147,182065,1,8,0:0:0:0:
178,147,182215,1,0,0:0:0:0:
178,147,182290,1,0,0:0:0:0:
140,93,182365,1,8,0:0:0:0:
289,236,182440,1,8,0:0:0:0:
140,93,182515,1,8,0:0:0:0:
307,152,182665,1,0,0:0:0:0:
302,186,182815,1,12,0:0:0:0:
272,178,183115,1,8,0:0:0:0:
272,178,183265,1,0,0:0:0:0:
249,246,183340,1,0,0:0:0:0:
389,276,183415,1,0,0:0:0:0:
194,133,183490,1,0,0:0:0:0:
194,133,183565,1,8,0:0:0:0:
194,133,183715,1,0,0:0:0:0:
194,133,183865,1,8,0:0:0:0:
194,133,183940,1,8,0:0:0:0:
194,133,184015,1,8,0:0:0:0:
354,136,184165,1,4,0:0:0:0:
270,169,184465,1,4,0:0:0:0:
270,169,184765,1,12,0:0:0:0:
288,235,184915,1,8,0:0:0:0:
366,209,185065,1,4,0:0:0:0:
201,107,185365,1,12,0:0:0:0:
192,100,185665,1,4,0:0:0:0:
192,100,185965,1,12,0:0:0:0:
247,131,186115,1,0,0:0:0:0:
192,100,186265,1,12,0:0:0:0:
278,218,186415,1,0,0:0:0:0:
255,248,186565,1,8,0:0:0:0:
253,238,186640,1,8,0:0:0:0:
204,204,186715,1,0,0:0:0:0:
200,195,186865,1,8,0:0:0:0:
318,122,187015,1,0,0:0:0:0:
318,122,187090,1,0,0:0:0:0:
317,263,187165,1,8,0:0:0:0:
249,226,187240,1,8,0:0:0:0:
312,122,187315,1,0,0:0:0:0:
312,122,187465,1,8,0:0:0:0:
280,139,187615,1,4,0:0:0:0:
307,145,187915,1,0,0:0:0:0:
307,145,188065,1,8,0:0:0:0:
307,145,188215,1,0,0:0:0:0:
307,145,188290,1,0,0:0:0:0:
307,145,188365,1,8,0:0:0:0:
206,203,188440,1,8,0:0:0:0:
244,212,188515,1,0,0:0:0:0:
307,145,188665,1,8,0:0:0:0:
405,242,188965,1,4,0:0:0:0:
405,242,189265,1,4,0:0:0:0:
405,242,189565,1,12,0:0:0:0:
275,261,189715,1,8,0:0:0:0:
405,242,189865,1,4,0:0:0:0:
405,242,190165,1,12,0:0:0:0:
286,195,190465,1,4,0:0:0:0:
286,195,190765,1,12,0:0:0:0:
275,260,190915,1,0,0:0:0:0:
286,195,191065,1,12,0:0:0:0:
178,151,191215,1,4,0:0:0:0:
307,270,191515,1,0,0:0:0:0:
347,131,191665,1,8,0:0:0:0:
347,131,191815,1,0,0:0:0:0:
249,75,191890,1,0,0:0:0:0:
249,75,191965,1,8,0:0:0:0:
257,295,192040,1,8,0:0:0:0:
249,75,192115,1,0,0:0:0:0:
249,75,192265,1,8,0:0:0:0:
159,219,192415,1,8,0:0:0:0:
159,219,192565,1,0,0:0:0:0:
150,214,192640,1,0,0:0:0:0:
246,150,192715,1,0,0:0:0:0:
246,150,192865,1,8,0:0:0:0:
304,154,193015,1,0,0:0:0:0:
304,154,193090,1,0,0:0:0:0:
304,154,193165,1,8,0:0:0:0:
304,154,193240,1,8,0:0:0:0:
304,154,193315,1,0,0:0:0:0:
304,154,193465,1,8,0:0:0:0:
354,136,193765,1,4,0:0:0:0:
270,169,194065,1,4,0:0:0:0:
270,169,194365,1,12,0:0:0:0:
288,235,194515,1,8,0:0:0:0:
366,209,194665,1,4,0:0:0:0:
201,107,194965,1,12,0:0:0:0:
192,100,195265,1,4,0:0:0:0:
192,100,195565,1,12,0:0:0:0:
247,131,195715,1,0,0:0:0:0:
192,100,195865,1,12,0:0:0:0:
278,218,196015,1,0,0:0:0:0:
255,248,196165,1,8,0:0:0:0:
253,238,196240,1,8,0:0:0:0:
204,204,196315,1,0,0:0:0:0:
200,195,196465,1,8,0:0:0:0:
318,122,196615,1,0,0:0:0:0:
318,122,196690,1,0,0:0:0:0:
317,263,196765,1,8,0:0:0:0:
249,226,196840,1,8,0:0:0:0:
312,122,196915,1,0,0:0:0:0:
312,122,197065,1,8,0:0:0:0:
280,139,197215,1,4,0:0:0:0:
307,145,197515,1,0,0:0:0:0:
307,145,197665,1,8,0:0:0:0:
307,145,197815,1,0,0:0:0:0:
307,145,197890,1,0,0:0:0:0:
307,145,197965,1,8,0:0:0:0:
206,203,198040,1,8,0:0:0:0:
244,212,198115,1,0,0:0:0:0:
307,145,198265,1,8,0:0:0:0:
405,242,198565,1,4,0:0:0:0:
405,242,198865,1,4,0:0:0:0:
405,242,199165,1,12,0:0:0:0:
275,261,199315,1,8,0:0:0:0:
405,242,199465,1,4,0:0:0:0:
405,242,199765,1,12,0:0:0:0:
286,195,200065,1,4,0:0:0:0:
286,195,200365,1,12,0:0:0:0:
275,260,200515,1,0,0:0:0:0:
286,195,200665,1,12,0:0:0:0:
178,151,200815,1,0,0:0:0:0:
404,140,201115,1,0,0:0:0:0:
404,140,201265,1,8,0:0:0:0:
389,142,201415,1,0,0:0:0:0:
389,142,201565,1,8,0:0:0:0:
389,142,201865,1,8,0:0:0:0:
389,142,202015,1,0,0:0:0:0:
389,142,202315,1,0,0:0:0:0:
389,142,202465,1,8,0:0:0:0:
389,142,202615,1,8,0:0:0:0:
389,142,202765,1,0,0:0:0:0:
