osu file format v14

[General]
AudioFilename: audio.mp3
AudioLeadIn: 0
PreviewTime: 45415
Countdown: 0
SampleSet: Normal
StackLeniency: 0.7
Mode: 1
LetterboxInBreaks: 0
WidescreenStoryboard: 1

[Editor]
DistanceSpacing: 0.9
BeatDivisor: 4
GridSize: 4
TimelineZoom: 1.2

[Metadata]
Title:HIBANA feat. Hatsune Miku
TitleUnicode:ヒバナ feat. 初音ミク
Artist:DECO*27
ArtistUnicode:DECO*27
Creator:Chromoxx
Version:Inner Oni
Source:
Tags:japanese electronic 10th anniversary re:start 八三 vocaloid rockwell mes
BeatmapID:2350370
BeatmapSetID:875020

[Difficulty]
HPDrainRate:5
CircleSize:5
OverallDifficulty:6
ApproachRate:5
SliderMultiplier:1.4
SliderTickRate:1

[Events]
//Background and Video events
0,0,"bg.jpg",0,150
//Break Periods
//Storyboard Layer 0 (Background)
//Storyboard Layer 1 (Fail)
//Storyboard Layer 2 (Pass)
//Storyboard Layer 3 (Foreground)
//Storyboard Layer 4 (Overlay)
//Storyboard Sound Samples

[TimingPoints]
565,300,4,1,0,80,1,0
6640,-100,4,1,0,60,0,0
7765,-100,4,1,0,80,0,0
17515,-100,4,1,0,60,0,0
26965,-100,4,1,0,80,0,0
46165,-100,4,1,0,90,0,1
64165,-100,4,1,0,90,0,0
65365,-100,4,1,0,80,0,0
74965,-100,4,1,0,60,0,0
84565,-100,4,1,0,80,0,0
103765,-100,4,1,0,90,0,1
121765,-100,4,1,0,90,0,0
122965,-100,4,1,0,60,0,0
130165,-100,4,1,0,65,0,0
130765,-100,4,1,0,70,0,0
132565,-100,4,1,0,80,0,0
155365,-100,4,1,0,70,0,0
174565,-100,4,1,0,90,0,1
200815,-100,4,1,0,60,0,0

[HitObjects]
401,145,565,5,12,0:0:0:0:
360,225,765,1,12,0:0:0:0:
330,185,965,1,12,0:0:0:0:
330,185,1165,1,12,0:0:0:0:
330,185,1365,1,12,0:0:0:0:
330,185,1565,1,12,0:0:0:0:
330,185,1765,1,12,0:0:0:0:
330,185,1965,1,12,0:0:0:0:
330,185,2165,1,12,0:0:0:0:
330,185,2365,1,12,0:0:0:0:
109,184,2665,1,0,0:0:0:0:
109,184,2965,1,8,0:0:0:0:
187,82,3040,1,8,0:0:0:0:
187,82,3115,1,0,0:0:0:0:
198,98,3190,1,0,0:0:0:0:
199,103,3265,1,0,0:0:0:0:
351,194,3415,1,8,0:0:0:0:
351,194,3490,1,8,0:0:0:0:
351,194,3565,1,0,0:0:0:0:
351,194,3640,1,0,0:0:0:0:
351,194,3715,1,0,0:0:0:0:
330,212,3865,1,8,0:0:0:0:
330,212,4015,1,0,0:0:0:0:
215,73,4165,1,8,0:0:0:0:
215,73,4240,1,8,0:0:0:0:
215,73,4315,1,8,0:0:0:0:
215,73,4390,1,8,0:0:0:0:
215,73,4465,1,0,0:0:0:0:
214,94,4615,1,8,0:0:0:0:
214,94,4690,1,8,0:0:0:0:
217,110,4765,1,8,0:0:0:0:
218,112,4840,1,8,0:0:0:0:
218,112,4915,1,0,0:0:0:0:
265,242,5065,1,8,0:0:0:0:
119,140,5215,1,0,0:0:0:0:
248,81,5365,1,8,0:0:0:0:
301,92,5440,1,8,0:0:0:0:
301,92,5515,1,0,0:0:0:0:
306,96,5590,1,0,0:0:0:0:
304,101,5665,1,8,0:0:0:0:
384,216,5740,1,8,0:0:0:0:
384,216,5815,1,0,0:0:0:0:
384,216,5890,1,0,0:0:0:0:
384,216,5965,1,8,0:0:0:0:
384,216,6040,1,0,0:0:0:0:
384,216,6115,1,8,0:0:0:0:
384,216,6190,1,8,0:0:0:0:
384,216,6265,1,0,0:0:0:0:
384,216,6340,1,0,0:0:0:0:
384,216,6415,1,8,0:0:0:0:
384,216,6490,1,8,0:0:0:0:
384,216,6565,1,0,0:0:0:0:
246,232,6865,1,8,0:0:0:0:
318,215,7015,1,0,0:0:0:0:
246,232,7090,1,0,0:0:0:0:
138,126,7165,1,0,0:0:0:0:
246,232,7315,1,0,0:0:0:0:
313,187,7465,1,8,0:0:0:0:
266,126,7765,1,4,0:0:0:0:
164,225,8065,1,8,0:0:0:0:
265,214,8215,1,0,0:0:0:0:
181,111,8290,1,0,0:0:0:0:
157,61,8365,1,0,0:0:0:0:
296,247,8515,1,8,0:0:0:0:
220,257,8665,1,0,0:0:0:0:
278,141,8815,1,8,0:0:0:0:
278,141,8890,1,8,0:0:0:0:
278,141,8965,1,0,0:0:0:0:
278,141,9115,1,0,0:0:0:0:
251,163,9190,1,0,0:0:0:0:
251,163,9265,1,8,0:0:0:0:
251,163,9415,1,0,0:0:0:0:
251,163,9565,1,8,0:0:0:0:
251,163,9640,1,8,0:0:0:0:
251,163,9715,1,0,0:0:0:0:
251,163,9790,1,0,0:0:0:0:
251,163,9865,1,8,0:0:0:0:
264,255,10015,1,8,0:0:0:0:
270,260,10165,1,0,0:0:0:0:
380,223,10465,1,8,0:0:0:0:
165,103,10615,1,0,0:0:0:0:
170,110,10690,1,0,0:0:0:0:
356,203,10765,1,0,0:0:0:0:
165,103,10915,1,8,0:0:0:0:
162,96,11065,1,0,0:0:0:0:
156,82,11215,1,8,0:0:0:0:
162,96,11290,1,8,0:0:0:0:
154,90,11365,1,0,0:0:0:0:
154,90,11515,1,0,0:0:0:0:
190,193,11590,1,0,0:0:0:0:
164,155,11665,1,8,0:0:0:0:
316,167,11815,1,0,0:0:0:0:
287,247,11965,1,8,0:0:0:0:
234,206,12040,1,8,0:0:0:0:
219,191,12115,1,0,0:0:0:0:
176,151,12190,1,0,0:0:0:0:
212,185,12265,1,8,0:0:0:0:
192,171,12340,1,0,0:0:0:0:
172,147,12415,1,8,0:0:0:0:
132,127,12565,1,4,0:0:0:0:
386,230,12865,1,8,0:0:0:0:
386,230,13015,1,0,0:0:0:0:
245,125,13090,1,0,0:0:0:0:
386,230,13165,1,0,0:0:0:0:
245,125,13315,1,8,0:0:0:0:
244,158,13465,1,0,0:0:0:0:
245,125,13615,1,8,0:0:0:0:
129,100,13690,1,8,0:0:0:0:
129,100,13765,1,0,0:0:0:0:
129,100,13915,1,0,0:0:0:0:
129,100,13990,1,0,0:0:0:0:
129,100,14065,1,8,0:0:0:0:
129,100,14215,1,0,0:0:0:0:
129,100,14365,1,8,0:0:0:0:
129,100,14440,1,8,0:0:0:0:
129,100,14515,1,0,0:0:0:0:
129,100,14590,1,0,0:0:0:0:
129,100,14665,1,8,0:0:0:0:
129,100,14815,1,8,0:0:0:0:
291,234,14965,1,4,0:0:0:0:
280,207,15265,1,8,0:0:0:0:
280,207,15415,1,0,0:0:0:0:
149,105,15490,1,0,0:0:0:0:
183,135,15565,1,0,0:0:0:0:
183,135,15715,1,0,0:0:0:0:
228,230,15865,1,8,0:0:0:0:
238,247,15940,1,8,0:0:0:0:
186,237,16015,1,0,0:0:0:0:
186,237,16165,1,8,0:0:0:0:
341,208,16315,1,0,0:0:0:0:
255,153,16390,1,0,0:0:0:0:
191,116,16465,1,8,0:0:0:0:
191,116,16615,1,8,0:0:0:0:
192,110,16765,1,0,0:0:0:0:
192,110,16915,1,0,0:0:0:0:
192,110,17065,1,8,0:0:0:0:
215,92,17365,1,4,0:0:0:0:
369,202,17815,1,0,0:0:0:0:
330,205,17965,1,8,0:0:0:0:
330,205,18115,1,0,0:0:0:0:
330,205,18265,1,0,0:0:0:0:
330,205,18415,1,8,0:0:0:0:
330,205,18715,1,0,0:0:0:0:
238,236,19015,1,8,0:0:0:0:
238,236,19315,1,0,0:0:0:0:
238,236,19465,1,8,0:0:0:0:
238,236,19615,1,8,0:0:0:0:
164,133,19765,1,0,0:0:0:0:
372,225,20215,1,0,0:0:0:0:
191,204,20365,1,8,0:0:0:0:
273,133,20515,1,8,0:0:0:0:
191,204,20665,1,0,0:0:0:0:
125,152,20815,1,8,0:0:0:0:
267,137,21115,1,0,0:0:0:0:
267,136,21415,1,8,0:0:0:0:
373,190,21565,1,0,0:0:0:0:
302,251,21640,1,0,0:0:0:0:
204,172,21715,1,0,0:0:0:0:
214,274,21790,1,0,0:0:0:0:
204,172,21865,1,8,0:0:0:0:
278,106,22165,1,4,0:0:0:0:
278,106,22315,1,4,0:0:0:0:
353,213,22615,1,8,0:0:0:0:
179,197,22690,1,8,0:0:0:0:
353,213,22765,1,0,0:0:0:0:
202,110,22915,1,0,0:0:0:0:
262,270,23065,1,8,0:0:0:0:
262,270,23215,1,0,0:0:0:0:
231,161,23365,1,12,0:0:0:0:
239,137,23515,1,12,0:0:0:0:
296,196,23815,1,0,0:0:0:0:
207,99,23890,1,0,0:0:0:0:
182,76,23965,1,8,0:0:0:0:
182,76,24115,1,8,0:0:0:0:
318,234,24265,1,0,0:0:0:0:
318,234,24415,1,8,0:0:0:0:
276,111,24565,1,4,0:0:0:0:
276,111,24715,1,4,0:0:0:0:
337,146,25015,1,0,0:0:0:0:
293,198,25090,1,0,0:0:0:0:
227,140,25165,1,8,0:0:0:0:
207,228,25315,1,0,0:0:0:0:
204,170,25465,1,8,0:0:0:0:
204,170,25615,1,8,0:0:0:0:
302,159,25765,1,4,0:0:0:0:
255,132,25915,1,4,0:0:0:0:
302,159,26215,1,12,0:0:0:0:
302,159,26515,1,4,0:0:0:0:
255,132,26665,1,12,0:0:0:0:
251,127,26965,1,4,0:0:0:0:
369,214,27265,1,8,0:0:0:0:
298,212,27415,1,0,0:0:0:0:
298,212,27490,1,0,0:0:0:0:
298,212,27565,1,8,0:0:0:0:
258,257,27715,1,8,0:0:0:0:
298,212,27865,1,0,0:0:0:0:
298,212,28015,1,8,0:0:0:0:
298,212,28090,1,8,0:0:0:0:
298,212,28165,1,0,0:0:0:0:
298,212,28240,1,0,0:0:0:0:
298,212,28315,1,0,0:0:0:0:
358,236,28465,1,8,0:0:0:0:
308,138,28615,1,0,0:0:0:0:
308,138,28690,1,0,0:0:0:0:
308,138,28765,1,8,0:0:0:0:
164,225,28915,1,8,0:0:0:0:
173,215,29065,1,0,0:0:0:0:
308,138,29140,1,0,0:0:0:0:
308,138,29215,1,0,0:0:0:0:
308,138,29290,1,0,0:0:0:0:
308,138,29365,1,8,0:0:0:0:
250,270,29665,1,0,0:0:0:0:
250,270,29815,1,8,0:0:0:0:
227,190,29890,1,8,0:0:0:0:
198,165,29965,1,0,0:0:0:0:
197,148,30115,1,0,0:0:0:0:
197,148,30265,1,8,0:0:0:0:
198,138,30415,1,0,0:0:0:0:
165,166,30490,1,0,0:0:0:0:
165,166,30565,1,8,0:0:0:0:
171,153,30640,1,8,0:0:0:0:
159,155,30715,1,8,0:0:0:0:
171,153,30865,1,0,0:0:0:0:
281,107,31015,1,8,0:0:0:0:
281,107,31090,1,8,0:0:0:0:
281,107,31165,1,0,0:0:0:0:
281,107,31315,1,0,0:0:0:0:
281,107,31465,1,8,0:0:0:0:
281,107,31540,1,8,0:0:0:0:
281,107,31615,1,8,0:0:0:0:
281,107,31690,1,8,0:0:0:0:
283,118,31765,1,0,0:0:0:0:
202,253,32065,1,8,0:0:0:0:
324,220,32215,1,0,0:0:0:0:
291,214,32290,1,0,0:0:0:0:
291,214,32365,1,8,0:0:0:0:
291,214,32515,1,8,0:0:0:0:
291,214,32665,1,0,0:0:0:0:
291,214,32815,1,8,0:0:0:0:
291,214,32890,1,8,0:0:0:0:
291,214,32965,1,0,0:0:0:0:
291,214,33040,1,0,0:0:0:0:
291,214,33115,1,0,0:0:0:0:
291,214,33265,1,8,0:0:0:0:
291,214,33415,1,0,0:0:0:0:
291,214,33490,1,0,0:0:0:0:
291,214,33565,1,8,0:0:0:0:
291,214,33715,1,8,0:0:0:0:
291,214,33865,1,0,0:0:0:0:
291,214,33940,1,0,0:0:0:0:
291,214,34015,1,0,0:0:0:0:
291,214,34090,1,0,0:0:0:0:
291,214,34165,1,8,0:0:0:0:
193,205,34315,1,8,0:0:0:0:
213,203,34465,1,0,0:0:0:0:
193,205,34540,1,0,0:0:0:0:
191,200,34615,1,0,0:0:0:0:
228,247,34765,1,8,0:0:0:0:
267,135,34915,1,0,0:0:0:0:
267,135,34990,1,0,0:0:0:0:
267,135,35065,1,8,0:0:0:0:
267,135,35215,1,8,0:0:0:0:
306,232,35365,1,4,0:0:0:0:
292,252,35665,1,8,0:0:0:0:
195,235,35815,1,0,0:0:0:0:
181,226,35890,1,0,0:0:0:0:
149,207,35965,1,8,0:0:0:0:
149,207,36115,1,0,0:0:0:0:
290,229,36265,1,8,0:0:0:0:
290,229,36415,1,8,0:0:0:0:
279,204,36565,1,4,0:0:0:0:
278,192,36865,1,8,0:0:0:0:
276,191,37090,1,8,0:0:0:0:
346,116,37165,1,0,0:0:0:0:
346,116,37315,1,0,0:0:0:0:
346,116,37465,1,8,0:0:0:0:
346,116,37615,1,4,0:0:0:0:
346,116,37915,1,4,0:0:0:0:
204,240,38065,1,8,0:0:0:0:
204,240,38215,1,8,0:0:0:0:
128,200,38290,1,8,0:0:0:0:
362,190,38365,1,0,0:0:0:0:
362,190,38515,1,0,0:0:0:0:
362,190,38665,1,8,0:0:0:0:
362,190,38965,1,4,0:0:0:0:
362,190,39115,1,4,0:0:0:0:
336,186,39265,1,8,0:0:0:0:
229,212,39490,1,8,0:0:0:0:
143,107,39565,1,0,0:0:0:0:
158,107,39715,1,0,0:0:0:0:
158,107,39865,1,8,0:0:0:0:
158,107,40015,1,4,0:0:0:0:
158,105,40315,1,4,0:0:0:0:
244,171,40465,1,8,0:0:0:0:
244,171,40615,1,8,0:0:0:0:
244,171,40690,1,8,0:0:0:0:
244,171,40765,1,0,0:0:0:0:
244,171,40915,1,0,0:0:0:0:
244,171,41065,1,8,0:0:0:0:
391,212,41365,1,4,0:0:0:0:
324,228,41665,1,8,0:0:0:0:
259,201,41815,1,0,0:0:0:0:
208,258,41890,1,0,0:0:0:0:
197,245,41965,1,8,0:0:0:0:
197,245,42115,1,0,0:0:0:0:
197,245,42265,1,8,0:0:0:0:
198,127,42415,1,8,0:0:0:0:
198,127,42490,1,8,0:0:0:0:
198,127,42565,1,0,0:0:0:0:
198,127,42865,1,8,0:0:0:0:
273,168,43015,1,0,0:0:0:0:
273,168,43090,1,0,0:0:0:0:
273,168,43165,1,8,0:0:0:0:
273,168,43315,1,0,0:0:0:0:
273,168,43465,1,8,0:0:0:0:
273,168,43615,1,8,0:0:0:0:
258,213,43765,1,4,0:0:0:0:
381,205,44065,1,8,0:0:0:0:
301,268,44215,1,4,0:0:0:0:
301,268,44515,1,0,0:0:0:0:
318,107,44665,1,12,0:0:0:0:
372,196,45565,1,8,0:0:0:0:
372,196,45640,1,8,0:0:0:0:
372,196,45715,1,8,0:0:0:0:
372,196,45790,1,8,0:0:0:0:
372,196,45865,1,8,0:0:0:0:
372,196,45940,1,8,0:0:0:0:
372,196,46015,1,8,0:0:0:0:
349,193,46165,1,4,0:0:0:0:
239,102,46465,1,8,0:0:0:0:
239,102,46615,1,0,0:0:0:0:
231,123,46690,1,0,0:0:0:0:
231,122,46765,1,8,0:0:0:0:
227,134,46915,1,0,0:0:0:0:
210,151,47065,1,8,0:0:0:0:
210,229,47215,1,0,0:0:0:0:
187,280,47290,1,0,0:0:0:0:
215,300,47365,1,8,0:0:0:0:
126,253,47440,1,8,0:0:0:0:
156,222,47515,1,0,0:0:0:0:
156,222,47665,1,8,0:0:0:0:
161,219,47815,1,0,0:0:0:0:
162,208,47890,1,0,0:0:0:0:
160,208,47965,1,8,0:0:0:0:
159,208,48040,1,8,0:0:0:0:
239,217,48115,1,0,0:0:0:0:
321,254,48190,1,0,0:0:0:0:
181,168,48265,1,8,0:0:0:0:
170,215,48340,1,0,0:0:0:0:
169,209,48415,1,8,0:0:0:0:
163,205,48565,1,0,0:0:0:0:
285,159,48715,1,8,0:0:0:0:
214,167,48790,1,8,0:0:0:0:
230,280,48865,1,8,0:0:0:0:
184,257,49015,1,8,0:0:0:0:
184,257,49165,1,0,0:0:0:0:
286,244,49240,1,0,0:0:0:0:
184,257,49315,1,0,0:0:0:0:
250,244,49465,1,8,0:0:0:0:
327,245,49615,1,4,0:0:0:0:
256,188,49915,1,0,0:0:0:0:
256,188,50065,1,8,0:0:0:0:
284,219,50215,1,0,0:0:0:0:
228,244,50290,1,0,0:0:0:0:
158,193,50365,1,8,0:0:0:0:
361,238,50515,1,8,0:0:0:0:
336,229,50665,1,0,0:0:0:0:
338,223,50740,1,0,0:0:0:0:
339,223,50815,1,0,0:0:0:0:
323,217,50890,1,0,0:0:0:0:
308,218,50965,1,8,0:0:0:0:
239,102,51265,1,0,0:0:0:0:
239,102,51415,1,8,0:0:0:0:
231,123,51490,1,8,0:0:0:0:
231,122,51565,1,0,0:0:0:0:
227,134,51715,1,8,0:0:0:0:
210,151,51865,1,0,0:0:0:0:
210,229,52015,1,8,0:0:0:0:
187,280,52090,1,8,0:0:0:0:
215,300,52165,1,0,0:0:0:0:
126,253,52240,1,0,0:0:0:0:
156,222,52315,1,8,0:0:0:0:
156,222,52465,1,0,0:0:0:0:
161,219,52615,1,8,0:0:0:0:
162,208,52690,1,8,0:0:0:0:
160,208,52765,1,0,0:0:0:0:
159,208,52840,1,0,0:0:0:0:
239,217,52915,1,8,0:0:0:0:
321,254,52990,1,8,0:0:0:0:
181,168,53065,1,0,0:0:0:0:
170,215,53140,1,8,0:0:0:0:
169,209,53215,1,0,0:0:0:0:
163,205,53365,1,8,0:0:0:0:
285,159,53515,1,0,0:0:0:0:
214,167,53590,1,0,0:0:0:0:
230,280,53665,1,0,0:0:0:0:
184,257,53815,1,0,0:0:0:0:
184,257,53965,1,8,0:0:0:0:
286,244,54040,1,8,0:0:0:0:
184,257,54115,1,8,0:0:0:0:
250,244,54265,1,0,0:0:0:0:
327,245,54415,1,12,0:0:0:0:
256,188,54715,1,8,0:0:0:0:
256,188,54865,1,0,0:0:0:0:
284,219,55015,1,8,0:0:0:0:
228,244,55090,1,8,0:0:0:0:
158,193,55165,1,0,0:0:0:0:
361,238,55315,1,0,0:0:0:0:
336,229,55465,1,8,0:0:0:0:
338,223,55540,1,8,0:0:0:0:
339,223,55615,1,8,0:0:0:0:
308,218,55765,1,4,0:0:0:0:
329,289,56065,1,8,0:0:0:0:
231,266,56215,1,0,0:0:0:0:
190,253,56290,1,0,0:0:0:0:
231,266,56365,1,0,0:0:0:0:
190,253,56515,1,0,0:0:0:0:
227,151,56665,1,8,0:0:0:0:
227,151,56815,1,0,0:0:0:0:
372,136,56965,1,8,0:0:0:0:
267,157,57265,1,0,0:0:0:0:
262,150,57415,1,8,0:0:0:0:
224,135,57490,1,8,0:0:0:0:
262,150,57565,1,8,0:0:0:0:
216,103,57715,1,0,0:0:0:0:
216,103,57865,1,8,0:0:0:0:
216,103,58015,1,8,0:0:0:0:
183,126,58165,1,0,0:0:0:0:
266,174,58465,1,8,0:0:0:0:
266,174,58615,1,0,0:0:0:0:
228,200,58690,1,0,0:0:0:0:
266,174,58765,1,0,0:0:0:0:
180,173,58915,1,0,0:0:0:0:
180,173,59065,1,8,0:0:0:0:
193,140,59215,1,4,0:0:0:0:
222,237,59515,1,0,0:0:0:0:
233,246,59665,1,8,0:0:0:0:
233,246,59815,1,0,0:0:0:0:
233,229,59890,1,0,0:0:0:0:
244,139,59965,1,8,0:0:0:0:
244,139,60115,1,0,0:0:0:0:
244,139,60265,1,8,0:0:0:0:
312,167,60340,1,8,0:0:0:0:
149,150,60415,1,8,0:0:0:0:
324,118,60565,1,4,0:0:0:0:
329,289,60865,1,8,0:0:0:0:
231,266,61015,1,0,0:0:0:0:
190,253,61090,1,0,0:0:0:0:
231,266,61165,1,0,0:0:0:0:
190,253,61315,1,0,0:0:0:0:
227,151,61465,1,8,0:0:0:0:
227,151,61615,1,0,0:0:0:0:
372,136,61765,1,8,0:0:0:0:
267,157,62065,1,0,0:0:0:0:
262,150,62215,1,8,0:0:0:0:
224,135,62290,1,8,0:0:0:0:
262,150,62365,1,8,0:0:0:0:
216,103,62515,1,0,0:0:0:0:
216,103,62665,1,8,0:0:0:0:
398,189,62815,1,4,0:0:0:0:
260,232,63115,1,0,0:0:0:0:
260,232,63265,1,8,0:0:0:0:
241,236,63415,1,0,0:0:0:0:
158,208,63490,1,0,0:0:0:0:
133,154,63565,1,8,0:0:0:0:
133,154,63715,1,0,0:0:0:0:
287,312,63865,1,8,0:0:0:0:
166,59,64015,1,8,0:0:0:0:
310,134,64165,1,4,0:0:0:0:
281,168,65065,1,8,0:0:0:0:
266,126,65365,1,4,0:0:0:0:
164,225,65665,1,8,0:0:0:0:
265,214,65815,1,0,0:0:0:0:
181,111,65890,1,0,0:0:0:0:
157,61,65965,1,0,0:0:0:0:
296,247,66115,1,8,0:0:0:0:
220,257,66265,1,0,0:0:0:0:
278,141,66415,1,8,0:0:0:0:
278,141,66490,1,8,0:0:0:0:
278,141,66565,1,0,0:0:0:0:
278,141,66715,1,0,0:0:0:0:
251,163,66790,1,0,0:0:0:0:
251,163,66865,1,8,0:0:0:0:
251,163,67015,1,0,0:0:0:0:
251,163,67165,1,8,0:0:0:0:
251,163,67240,1,8,0:0:0:0:
251,163,67315,1,0,0:0:0:0:
251,163,67390,1,0,0:0:0:0:
251,163,67465,1,8,0:0:0:0:
264,255,67615,1,8,0:0:0:0:
270,260,67765,1,0,0:0:0:0:
380,223,68065,1,8,0:0:0:0:
165,103,68215,1,0,0:0:0:0:
170,110,68290,1,0,0:0:0:0:
356,203,68365,1,0,0:0:0:0:
165,103,68515,1,8,0:0:0:0:
162,96,68665,1,0,0:0:0:0:
156,82,68815,1,8,0:0:0:0:
162,96,68890,1,8,0:0:0:0:
154,90,68965,1,0,0:0:0:0:
154,90,69115,1,0,0:0:0:0:
190,193,69190,1,0,0:0:0:0:
164,155,69265,1,8,0:0:0:0:
316,167,69415,1,0,0:0:0:0:
287,247,69565,1,8,0:0:0:0:
234,206,69640,1,8,0:0:0:0:
219,191,69715,1,0,0:0:0:0:
172,147,69790,1,0,0:0:0:0:
212,185,69865,1,8,0:0:0:0:
192,171,69940,1,0,0:0:0:0:
176,151,70015,1,8,0:0:0:0:
132,127,70165,1,4,0:0:0:0:
386,230,70465,1,8,0:0:0:0:
386,230,70615,1,0,0:0:0:0:
245,125,70690,1,0,0:0:0:0:
386,230,70765,1,0,0:0:0:0:
245,125,70915,1,8,0:0:0:0:
244,158,71065,1,0,0:0:0:0:
245,125,71215,1,8,0:0:0:0:
129,100,71290,1,8,0:0:0:0:
129,100,71365,1,0,0:0:0:0:
129,100,71515,1,0,0:0:0:0:
129,100,71590,1,0,0:0:0:0:
129,100,71665,1,8,0:0:0:0:
129,100,71815,1,0,0:0:0:0:
129,100,71965,1,8,0:0:0:0:
129,100,72040,1,8,0:0:0:0:
129,100,72115,1,0,0:0:0:0:
129,100,72190,1,0,0:0:0:0:
129,100,72265,1,8,0:0:0:0:
129,100,72415,1,8,0:0:0:0:
291,234,72565,1,4,0:0:0:0:
382,197,73015,1,0,0:0:0:0:
382,197,73065,1,0,0:0:0:0:
382,197,73115,1,0,0:0:0:0:
382,197,73165,1,0,0:0:0:0:
274,144,73615,1,0,0:0:0:0:
274,144,73690,1,0,0:0:0:0:
306,51,73765,1,8,0:0:0:0:
306,51,73865,1,8,0:0:0:0:
306,51,73965,1,8,0:0:0:0:
306,51,74065,1,8,0:0:0:0:
306,51,74165,1,8,0:0:0:0:
306,51,74265,1,8,0:0:0:0:
306,51,74365,1,8,0:0:0:0:
407,175,74965,1,0,0:0:0:0:
231,201,75415,1,0,0:0:0:0:
407,175,75565,1,8,0:0:0:0:
407,175,76015,1,0,0:0:0:0:
407,175,76315,1,0,0:0:0:0:
407,175,76615,1,8,0:0:0:0:
188,111,76915,1,8,0:0:0:0:
188,111,77065,1,0,0:0:0:0:
195,197,77365,1,8,0:0:0:0:
305,185,77815,1,8,0:0:0:0:
305,185,77965,1,0,0:0:0:0:
287,112,78415,1,8,0:0:0:0:
287,112,78715,1,0,0:0:0:0:
287,112,79015,1,8,0:0:0:0:
157,114,79315,1,0,0:0:0:0:
157,114,79465,1,8,0:0:0:0:
157,114,79765,1,0,0:0:0:0:
231,201,80215,1,0,0:0:0:0:
407,175,80365,1,8,0:0:0:0:
407,175,80815,1,0,0:0:0:0:
407,175,81115,1,0,0:0:0:0:
407,175,81415,1,8,0:0:0:0:
188,111,81565,1,0,0:0:0:0:
188,111,81865,1,0,0:0:0:0:
195,197,82165,1,8,0:0:0:0:
305,185,82615,1,8,0:0:0:0:
305,185,82765,1,0,0:0:0:0:
287,112,83215,1,12,0:0:0:0:
236,37,83515,1,0,0:0:0:0:
236,37,83590,1,0,0:0:0:0:
236,37,83665,1,0,0:0:0:0:
287,112,83815,1,8,0:0:0:0:
236,37,83965,1,8,0:0:0:0:
157,114,84115,1,0,0:0:0:0:
263,248,84190,1,0,0:0:0:0:
157,114,84265,1,8,0:0:0:0:
251,199,84415,1,8,0:0:0:0:
251,127,84565,1,4,0:0:0:0:
369,214,84865,1,8,0:0:0:0:
298,212,85015,1,0,0:0:0:0:
298,212,85090,1,0,0:0:0:0:
298,212,85165,1,8,0:0:0:0:
258,257,85315,1,8,0:0:0:0:
298,212,85465,1,0,0:0:0:0:
298,212,85615,1,8,0:0:0:0:
298,212,85690,1,8,0:0:0:0:
298,212,85765,1,0,0:0:0:0:
298,212,85840,1,0,0:0:0:0:
298,212,85915,1,0,0:0:0:0:
358,236,86065,1,8,0:0:0:0:
308,138,86215,1,0,0:0:0:0:
308,138,86290,1,0,0:0:0:0:
308,138,86365,1,8,0:0:0:0:
164,225,86515,1,8,0:0:0:0:
173,215,86665,1,0,0:0:0:0:
308,138,86740,1,0,0:0:0:0:
308,138,86815,1,0,0:0:0:0:
308,138,86890,1,0,0:0:0:0:
308,138,86965,1,8,0:0:0:0:
250,270,87265,1,0,0:0:0:0:
250,270,87415,1,8,0:0:0:0:
227,190,87490,1,8,0:0:0:0:
198,165,87565,1,0,0:0:0:0:
197,148,87715,1,0,0:0:0:0:
197,148,87865,1,8,0:0:0:0:
198,138,88015,1,0,0:0:0:0:
165,166,88090,1,0,0:0:0:0:
165,166,88165,1,8,0:0:0:0:
171,153,88240,1,8,0:0:0:0:
159,155,88315,1,8,0:0:0:0:
171,153,88465,1,0,0:0:0:0:
281,107,88615,1,8,0:0:0:0:
281,107,88690,1,8,0:0:0:0:
281,107,88765,1,0,0:0:0:0:
281,107,88915,1,0,0:0:0:0:
281,107,89065,1,8,0:0:0:0:
281,107,89140,1,8,0:0:0:0:
281,107,89215,1,8,0:0:0:0:
281,107,89290,1,8,0:0:0:0:
283,118,89365,1,0,0:0:0:0:
202,253,89665,1,8,0:0:0:0:
324,220,89815,1,0,0:0:0:0:
291,214,89890,1,0,0:0:0:0:
291,214,89965,1,8,0:0:0:0:
291,214,90115,1,8,0:0:0:0:
291,214,90265,1,0,0:0:0:0:
291,214,90415,1,8,0:0:0:0:
291,214,90490,1,8,0:0:0:0:
291,214,90565,1,0,0:0:0:0:
291,214,90640,1,0,0:0:0:0:
291,214,90715,1,0,0:0:0:0:
291,214,90865,1,8,0:0:0:0:
291,214,91015,1,0,0:0:0:0:
291,214,91090,1,0,0:0:0:0:
291,214,91165,1,8,0:0:0:0:
291,214,91315,1,8,0:0:0:0:
291,214,91465,1,0,0:0:0:0:
291,214,91540,1,0,0:0:0:0:
291,214,91615,1,0,0:0:0:0:
291,214,91690,1,0,0:0:0:0:
291,214,91765,1,8,0:0:0:0:
193,205,91915,1,8,0:0:0:0:
213,203,92065,1,0,0:0:0:0:
193,205,92140,1,0,0:0:0:0:
191,200,92215,1,0,0:0:0:0:
228,247,92365,1,8,0:0:0:0:
267,135,92515,1,0,0:0:0:0:
267,135,92590,1,0,0:0:0:0:
267,135,92665,1,8,0:0:0:0:
267,135,92815,1,8,0:0:0:0:
306,232,92965,1,4,0:0:0:0:
292,252,93265,1,8,0:0:0:0:
195,235,93415,1,0,0:0:0:0:
181,226,93490,1,0,0:0:0:0:
149,207,93565,1,8,0:0:0:0:
149,207,93715,1,0,0:0:0:0:
290,229,93865,1,8,0:0:0:0:
290,229,94015,1,8,0:0:0:0:
279,204,94165,1,4,0:0:0:0:
278,192,94465,1,8,0:0:0:0:
276,191,94690,1,8,0:0:0:0:
346,116,94765,1,0,0:0:0:0:
346,116,94915,1,0,0:0:0:0:
346,116,95065,1,8,0:0:0:0:
346,116,95215,1,4,0:0:0:0:
346,116,95515,1,4,0:0:0:0:
204,240,95665,1,8,0:0:0:0:
204,240,95815,1,8,0:0:0:0:
128,200,95890,1,8,0:0:0:0:
362,190,95965,1,0,0:0:0:0:
362,190,96115,1,0,0:0:0:0:
362,190,96265,1,8,0:0:0:0:
362,190,96565,1,4,0:0:0:0:
362,190,96715,1,4,0:0:0:0:
336,186,96865,1,8,0:0:0:0:
229,212,97090,1,8,0:0:0:0:
143,107,97165,1,0,0:0:0:0:
158,107,97315,1,0,0:0:0:0:
158,107,97465,1,8,0:0:0:0:
158,107,97615,1,4,0:0:0:0:
158,105,97915,1,4,0:0:0:0:
244,171,98065,1,8,0:0:0:0:
244,171,98215,1,8,0:0:0:0:
244,171,98290,1,8,0:0:0:0:
244,171,98365,1,0,0:0:0:0:
244,171,98515,1,0,0:0:0:0:
244,171,98665,1,8,0:0:0:0:
391,212,98965,1,4,0:0:0:0:
324,228,99265,1,8,0:0:0:0:
259,201,99415,1,0,0:0:0:0:
208,258,99490,1,0,0:0:0:0:
197,245,99565,1,8,0:0:0:0:
197,245,99715,1,0,0:0:0:0:
197,245,99865,1,8,0:0:0:0:
198,127,100015,1,8,0:0:0:0:
198,127,100090,1,8,0:0:0:0:
198,127,100165,1,0,0:0:0:0:
198,127,100465,1,8,0:0:0:0:
273,168,100615,1,0,0:0:0:0:
273,168,100690,1,0,0:0:0:0:
273,168,100765,1,8,0:0:0:0:
273,168,100915,1,0,0:0:0:0:
273,168,101065,1,8,0:0:0:0:
273,168,101215,1,8,0:0:0:0:
258,213,101365,1,4,0:0:0:0:
381,205,101665,1,8,0:0:0:0:
301,268,101815,1,4,0:0:0:0:
301,268,102115,1,0,0:0:0:0:
318,107,102265,1,12,0:0:0:0:
222,127,102565,1,8,0:0:0:0:
222,127,102640,1,8,0:0:0:0:
222,127,102715,1,0,0:0:0:0:
222,127,102790,1,0,0:0:0:0:
222,127,102865,1,8,0:0:0:0:
222,127,102940,1,8,0:0:0:0:
222,127,103015,1,0,0:0:0:0:
222,127,103090,1,0,0:0:0:0:
222,127,103165,1,8,0:0:0:0:
222,127,103315,1,0,0:0:0:0:
222,127,103465,1,8,0:0:0:0:
222,127,103615,1,0,0:0:0:0:
349,193,103765,1,12,0:0:0:0:
239,102,104065,1,0,0:0:0:0:
239,102,104215,1,8,0:0:0:0:
231,123,104290,1,8,0:0:0:0:
231,122,104365,1,0,0:0:0:0:
227,134,104515,1,8,0:0:0:0:
210,151,104665,1,0,0:0:0:0:
210,229,104815,1,8,0:0:0:0:
187,280,104890,1,8,0:0:0:0:
215,300,104965,1,0,0:0:0:0:
126,253,105040,1,0,0:0:0:0:
156,222,105115,1,8,0:0:0:0:
156,222,105265,1,0,0:0:0:0:
161,219,105415,1,8,0:0:0:0:
162,208,105490,1,8,0:0:0:0:
160,208,105565,1,0,0:0:0:0:
159,208,105640,1,0,0:0:0:0:
239,217,105715,1,8,0:0:0:0:
321,254,105790,1,8,0:0:0:0:
181,168,105865,1,0,0:0:0:0:
170,215,105940,1,8,0:0:0:0:
169,209,106015,1,0,0:0:0:0:
163,205,106165,1,8,0:0:0:0:
285,159,106315,1,0,0:0:0:0:
214,167,106390,1,0,0:0:0:0:
230,280,106465,1,0,0:0:0:0:
184,257,106615,1,0,0:0:0:0:
184,257,106765,1,8,0:0:0:0:
286,244,106840,1,8,0:0:0:0:
184,257,106915,1,8,0:0:0:0:
250,244,107065,1,0,0:0:0:0:
327,245,107215,1,12,0:0:0:0:
256,188,107515,1,8,0:0:0:0:
256,188,107665,1,0,0:0:0:0:
284,219,107815,1,8,0:0:0:0:
228,244,107890,1,8,0:0:0:0:
158,193,107965,1,0,0:0:0:0:
361,238,108115,1,0,0:0:0:0:
336,229,108265,1,8,0:0:0:0:
338,223,108340,1,8,0:0:0:0:
339,223,108415,1,8,0:0:0:0:
323,217,108490,1,8,0:0:0:0:
308,218,108565,1,0,0:0:0:0:
239,102,108865,1,8,0:0:0:0:
239,102,109015,1,0,0:0:0:0:
231,123,109090,1,0,0:0:0:0:
231,122,109165,1,8,0:0:0:0:
227,134,109315,1,0,0:0:0:0:
210,151,109465,1,8,0:0:0:0:
210,229,109615,1,0,0:0:0:0:
187,280,109690,1,0,0:0:0:0:
215,300,109765,1,8,0:0:0:0:
126,253,109840,1,8,0:0:0:0:
156,222,109915,1,0,0:0:0:0:
156,222,110065,1,8,0:0:0:0:
161,219,110215,1,0,0:0:0:0:
162,208,110290,1,0,0:0:0:0:
160,208,110365,1,8,0:0:0:0:
159,208,110440,1,8,0:0:0:0:
239,217,110515,1,0,0:0:0:0:
321,254,110590,1,0,0:0:0:0:
181,168,110665,1,8,0:0:0:0:
170,215,110740,1,0,0:0:0:0:
169,209,110815,1,8,0:0:0:0:
163,205,110965,1,0,0:0:0:0:
285,159,111115,1,8,0:0:0:0:
214,167,111190,1,8,0:0:0:0:
230,280,111265,1,8,0:0:0:0:
184,257,111415,1,8,0:0:0:0:
184,257,111565,1,0,0:0:0:0:
286,244,111640,1,0,0:0:0:0:
184,257,111715,1,0,0:0:0:0:
250,244,111865,1,8,0:0:0:0:
327,245,112015,1,4,0:0:0:0:
256,188,112315,1,0,0:0:0:0:
256,188,112465,1,8,0:0:0:0:
284,219,112615,1,0,0:0:0:0:
228,244,112690,1,0,0:0:0:0:
158,193,112765,1,8,0:0:0:0:
361,238,112915,1,0,0:0:0:0:
336,229,113065,1,8,0:0:0:0:
338,223,113140,1,8,0:0:0:0:
339,223,113215,1,8,0:0:0:0:
308,218,113365,1,4,0:0:0:0:
329,289,113665,1,8,0:0:0:0:
231,266,113815,1,0,0:0:0:0:
190,253,113890,1,0,0:0:0:0:
231,266,113965,1,0,0:0:0:0:
190,253,114115,1,0,0:0:0:0:
227,151,114265,1,8,0:0:0:0:
227,151,114415,1,0,0:0:0:0:
372,136,114565,1,8,0:0:0:0:
267,157,114865,1,0,0:0:0:0:
262,150,115015,1,8,0:0:0:0:
224,135,115090,1,8,0:0:0:0:
262,150,115165,1,8,0:0:0:0:
216,103,115315,1,0,0:0:0:0:
216,103,115465,1,8,0:0:0:0:
216,103,115615,1,8,0:0:0:0:
183,126,115765,1,0,0:0:0:0:
266,174,116065,1,8,0:0:0:0:
266,174,116215,1,0,0:0:0:0:
228,200,116290,1,0,0:0:0:0:
266,174,116365,1,0,0:0:0:0:
180,173,116515,1,0,0:0:0:0:
180,173,116665,1,8,0:0:0:0:
193,140,116815,1,4,0:0:0:0:
222,237,117115,1,0,0:0:0:0:
233,246,117265,1,8,0:0:0:0:
233,246,117415,1,0,0:0:0:0:
233,229,117490,1,0,0:0:0:0:
244,139,117565,1,8,0:0:0:0:
244,139,117715,1,0,0:0:0:0:
244,139,117865,1,8,0:0:0:0:
312,167,117940,1,8,0:0:0:0:
149,150,118015,1,8,0:0:0:0:
324,118,118165,1,4,0:0:0:0:
329,289,118465,1,8,0:0:0:0:
231,266,118615,1,0,0:0:0:0:
190,253,118690,1,0,0:0:0:0:
231,266,118765,1,0,0:0:0:0:
190,253,118915,1,0,0:0:0:0:
227,151,119065,1,8,0:0:0:0:
227,151,119215,1,0,0:0:0:0:
372,136,119365,1,8,0:0:0:0:
267,157,119665,1,0,0:0:0:0:
262,150,119815,1,8,0:0:0:0:
224,135,119890,1,8,0:0:0:0:
262,150,119965,1,8,0:0:0:0:
216,103,120115,1,0,0:0:0:0:
216,103,120265,1,8,0:0:0:0:
398,189,120415,1,4,0:0:0:0:
260,232,120715,1,0,0:0:0:0:
260,232,120865,1,8,0:0:0:0:
241,236,121015,1,0,0:0:0:0:
158,208,121090,1,0,0:0:0:0:
133,154,121165,1,8,0:0:0:0:
133,154,121315,1,0,0:0:0:0:
287,312,121465,1,8,0:0:0:0:
173,4,121615,1,8,0:0:0:0:
153,57,121765,1,4,0:0:0:0:
278,111,122665,1,8,0:0:0:0:
262,223,122965,1,4,0:0:0:0:
122,232,123265,1,0,0:0:0:0:
122,232,123565,1,0,0:0:0:0:
122,232,123865,1,0,0:0:0:0:
122,232,124165,1,0,0:0:0:0:
122,232,124465,1,0,0:0:0:0:
122,232,124765,1,0,0:0:0:0:
122,232,125065,1,0,0:0:0:0:
381,165,125365,1,8,0:0:0:0:
381,165,125665,1,8,0:0:0:0:
381,165,125965,1,8,0:0:0:0:
381,165,126265,1,8,0:0:0:0:
381,165,126565,1,8,0:0:0:0:
381,165,126865,1,8,0:0:0:0:
381,165,127165,1,8,0:0:0:0:
381,165,127465,1,8,0:0:0:0:
381,165,127765,1,0,0:0:0:0:
381,165,127915,1,0,0:0:0:0:
381,165,128065,1,0,0:0:0:0:
381,165,128215,1,0,0:0:0:0:
381,165,128365,1,0,0:0:0:0:
381,165,128515,1,0,0:0:0:0:
381,165,128665,1,0,0:0:0:0:
381,165,128815,1,0,0:0:0:0:
221,179,128965,1,8,0:0:0:0:
221,179,129115,1,8,0:0:0:0:
221,179,129265,1,8,0:0:0:0:
221,179,129415,1,8,0:0:0:0:
221,179,129565,1,8,0:0:0:0:
221,179,129715,1,8,0:0:0:0:
221,179,129865,1,8,0:0:0:0:
221,179,130015,1,8,0:0:0:0:
265,122,130165,1,0,0:0:0:0:
265,122,130240,1,0,0:0:0:0:
265,122,130315,1,0,0:0:0:0:
265,122,130390,1,0,0:0:0:0:
265,122,130465,1,0,0:0:0:0:
265,122,130540,1,0,0:0:0:0:
265,122,130615,1,0,0:0:0:0:
265,122,130690,1,0,0:0:0:0:
265,122,130765,1,8,0:0:0:0:
265,122,130840,1,8,0:0:0:0:
265,122,130915,1,8,0:0:0:0:
265,122,130990,1,8,0:0:0:0:
265,122,131065,1,8,0:0:0:0:
265,122,131140,1,8,0:0:0:0:
265,122,131215,1,8,0:0:0:0:
267,126,131290,1,8,0:0:0:0:
268,126,131365,1,0,0:0:0:0:
324,228,131965,1,8,0:0:0:0:
324,228,132115,1,8,0:0:0:0:
324,228,132265,1,8,0:0:0:0:
324,228,132415,1,8,0:0:0:0:
243,200,132565,1,4,0:0:0:0:
334,183,132865,1,8,0:0:0:0:
334,183,133165,1,0,0:0:0:0:
334,183,133315,1,0,0:0:0:0:
334,183,133465,1,8,0:0:0:0:
334,183,133615,1,0,0:0:0:0:
202,112,133690,1,0,0:0:0:0:
254,211,133765,1,8,0:0:0:0:
254,211,133915,1,0,0:0:0:0:
342,70,134065,1,8,0:0:0:0:
342,70,134115,1,8,0:0:0:0:
342,70,134165,1,8,0:0:0:0:
342,70,134215,1,0,0:0:0:0:
216,63,134365,1,8,0:0:0:0:
218,57,134515,1,0,0:0:0:0:
207,187,134815,1,0,0:0:0:0:
280,185,134965,1,8,0:0:0:0:
258,285,135265,1,0,0:0:0:0:
238,226,135565,1,8,0:0:0:0:
370,251,135715,1,0,0:0:0:0:
370,251,135865,1,8,0:0:0:0:
342,199,136015,1,0,0:0:0:0:
199,68,136065,1,0,0:0:0:0:
221,82,136115,1,0,0:0:0:0:
199,68,136165,1,8,0:0:0:0:
199,68,136465,1,0,0:0:0:0:
221,148,136615,1,0,0:0:0:0:
207,163,136765,1,8,0:0:0:0:
319,214,137365,1,4,0:0:0:0:
273,128,137665,1,8,0:0:0:0:
228,103,137965,1,0,0:0:0:0:
228,103,138115,1,0,0:0:0:0:
228,103,138265,1,8,0:0:0:0:
228,103,138415,1,0,0:0:0:0:
228,103,138490,1,0,0:0:0:0:
228,103,138565,1,8,0:0:0:0:
343,171,138715,1,0,0:0:0:0:
331,169,139015,1,0,0:0:0:0:
217,185,139165,1,8,0:0:0:0:
352,151,139315,1,8,0:0:0:0:
351,152,139465,1,0,0:0:0:0:
275,261,139615,1,0,0:0:0:0:
275,261,139765,1,8,0:0:0:0:
275,261,140065,1,0,0:0:0:0:
189,124,140365,1,8,0:0:0:0:
189,124,140515,1,8,0:0:0:0:
189,124,140665,1,0,0:0:0:0:
264,197,140815,1,8,0:0:0:0:
264,197,140965,1,0,0:0:0:0:
274,174,141265,1,8,0:0:0:0:
290,152,141415,1,0,0:0:0:0:
382,151,141565,1,8,0:0:0:0:
221,31,141615,1,8,0:0:0:0:
126,114,141665,1,8,0:0:0:0:
221,31,141715,1,0,0:0:0:0:
269,93,141865,1,12,0:0:0:0:
264,82,142015,1,12,0:0:0:0:
279,204,143365,1,4,0:0:0:0:
278,192,143665,1,8,0:0:0:0:
276,191,143890,1,8,0:0:0:0:
346,116,143965,1,0,0:0:0:0:
346,116,144115,1,0,0:0:0:0:
346,116,144265,1,8,0:0:0:0:
346,116,144415,1,4,0:0:0:0:
346,116,144715,1,4,0:0:0:0:
204,240,144865,1,8,0:0:0:0:
204,240,145015,1,8,0:0:0:0:
128,200,145090,1,8,0:0:0:0:
362,190,145165,1,0,0:0:0:0:
362,190,145315,1,0,0:0:0:0:
362,190,145465,1,8,0:0:0:0:
362,190,145765,1,4,0:0:0:0:
362,190,145915,1,4,0:0:0:0:
336,186,146065,1,8,0:0:0:0:
229,212,146290,1,8,0:0:0:0:
143,107,146365,1,0,0:0:0:0:
158,107,146515,1,0,0:0:0:0:
158,107,146665,1,8,0:0:0:0:
158,107,146815,1,0,0:0:0:0:
290,110,146890,1,0,0:0:0:0:
255,81,146965,1,0,0:0:0:0:
203,117,147115,1,0,0:0:0:0:
159,85,147190,1,0,0:0:0:0:
244,171,147265,1,8,0:0:0:0:
244,171,147415,1,8,0:0:0:0:
244,171,147565,1,0,0:0:0:0:
244,171,147715,1,0,0:0:0:0:
244,171,147865,1,8,0:0:0:0:
391,212,148165,1,4,0:0:0:0:
198,202,148465,1,8,0:0:0:0:
222,112,148540,1,8,0:0:0:0:
222,112,148615,1,0,0:0:0:0:
222,112,148690,1,0,0:0:0:0:
222,112,148765,1,8,0:0:0:0:
222,112,148840,1,8,0:0:0:0:
222,112,148915,1,0,0:0:0:0:
222,112,148990,1,0,0:0:0:0:
222,112,149065,1,8,0:0:0:0:
283,236,149140,1,8,0:0:0:0:
247,209,149215,1,0,0:0:0:0:
227,193,149365,1,8,0:0:0:0:
227,193,149515,1,0,0:0:0:0:
300,123,149590,1,0,0:0:0:0:
300,123,149665,1,8,0:0:0:0:
300,123,149740,1,8,0:0:0:0:
300,123,149815,1,0,0:0:0:0:
300,123,149890,1,0,0:0:0:0:
300,123,149965,1,8,0:0:0:0:
300,123,150040,1,0,0:0:0:0:
300,123,150115,1,8,0:0:0:0:
300,123,150190,1,8,0:0:0:0:
272,265,150265,1,0,0:0:0:0:
221,220,150340,1,0,0:0:0:0:
177,196,150415,1,8,0:0:0:0:
177,196,150565,1,4,0:0:0:0:
370,230,150865,1,0,0:0:0:0:
370,230,151165,1,0,0:0:0:0:
370,230,151465,1,0,0:0:0:0:
299,160,151765,1,8,0:0:0:0:
299,160,152065,1,8,0:0:0:0:
299,160,152365,1,8,0:0:0:0:
299,160,152665,1,8,0:0:0:0:
299,160,152965,1,0,0:0:0:0:
239,200,153265,1,0,0:0:0:0:
239,200,153415,1,8,0:0:0:0:
239,200,153715,1,8,0:0:0:0:
239,200,153865,1,0,0:0:0:0:
339,182,155365,1,8,0:0:0:0:
339,182,155665,1,8,0:0:0:0:
339,182,155965,1,8,0:0:0:0:
339,182,156265,1,8,0:0:0:0:
339,182,156415,1,0,0:0:0:0:
339,182,156715,1,0,0:0:0:0:
339,182,156865,1,8,0:0:0:0:
339,182,157015,1,0,0:0:0:0:
339,182,157165,1,8,0:0:0:0:
339,182,157465,1,8,0:0:0:0:
301,103,157765,1,0,0:0:0:0:
240,103,157915,1,8,0:0:0:0:
217,223,158215,1,0,0:0:0:0:
240,103,158365,1,0,0:0:0:0:
217,223,158665,1,8,0:0:0:0:
217,223,158815,1,8,0:0:0:0:
217,223,159115,1,0,0:0:0:0:
217,223,159265,1,8,0:0:0:0:
217,223,159415,1,8,0:0:0:0:
217,223,159565,1,0,0:0:0:0:
305,215,159865,1,8,0:0:0:0:
327,273,160165,1,0,0:0:0:0:
327,273,160465,1,0,0:0:0:0:
327,273,160765,1,0,0:0:0:0:
327,273,161065,1,0,0:0:0:0:
327,273,161215,1,8,0:0:0:0:
266,224,161515,1,8,0:0:0:0:
266,224,161665,1,0,0:0:0:0:
266,224,161815,1,8,0:0:0:0:
209,168,161965,1,0,0:0:0:0:
252,186,162265,1,0,0:0:0:0:
244,171,162565,1,8,0:0:0:0:
244,171,162715,1,0,0:0:0:0:
236,157,163015,1,8,0:0:0:0:
236,157,163165,1,8,0:0:0:0:
236,157,163465,1,0,0:0:0:0:
236,157,163615,1,0,0:0:0:0:
236,157,163915,1,8,0:0:0:0:
180,116,164065,1,0,0:0:0:0:
180,116,164215,1,0,0:0:0:0:
194,152,164365,1,8,0:0:0:0:
180,116,164665,1,8,0:0:0:0:
330,135,164965,1,4,0:0:0:0:
405,203,165265,1,0,0:0:0:0:
405,203,165565,1,0,0:0:0:0:
405,203,165715,1,8,0:0:0:0:
405,203,165865,1,0,0:0:0:0:
246,230,166015,1,8,0:0:0:0:
246,230,166165,1,0,0:0:0:0:
246,230,166465,1,0,0:0:0:0:
198,147,166765,1,0,0:0:0:0:
253,67,166915,1,8,0:0:0:0:
253,67,167065,1,0,0:0:0:0:
351,184,167365,1,8,0:0:0:0:
372,166,167665,1,8,0:0:0:0:
372,166,167965,1,8,0:0:0:0:
247,182,168115,1,0,0:0:0:0:
247,182,168265,1,8,0:0:0:0:
247,182,168415,1,0,0:0:0:0:
208,193,168565,1,8,0:0:0:0:
208,193,168865,1,8,0:0:0:0:
208,193,169165,1,8,0:0:0:0:
208,193,169315,1,0,0:0:0:0:
208,193,169465,1,8,0:0:0:0:
371,128,169765,1,0,0:0:0:0:
317,48,170065,1,0,0:0:0:0:
317,48,170215,1,8,0:0:0:0:
317,48,170365,1,0,0:0:0:0:
317,48,170515,1,8,0:0:0:0:
279,218,170665,1,0,0:0:0:0:
271,210,170965,1,8,0:0:0:0:
336,196,171265,1,8,0:0:0:0:
171,65,171415,1,0,0:0:0:0:
182,127,171565,1,8,0:0:0:0:
182,127,171715,1,0,0:0:0:0:
182,177,171865,1,8,0:0:0:0:
376,139,172165,1,0,0:0:0:0:
376,139,172240,1,0,0:0:0:0:
376,139,172315,1,0,0:0:0:0:
376,139,172390,1,0,0:0:0:0:
376,139,172465,1,0,0:0:0:0:
376,139,172540,1,0,0:0:0:0:
376,139,172615,1,0,0:0:0:0:
376,139,172690,1,0,0:0:0:0:
376,139,172765,1,8,0:0:0:0:
376,139,172840,1,8,0:0:0:0:
376,139,172915,1,8,0:0:0:0:
376,139,172990,1,8,0:0:0:0:
376,139,173065,1,8,0:0:0:0:
376,139,173140,1,8,0:0:0:0:
376,139,173215,1,8,0:0:0:0:
376,139,173290,1,8,0:0:0:0:
253,23,173365,1,0,0:0:0:0:
247,37,173440,1,0,0:0:0:0:
247,37,173515,1,0,0:0:0:0:
244,43,173590,1,0,0:0:0:0:
232,65,173665,1,0,0:0:0:0:
232,65,173740,1,0,0:0:0:0:
232,65,173815,1,0,0:0:0:0:
233,65,173890,1,0,0:0:0:0:
233,65,173965,1,8,0:0:0:0:
223,160,174265,5,8,0:0:0:0:
349,193,174565,1,4,0:0:0:0:
239,102,174865,1,8,0:0:0:0:
239,102,175015,1,0,0:0:0:0:
231,123,175090,1,0,0:0:0:0:
231,122,175165,1,8,0:0:0:0:
333,70,175240,1,8,0:0:0:0:
227,134,175315,1,0,0:0:0:0:
210,151,175465,1,8,0:0:0:0:
210,229,175615,1,0,0:0:0:0:
187,280,175690,1,0,0:0:0:0:
215,300,175765,1,8,0:0:0:0:
126,253,175840,1,8,0:0:0:0:
156,222,175915,1,0,0:0:0:0:
232,77,175990,1,0,0:0:0:0:
232,77,176065,1,8,0:0:0:0:
161,219,176215,1,0,0:0:0:0:
162,208,176290,1,0,0:0:0:0:
160,208,176365,1,8,0:0:0:0:
159,208,176440,1,8,0:0:0:0:
239,217,176515,1,0,0:0:0:0:
321,254,176590,1,0,0:0:0:0:
181,168,176665,1,8,0:0:0:0:
170,215,176740,1,0,0:0:0:0:
169,209,176815,1,8,0:0:0:0:
224,77,176890,1,8,0:0:0:0:
163,205,176965,1,0,0:0:0:0:
285,159,177115,1,8,0:0:0:0:
214,167,177190,1,8,0:0:0:0:
230,280,177265,1,8,0:0:0:0:
184,257,177415,1,8,0:0:0:0:
184,257,177565,1,0,0:0:0:0:
286,244,177640,1,0,0:0:0:0:
184,257,177715,1,0,0:0:0:0:
277,105,177790,1,0,0:0:0:0:
250,244,177865,1,8,0:0:0:0:
327,245,178015,1,4,0:0:0:0:
256,188,178315,1,0,0:0:0:0:
256,188,178465,1,8,0:0:0:0:
284,219,178615,1,0,0:0:0:0:
228,244,178690,1,0,0:0:0:0:
158,193,178765,1,8,0:0:0:0:
361,238,178915,1,8,0:0:0:0:
326,85,178990,1,8,0:0:0:0:
336,229,179065,1,0,0:0:0:0:
338,223,179140,1,0,0:0:0:0:
339,223,179215,1,0,0:0:0:0:
323,217,179290,1,0,0:0:0:0:
308,218,179365,1,8,0:0:0:0:
239,102,179665,1,0,0:0:0:0:
239,102,179815,1,8,0:0:0:0:
231,123,179890,1,8,0:0:0:0:
231,122,179965,1,0,0:0:0:0:
290,118,180040,1,0,0:0:0:0:
227,134,180115,1,8,0:0:0:0:
210,151,180265,1,0,0:0:0:0:
210,229,180415,1,8,0:0:0:0:
187,280,180490,1,8,0:0:0:0:
215,300,180565,1,0,0:0:0:0:
126,253,180640,1,0,0:0:0:0:
156,222,180715,1,8,0:0:0:0:
275,185,180790,1,0,0:0:0:0:
156,222,180865,1,0,0:0:0:0:
161,219,181015,1,8,0:0:0:0:
162,208,181090,1,8,0:0:0:0:
160,208,181165,1,0,0:0:0:0:
159,208,181240,1,0,0:0:0:0:
239,217,181315,1,8,0:0:0:0:
321,254,181390,1,8,0:0:0:0:
181,168,181465,1,0,0:0:0:0:
170,215,181540,1,8,0:0:0:0:
169,209,181615,1,0,0:0:0:0:
249,146,181690,1,0,0:0:0:0:
163,205,181765,1,8,0:0:0:0:
285,159,181915,1,0,0:0:0:0:
214,167,181990,1,0,0:0:0:0:
230,280,182065,1,0,0:0:0:0:
184,257,182215,1,0,0:0:0:0:
184,257,182365,1,8,0:0:0:0:
286,244,182440,1,8,0:0:0:0:
180,57,182515,1,8,0:0:0:0:
162,50,182590,1,8,0:0:0:0:
250,244,182665,1,0,0:0:0:0:
327,245,182815,1,12,0:0:0:0:
256,188,183115,1,8,0:0:0:0:
256,188,183265,1,0,0:0:0:0:
284,219,183415,1,8,0:0:0:0:
228,244,183490,1,8,0:0:0:0:
158,193,183565,1,0,0:0:0:0:
361,238,183715,1,0,0:0:0:0:
157,54,183790,1,0,0:0:0:0:
336,229,183865,1,8,0:0:0:0:
338,223,183940,1,8,0:0:0:0:
339,223,184015,1,8,0:0:0:0:
308,218,184165,1,4,0:0:0:0:
329,289,184465,1,8,0:0:0:0:
231,266,184615,1,0,0:0:0:0:
190,253,184690,1,0,0:0:0:0:
231,266,184765,1,0,0:0:0:0:
190,253,184915,1,0,0:0:0:0:
227,151,185065,1,8,0:0:0:0:
260,65,185140,1,8,0:0:0:0:
227,151,185215,1,0,0:0:0:0:
372,136,185365,1,8,0:0:0:0:
267,157,185665,1,0,0:0:0:0:
262,150,185815,1,8,0:0:0:0:
224,135,185890,1,8,0:0:0:0:
262,150,185965,1,8,0:0:0:0:
216,103,186115,1,0,0:0:0:0:
216,103,186265,1,8,0:0:0:0:
238,53,186340,1,8,0:0:0:0:
216,103,186415,1,8,0:0:0:0:
183,126,186565,1,0,0:0:0:0:
266,174,186865,1,8,0:0:0:0:
266,174,187015,1,0,0:0:0:0:
228,200,187090,1,0,0:0:0:0:
266,174,187165,1,0,0:0:0:0:
180,173,187315,1,0,0:0:0:0:
180,173,187465,1,8,0:0:0:0:
193,140,187615,1,4,0:0:0:0:
222,237,187915,1,0,0:0:0:0:
233,246,188065,1,8,0:0:0:0:
233,246,188215,1,0,0:0:0:0:
233,229,188290,1,0,0:0:0:0:
235,50,188365,1,8,0:0:0:0:
217,42,188440,1,8,0:0:0:0:
244,139,188515,1,0,0:0:0:0:
244,139,188665,1,8,0:0:0:0:
312,167,188740,1,8,0:0:0:0:
149,150,188815,1,8,0:0:0:0:
324,118,188965,1,4,0:0:0:0:
329,289,189265,1,8,0:0:0:0:
231,266,189415,1,0,0:0:0:0:
190,253,189490,1,0,0:0:0:0:
231,266,189565,1,0,0:0:0:0:
190,253,189715,1,0,0:0:0:0:
227,151,189865,1,8,0:0:0:0:
215,41,189940,1,8,0:0:0:0:
227,151,190015,1,0,0:0:0:0:
372,136,190165,1,8,0:0:0:0:
267,157,190465,1,0,0:0:0:0:
262,150,190615,1,8,0:0:0:0:
224,135,190690,1,8,0:0:0:0:
262,150,190765,1,8,0:0:0:0:
216,103,190915,1,0,0:0:0:0:
216,103,191065,1,8,0:0:0:0:
398,189,191215,1,4,0:0:0:0:
260,232,191515,1,0,0:0:0:0:
260,232,191665,1,8,0:0:0:0:
241,236,191815,1,0,0:0:0:0:
158,208,191890,1,0,0:0:0:0:
133,154,191965,1,8,0:0:0:0:
133,154,192115,1,0,0:0:0:0:
287,312,192265,1,8,0:0:0:0:
199,89,192415,1,8,0:0:0:0:
199,89,192490,1,8,0:0:0:0:
170,73,192565,1,0,0:0:0:0:
307,149,192715,1,0,0:0:0:0:
307,149,192865,1,8,0:0:0:0:
187,117,193015,1,8,0:0:0:0:
187,117,193165,1,0,0:0:0:0:
187,117,193240,1,0,0:0:0:0:
187,117,193315,1,0,0:0:0:0:
187,117,193390,1,0,0:0:0:0:
187,117,193465,1,8,0:0:0:0:
308,218,193765,1,4,0:0:0:0:
329,289,194065,1,8,0:0:0:0:
231,266,194215,1,0,0:0:0:0:
190,253,194290,1,0,0:0:0:0:
231,266,194365,1,0,0:0:0:0:
190,253,194515,1,0,0:0:0:0:
227,151,194665,1,8,0:0:0:0:
260,65,194740,1,8,0:0:0:0:
227,151,194815,1,0,0:0:0:0:
372,136,194965,1,8,0:0:0:0:
267,157,195265,1,0,0:0:0:0:
262,150,195415,1,8,0:0:0:0:
224,135,195490,1,8,0:0:0:0:
262,150,195565,1,8,0:0:0:0:
216,103,195715,1,0,0:0:0:0:
216,103,195865,1,8,0:0:0:0:
238,53,195940,1,8,0:0:0:0:
216,103,196015,1,8,0:0:0:0:
183,126,196165,1,0,0:0:0:0:
266,174,196465,1,8,0:0:0:0:
266,174,196615,1,0,0:0:0:0:
228,200,196690,1,0,0:0:0:0:
266,174,196765,1,0,0:0:0:0:
180,173,196915,1,0,0:0:0:0:
180,173,197065,1,8,0:0:0:0:
193,140,197215,1,4,0:0:0:0:
222,237,197515,1,0,0:0:0:0:
233,246,197665,1,8,0:0:0:0:
233,246,197815,1,0,0:0:0:0:
233,229,197890,1,0,0:0:0:0:
235,50,197965,1,8,0:0:0:0:
217,42,198040,1,8,0:0:0:0:
244,139,198115,1,0,0:0:0:0:
244,139,198265,1,8,0:0:0:0:
312,167,198340,1,8,0:0:0:0:
149,150,198415,1,8,0:0:0:0:
324,118,198565,1,4,0:0:0:0:
329,289,198865,1,8,0:0:0:0:
231,266,199015,1,0,0:0:0:0:
190,253,199090,1,0,0:0:0:0:
231,266,199165,1,0,0:0:0:0:
190,253,199315,1,0,0:0:0:0:
227,151,199465,1,8,0:0:0:0:
215,41,199540,1,8,0:0:0:0:
227,151,199615,1,0,0:0:0:0:
372,136,199765,1,8,0:0:0:0:
267,157,200065,1,0,0:0:0:0:
262,150,200215,1,8,0:0:0:0:
224,135,200290,1,8,0:0:0:0:
262,150,200365,1,8,0:0:0:0:
216,103,200515,1,0,0:0:0:0:
216,103,200665,1,8,0:0:0:0:
398,189,200815,1,4,0:0:0:0:
320,116,201115,1,0,0:0:0:0:
320,116,201265,1,8,0:0:0:0:
320,116,201415,1,0,0:0:0:0:
320,116,201565,1,8,0:0:0:0:
320,116,201865,1,8,0:0:0:0:
312,117,202015,1,0,0:0:0:0:
263,110,202315,1,0,0:0:0:0:
263,110,202465,1,8,0:0:0:0:
263,118,202615,1,8,0:0:0:0:
256,124,202765,1,0,0:0:0:0:
