osu file format v14

[General]
AudioFilename: audio.mp3
AudioLeadIn: 0
PreviewTime: 45415
Countdown: 0
SampleSet: Normal
StackLeniency: 0.7
Mode: 1
LetterboxInBreaks: 0
WidescreenStoryboard: 1

[Editor]
DistanceSpacing: 0.9
BeatDivisor: 4
GridSize: 4
TimelineZoom: 1.2

[Metadata]
Title:HIBANA feat. Hatsune Miku
TitleUnicode:ヒバナ feat. 初音ミク
Artist:DECO*27
ArtistUnicode:DECO*27
Creator:Chromoxx
Version:Futsuu
Source:
Tags:japanese electronic 10th anniversary re:start 八三 vocaloid rockwell mes
BeatmapID:2409333
BeatmapSetID:875020

[Difficulty]
HPDrainRate:7
CircleSize:5
OverallDifficulty:4
ApproachRate:5
SliderMultiplier:1.4
SliderTickRate:1

[Events]
//Background and Video events
0,0,"bg.jpg",0,150
//Break Periods
//Storyboard Layer 0 (Background)
//Storyboard Layer 1 (Fail)
//Storyboard Layer 2 (Pass)
//Storyboard Layer 3 (Foreground)
//Storyboard Layer 4 (Overlay)
//Storyboard Sound Samples

[TimingPoints]
565,300,4,1,0,80,1,0
6640,-100,4,1,0,60,0,0
7765,-100,4,1,0,80,0,0
17515,-100,4,1,0,60,0,0
26965,-100,4,1,0,80,0,0
46165,-100,4,1,0,90,0,1
64165,-100,4,1,0,90,0,0
65365,-100,4,1,0,80,0,0
74965,-100,4,1,0,60,0,0
84565,-100,4,1,0,80,0,0
103765,-100,4,1,0,90,0,1
121765,-100,4,1,0,90,0,0
122965,-100,4,1,0,60,0,0
130165,-100,4,1,0,65,0,0
130765,-100,4,1,0,70,0,0
132565,-100,4,1,0,80,0,0
155365,-100,4,1,0,70,0,0
174565,-100,4,1,0,90,0,1
200815,-100,4,1,0,60,0,0

[HitObjects]
333,176,565,5,12,0:0:0:0:
261,87,1165,1,12,0:0:0:0:
250,79,1765,1,12,0:0:0:0:
250,79,2365,1,12,0:0:0:0:
363,143,2965,1,0,0:0:0:0:
297,262,3415,1,0,0:0:0:0:
389,189,3865,1,0,0:0:0:0:
297,262,4165,1,8,0:0:0:0:
297,262,4615,1,8,0:0:0:0:
202,81,5065,1,8,0:0:0:0:
334,181,5365,1,0,0:0:0:0:
334,181,5665,1,8,0:0:0:0:
334,181,5965,1,0,0:0:0:0:
334,181,6115,1,0,0:0:0:0:
334,181,6265,1,8,0:0:0:0:
334,181,6565,1,0,0:0:0:0:
233,75,7765,1,0,0:0:0:0:
155,205,8065,1,8,0:0:0:0:
233,75,8665,1,8,0:0:0:0:
233,75,8965,1,0,0:0:0:0:
233,75,9265,1,8,0:0:0:0:
233,75,9565,1,0,0:0:0:0:
284,172,10165,1,8,0:0:0:0:
284,172,10465,1,0,0:0:0:0:
268,245,11065,1,0,0:0:0:0:
268,245,11365,1,8,0:0:0:0:
268,245,11665,1,0,0:0:0:0:
268,245,11965,1,8,0:0:0:0:
268,245,12565,1,0,0:0:0:0:
250,100,12865,1,8,0:0:0:0:
250,100,13465,1,8,0:0:0:0:
250,100,13765,1,0,0:0:0:0:
250,100,14065,1,8,0:0:0:0:
250,100,14365,1,0,0:0:0:0:
250,100,14965,1,8,0:0:0:0:
182,208,15565,1,8,0:0:0:0:
273,186,16165,1,0,0:0:0:0:
157,211,16465,1,0,0:0:0:0:
273,186,16765,1,8,0:0:0:0:
273,186,17365,1,4,0:0:0:0:
329,203,18565,1,8,0:0:0:0:
190,197,19015,1,0,0:0:0:0:
329,203,19765,1,8,0:0:0:0:
291,162,20965,1,0,0:0:0:0:
298,183,21415,1,8,0:0:0:0:
201,64,22165,1,4,0:0:0:0:
202,70,22315,1,4,0:0:0:0:
234,165,23365,1,12,0:0:0:0:
234,165,23515,1,12,0:0:0:0:
301,127,24565,1,4,0:0:0:0:
301,127,24715,1,4,0:0:0:0:
313,176,25765,1,12,0:0:0:0:
191,132,25915,1,4,0:0:0:0:
167,173,26215,1,4,0:0:0:0:
54,55,26515,1,4,0:0:0:0:
54,55,26665,1,12,0:0:0:0:
304,200,26965,1,4,0:0:0:0:
282,221,27565,1,8,0:0:0:0:
372,196,28015,1,0,0:0:0:0:
220,185,28315,1,8,0:0:0:0:
220,185,28615,1,0,0:0:0:0:
220,185,29365,1,8,0:0:0:0:
220,185,29965,1,0,0:0:0:0:
220,185,30415,1,8,0:0:0:0:
220,185,30715,1,0,0:0:0:0:
220,185,31015,1,8,0:0:0:0:
241,105,31765,1,0,0:0:0:0:
241,105,32365,1,8,0:0:0:0:
241,105,32815,1,0,0:0:0:0:
241,105,33115,1,8,0:0:0:0:
241,105,33415,1,0,0:0:0:0:
329,191,34165,1,8,0:0:0:0:
329,191,34765,1,0,0:0:0:0:
247,160,35065,1,0,0:0:0:0:
329,191,35365,1,8,0:0:0:0:
247,160,35665,1,0,0:0:0:0:
247,160,35965,1,8,0:0:0:0:
247,160,36565,1,4,0:0:0:0:
218,134,37615,1,12,0:0:0:0:
218,134,37915,1,12,0:0:0:0:
219,110,38965,1,4,0:0:0:0:
219,110,40015,1,12,0:0:0:0:
201,157,40315,1,12,0:0:0:0:
219,235,41365,1,4,0:0:0:0:
339,221,41965,1,8,0:0:0:0:
240,123,42265,1,0,0:0:0:0:
240,123,42565,1,8,0:0:0:0:
278,168,42865,1,8,0:0:0:0:
268,68,43165,1,0,0:0:0:0:
349,153,43765,1,12,0:0:0:0:
344,162,44215,1,12,0:0:0:0:
344,162,44665,1,12,0:0:0:0:
355,114,45565,1,8,0:0:0:0:
171,76,45715,1,8,0:0:0:0:
171,76,45865,1,8,0:0:0:0:
279,114,46165,1,4,0:0:0:0:
275,265,46765,1,8,0:0:0:0:
275,265,47065,1,8,0:0:0:0:
221,66,47215,1,0,0:0:0:0:
231,78,47515,1,0,0:0:0:0:
231,77,47665,1,8,0:0:0:0:
248,129,47965,1,0,0:0:0:0:
248,129,48265,1,0,0:0:0:0:
358,179,48565,1,8,0:0:0:0:
175,118,49165,1,8,0:0:0:0:
212,241,49615,1,4,0:0:0:0:
263,281,50065,1,8,0:0:0:0:
263,281,50215,1,8,0:0:0:0:
213,265,50365,1,8,0:0:0:0:
193,220,50665,1,0,0:0:0:0:
258,161,50965,1,12,0:0:0:0:
249,145,51565,1,0,0:0:0:0:
174,120,51865,1,0,0:0:0:0:
249,145,52015,1,8,0:0:0:0:
174,120,52315,1,8,0:0:0:0:
174,120,52465,1,0,0:0:0:0:
181,182,52765,1,8,0:0:0:0:
199,225,53065,1,8,0:0:0:0:
289,249,53365,1,0,0:0:0:0:
254,201,53965,1,0,0:0:0:0:
233,148,54415,1,12,0:0:0:0:
216,105,54865,1,0,0:0:0:0:
216,105,55015,1,0,0:0:0:0:
216,105,55165,1,0,0:0:0:0:
216,105,55465,1,8,0:0:0:0:
210,103,55765,1,4,0:0:0:0:
219,133,56365,1,8,0:0:0:0:
216,118,56665,1,8,0:0:0:0:
216,118,56965,1,0,0:0:0:0:
216,118,57265,1,0,0:0:0:0:
278,196,57565,1,8,0:0:0:0:
223,177,57865,1,8,0:0:0:0:
209,172,58165,1,0,0:0:0:0:
320,274,58765,1,8,0:0:0:0:
321,182,59215,1,4,0:0:0:0:
181,102,59965,1,8,0:0:0:0:
284,154,60565,1,4,0:0:0:0:
335,193,61165,1,8,0:0:0:0:
335,193,61465,1,8,0:0:0:0:
335,193,61765,1,0,0:0:0:0:
335,193,62065,1,0,0:0:0:0:
335,193,62365,1,8,0:0:0:0:
335,193,62815,1,4,0:0:0:0:
333,135,63265,1,8,0:0:0:0:
226,87,63565,1,8,0:0:0:0:
226,87,63865,1,8,0:0:0:0:
257,203,64165,1,0,0:0:0:0:
233,75,65365,1,0,0:0:0:0:
155,205,65665,1,8,0:0:0:0:
233,75,66265,1,8,0:0:0:0:
233,75,66565,1,0,0:0:0:0:
233,75,66865,1,8,0:0:0:0:
233,75,67165,1,0,0:0:0:0:
284,172,67765,1,8,0:0:0:0:
284,172,68065,1,0,0:0:0:0:
268,245,68665,1,0,0:0:0:0:
268,245,68965,1,8,0:0:0:0:
268,245,69265,1,0,0:0:0:0:
268,245,69565,1,8,0:0:0:0:
268,245,70165,1,0,0:0:0:0:
250,100,70465,1,8,0:0:0:0:
250,100,71065,1,8,0:0:0:0:
250,100,71365,1,0,0:0:0:0:
250,100,71665,1,8,0:0:0:0:
250,100,71965,1,0,0:0:0:0:
250,100,72565,1,12,0:0:0:0:
323,156,73765,1,8,0:0:0:0:
323,156,74065,1,8,0:0:0:0:
323,156,74365,1,8,0:0:0:0:
275,202,74965,1,0,0:0:0:0:
266,72,76015,1,8,0:0:0:0:
175,188,76615,1,0,0:0:0:0:
320,162,77365,1,8,0:0:0:0:
320,162,78415,1,0,0:0:0:0:
322,150,79015,1,8,0:0:0:0:
229,131,79765,1,0,0:0:0:0:
229,131,80815,1,8,0:0:0:0:
229,131,81415,1,0,0:0:0:0:
229,131,82165,1,8,0:0:0:0:
261,141,83215,1,4,0:0:0:0:
259,97,83665,1,0,0:0:0:0:
181,166,83965,1,8,0:0:0:0:
181,166,84115,1,8,0:0:0:0:
181,166,84265,1,8,0:0:0:0:
304,200,84565,1,4,0:0:0:0:
282,221,85165,1,8,0:0:0:0:
372,196,85615,1,0,0:0:0:0:
220,185,85915,1,8,0:0:0:0:
220,185,86215,1,0,0:0:0:0:
220,185,86965,1,8,0:0:0:0:
220,185,87565,1,0,0:0:0:0:
220,185,88015,1,8,0:0:0:0:
220,185,88315,1,0,0:0:0:0:
220,185,88615,1,8,0:0:0:0:
241,105,89365,1,0,0:0:0:0:
241,105,89965,1,8,0:0:0:0:
241,105,90415,1,0,0:0:0:0:
241,105,90715,1,8,0:0:0:0:
241,105,91015,1,0,0:0:0:0:
329,191,91765,1,8,0:0:0:0:
329,191,92365,1,0,0:0:0:0:
247,160,92665,1,0,0:0:0:0:
329,191,92965,1,8,0:0:0:0:
247,160,93265,1,0,0:0:0:0:
247,160,93565,1,8,0:0:0:0:
247,160,94165,1,4,0:0:0:0:
218,134,95215,1,12,0:0:0:0:
218,134,95515,1,12,0:0:0:0:
219,110,96565,1,4,0:0:0:0:
219,110,97615,1,12,0:0:0:0:
201,157,97915,1,12,0:0:0:0:
219,235,98965,1,4,0:0:0:0:
339,221,99565,1,8,0:0:0:0:
240,123,99865,1,0,0:0:0:0:
240,123,100165,1,8,0:0:0:0:
278,168,100465,1,8,0:0:0:0:
268,68,100765,1,0,0:0:0:0:
349,153,101365,1,12,0:0:0:0:
344,162,101815,1,12,0:0:0:0:
344,162,102265,1,12,0:0:0:0:
355,114,103165,1,8,0:0:0:0:
171,76,103315,1,8,0:0:0:0:
171,76,103465,1,8,0:0:0:0:
279,114,103765,1,4,0:0:0:0:
275,265,104365,1,8,0:0:0:0:
275,265,104665,1,8,0:0:0:0:
221,66,104815,1,0,0:0:0:0:
231,78,105115,1,0,0:0:0:0:
231,77,105265,1,8,0:0:0:0:
248,129,105565,1,0,0:0:0:0:
248,129,105865,1,0,0:0:0:0:
358,179,106165,1,8,0:0:0:0:
175,118,106765,1,8,0:0:0:0:
212,241,107215,1,4,0:0:0:0:
263,281,107665,1,8,0:0:0:0:
263,281,107815,1,8,0:0:0:0:
213,265,107965,1,8,0:0:0:0:
193,220,108265,1,0,0:0:0:0:
258,161,108565,1,12,0:0:0:0:
249,145,109165,1,0,0:0:0:0:
174,120,109465,1,0,0:0:0:0:
249,145,109615,1,8,0:0:0:0:
174,120,109915,1,8,0:0:0:0:
174,120,110065,1,0,0:0:0:0:
181,182,110365,1,8,0:0:0:0:
199,225,110665,1,8,0:0:0:0:
289,249,110965,1,0,0:0:0:0:
254,201,111565,1,0,0:0:0:0:
233,148,112015,1,12,0:0:0:0:
216,105,112465,1,0,0:0:0:0:
216,105,112615,1,0,0:0:0:0:
216,105,112765,1,0,0:0:0:0:
216,105,113065,1,8,0:0:0:0:
210,103,113365,1,4,0:0:0:0:
219,133,113965,1,8,0:0:0:0:
216,118,114265,1,8,0:0:0:0:
216,118,114565,1,0,0:0:0:0:
216,118,114865,1,0,0:0:0:0:
278,196,115165,1,8,0:0:0:0:
223,177,115465,1,8,0:0:0:0:
209,172,115765,1,0,0:0:0:0:
320,274,116365,1,8,0:0:0:0:
321,182,116815,1,4,0:0:0:0:
181,102,117565,1,8,0:0:0:0:
284,154,118165,1,4,0:0:0:0:
335,193,118765,1,8,0:0:0:0:
335,193,119065,1,8,0:0:0:0:
335,193,119365,1,0,0:0:0:0:
335,193,119665,1,0,0:0:0:0:
335,193,119965,1,8,0:0:0:0:
335,193,120415,1,4,0:0:0:0:
333,135,120865,1,8,0:0:0:0:
226,87,121165,1,8,0:0:0:0:
226,87,121465,1,8,0:0:0:0:
257,203,121765,1,0,0:0:0:0:
309,219,122665,1,8,0:0:0:0:
274,207,122965,1,4,0:0:0:0:
253,157,127765,1,0,0:0:0:0:
253,157,128365,1,0,0:0:0:0:
295,42,128965,1,8,0:0:0:0:
347,270,129565,1,8,0:0:0:0:
253,157,130165,1,0,0:0:0:0:
253,157,130465,1,0,0:0:0:0:
253,157,130765,1,0,0:0:0:0:
253,157,131065,1,0,0:0:0:0:
253,157,131365,1,8,0:0:0:0:
353,60,131965,1,8,0:0:0:0:
341,65,132115,1,8,0:0:0:0:
340,65,132265,1,8,0:0:0:0:
273,97,132565,1,4,0:0:0:0:
270,224,133165,1,8,0:0:0:0:
270,224,133765,1,0,0:0:0:0:
270,224,134065,1,0,0:0:0:0:
147,154,134365,1,8,0:0:0:0:
147,154,134515,1,8,0:0:0:0:
372,245,134965,1,0,0:0:0:0:
234,95,135115,1,0,0:0:0:0:
234,95,135265,1,0,0:0:0:0:
321,138,135565,1,8,0:0:0:0:
256,177,135715,1,0,0:0:0:0:
256,177,136165,1,8,0:0:0:0:
194,207,136465,1,0,0:0:0:0:
194,207,136615,1,0,0:0:0:0:
194,207,136765,1,8,0:0:0:0:
234,273,137365,1,4,0:0:0:0:
340,216,137965,1,8,0:0:0:0:
340,216,138565,1,0,0:0:0:0:
253,182,138865,1,0,0:0:0:0:
253,182,139165,1,8,0:0:0:0:
253,182,139315,1,8,0:0:0:0:
218,277,139765,1,0,0:0:0:0:
169,95,139915,1,0,0:0:0:0:
169,95,140065,1,0,0:0:0:0:
197,148,140365,1,8,0:0:0:0:
197,148,140515,1,0,0:0:0:0:
179,135,140965,1,8,0:0:0:0:
165,83,141265,1,0,0:0:0:0:
255,174,141565,1,8,0:0:0:0:
132,119,141865,1,8,0:0:0:0:
150,148,142015,1,8,0:0:0:0:
247,160,143365,1,4,0:0:0:0:
218,134,144415,1,12,0:0:0:0:
218,134,144715,1,12,0:0:0:0:
219,110,145765,1,4,0:0:0:0:
219,110,146815,1,12,0:0:0:0:
201,157,147115,1,12,0:0:0:0:
219,235,148165,1,4,0:0:0:0:
339,221,148765,1,8,0:0:0:0:
240,123,149065,1,0,0:0:0:0:
240,123,149365,1,8,0:0:0:0:
278,168,149665,1,8,0:0:0:0:
268,68,149965,1,0,0:0:0:0:
142,249,150265,1,0,0:0:0:0:
349,153,150565,1,8,0:0:0:0:
344,162,151015,1,8,0:0:0:0:
344,162,151465,1,8,0:0:0:0:
245,166,152965,1,12,0:0:0:0:
245,166,153415,1,12,0:0:0:0:
245,166,153865,1,12,0:0:0:0:
320,208,155365,1,0,0:0:0:0:
193,186,155965,1,8,0:0:0:0:
193,186,156565,1,0,0:0:0:0:
193,186,156865,1,0,0:0:0:0:
193,186,157165,1,8,0:0:0:0:
318,146,157765,1,0,0:0:0:0:
318,146,158365,1,8,0:0:0:0:
318,146,158815,1,0,0:0:0:0:
245,147,159265,1,8,0:0:0:0:
165,94,159565,1,0,0:0:0:0:
165,94,160165,1,8,0:0:0:0:
165,94,160765,1,0,0:0:0:0:
165,94,161365,1,8,0:0:0:0:
281,151,161665,1,8,0:0:0:0:
281,151,161965,1,0,0:0:0:0:
281,151,162565,1,8,0:0:0:0:
281,151,163165,1,0,0:0:0:0:
281,151,163615,1,8,0:0:0:0:
198,105,164065,1,0,0:0:0:0:
198,105,164365,1,8,0:0:0:0:
317,132,164965,1,4,0:0:0:0:
206,214,165565,1,8,0:0:0:0:
206,214,165865,1,8,0:0:0:0:
206,214,166165,1,0,0:0:0:0:
206,214,166465,1,8,0:0:0:0:
206,214,166765,1,0,0:0:0:0:
187,142,167365,1,8,0:0:0:0:
238,189,167965,1,0,0:0:0:0:
238,189,168265,1,0,0:0:0:0:
238,189,168565,1,8,0:0:0:0:
238,189,168865,1,0,0:0:0:0:
238,189,169165,1,8,0:0:0:0:
353,128,169765,1,0,0:0:0:0:
249,195,170365,1,8,0:0:0:0:
249,195,170665,1,8,0:0:0:0:
249,195,170965,1,0,0:0:0:0:
249,195,171265,1,8,0:0:0:0:
224,167,171565,1,0,0:0:0:0:
174,110,171865,1,0,0:0:0:0:
274,124,172165,2,4,L|309:131,24,35
279,114,174565,1,4,0:0:0:0:
275,265,175165,1,8,0:0:0:0:
275,265,175465,1,8,0:0:0:0:
221,66,175615,1,0,0:0:0:0:
231,78,175915,1,0,0:0:0:0:
231,77,176065,1,8,0:0:0:0:
248,129,176365,1,0,0:0:0:0:
248,129,176665,1,0,0:0:0:0:
358,179,176965,1,8,0:0:0:0:
175,118,177565,1,8,0:0:0:0:
212,241,178015,1,4,0:0:0:0:
263,281,178465,1,8,0:0:0:0:
263,281,178615,1,8,0:0:0:0:
213,265,178765,1,8,0:0:0:0:
193,220,179065,1,0,0:0:0:0:
258,161,179365,1,12,0:0:0:0:
249,145,179965,1,0,0:0:0:0:
174,120,180265,1,0,0:0:0:0:
249,145,180415,1,8,0:0:0:0:
174,120,180715,1,8,0:0:0:0:
174,120,180865,1,0,0:0:0:0:
181,182,181165,1,8,0:0:0:0:
199,225,181465,1,8,0:0:0:0:
289,249,181765,1,0,0:0:0:0:
254,201,182365,1,0,0:0:0:0:
233,148,182815,1,12,0:0:0:0:
216,105,183265,1,0,0:0:0:0:
216,105,183415,1,0,0:0:0:0:
216,105,183565,1,0,0:0:0:0:
216,105,183865,1,8,0:0:0:0:
210,103,184165,1,4,0:0:0:0:
219,133,184765,1,8,0:0:0:0:
216,118,185065,1,8,0:0:0:0:
216,118,185365,1,0,0:0:0:0:
216,118,185665,1,0,0:0:0:0:
278,196,185965,1,8,0:0:0:0:
223,177,186265,1,8,0:0:0:0:
209,172,186565,1,0,0:0:0:0:
320,274,187165,1,8,0:0:0:0:
321,182,187615,1,4,0:0:0:0:
181,102,188365,1,8,0:0:0:0:
284,154,188965,1,4,0:0:0:0:
335,193,189565,1,8,0:0:0:0:
335,193,189865,1,8,0:0:0:0:
335,193,190165,1,0,0:0:0:0:
335,193,190465,1,0,0:0:0:0:
335,193,190765,1,8,0:0:0:0:
335,193,191215,1,4,0:0:0:0:
151,195,191665,1,0,0:0:0:0:
226,87,191965,1,8,0:0:0:0:
229,191,192265,1,8,0:0:0:0:
257,203,192565,1,0,0:0:0:0:
248,124,193165,1,8,0:0:0:0:
210,103,193765,1,4,0:0:0:0:
219,133,194365,1,8,0:0:0:0:
216,118,194665,1,8,0:0:0:0:
216,118,194965,1,0,0:0:0:0:
216,118,195265,1,0,0:0:0:0:
278,196,195565,1,8,0:0:0:0:
223,177,195865,1,8,0:0:0:0:
209,172,196165,1,0,0:0:0:0:
320,274,196765,1,8,0:0:0:0:
321,182,197215,1,4,0:0:0:0:
181,102,197965,1,8,0:0:0:0:
284,154,198565,1,4,0:0:0:0:
335,193,199165,1,8,0:0:0:0:
335,193,199465,1,8,0:0:0:0:
335,193,199765,1,0,0:0:0:0:
335,193,200065,1,0,0:0:0:0:
335,193,200365,1,8,0:0:0:0:
335,193,200815,1,0,0:0:0:0:
151,195,201265,1,0,0:0:0:0:
226,87,201565,1,8,0:0:0:0:
257,203,202015,1,0,0:0:0:0:
248,124,202765,1,8,0:0:0:0:
