osu file format v14

[General]
AudioFilename: Ghost Rule.mp3
AudioLeadIn: 0
PreviewTime: 48076
Countdown: 0
SampleSet: Normal
StackLeniency: 0.3
Mode: 0
LetterboxInBreaks: 0
EpilepsyWarning: 1
WidescreenStoryboard: 0

[Editor]
Bookmarks: 111290,111362,111433,111505,111576,123576,148719,151005
DistanceSpacing: 2
BeatDivisor: 4
GridSize: 4
TimelineZoom: 3.199999

[Metadata]
Title:Ghost Rule
TitleUnicode:ゴーストルール
Artist:DECO*27
ArtistUnicode:DECO*27
Creator:Awaken
Version:z1085684963's Extra
Source:
Tags:ボーカロイド vocaloid Naoki Itai MUSIC FOR MUSIC Regraz Mafumafu Evil_Twilight HabiHolic Flask Nasya N_a_s_y_a caren_sk val0108 z1085684963 hatsune miku 初音ミク japanese novelty
BeatmapID:2168434
BeatmapSetID:413117

[Difficulty]
HPDrainRate:6
CircleSize:3.5
OverallDifficulty:8
ApproachRate:9.3
SliderMultiplier:1.6
SliderTickRate:1

[Events]
//Background and Video events
0,0,"bg.jpg",0,0
//Break Periods
2,9490,17863
2,66633,74292
2,75633,83006
2,123776,132149
2,151205,156149
//Storyboard Layer 0 (Background)
//Storyboard Layer 1 (Fail)
//Storyboard Layer 2 (Pass)
//Storyboard Layer 3 (Foreground)
//Storyboard Layer 4 (Overlay)
//Storyboard Sound Samples

[TimingPoints]
148,285.714285714286,4,1,1,70,1,0
18819,-100,4,3,0,60,0,0
27105,-100,4,1,1,50,0,0
27390,-100,4,1,1,70,0,0
27676,-100,4,1,1,75,0,0
36719,-200,4,1,1,75,0,0
37219,-200,4,1,1,10,0,0
37290,-200,4,1,1,70,0,0
38076,-200,4,1,1,10,0,0
38148,-200,4,1,1,70,0,0
39505,-200,4,1,1,10,0,0
39576,-200,4,1,1,70,0,0
40362,-200,4,1,1,10,0,0
40433,-200,4,1,1,70,0,0
40719,-100,4,1,1,70,0,0
41290,-200,4,1,1,70,0,0
41790,-200,4,1,1,10,0,0
41862,-200,4,1,1,70,0,0
42076,-200,4,1,1,10,0,0
42148,-200,4,1,1,70,0,0
42933,-200,4,1,1,10,0,0
43005,-200,4,1,1,70,0,0
43219,-200,4,1,1,10,0,0
43290,-200,4,1,1,70,0,0
43505,-200,4,1,1,10,0,0
43576,-200,4,1,1,70,0,0
44076,-200,4,1,1,10,0,0
44148,-200,4,1,1,70,0,0
44362,-200,4,1,1,10,0,0
44433,-200,4,1,1,70,0,0
44648,-200,4,1,1,10,0,0
44719,-200,4,1,1,70,0,0
45290,-100,4,1,1,70,0,0
45862,-100,4,2,1,70,0,0
48148,-100,4,1,1,80,0,0
48576,-100,4,1,1,80,0,0
56148,-100,4,3,0,80,0,0
57290,-100,4,1,1,80,0,0
58862,-100,4,1,1,80,0,0
65862,-100,4,2,1,80,0,0
66076,-100,4,1,1,10,0,0
66148,-200,4,2,1,40,0,0
66433,-100,4,1,1,80,0,0
75576,-200,4,2,1,60,0,0
83719,-200,4,3,0,60,0,0
84148,-133.333333333333,4,3,0,60,0,0
84290,-133.333333333333,4,1,1,55,0,0
84433,-133.333333333333,4,1,1,75,0,0
84576,-133.333333333333,4,3,0,75,0,0
84648,-133.333333333333,4,1,1,15,0,0
84719,-100,4,1,1,75,0,0
93862,-200,4,1,1,70,0,0
94362,-200,4,1,1,10,0,0
94433,-200,4,1,1,70,0,0
95219,-200,4,1,1,10,0,0
95290,-200,4,1,1,70,0,0
96648,-200,4,1,1,10,0,0
96719,-200,4,1,1,70,0,0
97505,-200,4,1,1,10,0,0
97576,-200,4,1,1,70,0,0
97862,-100,4,1,1,70,0,0
98433,-200,4,1,1,70,0,0
98933,-200,4,1,1,10,0,0
99005,-200,4,1,1,70,0,0
99790,-200,4,1,1,10,0,0
99862,-200,4,1,1,70,0,0
103005,-200,4,2,1,70,0,0
105005,-200,4,3,0,70,0,0
105290,-100,4,1,1,80,0,0
105862,-100,4,1,1,80,0,0
109862,-83.3333333333333,4,1,1,80,0,0
110719,-100,4,1,1,80,0,0
113290,-100,4,3,0,80,0,0
114148,-200,4,3,0,80,0,0
114433,-100,4,1,1,80,0,0
123219,-100,4,1,1,10,0,0
123290,-200,4,1,1,80,0,0
123576,-200,4,2,1,50,0,0
132719,-200,4,2,1,65,0,0
141862,-100,4,1,1,65,0,0
157576,-200,4,2,1,70,0,0
157862,-200,4,1,0,5,0,0
159719,-100,4,1,0,5,0,0
159862,-100,4,1,0,45,0,0
160148,-100,4,1,0,80,0,0
169290,-100,4,1,1,80,0,0
187005,-100,4,2,1,80,0,0
187505,-100,4,2,1,20,0,0
187576,-100,4,1,1,80,0,0
196719,-200,4,2,1,50,0,0

[Colours]
Combo1 : 128,255,0
Combo2 : 128,255,255
Combo3 : 255,0,128
Combo4 : 255,128,255

[HitObjects]
181,267,8290,5,0,0:0:0:0:
181,267,8362,1,0,0:0:0:0:
181,267,8433,1,0,0:0:0:0:
313,328,8576,2,0,L|313:248,1,80,0|0,0:0|0:0,0:0:0:0:
331,117,8862,1,0,0:0:0:0:
199,56,9005,2,0,L|199:136,1,80,0|0,0:0|0:0,0:0:0:0:
256,192,9290,1,4,0:0:0:0:
487,88,18433,6,0,P|386:88|307:55,1,160,0|0,0:0|0:0,0:0:0:0:
180,68,18862,2,0,P|104:91|25:88,1,160,0|2,0:0|0:0,0:0:0:0:
4,10,19290,1,0,0:0:0:0:
4,10,19576,5,2,0:0:0:0:
97,97,19719,2,0,L|89:189,1,80,0|2,0:0|0:0,0:0:0:0:
82,256,20005,1,0,0:0:0:0:
16,210,20148,1,2,0:0:0:0:
90,176,20290,5,0,0:0:0:0:
256,224,20433,1,2,0:0:0:0:
421,176,20576,1,0,0:0:0:0:
496,209,20719,6,0,P|480:283|406:300,1,160,0|2,0:0|0:0,0:0:0:0:
106,300,21148,2,0,P|32:284|16:209,1,160,0|2,0:0|0:0,0:0:0:0:
256,138,21576,1,0,0:0:0:0:
181,326,21719,6,0,L|-8:346,1,160,2|0,0:0|0:0,0:0:0:0:
16,210,22148,2,0,P|72:208|110:222,1,80,2|0,0:0|0:0,0:0:0:0:
126,384,22433,1,2,0:0:0:0:
256,347,22576,5,0,0:0:0:0:
43,300,22719,1,2,0:0:0:0:
43,300,23005,6,0,P|127:283|187:339,1,160,0|2,0:0|0:0,0:0:0:0:
330,326,23433,2,0,P|393:280|469:300,1,160,0|0,0:0|0:0,0:0:0:0:
494,376,23862,1,0,0:0:0:0:
494,376,24148,5,0,0:0:0:0:
411,279,24290,2,0,L|417:179,1,80,0|2,0:0|0:0,0:0:0:0:
420,118,24576,1,0,0:0:0:0:
487,161,24719,1,2,0:0:0:0:
415,199,24862,5,0,0:0:0:0:
256,128,25005,1,2,0:0:0:0:
96,199,25148,1,0,0:0:0:0:
25,161,25290,6,0,P|31:93|11:34,1,120,2|0,0:0|0:0,0:0:0:0:
16,44,25576,1,0,0:0:0:0:
130,15,25719,2,0,P|122:74|139:132,1,120,2|0,0:0|0:0,0:0:0:0:
139,132,26005,5,2,0:0:0:0:
336,204,26148,1,0,0:0:0:0:
512,96,26290,1,2,0:0:0:0:
256,192,26433,6,0,L|256:288,1,80,2|0,0:0|0:0,0:0:0:0:
373,132,26719,2,0,P|382:75|371:38,1,80,2|0,0:0|0:0,0:0:0:0:
284,4,27005,1,0,0:0:0:0:
284,4,27076,1,0,0:0:0:0:
284,4,27148,2,0,P|275:42|279:82,1,80,0|0,0:0|0:0,0:0:0:0:
509,200,27433,1,0,0:0:0:0:
433,341,27576,6,0,P|363:332|322:317,1,80,4|0,0:0|0:0,0:0:0:0:
265,291,27862,2,0,P|226:282|186:279,1,80,8|0,0:0|0:0,0:0:0:0:
97,317,28148,1,0,0:0:0:0:
109,222,28290,2,0,P|97:183|79:147,1,80,0|8,0:0|0:0,0:0:0:0:
4,86,28576,6,0,P|97:55|79:23,1,160,0|0,0:0|0:0,0:0:0:0:
199,9,29005,1,8,0:0:0:0:
291,72,29148,2,0,P|364:137|383:105,1,160,0|0,0:0|0:0,0:0:0:0:
454,94,29576,1,8,0:0:0:0:
308,251,29719,1,0,0:0:0:0:
308,251,29790,1,0,0:0:0:0:
308,251,29862,6,0,P|307:211|301:171,1,80,0|0,0:0|0:0,0:0:0:0:
228,136,30148,1,8,0:0:0:0:
231,303,30290,2,0,P|291:344|380:310,1,160,0|0,0:0|0:0,0:0:0:0:
369,321,30719,1,8,0:0:0:0:
228,136,30862,2,0,P|232:158|233:178,1,40,0|0,0:0|0:0,0:0:0:0:
170,235,31005,6,0,L|2:245,1,160,0|8,0:0|0:0,0:0:0:0:
20,165,31433,1,0,0:0:0:0:
176,329,31576,2,0,P|180:280|178:246,1,80,0|0,0:0|0:0,0:0:0:0:
3,261,31862,2,0,P|-1:310|1:344,1,80,8|0,0:0|0:0,0:0:0:0:
170,346,32148,6,0,P|286:347|353:359,1,160,0|8,0:0|0:0,0:0:0:0:
422,378,32576,1,0,0:0:0:0:
487,307,32719,2,0,P|494:256|483:208,1,80,0|0,0:0|0:0,0:0:0:0:
411,171,33005,1,8,0:0:0:0:
498,131,33148,6,0,P|510:63|421:61,1,160,0|0,0:0|0:0,0:0:0:0:
411,171,33576,1,8,0:0:0:0:
283,153,33719,2,0,P|274:224|346:237,1,160,0|0,0:0|0:0,0:0:0:0:
297,73,34148,1,8,0:0:0:0:
159,240,34290,1,0,0:0:0:0:
159,240,34362,1,0,0:0:0:0:
159,240,34433,6,0,P|229:243|263:248,1,80,8|0,0:0|0:0,0:0:0:0:
433,260,34719,1,0,0:0:0:0:
283,153,34862,1,0,0:0:0:0:
308,285,35005,1,8,0:0:0:0:
70,326,35148,2,0,P|63:239|68:146,1,160,0|0,0:0|0:0,0:0:0:0:
84,72,35576,5,8,0:0:0:0:
182,17,35719,1,0,0:0:0:0:
182,17,35790,1,0,0:0:0:0:
182,17,35862,1,8,0:0:0:0:
309,26,36005,1,0,0:0:0:0:
414,124,36148,1,2,0:0:0:0:
384,280,36290,1,0,0:0:0:0:
263,359,36433,1,2,0:0:0:0:
135,343,36576,1,0,0:0:0:0:
272,373,36719,6,0,P|276:325|276:284,1,80,2|0,0:0|0:0,0:0:0:0:
240,11,37148,2,0,P|235:58|236:100,1,80,0|0,0:0|0:0,0:0:0:0:
335,172,37576,2,0,L|417:167,1,80,2|0,0:0|0:0,0:0:0:0:
177,212,38005,2,0,L|95:217,1,80,0|0,0:0|0:0,0:0:0:0:
98,139,38433,5,2,0:0:0:0:
101,138,38505,1,0,0:0:0:0:
104,137,38576,2,0,L|103:109,1,20,0|0,0:0|0:0,0:0:0:0:
156,35,38719,2,0,L|140:46,1,20,2|0,0:0|0:0,0:0:0:0:
43,41,38862,2,0,L|67:54,1,20,0|0,0:0|0:0,0:0:0:0:
276,90,39005,6,0,P|276:50|272:11,1,80,2|0,0:0|0:0,0:0:0:0:
235,293,39433,2,0,P|235:333|240:373,1,80,0|0,0:0|0:0,0:0:0:0:
177,172,39862,2,0,L|95:167,1,80,2|0,0:0|0:0,0:0:0:0:
335,212,40290,2,0,L|417:217,1,80,0|0,0:0|0:0,0:0:0:0:
476,268,40648,1,0,0:0:0:0:
469,275,40719,6,0,L|471:314,1,40,2|0,0:0|0:0,0:0:0:0:
499,159,40862,2,0,L|497:199,1,40,0|0,0:0|0:0,0:0:0:0:
440,340,41005,2,0,L|438:379,1,40,2|0,0:0|0:0,0:0:0:0:
420,92,41148,2,0,L|422:132,1,40,0|0,0:0|0:0,0:0:0:0:
240,373,41290,6,0,P|235:333|235:293,1,80,2|0,0:0|0:0,0:0:0:0:
272,11,41719,2,0,P|276:50|272:96,1,80,0|0,0:0|0:0,0:0:0:0:
177,172,42148,2,0,L|95:167,1,80,2|0,0:0|0:0,0:0:0:0:
335,212,42576,2,0,L|417:217,1,80,0|0,0:0|0:0,0:0:0:0:
416,140,43005,5,0,0:0:0:0:
412,138,43076,1,0,0:0:0:0:
408,137,43148,2,0,L|409:109,1,20,0|0,0:0|0:0,0:0:0:0:
355,35,43290,2,0,L|372:46,1,20,2|0,0:0|0:0,0:0:0:0:
469,41,43433,2,0,L|444:54,1,20,0|0,0:0|0:0,0:0:0:0:
235,90,43576,6,0,P|235:50|240:11,1,80,2|2,0:0|0:0,0:0:0:0:
276,293,44005,2,0,P|276:333|272:373,1,80,0|0,0:0|0:0,0:0:0:0:
335,172,44433,2,0,L|417:167,1,80,2|2,0:0|0:0,0:0:0:0:
177,212,44862,2,0,L|95:217,1,80,0|0,0:0|0:0,0:0:0:0:
32,320,45219,1,0,0:0:0:0:
40,314,45290,6,0,L|43:275,1,40,2|0,0:0|0:0,0:0:0:0:
12,159,45433,2,0,L|15:199,1,40,0|0,0:0|0:0,0:0:0:0:
120,368,45576,6,0,L|117:328,1,40,2|0,0:0|0:0,0:0:0:0:
180,72,45719,2,0,L|177:111,1,40,0|0,0:0|0:0,0:0:0:0:
97,216,45862,5,2,0:0:0:0:
256,192,45933,12,0,48076,0:0:0:0:
185,294,48148,6,0,P|226:312|285:307,1,80,6|0,0:0|0:0,0:0:0:0:
379,202,48433,2,0,P|374:157|341:109,1,80,10|0,0:0|0:0,0:0:0:0:
203,79,48719,2,0,P|167:106|141:159,1,80,0|0,0:0|0:0,0:0:0:0:
185,294,49005,1,10,0:0:0:0:
148,135,49148,1,0,0:0:0:0:
79,94,49290,6,0,P|36:106|-10:90,1,80,6|0,0:0|0:0,0:0:0:0:
228,160,49576,1,8,0:0:0:0:
284,12,49719,1,0,0:0:0:0:
509,97,49862,2,0,P|470:105|433:94,1,80,2|0,0:0|0:0,0:0:0:0:
313,21,50148,6,0,P|352:13|390:25,1,80,14|0,0:0|0:0,0:0:0:0:
433,94,50433,5,14,0:0:0:0:
273,101,50576,1,0,0:0:0:0:
113,108,50719,1,0,0:0:0:0:
45,151,50862,5,8,0:0:0:0:
33,112,50933,1,0,0:0:0:0:
40,73,51005,1,10,0:0:0:0:
108,30,51148,5,0,0:0:0:0:
99,204,51290,1,10,0:0:0:0:
88,380,51433,1,0,0:0:0:0:
24,332,51576,5,10,0:0:0:0:
264,353,51719,1,0,0:0:0:0:
488,253,51862,5,0,0:0:0:0:
248,274,52005,1,8,0:0:0:0:
24,174,52148,5,10,0:0:0:0:
264,195,52290,5,0,0:0:0:0:
256,154,52362,1,0,0:0:0:0:
248,116,52433,1,14,0:0:0:0:
264,37,52576,1,0,0:0:0:0:
488,95,52719,6,0,P|423:111|381:133,1,80,14|0,0:0|0:0,0:0:0:0:
55,39,53005,2,0,P|102:87|142:113,1,80,2|0,0:0|0:0,0:0:0:0:
241,384,53290,2,0,P|259:319|261:272,1,80,8|0,0:0|0:0,0:0:0:0:
112,95,53576,1,2,0:0:0:0:
261,306,53719,1,0,0:0:0:0:
420,124,53862,6,0,B|452:152|452:152|472:208|460:288,1,160,14|0,0:0|0:0,0:0:0:0:
316,360,54290,2,0,B|284:332|284:332|264:276|276:196,1,160,0|0,0:0|0:0,0:0:0:0:
89,301,54719,2,0,P|95:348|95:384,1,80,14|0,0:0|0:0,0:0:0:0:
48,231,55005,5,14,0:0:0:0:
208,224,55148,1,0,0:0:0:0:
368,217,55290,1,0,0:0:0:0:
441,252,55433,5,8,0:0:0:0:
448,213,55505,1,0,0:0:0:0:
436,174,55576,1,10,0:0:0:0:
364,137,55719,5,0,0:0:0:0:
204,144,55862,1,8,0:0:0:0:
44,151,56005,1,0,0:0:0:0:
32,112,56076,1,0,0:0:0:0:
39,73,56148,2,0,L|143:66,1,80,14|6,0:0|0:0,0:0:0:0:
200,64,56362,1,0,0:0:0:0:
200,64,56433,5,0,0:0:0:0:
360,57,56576,1,2,0:0:0:0:
368,217,56719,5,10,0:0:0:0:
208,224,56862,1,0,0:0:0:0:
288,196,57005,5,6,0:0:0:0:
376,296,57148,1,2,0:0:0:0:
436,174,57290,6,0,P|447:214|439:257,1,80,6|0,0:0|0:0,0:0:0:0:
0,384,57576,2,0,P|-5:344|5:306,1,80,8|0,0:0|0:0,0:0:0:0:
506,311,57862,6,0,P|471:333|427:339,1,80,2|0,0:0|0:0,0:0:0:0:
160,355,58148,2,0,L|80:351,1,80,8|0,0:0|0:0,0:0:0:0:
349,366,58433,6,0,P|346:324|363:284,1,80,2|0,0:0|0:0,0:0:0:0:
8,220,58719,2,0,B|44:232|44:232|87:232,1,80,8|0,0:0|0:0,0:0:0:0:
436,174,59005,2,0,P|449:136|447:97,1,80,2|0,0:0|0:0,0:0:0:0:
50,62,59290,2,0,L|56:168,1,80,10|0,0:0|0:0,0:0:0:0:
87,232,59505,1,0,0:0:0:0:
87,232,59576,5,14,0:0:0:0:
148,158,59719,1,0,0:0:0:0:
54,141,59862,1,0,0:0:0:0:
181,249,60005,5,0,0:0:0:0:
241,174,60148,1,10,0:0:0:0:
121,324,60290,1,0,0:0:0:0:
54,141,60433,5,2,0:0:0:0:
241,174,60576,1,0,0:0:0:0:
121,324,60719,1,14,0:0:0:0:
148,158,60862,2,0,L|163:58,2,80,0|0|0,0:0|0:0|0:0,0:0:0:0:
181,249,61290,5,14,0:0:0:0:
181,249,61362,1,0,0:0:0:0:
181,249,61433,1,0,0:0:0:0:
181,249,61505,1,0,0:0:0:0:
181,249,61576,2,0,L|224:287,1,40,14|0,0:0|0:0,0:0:0:0:
87,232,61719,2,0,L|49:244,1,40,0|0,0:0|0:0,0:0:0:0:
241,365,61862,6,0,P|287:331|302:286,1,80,6|0,0:0|0:0,0:0:0:0:
271,19,62148,2,0,P|225:53|210:98,1,80,8|0,0:0|0:0,0:0:0:0:
98,265,62433,2,0,P|151:288|197:278,1,80,2|0,0:0|0:0,0:0:0:0:
413,118,62719,2,0,P|360:95|314:105,1,80,8|0,0:0|0:0,0:0:0:0:
131,167,63005,6,0,P|113:132|113:92,1,80,2|0,0:0|0:0,0:0:0:0:
380,216,63290,2,0,P|398:251|398:291,1,80,8|0,0:0|0:0,0:0:0:0:
215,72,63576,2,0,P|236:39|271:19,1,80,2|0,0:0|0:0,0:0:0:0:
296,311,63862,2,0,P|275:344|241:365,1,80,10|0,0:0|0:0,0:0:0:0:
188,356,64076,1,0,0:0:0:0:
151,326,64148,5,14,0:0:0:0:
390,297,64290,5,0,0:0:0:0:
361,58,64433,5,0,0:0:0:0:
122,87,64576,5,8,0:0:0:0:
276,360,64719,5,10,0:0:0:0:
424,171,64862,5,0,0:0:0:0:
235,23,65005,5,10,0:0:0:0:
87,212,65148,5,8,0:0:0:0:
390,297,65290,5,12,0:0:0:0:
122,87,65433,1,0,0:0:0:0:
122,87,65505,1,0,0:0:0:0:
122,87,65576,5,6,0:0:0:0:
151,326,65719,5,0,0:0:0:0:
361,58,65862,5,2,0:0:0:0:
361,58,66148,2,0,L|413:61,1,40,2|0,0:0|0:0,0:0:0:0:
480,66,66433,1,4,0:0:0:0:
334,208,74862,5,0,0:0:0:0:
334,208,74933,1,0,0:0:0:0:
334,208,75005,1,0,0:0:0:0:
341,319,75148,1,0,0:0:0:0:
241,269,75290,1,0,0:0:0:0:
434,258,75433,1,0,0:0:0:0:
216,315,83576,5,2,0:0:0:0:
211,236,83719,2,0,L|216:315,1,80,2|8,0:0|0:0,0:0:0:0:
147,353,84148,2,0,P|139:324|140:290,1,60.0000022888184,0|0,0:0|0:0,0:0:0:0:
285,274,84433,2,0,P|293:303|292:337,1,60.0000022888184,0|6,0:0|0:0,0:0:0:0:
231,142,84719,6,0,P|279:161|336:146,1,80,4|0,0:0|0:0,0:0:0:0:
387,237,85005,2,0,P|434:216|464:165,1,80,8|0,0:0|0:0,0:0:0:0:
486,89,85290,2,0,P|467:24|373:5,1,160,0|8,0:0|0:0,0:0:0:0:
142,243,85719,6,0,P|214:216|230:141,1,160,0|0,0:0|0:0,0:0:0:0:
66,182,86148,2,0,P|45:247|52:284,1,80,8|0,0:0|0:0,0:0:0:0:
127,339,86433,2,0,P|193:324|222:300,1,80,0|0,0:0|0:0,0:0:0:0:
233,208,86719,2,0,P|187:157|151:144,1,80,8|0,0:0|0:0,0:0:0:0:
45,66,86933,1,0,0:0:0:0:
38,72,87005,6,0,P|131:61|198:7,1,160,0|8,0:0|0:0,0:0:0:0:
226,195,87433,2,0,P|292:237|371:243,1,160,0|0,0:0|0:0,0:0:0:0:
471,191,87862,1,8,0:0:0:0:
310,365,88005,1,0,0:0:0:0:
310,365,88076,1,0,0:0:0:0:
310,365,88148,6,0,P|307:320|303:274,1,80,0|0,0:0|0:0,0:0:0:0:
225,105,88433,2,0,P|221:144|219:184,1,80,8|0,0:0|0:0,0:0:0:0:
107,327,88719,2,0,L|215:330,1,80,0|0,0:0|0:0,0:0:0:0:
390,272,89005,2,0,L|282:275,1,80,8|0,0:0|0:0,0:0:0:0:
310,274,89219,1,0,0:0:0:0:
310,274,89290,5,0,0:0:0:0:
197,341,89433,1,0,0:0:0:0:
135,134,89576,2,0,P|184:184|287:172,2,160,8|0|8,0:0|0:0|0:0,0:0:0:0:
180,22,90290,6,0,P|257:17|314:70,1,160,0|0,0:0|0:0,0:0:0:0:
310,274,90719,2,0,P|330:240|363:219,1,80,8|0,0:0|0:0,0:0:0:0:
419,383,91005,2,0,P|379:382|344:364,1,80,0|0,0:0|0:0,0:0:0:0:
460,234,91290,2,0,P|479:268|480:308,1,80,8|0,0:0|0:0,0:0:0:0:
310,274,91505,1,0,0:0:0:0:
317,265,91576,6,0,P|221:274|153:287,1,160,0|8,0:0|0:0,0:0:0:0:
75,335,92005,1,0,0:0:0:0:
16,199,92148,2,0,P|56:203|96:208,1,80,0|0,0:0|0:0,0:0:0:0:
269,145,92433,2,0,L|273:105|277:65,1,80,8|0,0:0|0:0,0:0:0:0:
201,4,92719,5,8,0:0:0:0:
120,225,92862,1,0,0:0:0:0:
120,225,92933,1,0,0:0:0:0:
120,225,93005,1,8,0:0:0:0:
419,160,93148,1,0,0:0:0:0:
202,99,93290,5,8,0:0:0:0:
277,65,93433,1,0,0:0:0:0:
168,24,93576,1,8,0:0:0:0:
332,128,93719,1,0,0:0:0:0:
120,225,93862,6,0,L|40:228,1,80,6|0,0:0|0:0,0:0:0:0:
241,159,94290,2,0,L|162:156,1,80,0|0,0:0|0:0,0:0:0:0:
341,233,94719,2,0,L|262:237,1,80,2|0,0:0|0:0,0:0:0:0:
462,167,95148,2,0,L|383:164,1,80,0|0,0:0|0:0,0:0:0:0:
402,85,95505,1,0,0:0:0:0:
402,85,95576,6,0,L|406:49,1,20,2|0,0:0|0:0,0:0:0:0:
306,63,95719,2,0,L|305:31,1,20,0|0,0:0|0:0,0:0:0:0:
206,63,95862,2,0,L|207:31,1,20,2|0,0:0|0:0,0:0:0:0:
110,85,96005,2,0,L|106:49,1,20,0|0,0:0|0:0,0:0:0:0:
120,225,96148,6,0,L|40:228,1,80,2|0,0:0|0:0,0:0:0:0:
241,159,96576,2,0,L|162:156,1,80,0|0,0:0|0:0,0:0:0:0:
341,233,97005,2,0,L|262:237,1,80,2|0,0:0|0:0,0:0:0:0:
462,167,97433,2,0,L|383:164,1,80,0|0,0:0|0:0,0:0:0:0:
144,356,97862,6,0,P|176:300|220:348,1,120,2|0,0:0|0:0,0:0:0:0:
297,318,98148,6,0,P|350:304|368:356,1,120,2|0,0:0|0:0,0:0:0:0:
462,167,98433,6,0,L|383:164,1,80,2|0,0:0|0:0,0:0:0:0:
341,233,98862,2,0,L|262:237,1,80,0|0,0:0|0:0,0:0:0:0:
241,159,99290,2,0,L|162:156,1,80,2|0,0:0|0:0,0:0:0:0:
120,225,99719,2,0,L|40:228,1,80,0|0,0:0|0:0,0:0:0:0:
61,307,100076,1,0,0:0:0:0:
61,307,100148,6,0,L|50:343,1,20,2|0,0:0|0:0,0:0:0:0:
185,343,100290,2,0,L|185:367,1,20,0|0,0:0|0:0,0:0:0:0:
326,343,100433,2,0,L|326:367,1,20,2|0,0:0|0:0,0:0:0:0:
451,307,100576,2,0,L|462:343,1,20,0|0,0:0|0:0,0:0:0:0:
462,167,100719,6,0,L|383:164,1,80,2|0,0:0|0:0,0:0:0:0:
341,233,101148,2,0,L|262:237,1,80,2|0,0:0|0:0,0:0:0:0:
241,159,101576,2,0,L|162:156,1,80,2|0,0:0|0:0,0:0:0:0:
120,225,102005,2,0,L|40:228,1,80,2|0,0:0|0:0,0:0:0:0:
111,96,102433,5,2,0:0:0:0:
428,156,102576,1,0,0:0:0:0:
140,296,102719,1,2,0:0:0:0:
288,24,102862,1,0,0:0:0:0:
336,324,103005,5,2,0:0:0:0:
256,192,103076,12,4,105005,0:0:0:0:
362,127,105290,6,0,P|373:193|382:222,1,80,6|0,0:0|0:0,0:0:0:0:
258,316,105576,2,0,P|196:293|166:286,1,80,10|0,0:0|0:0,0:0:0:0:
147,132,105862,2,0,P|198:89|218:67,1,80,0|0,0:0|0:0,0:0:0:0:
362,127,106148,1,10,0:0:0:0:
207,80,106290,1,0,0:0:0:0:
450,93,106433,6,0,P|460:54|466:14,1,80,6|0,0:0|0:0,0:0:0:0:
438,188,106719,1,8,0:0:0:0:
61,93,106862,6,0,P|51:54|45:14,1,80,0|2,0:0|0:0,0:0:0:0:
74,188,107148,1,0,0:0:0:0:
58,266,107290,2,0,P|67:227|73:187,1,80,14|0,0:0|0:0,0:0:0:0:
72,140,107505,1,0,0:0:0:0:
61,93,107576,5,14,0:0:0:0:
221,100,107719,1,0,0:0:0:0:
381,107,107862,1,0,0:0:0:0:
449,150,108005,5,8,0:0:0:0:
461,111,108076,1,0,0:0:0:0:
454,72,108148,1,10,0:0:0:0:
386,29,108290,1,0,0:0:0:0:
395,203,108433,1,10,0:0:0:0:
406,379,108576,1,0,0:0:0:0:
470,331,108719,5,10,0:0:0:0:
230,352,108862,1,0,0:0:0:0:
6,252,109005,5,0,0:0:0:0:
246,273,109148,1,8,0:0:0:0:
470,173,109290,5,10,0:0:0:0:
230,194,109433,1,0,0:0:0:0:
238,153,109505,1,0,0:0:0:0:
246,115,109576,1,14,0:0:0:0:
230,36,109719,1,0,0:0:0:0:
230,352,109862,6,0,P|225:288|259:270,1,95.9999970703126,14|0,0:0|0:0,0:0:0:0:
130,89,110148,2,0,P|188:117|186:155,1,95.9999970703126,2|0,0:0|0:0,0:0:0:0:
407,134,110433,2,0,P|354:170|322:150,1,95.9999970703126,8|0,0:0|0:0,0:0:0:0:
130,89,110719,1,2,0:0:0:0:
331,160,110862,1,0,0:0:0:0:
152,364,111005,5,14,0:0:0:0:
10,306,111148,1,0,0:0:0:0:
256,256,111290,1,0,0:0:0:0:
502,306,111433,6,0,P|504:362|432:329,1,160,0|0,0:0|0:0,0:0:0:0:
10,306,111862,2,0,P|8:362|80:329,1,160,14|14,0:0|0:0,0:0:0:0:
72,208,112290,5,0,0:0:0:0:
64,80,112433,1,0,0:0:0:0:
189,54,112576,1,8,0:0:0:0:
189,54,112648,1,0,0:0:0:0:
189,54,112719,1,10,0:0:0:0:
198,197,112862,1,0,0:0:0:0:
208,342,113005,1,8,0:0:0:0:
352,342,113148,1,0,0:0:0:0:
341,182,113290,5,14,0:0:0:0:
331,25,113433,1,6,0:0:0:0:
331,25,113505,1,0,0:0:0:0:
331,25,113576,2,0,L|337:127,1,80,0|2,0:0|0:0,0:0:0:0:
341,182,113790,1,0,0:0:0:0:
341,182,113862,5,10,0:0:0:0:
352,342,114005,1,0,0:0:0:0:
84,368,114148,1,6,0:0:0:0:
152,128,114290,1,2,0:0:0:0:
198,197,114433,6,0,P|206:248|195:289,1,80,6|0,0:0|0:0,0:0:0:0:
314,187,114719,2,0,P|306:136|317:95,1,80,8|0,0:0|0:0,0:0:0:0:
126,243,115005,6,0,P|79:266|37:268,1,80,2|0,0:0|0:0,0:0:0:0:
386,141,115290,2,0,P|432:117|474:115,1,80,8|0,0:0|0:0,0:0:0:0:
60,188,115576,6,0,P|23:151|8:111,1,80,2|0,0:0|0:0,0:0:0:0:
452,196,115862,2,0,P|488:232|503:272,1,80,8|0,0:0|0:0,0:0:0:0:
91,108,116148,6,0,P|114:62|147:35,1,80,2|0,0:0|0:0,0:0:0:0:
421,276,116433,2,0,P|397:321|364:348,1,80,10|0,0:0|0:0,0:0:0:0:
126,243,116719,5,14,0:0:0:0:
176,112,116862,1,0,0:0:0:0:
198,197,117005,1,0,0:0:0:0:
60,188,117148,1,0,0:0:0:0:
91,108,117290,1,10,0:0:0:0:
314,187,117433,5,0,0:0:0:0:
314,187,117505,1,0,0:0:0:0:
314,187,117576,1,2,0:0:0:0:
91,108,117719,5,0,0:0:0:0:
126,243,117862,5,14,0:0:0:0:
198,197,118005,1,0,0:0:0:0:
176,112,118148,1,0,0:0:0:0:
60,188,118290,1,0,0:0:0:0:
421,276,118433,5,14,0:0:0:0:
437,236,118505,1,0,0:0:0:0:
452,196,118576,1,0,0:0:0:0:
421,166,118648,1,0,0:0:0:0:
386,141,118719,1,14,0:0:0:0:
349,162,118790,1,0,0:0:0:0:
314,187,118862,1,0,0:0:0:0:
322,228,118933,1,0,0:0:0:0:
335,269,119005,6,0,L|332:361,1,80,6|0,0:0|0:0,0:0:0:0:
177,115,119290,2,0,L|179:35,1,80,8|0,0:0|0:0,0:0:0:0:
21,74,119576,6,0,L|23:153,1,80,2|0,0:0|0:0,0:0:0:0:
488,153,119862,2,0,L|491:74,1,80,8|0,0:0|0:0,0:0:0:0:
332,35,120148,6,0,L|335:115,1,80,2|0,0:0|0:0,0:0:0:0:
179,348,120433,2,0,L|177:269,1,80,8|0,0:0|0:0,0:0:0:0:
488,230,120719,6,0,L|491:310,1,80,2|0,0:0|0:0,0:0:0:0:
21,310,121005,2,0,L|23:230,1,80,10|0,0:0|0:0,0:0:0:0:
332,35,121290,5,14,0:0:0:0:
332,348,121433,1,0,0:0:0:0:
179,348,121576,5,0,0:0:0:0:
178,35,121719,1,8,0:0:0:0:
488,230,121862,5,10,0:0:0:0:
22,230,122005,1,0,0:0:0:0:
488,153,122148,5,10,0:0:0:0:
23,153,122290,1,8,0:0:0:0:
179,348,122433,5,12,0:0:0:0:
332,348,122576,1,0,0:0:0:0:
332,348,122648,1,0,0:0:0:0:
332,348,122719,1,6,0:0:0:0:
332,35,122862,1,0,0:0:0:0:
178,35,123005,1,2,0:0:0:0:
178,35,123290,6,0,L|126:38,1,40,2|0,0:0|0:0,0:0:0:0:
59,43,123576,1,6,0:0:0:0:
393,233,132719,6,0,P|395:271|396:289,1,40,2|0,0:0|0:0,0:0:0:0:
378,351,133005,2,0,P|416:349|434:348,1,40,2|0,0:0|0:0,0:0:0:0:
496,366,133290,2,0,P|494:328|493:310,1,40,2|0,0:0|0:0,0:0:0:0:
511,248,133576,2,0,P|473:250|455:251,1,40,0|0,0:0|0:0,0:0:0:0:
393,233,133862,5,2,0:0:0:0:
245,295,134148,1,2,0:0:0:0:
143,171,134433,1,0,0:0:0:0:
221,31,134719,1,0,0:0:0:0:
221,31,134862,1,0,0:0:0:0:
221,31,135005,6,0,L|270:35,1,40,2|0,0:0|0:0,0:0:0:0:
318,89,135290,2,0,L|367:93,1,40,0|0,0:0|0:0,0:0:0:0:
375,13,135576,2,0,L|424:17,1,40,2|0,0:0|0:0,0:0:0:0:
472,71,135862,2,0,L|521:75,1,40,2|0,0:0|0:0,0:0:0:0:
489,152,136148,1,2,0:0:0:0:
489,152,136433,5,0,0:0:0:0:
408,155,136576,1,0,0:0:0:0:
347,208,136719,1,0,0:0:0:0:
320,283,136862,1,0,0:0:0:0:
245,313,137005,1,0,0:0:0:0:
168,290,137148,1,0,0:0:0:0:
118,228,137290,6,0,P|116:266|115:284,1,40,2|2,0:0|0:0,0:0:0:0:
133,346,137576,2,0,P|95:344|77:343,1,40,2|0,0:0|0:0,0:0:0:0:
15,361,137862,2,0,P|17:323|18:305,1,40,2|0,0:0|0:0,0:0:0:0:
0,243,138148,2,0,P|38:245|56:246,1,40,2|0,0:0|0:0,0:0:0:0:
118,228,138433,5,2,0:0:0:0:
195,208,138576,1,0,0:0:0:0:
195,208,138648,1,0,0:0:0:0:
195,208,138719,2,0,L|252:206,1,40,2|2,0:0|0:0,0:0:0:0:
307,242,139005,2,0,P|311:261|313:281,1,40,0|0,0:0|0:0,0:0:0:0:
373,197,139290,2,0,P|374:177|379:157,1,40,0|2,0:0|0:0,0:0:0:0:
452,190,139576,6,0,L|459:281,1,80,0|2,0:0|0:0,0:0:0:0:
464,350,140005,2,0,L|373:357,1,80,2|2,0:0|0:0,0:0:0:0:
304,361,140433,2,0,L|300:315,1,40,2|2,0:0|0:0,0:0:0:0:
270,246,140719,2,0,P|206:216|159:252,1,120,2|0,0:0|0:0,0:0:0:0:
66,366,141290,2,0,P|44:312|75:264,1,120,2|0,0:0|0:0,0:0:0:0:
95,169,141862,6,0,P|91:122|67:89,1,80,4|0,0:0|0:0,0:0:0:0:
6,270,142148,2,0,P|48:290|89:285,1,80,2|0,0:0|0:0,0:0:0:0:
344,145,142433,2,0,P|290:154|292:268,1,160,8|2,0:0|0:0,0:0:0:0:
314,312,142862,1,0,0:0:0:0:
286,88,143005,6,0,P|263:135|272:184,1,80,0|0,0:0|0:0,0:0:0:0:
472,328,143290,2,0,P|442:284|395:267,1,80,2|0,0:0|0:0,0:0:0:0:
121,322,143576,2,0,P|181:369|254:343,1,160,8|2,0:0|0:0,0:0:0:0:
313,288,144005,1,0,0:0:0:0:
41,348,144148,6,0,P|40:294|65:254,1,80,2|0,0:0|0:0,0:0:0:0:
262,210,144433,2,0,P|230:234|191:241,1,80,2|0,0:0|0:0,0:0:0:0:
33,88,144719,2,0,P|80:114|102:155,1,80,8|0,0:0|0:0,0:0:0:0:
393,317,145005,2,0,P|394:263|369:223,1,80,2|0,0:0|0:0,0:0:0:0:
202,96,145290,6,0,L|201:183,1,80,2|0,0:0|0:0,0:0:0:0:
464,203,145576,2,0,L|464:123,1,80
194,191,145862,2,0,B|156:208|116:195|116:195|81:213|81:213|24:206,2,160,8|2|2,0:0|0:0|0:0,0:0:0:0:
262,149,146576,5,0,0:0:0:0:
188,32,146719,2,0,P|185:91|195:127,1,80,2|0,0:0|0:0,0:0:0:0:
512,157,147005,2,0,P|462:124|426:115,1,80,8|0,0:0|0:0,0:0:0:0:
200,360,147290,2,0,P|252:333|278:306,1,80,2|0,0:0|0:0,0:0:0:0:
10,194,147576,5,2,0:0:0:0:
13,275,147719,1,0,0:0:0:0:
16,356,147862,2,0,L|210:364,1,160,0|8,0:0|0:0,0:0:0:0:
324,240,148290,6,0,P|339:197|336:160,1,80,0|2,0:0|0:0,0:0:0:0:
187,239,148576,2,0,L|188:278,1,40,0|0,0:0|0:0,0:0:0:0:
336,362,148719,6,0,L|496:356,1,160,2|2,0:0|0:0,0:0:0:0:
510,225,149148,2,0,B|479:198|484:155|484:155|453:127|454:82,1,160,0|0,0:0|0:0,0:0:0:0:
331,43,149576,2,0,P|304:72|306:121,1,80,2|0,0:0|0:0,0:0:0:0:
328,184,149862,1,8,0:0:0:0:
380,104,150005,6,0,L|372:280,1,160,8|2,0:0|0:0,0:0:0:0:
139,263,150433,6,0,L|132:104,1,160,8|0,0:0|0:0,0:0:0:0:
372,280,151005,5,4,0:0:0:0:
256,192,156719,12,0,157862,0:0:0:0:
148,135,160148,6,0,P|170:102|203:79,1,80,6|0,0:0|0:0,0:0:0:0:
357,126,160433,2,0,P|375:162|379:202,1,80,10|0,0:0|0:0,0:0:0:0:
260,313,160719,2,0,P|221:310|176:288,1,80,0|0,0:0|0:0,0:0:0:0:
148,135,161005,1,10,0:0:0:0:
379,201,161148,1,0,0:0:0:0:
461,104,161290,6,0,P|474:45|371:12,1,160,6|8,0:0|0:0,0:0:0:0:
113,0,161719,2,0,P|44:29|50:104,1,160,0|0,0:0|0:0,0:0:0:0:
61,284,162148,2,0,P|62:244|79:208,1,80,10|0,0:0|0:0,0:0:0:0:
148,135,162433,5,14,0:0:0:0:
309,136,162576,1,0,0:0:0:0:
470,137,162719,1,0,0:0:0:0:
512,69,162862,5,10,0:0:0:0:
474,56,162933,1,0,0:0:0:0:
436,64,163005,1,10,0:0:0:0:
437,210,163148,1,0,0:0:0:0:
259,211,163290,1,10,0:0:0:0:
82,212,163433,1,0,0:0:0:0:
45,198,163505,1,0,0:0:0:0:
8,181,163576,5,10,0:0:0:0:
161,359,163719,1,0,0:0:0:0:
309,136,163862,5,0,0:0:0:0:
256,32,164005,1,0,0:0:0:0:
203,136,164148,1,10,0:0:0:0:
351,359,164290,5,0,0:0:0:0:
351,359,164362,1,0,0:0:0:0:
351,359,164433,1,10,0:0:0:0:
504,181,164576,1,0,0:0:0:0:
256,32,164719,6,0,P|239:85|255:122,1,80,6|0,0:0|0:0,0:0:0:0:
394,272,165005,2,0,P|357:230|317:226,1,80,10|0,0:0|0:0,0:0:0:0:
117,272,165290,2,0,P|171:260|195:227,1,80,0|0,0:0|0:0,0:0:0:0:
335,225,165576,1,10,0:0:0:0:
117,272,165719,1,0,0:0:0:0:
2,344,165862,6,0,P|37:357|58:326,1,80,6|0,0:0|0:0,0:0:0:0:
372,152,166148,1,8,0:0:0:0:
128,192,166290,1,0,0:0:0:0:
453,326,166433,2,0,P|474:357|509:344,1,80,2|0,0:0|0:0,0:0:0:0:
467,167,166719,2,0,P|466:207|471:247,1,80,10|0,0:0|0:0,0:0:0:0:
453,326,167005,5,14,0:0:0:0:
292,327,167148,1,0,0:0:0:0:
131,328,167290,1,0,0:0:0:0:
394,272,167433,5,10,0:0:0:0:
394,272,167505,1,0,0:0:0:0:
394,272,167576,1,10,0:0:0:0:
233,273,167719,1,0,0:0:0:0:
72,274,167862,2,0,P|52:324|64:367,1,80,10|0,0:0|0:0,0:0:0:0:
335,218,168148,5,10,0:0:0:0:
174,219,168290,1,0,0:0:0:0:
174,219,168362,1,0,0:0:0:0:
174,219,168433,1,2,0:0:0:0:
13,220,168576,2,0,P|-7:170|5:127,1,80,0|2,0:0|0:0,0:0:0:0:
60,95,168790,1,0,0:0:0:0:
60,95,168862,2,0,P|88:101|122:98,1,40,0|0,0:0|0:0,0:0:0:0:
236,92,169005,2,0,P|255:90|275:92,1,40,2|0,0:0|0:0,0:0:0:0:
412,101,169148,2,0,P|432:99|452:95,1,40,0|0,0:0|0:0,0:0:0:0:
512,145,169290,6,0,P|517:184|499:220,1,80,14|0,0:0|0:0,0:0:0:0:
285,33,169576,2,0,P|249:15|210:20,1,80,2|0,0:0|0:0,0:0:0:0:
94,271,169862,2,0,P|99:310|81:346,1,80,8|0,0:0|0:0,0:0:0:0:
22,21,170148,5,2,0:0:0:0:
187,320,170290,1,0,0:0:0:0:
3,253,170433,6,0,L|105:262,1,80,14|0,0:0|0:0,0:0:0:0:
443,358,170719,1,2,0:0:0:0:
69,358,170862,1,0,0:0:0:0:
429,260,171005,2,0,L|509:253,1,80,8|0,0:0|0:0,0:0:0:0:
364,308,171290,6,0,P|347:273|352:234,1,80,10|0,0:0|0:0,0:0:0:0:
483,159,171576,5,14,0:0:0:0:
256,192,171719,1,0,0:0:0:0:
29,159,171862,1,2,0:0:0:0:
45,80,172005,5,10,0:0:0:0:
45,80,172076,1,0,0:0:0:0:
45,80,172148,1,12,0:0:0:0:
13,238,172290,5,0,0:0:0:0:
256,111,172433,1,10,0:0:0:0:
499,238,172576,1,0,0:0:0:0:
467,80,172719,5,10,0:0:0:0:
256,273,172862,1,0,0:0:0:0:
256,111,173005,1,2,0:0:0:0:
256,273,173148,1,0,0:0:0:0:
45,80,173290,1,10,0:0:0:0:
256,273,173433,1,0,0:0:0:0:
256,273,173505,1,0,0:0:0:0:
256,273,173576,2,0,L|256:363,1,80,10|2,0:0|0:0,0:0:0:0:
437,384,173862,6,0,P|450:342|447:306,1,80,14|0,0:0|0:0,0:0:0:0:
245,33,174148,2,0,P|242:72|255:110,1,80,10|0,0:0|0:0,0:0:0:0:
0,384,174433,2,0,P|13:342|10:306,1,80,0|0,0:0|0:0,0:0:0:0:
256,111,174719,5,10,0:0:0:0:
10,306,174862,1,0,0:0:0:0:
441,299,175005,2,0,P|501:218|459:157,1,160,14|2,0:0|0:0,0:0:0:0:
30,173,175433,2,0,P|14:247|71:299,1,160,0|2,0:0|0:0,0:0:0:0:
475,166,175862,2,0,P|456:124|465:75,1,80,10|0,0:0|0:0,0:0:0:0:
398,15,176148,5,14,0:0:0:0:
308,289,176290,1,0,0:0:0:0:
30,173,176433,1,0,0:0:0:0:
256,192,176576,5,10,0:0:0:0:
256,192,176648,1,0,0:0:0:0:
256,192,176719,1,14,0:0:0:0:
114,369,176862,1,0,0:0:0:0:
204,95,177005,1,10,0:0:0:0:
482,211,177148,1,0,0:0:0:0:
256,192,177290,5,14,0:0:0:0:
476,40,177433,1,0,0:0:0:0:
475,56,177505,1,0,0:0:0:0:
474,71,177576,1,10,0:0:0:0:
256,192,177719,1,0,0:0:0:0:
36,344,177862,5,10,0:0:0:0:
37,328,177933,1,0,0:0:0:0:
38,313,178005,1,0,0:0:0:0:
93,291,178076,1,0,0:0:0:0:
131,245,178148,1,10,0:0:0:0:
144,187,178219,1,0,0:0:0:0:
129,130,178290,1,2,0:0:0:0:
88,87,178362,1,0,0:0:0:0:
32,67,178433,6,0,L|142:64,1,80,6|0,0:0|0:0,0:0:0:0:
479,316,178719,2,0,L|370:320,1,80,8|0,0:0|0:0,0:0:0:0:
32,67,179005,2,0,L|142:64,1,80,2|0,0:0|0:0,0:0:0:0:
479,316,179290,2,0,L|370:320,1,80,10|0,0:0|0:0,0:0:0:0:
32,67,179576,2,0,L|142:64,1,80,6|0,0:0|0:0,0:0:0:0:
479,316,179862,2,0,L|370:320,1,80,10|0,0:0|0:0,0:0:0:0:
32,67,180148,2,0,L|142:64,1,80,0|2,0:0|0:0,0:0:0:0:
479,316,180433,2,0,L|370:320,1,80,10|0,0:0|0:0,0:0:0:0:
333,272,180719,5,6,0:0:0:0:
256,352,180862,1,0,0:0:0:0:
256,32,181005,1,14,0:0:0:0:
256,192,181148,5,0,0:0:0:0:
256,192,181219,1,0,0:0:0:0:
256,192,181290,1,6,0:0:0:0:
179,272,181433,1,0,0:0:0:0:
333,112,181576,1,14,0:0:0:0:
179,112,181719,1,0,0:0:0:0:
410,192,181862,5,6,0:0:0:0:
102,192,182005,1,0,0:0:0:0:
102,192,182076,1,0,0:0:0:0:
102,192,182148,1,10,0:0:0:0:
256,192,182290,1,0,0:0:0:0:
256,352,182433,5,14,0:0:0:0:
256,32,182576,1,0,0:0:0:0:
256,32,182648,1,0,0:0:0:0:
256,32,182719,1,14,0:0:0:0:
256,192,182862,1,0,0:0:0:0:
480,67,183005,6,0,L|370:64,1,80,6|0,0:0|0:0,0:0:0:0:
33,316,183290,2,0,L|142:320,1,80,8|0,0:0|0:0,0:0:0:0:
480,67,183576,2,0,L|370:64,1,80,2|0,0:0|0:0,0:0:0:0:
33,316,183862,2,0,L|142:320,1,80,10|2,0:0|0:0,0:0:0:0:
480,67,184148,2,0,L|370:64,1,80,6|0,0:0|0:0,0:0:0:0:
33,316,184433,2,0,L|142:320,1,80,8|2,0:0|0:0,0:0:0:0:
480,67,184719,2,0,L|370:64,1,80,2|0,0:0|0:0,0:0:0:0:
33,316,185005,2,0,L|142:320,1,80,10|0,0:0|0:0,0:0:0:0:
333,272,185290,5,6,0:0:0:0:
179,112,185433,1,0,0:0:0:0:
333,112,185576,1,8,0:0:0:0:
179,272,185719,1,0,0:0:0:0:
410,192,185862,5,6,0:0:0:0:
256,32,186005,1,0,0:0:0:0:
256,32,186076,1,0,0:0:0:0:
256,32,186148,1,10,0:0:0:0:
102,192,186290,1,0,0:0:0:0:
256,352,186433,5,14,0:0:0:0:
256,192,186576,1,0,0:0:0:0:
256,192,186648,1,0,0:0:0:0:
256,192,186719,1,14,0:0:0:0:
256,32,186862,1,0,0:0:0:0:
256,192,187005,2,0,P|210:219|175:203,1,80,4|2,0:0|0:0,0:0:0:0:
256,192,187290,2,0,P|285:216|332:208,1,80,6|0,0:0|0:0,0:0:0:0:
480,67,187576,6,0,L|370:64,1,80,6|0,0:0|0:0,0:0:0:0:
33,316,187862,2,0,L|142:320,1,80,8|0,0:0|0:0,0:0:0:0:
484,74,188148,6,0,L|374:68,1,80,2|0,0:0|0:0,0:0:0:0:
28,308,188433,2,0,L|137:315,1,80,10|0,0:0|0:0,0:0:0:0:
488,82,188719,6,0,L|378:72,1,80,6|0,0:0|0:0,0:0:0:0:
24,300,189005,2,0,L|133:311,1,80,8|0,0:0|0:0,0:0:0:0:
491,91,189290,6,0,L|382:76,1,80,2|0,0:0|0:0,0:0:0:0:
21,292,189576,2,0,L|129:307,1,80,10|0,0:0|0:0,0:0:0:0:
335,344,189862,5,6,0:0:0:0:
501,26,190005,1,0,0:0:0:0:
410,319,190148,5,8,0:0:0:0:
256,107,190290,1,0,0:0:0:0:
256,352,190433,5,6,0:0:0:0:
425,70,190576,1,0,0:0:0:0:
479,279,190719,5,10,0:0:0:0:
342,98,190862,1,0,0:0:0:0:
177,344,191005,5,6,0:0:0:0:
11,26,191148,1,0,0:0:0:0:
102,319,191290,5,8,0:0:0:0:
256,107,191433,1,0,0:0:0:0:
87,70,191576,5,14,0:0:0:0:
33,279,191719,1,0,0:0:0:0:
33,279,191790,1,0,0:0:0:0:
33,279,191862,1,2,0:0:0:0:
170,98,192005,1,0,0:0:0:0:
256,352,192148,6,0,L|261:252,1,80,6|0,0:0|0:0,0:0:0:0:
256,32,192433,2,0,L|251:132,1,80,8|0,0:0|0:0,0:0:0:0:
250,359,192719,6,0,L|259:255,1,80,2|0,0:0|0:0,0:0:0:0:
250,24,193005,2,0,L|259:128,1,80,10|0,0:0|0:0,0:0:0:0:
268,367,193290,6,0,L|266:257,1,80,6|0,0:0|0:0,0:0:0:0:
268,16,193576,2,0,L|266:126,1,80,8|0,0:0|0:0,0:0:0:0:
236,374,193862,6,0,L|254:261,1,80,2|0,0:0|0:0,0:0:0:0:
275,9,194148,2,0,L|257:122,1,80,10|0,0:0|0:0,0:0:0:0:
433,332,194433,6,0,P|480:355|527:347,1,80,6|0,0:0|0:0,0:0:0:0:
79,52,194719,1,14,0:0:0:0:
489,274,194862,1,0,0:0:0:0:
79,52,195005,6,0,P|32:29|-15:37,1,80,14|0,0:0|0:0,0:0:0:0:
433,332,195290,1,14,0:0:0:0:
23,110,195433,1,0,0:0:0:0:
101,129,195576,6,0,L|181:127,1,80,2|0,0:0|0:0,0:0:0:0:
411,255,195790,1,0,0:0:0:0:
411,255,195862,2,0,L|331:256,1,80,2|0,0:0|0:0,0:0:0:0:
256,192,196148,1,2,0:0:0:0:
149,237,196719,6,0,P|169:284|161:325,1,80,2|0,0:0|0:0,0:0:0:0:
33,343,197148,2,0,P|13:296|21:255,1,80,2|0,0:0|0:0,0:0:0:0:
92,291,197576,1,2,0:0:0:0:
363,237,199005,6,0,P|343:284|351:325,1,80,0|2,0:0|0:0,0:0:0:0:
479,343,199433,2,0,P|499:296|491:255,1,80,0|2,0:0|0:0,0:0:0:0:
420,291,199862,1,0,0:0:0:0:
420,291,200005,1,2,0:0:0:0:
149,237,201290,6,0,P|169:284|161:325,1,80,2|0,0:0|0:0,0:0:0:0:
33,343,201719,2,0,P|13:296|21:255,1,80,2|2,0:0|0:0,0:0:0:0:
92,291,202148,1,0,0:0:0:0:
92,291,202290,1,2,0:0:0:0:
455,359,203005,1,2,0:0:0:0:
92,291,203433,1,0,0:0:0:0:
149,237,203576,6,0,P|169:190|161:149,1,80,2|0,0:0|0:0,0:0:0:0:
243,140,204005,2,0,P|223:93|231:52,1,80,2|2,0:0|0:0,0:0:0:0:
294,23,204433,2,0,B|315:17|315:17|348:20,1,40,0|2,0:0|0:0,0:0:0:0:
413,22,204719,5,0,0:0:0:0:
404,101,204862,1,2,0:0:0:0:
468,148,205005,1,0,0:0:0:0:
477,227,205148,2,0,L|484:272,1,40,2|0,0:0|0:0,0:0:0:0:
