osu file format v14

[General]
AudioFilename: Ghost Rule.mp3
AudioLeadIn: 0
PreviewTime: 48076
Countdown: 0
SampleSet: Normal
StackLeniency: 0.7
Mode: 0
LetterboxInBreaks: 0
WidescreenStoryboard: 0

[Editor]
Bookmarks: 123576,132719,151005,157862
DistanceSpacing: 1.2
BeatDivisor: 4
GridSize: 8
TimelineZoom: 1

[Metadata]
Title:Ghost Rule
TitleUnicode:ゴーストルール
Artist:DECO*27
ArtistUnicode:DECO*27
Creator:Awaken
Version:Hard
Source:
Tags:ボーカロイド vocaloid Naoki Itai MUSIC FOR MUSIC Regraz Mafumafu Evil_Twilight HabiHolic Flask Nasya N_a_s_y_a caren_sk val0108 z1085684963 hatsune miku 初音ミク japanese novelty
BeatmapID:1036170
BeatmapSetID:413117

[Difficulty]
HPDrainRate:6
CircleSize:4
OverallDifficulty:6
ApproachRate:8
SliderMultiplier:1.5
SliderTickRate:1

[Events]
//Background and Video events
0,0,"Ghost.jpg",0,0
//Break Periods
2,9490,17683
2,66633,74255
2,123776,131969
2,151204,157112
//Storyboard Layer 0 (Background)
//Storyboard Layer 1 (Fail)
//Storyboard Layer 2 (Pass)
//Storyboard Layer 3 (Foreground)
//Storyboard Layer 4 (Overlay)
//Storyboard Sound Samples

[TimingPoints]
148,285.714285714286,4,1,1,60,1,0
9290,-100,4,1,1,60,0,1
9362,-100,4,1,1,60,0,0
36719,-200,4,1,1,50,0,0
41290,-200,4,1,1,50,0,0
43576,-100,4,1,1,50,0,0
48148,-100,4,1,1,70,0,1
48219,-100,4,1,1,70,0,1
57290,-100,4,1,1,70,0,1
61433,-100,4,1,1,70,0,0
61862,-100,4,1,1,70,0,1
65862,-100,4,1,1,70,0,0
66433,-100,4,1,1,70,0,1
66505,-100,4,1,1,70,0,0
75576,-133.333333333333,4,1,1,50,0,0
84719,-100,4,1,1,60,0,0
93862,-200,4,1,1,50,0,0
105290,-100,4,1,1,70,0,1
105362,-100,4,1,1,70,0,1
114433,-100,4,1,1,70,0,1
118576,-100,4,1,1,70,0,0
119005,-100,4,1,1,70,0,1
123005,-100,4,1,1,70,0,0
132719,-200,4,1,1,40,0,0
141862,-100,4,1,1,50,0,0
160148,-100,4,1,1,70,0,1
160219,-100,4,1,1,70,0,0
169290,-100,4,1,1,70,0,1
169362,-100,4,1,1,70,0,0
173862,-100,4,1,1,75,0,1
173933,-100,4,1,1,75,0,0
178433,-100,4,1,1,75,0,1
180576,-100,4,1,1,75,0,1
180719,-100,4,1,1,75,0,1
182576,-100,4,1,1,75,0,0
183005,-100,4,1,1,75,0,1
185148,-100,4,1,1,75,0,1
185290,-100,4,1,1,75,0,1
187148,-100,4,1,1,75,0,0
187576,-100,4,1,1,75,0,1
191719,-100,4,1,1,75,0,0
192148,-100,4,1,1,75,0,1
196148,-100,4,1,1,75,0,0

[Colours]
Combo1 : 255,40,40
Combo2 : 114,231,120
Combo3 : 78,210,214
Combo4 : 29,131,214
Combo5 : 255,0,0

[HitObjects]
256,192,148,12,0,8290,0:0:0:0:
191,106,8719,6,0,L|273:98,1,75,8|0,0:0|0:0,0:0:0:0:
318,190,9005,2,0,L|410:193,1,75,8|0,0:0|0:0,0:0:0:0:
488,148,9290,1,4,0:0:0:0:
67,344,18433,6,0,P|54:294|66:259,1,75,4|0,0:0|0:0,0:0:0:0:
131,216,18719,2,0,L|214:208,1,75,8|0,0:0|0:0,0:0:0:0:
294,228,19005,2,0,B|353:242|353:242|386:237|386:237|445:250,1,150,0|8,0:0|0:0,0:0:0:0:
487,172,19433,1,0,0:0:0:0:
431,101,19576,6,0,L|441:20,1,75
336,73,19862,2,0,L|340:159,1,75,8|0,0:0|0:0,0:0:0:0:
187,82,20148,1,0,0:0:0:0:
236,163,20290,1,0,0:0:0:0:
236,163,20433,2,0,P|180:171|147:163,1,75,8|0,0:0|0:0,0:0:0:0:
51,224,20719,6,0,P|34:299|64:373,1,150,0|8,0:0|0:0,0:0:0:0:
151,377,21148,2,0,L|306:359,1,150,0|0,0:0|0:0,0:0:0:0:
364,296,21576,1,8,0:0:0:0:
430,356,21719,1,0,0:0:0:0:
501,301,21862,6,0,P|501:257|491:224,1,75,0|0,0:0|0:0,0:0:0:0:
422,169,22148,2,0,P|412:132|413:95,1,75,8|0,0:0|0:0,0:0:0:0:
322,91,22433,2,0,P|248:79|170:125,1,150,0|8,0:0|0:0,0:0:0:0:
148,194,22862,5,0,0:0:0:0:
148,194,23005,2,0,L|129:26,2,150,4|8|0,0:0|0:0|0:0,0:0:0:0:
107,274,23719,1,0,0:0:0:0:
162,345,23862,2,0,L|247:334,1,75,8|0,0:0|0:0,0:0:0:0:
295,266,24148,2,0,P|338:286|434:243,1,150,0|8,0:0|0:0,0:0:0:0:
448,163,24576,1,0,0:0:0:0:
383,100,24719,2,0,L|292:107,1,75,0|0,0:0|0:0,0:0:0:0:
234,176,25005,2,0,L|324:188,1,75,8|0,0:0|0:0,0:0:0:0:
221,93,25290,6,0,P|172:110|152:205,1,150,0|8,0:0|0:0,0:0:0:0:
9,196,25719,2,0,P|51:238|48:333,1,150,0|0,0:0|0:0,0:0:0:0:
148,382,26148,2,0,L|241:372,1,75,8|0,0:0|0:0,0:0:0:0:
283,301,26433,5,0,0:0:0:0:
359,362,26576,2,0,L|414:356,2,37.5,0|0|8,0:0|0:0|0:0,0:0:0:0:
283,301,26862,1,0,0:0:0:0:
349,240,27005,2,0,P|361:203|357:155,1,75,0|0,0:0|0:0,0:0:0:0:
243,123,27290,2,0,P|262:156|273:192,1,75,12|0,0:0|0:0,0:0:0:0:
179,187,27576,6,0,P|126:179|51:238,2,150,4|8|0,0:0|0:0|0:0,0:0:0:0:
267,203,28290,1,0,0:0:0:0:
340,151,28433,2,0,L|350:65,1,75,8|0,0:0|0:0,0:0:0:0:
425,27,28719,6,0,L|440:181,1,150,0|8,0:0|0:0,0:0:0:0:
477,258,29148,1,0,0:0:0:0:
414,321,29290,2,0,L|329:329,1,75,0|0,0:0|0:0,0:0:0:0:
258,368,29576,2,0,L|166:360,1,75,8|0,0:0|0:0,0:0:0:0:
105,314,29862,6,0,B|128:268|107:226|107:226|121:151,1,150,0|8,0:0|0:0,0:0:0:0:
164,91,30290,1,0,0:0:0:0:
235,35,30433,2,0,P|256:73|253:113,1,75,0|0,0:0|0:0,0:0:0:0:
345,117,30719,2,0,P|331:155|297:184,1,75,8|0,0:0|0:0,0:0:0:0:
235,234,31005,6,0,P|295:211|382:259,1,150,0|8,0:0|0:0,0:0:0:0:
443,295,31433,1,0,0:0:0:0:
487,216,31576,2,0,B|501:184|501:184|496:129,1,75,0|8,0:0|0:0,0:0:0:0:
439,74,31862,2,0,L|339:86,1,75,8|0,0:0|0:0,0:0:0:0:
282,121,32148,6,0,P|222:95|125:108,1,150,0|8,0:0|0:0,0:0:0:0:
62,148,32576,1,0,0:0:0:0:
62,148,32719,2,0,L|48:226,1,75,0|0,0:0|0:0,0:0:0:0:
14,305,33005,2,0,B|48:321|48:321|80:363,1,75,8|0,0:0|0:0,0:0:0:0:
157,375,33290,6,0,L|315:360,1,150,0|8,0:0|0:0,0:0:0:0:
376,302,33719,1,0,0:0:0:0:
449,354,33862,2,0,P|464:311|459:266,1,75,0|0,0:0|0:0,0:0:0:0:
408,141,34148,2,0,P|393:184|398:229,1,75,8|0,0:0|0:0,0:0:0:0:
486,93,34433,2,0,P|437:53|351:78,1,150,0|8,0:0|0:0,0:0:0:0:
279,118,34862,2,0,L|198:112,2,75,0|0|0,0:0|0:0|0:0,0:0:0:0:
209,205,35290,2,0,P|164:205|126:220,1,75,8|0,0:0|0:0,0:0:0:0:
78,284,35576,5,0,0:0:0:0:
142,346,35719,1,0,0:0:0:0:
142,346,35790,1,0,0:0:0:0:
142,346,35862,1,8,0:0:0:0:
223,308,36005,1,0,0:0:0:0:
298,357,36148,6,0,P|312:316|307:279,1,75,0|0,0:0|0:0,0:0:0:0:
294,196,36433,2,0,P|291:158|304:124,1,75,8|0,0:0|0:0,0:0:0:0:
380,80,36719,6,0,B|285:117|246:25|246:25|172:19|125:98,1,300,4|2,0:0|0:0,0:0:0:0:
97,168,38148,1,0,0:0:0:0:
102,257,38433,1,8,0:0:0:0:
164,322,38719,1,0,0:0:0:0:
258,345,39005,6,0,B|311:311|373:339|373:339|473:268|431:178,1,300,4|0,0:0|0:0,0:0:0:0:
386,125,40290,2,0,P|356:108|313:98,1,75,0|2,0:0|0:0,0:0:0:0:
243,114,40719,2,0,L|207:123,3,37.5,0|0|8|0,0:0|0:0|0:0|0:0,0:0:0:0:
343,255,41290,6,0,B|269:211|181:264|181:264|104:255|74:181,1,300,4|2,0:0|0:0,0:0:0:0:
86,103,42719,1,0,0:0:0:0:
142,32,43005,1,0,0:0:0:0:
230,14,43290,1,8,0:0:0:0:
256,192,43576,5,4,0:0:0:0:
256,192,43648,12,0,45719,0:0:0:0:
256,192,45862,12,0,47576,0:0:0:0:
452,206,48148,6,0,B|405:177|405:177|359:201|302:178,2,150,4|8|0,0:0|0:0|0:0,0:0:0:0:
479,291,48862,1,0,0:0:0:0:
415,354,49005,2,0,L|320:349,1,75,8|0,0:0|0:0,0:0:0:0:
273,288,49290,6,0,L|107:296,1,150,0|8,0:0|0:0,0:0:0:0:
50,240,49719,2,0,P|23:190|56:93,1,150,0|0,0:0|0:0,0:0:0:0:
125,61,50148,2,0,L|211:71,1,75,8|0,0:0|0:0,0:0:0:0:
274,120,50433,6,0,L|358:113,1,75,4|0,0:0|0:0,0:0:0:0:
450,223,50719,2,0,L|366:216,1,75,8|0,0:0|0:0,0:0:0:0:
196,227,51005,2,0,L|280:220,1,75,0|0,0:0|0:0,0:0:0:0:
372,330,51290,2,0,L|288:323,1,75,8|0,0:0|0:0,0:0:0:0:
173,348,51576,6,0,B|128:359|128:359|82:334|16:347,1,150,0|8,0:0|0:0,0:0:0:0:
50,224,52005,2,0,B|95:213|95:213|141:238|207:225,1,150,0|0,0:0|0:0,0:0:0:0:
263,167,52433,2,0,P|270:134|266:83,1,75,8|0,0:0|0:0,0:0:0:0:
195,38,52719,6,0,L|24:28,2,150,4|8|0,0:0|0:0|0:0,0:0:0:0:
281,14,53433,1,0,0:0:0:0:
346,76,53576,2,0,L|442:68,1,75,8|0,0:0|0:0,0:0:0:0:
497,117,53862,6,0,B|504:168|504:168|466:202|481:268,1,150,0|8,0:0|0:0,0:0:0:0:
354,182,54290,2,0,B|347:233|347:233|385:267|370:333,1,150,0|0,0:0|0:0,0:0:0:0:
297,374,54719,2,0,L|206:363,1,75,8|0,0:0|0:0,0:0:0:0:
146,315,55005,6,0,L|55:323,1,75,0|0,0:0|0:0,0:0:0:0:
21,213,55290,2,0,L|112:221,1,75,8|0,0:0|0:0,0:0:0:0:
268,225,55576,2,0,L|177:233,1,75,0|0,0:0|0:0,0:0:0:0:
114,113,55862,2,0,L|205:121,1,75,8|0,0:0|0:0,0:0:0:0:
301,116,56148,6,0,B|350:133|350:133|391:107|455:128,1,150,0|8,0:0|0:0,0:0:0:0:
492,201,56576,1,0,0:0:0:0:
423,259,56719,2,0,L|433:303,2,37.5,8|0|8,0:0|0:0|0:0,0:0:0:0:
317,301,57005,2,0,L|311:382,1,75,8|8,0:0|0:0,0:0:0:0:
268,225,57290,5,4,0:0:0:0:
256,192,57362,12,0,59005,0:0:0:0:
380,198,59576,6,0,L|391:112,1,75,4|0,0:0|0:0,0:0:0:0:
275,205,59862,2,0,L|284:279,1,75,8|0,0:0|0:0,0:0:0:0:
186,169,60148,2,0,P|127:156|39:185,1,150,0|8,0:0|0:0,0:0:0:0:
11,97,60576,1,0,0:0:0:0:
82,42,60719,2,0,L|162:58,1,75,0|0,0:0|0:0,0:0:0:0:
243,36,61005,1,8,0:0:0:0:
243,36,61148,1,0,0:0:0:0:
312,92,61290,2,0,L|317:173,1,75,0|0,0:0|0:0,0:0:0:0:
398,127,61576,2,0,L|403:208,1,75,8|0,0:0|0:0,0:0:0:0:
489,174,61862,5,4,0:0:0:0:
256,192,61933,12,0,63576,0:0:0:0:
379,280,64148,6,0,L|297:292,1,75,4|0,0:0|0:0,0:0:0:0:
227,243,64433,2,0,L|145:255,1,75,8|0,0:0|0:0,0:0:0:0:
69,218,64719,2,0,P|46:178|76:73,1,150,0|8,0:0|0:0,0:0:0:0:
142,30,65148,1,0,0:0:0:0:
142,30,65290,2,0,L|301:53,1,150,0|8,0:0|0:0,0:0:0:0:
403,21,65719,1,0,0:0:0:0:
436,140,65862,1,0,0:0:0:0:
436,140,66433,5,4,0:0:0:0:
142,127,75005,6,0,L|221:119,1,75,0|0,0:0|0:0,0:0:0:0:
293,166,75290,2,0,L|372:158,1,75,0|0,0:0|0:0,0:0:0:0:
452,194,75576,1,0,0:0:0:0:
270,322,77862,5,0,0:0:0:0:
128,149,80148,5,0,0:0:0:0:
344,51,82433,5,0,0:0:0:0:
426,145,82719,1,0,0:0:0:0:
291,206,83005,1,0,0:0:0:0:
291,206,84148,6,0,P|282:237|286:264,1,56.2500021457673,0|0,0:0|0:0,0:0:0:0:
358,326,84433,2,0,L|416:328,1,56.2500021457673,0|0,0:0|0:0,0:0:0:0:
255,350,84719,6,0,B|199:363|199:363|155:342|101:358,1,150,4|8,0:0|0:0,0:0:0:0:
50,286,85148,1,0,0:0:0:0:
77,200,85290,2,0,P|67:161|71:121,1,75,0|0,0:0|0:0,0:0:0:0:
159,69,85576,2,0,P|169:108|165:148,1,75,8|0,0:0|0:0,0:0:0:0:
222,213,85862,6,0,L|398:202,1,150,0|8,0:0|0:0,0:0:0:0:
447,252,86290,2,0,L|444:330,2,75,0|0|0,0:0|0:0|0:0,0:0:0:0:
487,170,86719,2,0,P|491:132|470:88,1,75,8|0,0:0|0:0,0:0:0:0:
394,62,87005,6,0,L|221:71,1,150,0|8,0:0|0:0,0:0:0:0:
317,173,87433,2,0,P|272:164|161:196,1,150,0|0,0:0|0:0,0:0:0:0:
254,267,87862,2,0,P|227:297|218:343,1,75,8|0,0:0|0:0,0:0:0:0:
135,366,88148,2,0,P|55:340|27:271,1,150,0|8,0:0|0:0,0:0:0:0:
45,196,88576,2,0,B|53:160|53:160|50:102,2,75,0|0|0,0:0|0:0|0:0,0:0:0:0:
158,146,89005,2,0,L|163:62,1,75,8|0,0:0|0:0,0:0:0:0:
257,190,89290,6,0,P|307:202|413:193,1,150,0|8,0:0|0:0,0:0:0:0:
452,272,89719,1,0,0:0:0:0:
383,330,89862,2,0,L|286:325,1,75,0|0,0:0|0:0,0:0:0:0:
221,351,90148,2,0,L|124:346,1,75,8|0,0:0|0:0,0:0:0:0:
70,297,90433,6,0,P|36:224|73:148,1,150,0|8,0:0|0:0,0:0:0:0:
131,109,90862,2,0,B|134:74|134:74|126:21,2,75,0|0|0,0:0|0:0|0:0,0:0:0:0:
204,164,91290,2,0,L|211:251,1,75,8|0,0:0|0:0,0:0:0:0:
280,120,91576,6,0,P|327:104|429:131,1,150,0|8,0:0|0:0,0:0:0:0:
485,191,92005,1,0,0:0:0:0:
481,281,92148,2,0,L|466:370,1,75,0|0,0:0|0:0,0:0:0:0:
378,364,92433,2,0,P|324:368|290:358,1,75,8|0,0:0|0:0,0:0:0:0:
255,256,92719,2,0,P|309:252|343:262,1,75,0|0,0:0|0:0,0:0:0:0:
175,332,93005,2,0,P|121:336|87:326,1,75,0|0,0:0|0:0,0:0:0:0:
16,252,93290,5,0,0:0:0:0:
16,252,93433,1,0,0:0:0:0:
85,160,93576,1,0,0:0:0:0:
85,160,93719,1,0,0:0:0:0:
176,230,93862,6,0,L|345:214,1,150,0|0,0:0|0:0,0:0:0:0:
365,120,94719,2,0,L|324:115,1,37.5,0|0,0:0|0:0,0:0:0:0:
325,215,95005,2,0,L|368:214,1,37.5,0|0,0:0|0:0,0:0:0:0:
355,316,95290,2,0,L|303:313,1,37.5,0|0,0:0|0:0,0:0:0:0:
243,364,95576,6,0,P|206:347|159:351,1,75,0|0,0:0|0:0,0:0:0:0:
109,274,96005,1,0,0:0:0:0:
109,274,96148,2,0,P|82:245|114:140,1,150,0|0,0:0|0:0,0:0:0:0:
238,103,97005,6,0,L|288:111,1,37.5,0|0,0:0|0:0,0:0:0:0:
331,185,97290,2,0,L|381:178,1,37.5,0|0,0:0|0:0,0:0:0:0:
421,88,97576,2,0,L|469:92,1,37.5,0|0,0:0|0:0,0:0:0:0:
495,173,97862,2,0,L|486:264,1,75,0|0,0:0|0:0,0:0:0:0:
436,311,98290,5,0,0:0:0:0:
436,311,98433,2,0,P|360:328|277:306,1,150,4|0,0:0|0:0,0:0:0:0:
148,178,99290,2,0,L|196:171,1,37.5,0|0,0:0|0:0,0:0:0:0:
311,110,99576,2,0,L|262:105,1,37.5,0|0,0:0|0:0,0:0:0:0:
154,86,99862,2,0,L|202:79,1,37.5,0|0,0:0|0:0,0:0:0:0:
373,48,100148,2,0,P|397:87|360:189,1,150,0|0,0:0|0:0,0:0:0:0:
256,192,100790,12,0,102862,0:0:0:0:
256,192,103005,12,0,104719,0:0:0:0:
60,206,105290,6,0,B|107:177|107:177|153:201|210:178,2,150,4|8|0,0:0|0:0|0:0,0:0:0:0:
33,291,106005,1,0,0:0:0:0:
97,354,106148,2,0,L|192:349,1,75,8|0,0:0|0:0,0:0:0:0:
239,288,106433,6,0,L|405:296,1,150,0|8,0:0|0:0,0:0:0:0:
462,240,106862,2,0,P|489:190|456:93,1,150,0|0,0:0|0:0,0:0:0:0:
387,61,107290,2,0,L|301:71,1,75,8|0,0:0|0:0,0:0:0:0:
238,120,107576,6,0,L|154:113,1,75,0|0,0:0|0:0,0:0:0:0:
62,223,107862,2,0,L|146:216,1,75,8|0,0:0|0:0,0:0:0:0:
316,227,108148,2,0,L|232:220,1,75,0|0,0:0|0:0,0:0:0:0:
140,330,108433,2,0,L|224:323,1,75,8|0,0:0|0:0,0:0:0:0:
339,348,108719,6,0,B|384:359|384:359|430:334|496:347,1,150,0|8,0:0|0:0,0:0:0:0:
462,224,109148,2,0,B|417:213|417:213|371:238|305:225,1,150,0|0,0:0|0:0,0:0:0:0:
249,167,109576,2,0,P|242:134|246:83,1,75,8|0,0:0|0:0,0:0:0:0:
317,38,109862,6,0,L|488:28,2,150,0|12|0,0:0|0:0|0:0,0:0:0:0:
231,14,110576,1,0,0:0:0:0:
166,76,110719,2,0,L|70:68,1,75,8|0,0:0|0:0,0:0:0:0:
15,117,111005,6,0,B|8:168|8:168|46:202|31:268,1,150,0|8,0:0|0:0,0:0:0:0:
158,182,111433,2,0,B|165:233|165:233|127:267|142:333,1,150,0|0,0:0|0:0,0:0:0:0:
215,374,111862,2,0,L|306:363,1,75,8|0,0:0|0:0,0:0:0:0:
366,315,112148,6,0,L|457:323,1,75,0|0,0:0|0:0,0:0:0:0:
491,213,112433,2,0,L|400:221,1,75,12|0,0:0|0:0,0:0:0:0:
244,225,112719,2,0,L|335:233,1,75,0|0,0:0|0:0,0:0:0:0:
398,113,113005,2,0,L|307:121,1,75,8|0,0:0|0:0,0:0:0:0:
211,116,113290,6,0,B|162:133|162:133|121:107|57:128,1,150,0|8,0:0|0:0,0:0:0:0:
20,201,113719,1,0,0:0:0:0:
89,259,113862,2,0,L|79:303,2,37.5,8|0|8,0:0|0:0|0:0,0:0:0:0:
195,301,114148,2,0,L|201:382,1,75,8|8,0:0|0:0,0:0:0:0:
244,225,114433,5,4,0:0:0:0:
256,192,114505,12,0,116148,0:0:0:0:
132,198,116719,6,0,L|121:112,1,75,4|0,0:0|0:0,0:0:0:0:
237,205,117005,2,0,L|228:279,1,75,8|0,0:0|0:0,0:0:0:0:
326,169,117290,2,0,P|385:156|473:185,1,150,0|8,0:0|0:0,0:0:0:0:
501,97,117719,1,0,0:0:0:0:
430,42,117862,2,0,L|350:58,1,75,0|0,0:0|0:0,0:0:0:0:
269,36,118148,1,8,0:0:0:0:
269,36,118290,1,0,0:0:0:0:
200,92,118433,2,0,L|195:173,1,75,0|0,0:0|0:0,0:0:0:0:
114,127,118719,2,0,L|109:208,1,75,8|0,0:0|0:0,0:0:0:0:
23,174,119005,5,4,0:0:0:0:
256,192,119076,12,0,120719,0:0:0:0:
133,280,121290,6,0,L|215:292,1,75,4|0,0:0|0:0,0:0:0:0:
285,243,121576,2,0,L|367:255,1,75,8|0,0:0|0:0,0:0:0:0:
443,218,121862,2,0,P|466:178|436:73,1,150,0|8,0:0|0:0,0:0:0:0:
370,30,122290,1,0,0:0:0:0:
370,30,122433,2,0,L|211:53,1,150,0|8,0:0|0:0,0:0:0:0:
109,21,122862,1,0,0:0:0:0:
76,140,123005,1,0,0:0:0:0:
76,140,123576,5,4,0:0:0:0:
81,65,132719,6,0,L|167:62,1,75,0|0,0:0|0:0,0:0:0:0:
226,36,133148,1,0,0:0:0:0:
226,36,133290,2,0,L|312:33,2,75,0|0|0,0:0|0:0|0:0,0:0:0:0:
397,118,134148,2,0,L|397:161,1,37.5
296,183,134433,2,0,L|302:232,1,37.5,0|0,0:0|0:0,0:0:0:0:
394,248,134719,2,0,L|394:291,1,37.5,0|0,0:0|0:0,0:0:0:0:
277,356,135005,6,0,P|241:365|199:358,1,75,0|0,0:0|0:0,0:0:0:0:
137,324,135433,1,0,0:0:0:0:
137,324,135576,2,0,P|100:318|63:327,2,75,0|0|0,0:0|0:0|0:0,0:0:0:0:
60,175,136433,2,0,L|56:133,1,37.5,0|0,0:0|0:0,0:0:0:0:
151,56,136719,2,0,L|155:94,1,37.5,0|0,0:0|0:0,0:0:0:0:
237,163,137005,2,0,L|241:201,1,37.5,0|0,0:0|0:0,0:0:0:0:
342,293,137290,6,0,L|421:286,1,75,0|0,0:0|0:0,0:0:0:0:
267,338,137719,1,0,0:0:0:0:
267,338,137862,2,0,L|184:347,2,75,0|0|0,0:0|0:0|0:0,0:0:0:0:
61,264,138719,6,0,L|55:223,1,37.5,0|0,0:0|0:0,0:0:0:0:
154,139,139005,2,0,L|155:187,1,37.5,0|0,0:0|0:0,0:0:0:0:
274,245,139290,2,0,L|268:204,1,37.5,0|0,0:0|0:0,0:0:0:0:
336,113,139576,6,0,P|380:95|421:98,1,75,0|0,0:0|0:0,0:0:0:0:
486,183,140005,1,0,0:0:0:0:
486,183,140148,2,0,P|445:194|405:184,1,75,0|0,0:0|0:0,0:0:0:0:
362,297,140576,1,0,0:0:0:0:
362,297,140719,2,0,P|406:279|447:282,2,75,0|0|0,0:0|0:0|0:0,0:0:0:0:
181,347,141576,2,0,L|177:307,1,37.5,0|0,0:0|0:0,0:0:0:0:
146,233,141862,6,0,P|110:218|61:218,1,75,4|0,0:0|0:0,0:0:0:0:
224,142,142148,2,0,P|261:123|301:120,1,75,0|0,0:0|0:0,0:0:0:0:
393,184,142433,2,0,L|388:344,1,150,8|0,0:0|0:0,0:0:0:0:
136,141,143005,6,0,L|134:51,1,75,0|0,0:0|0:0,0:0:0:0:
26,178,143290,2,0,L|34:261,1,75,0|0,0:0|0:0,0:0:0:0:
111,337,143576,2,0,P|165:347|262:320,1,150,8|0,0:0|0:0,0:0:0:0:
436,81,144148,6,0,L|434:175,1,75,0|0,0:0|0:0,0:0:0:0:
308,219,144433,2,0,L|307:145,1,75,0|0,0:0|0:0,0:0:0:0:
234,51,144719,2,0,P|185:37|80:49,1,150,8|0,0:0|0:0,0:0:0:0:
117,322,145290,6,0,L|197:315,1,75,0|0,0:0|0:0,0:0:0:0:
295,363,145576,2,0,L|370:357,1,75,0|0,0:0|0:0,0:0:0:0:
465,283,145862,2,0,P|476:224|451:126,1,150,8|0,0:0|0:0,0:0:0:0:
81,86,146433,6,0,L|79:173,2,75,0|0|0,0:0|0:0|0:0,0:0:0:0:
160,41,146862,1,0,0:0:0:0:
233,93,147005,2,0,L|315:88,1,75,8|0,0:0|0:0,0:0:0:0:
378,144,147290,2,0,P|388:180|382:227,1,75,0|0,0:0|0:0,0:0:0:0:
314,274,147576,6,0,L|149:265,2,150,0|0|8,0:0|0:0|0:0,0:0:0:0:
386,326,148290,2,0,P|423:334|466:321,1,75,0|0,0:0|0:0,0:0:0:0:
496,242,148576,1,0,0:0:0:0:
496,242,148719,2,0,L|506:86,1,150,0|0,0:0|0:0,0:0:0:0:
383,59,149148,1,0,0:0:0:0:
383,59,149290,2,0,L|392:208,1,150,8|0,0:0|0:0,0:0:0:0:
318,262,149719,1,0,0:0:0:0:
231,235,149862,6,0,L|234:153,1,75,0|0,0:0|0:0,0:0:0:0:
181,85,150148,2,0,P|143:79|88:88,1,75,0|0,0:0|0:0,0:0:0:0:
36,134,150433,6,0,B|6:182|26:232|26:232|74:245|107:222|107:222|127:272|100:338,1,300,8|4,0:0|0:0,0:0:0:0:
256,192,157862,12,8,159576,0:0:0:0:
60,178,160148,6,0,B|107:207|107:207|153:183|210:206,2,150,4|12|0,0:0|0:0|0:0,0:0:0:0:
33,93,160862,1,0,0:0:0:0:
97,30,161005,2,0,L|192:35,1,75,8|0,0:0|0:0,0:0:0:0:
239,96,161290,6,0,L|405:88,1,150,0|8,0:0|0:0,0:0:0:0:
462,144,161719,2,0,P|489:194|456:291,1,150,0|0,0:0|0:0,0:0:0:0:
387,323,162148,2,0,L|301:313,1,75,8|0,0:0|0:0,0:0:0:0:
238,264,162433,6,0,L|154:271,1,75,0|0,0:0|0:0,0:0:0:0:
62,161,162719,2,0,L|146:168,1,75,8|0,0:0|0:0,0:0:0:0:
316,157,163005,2,0,L|232:164,1,75,0|0,0:0|0:0,0:0:0:0:
140,54,163290,2,0,L|224:61,1,75,8|0,0:0|0:0,0:0:0:0:
339,36,163576,6,0,B|384:25|384:25|430:50|496:37,1,150,0|8,0:0|0:0,0:0:0:0:
462,160,164005,2,0,B|417:171|417:171|371:146|305:159,1,150,0|0,0:0|0:0,0:0:0:0:
249,217,164433,2,0,P|242:250|246:301,1,75,8|0,0:0|0:0,0:0:0:0:
317,346,164719,6,0,L|488:356,2,150,0|12|0,0:0|0:0|0:0,0:0:0:0:
231,370,165433,1,0,0:0:0:0:
166,308,165576,2,0,L|70:316,1,75,8|0,0:0|0:0,0:0:0:0:
15,267,165862,6,0,B|8:216|8:216|46:182|31:116,1,150,4|8,0:0|0:0,0:0:0:0:
158,202,166290,2,0,B|165:151|165:151|127:117|142:51,1,150,0|0,0:0|0:0,0:0:0:0:
215,10,166719,2,0,L|306:21,1,75,8|0,0:0|0:0,0:0:0:0:
366,69,167005,6,0,L|457:61,1,75,4|0,0:0|0:0,0:0:0:0:
491,171,167290,2,0,L|400:163,1,75,8|0,0:0|0:0,0:0:0:0:
244,159,167576,2,0,L|335:151,1,75,0|0,0:0|0:0,0:0:0:0:
398,271,167862,2,0,L|307:263,1,75,8|0,0:0|0:0,0:0:0:0:
211,268,168148,6,0,B|162:251|162:251|121:277|57:256,1,150,0|8,0:0|0:0,0:0:0:0:
20,183,168576,1,0,0:0:0:0:
89,125,168719,2,0,L|79:81,2,37.5,0|0|0,0:0|0:0|0:0,0:0:0:0:
220,110,169005,2,0,L|218:168,3,37.5,8|0|0|0,0:0|0:0|0:0|0:0,0:0:0:0:
203,74,169290,6,0,L|292:68,1,75
396,153,169576,2,0,L|315:159,1,75,12|0,0:0|0:0,0:0:0:0:
256,238,169862,2,0,P|249:285|264:324,1,75,0|0,0:0|0:0,0:0:0:0:
361,359,170148,2,0,P|368:312|353:273,1,75,8|0,0:0|0:0,0:0:0:0:
469,282,170433,6,0,P|456:229|474:122,1,150,4|8,0:0|0:0,0:0:0:0:
385,42,170862,1,0,0:0:0:0:
274,104,171005,2,0,P|229:118|114:112,1,150,0|8,0:0|0:0,0:0:0:0:
46,206,171433,1,0,0:0:0:0:
46,206,171576,2,0,L|57:294,1,75,4|0,0:0|0:0,0:0:0:0:
118,345,171862,2,0,P|158:348|205:337,1,75,8|0,0:0|0:0,0:0:0:0:
271,297,172148,2,0,P|307:290|345:293,1,75,0|0,0:0|0:0,0:0:0:0:
426,332,172433,2,0,L|509:323,1,75,8|0,0:0|0:0,0:0:0:0:
489,213,172719,6,0,P|436:221|343:188,1,150,4|8,0:0|0:0,0:0:0:0:
247,127,173148,1,0,0:0:0:0:
153,58,173290,2,0,P|84:29|10:35,1,150,0|12,0:0|0:0,0:0:0:0:
247,127,173862,6,0,L|343:116,1,75,0|0,0:0|0:0,0:0:0:0:
269,264,174148,2,0,L|194:272,1,75,12|4,0:0|0:0,0:0:0:0:
91,184,174433,2,0,P|76:148|81:103,1,75,0|0,0:0|0:0,0:0:0:0:
17,276,174719,2,0,P|32:312|27:357,1,75,12|0,0:0|0:0,0:0:0:0:
151,367,175005,6,0,P|203:356|308:368,1,150,0|12,0:0|0:0,0:0:0:0:
428,363,175433,1,0,0:0:0:0:
483,256,175576,2,0,P|492:180|489:81,1,150,0|12,0:0|0:0,0:0:0:0:
92,44,176148,6,0,P|85:99|95:128,1,75,4|0,0:0|0:0,0:0:0:0:
191,230,176433,2,0,P|198:175|188:146,1,75,8|0,0:0|0:0,0:0:0:0:
280,14,176719,2,0,P|273:69|283:98,1,75,0|0,0:0|0:0,0:0:0:0:
379,200,177005,2,0,P|386:145|376:116,1,75,8|0,0:0|0:0,0:0:0:0:
317,293,177290,2,0,P|392:312|474:276,1,150,8|8,0:0|0:0,0:0:0:0:
491,183,177719,1,0,0:0:0:0:
406,98,177862,1,8,0:0:0:0:
406,98,178005,1,8,0:0:0:0:
487,23,178148,1,8,0:0:0:0:
487,23,178290,1,8,0:0:0:0:
256,192,178433,12,0,180148,0:0:0:0:
162,101,180719,6,0,L|150:189,1,75,4|0,0:0|0:0,0:0:0:0:
204,289,181005,2,0,P|239:304|276:305,1,75,8|0,0:0|0:0,0:0:0:0:
395,223,181290,2,0,L|406:149,1,75,0|0,0:0|0:0,0:0:0:0:
340,53,181576,2,0,P|305:38|268:37,1,75,8|0,0:0|0:0,0:0:0:0:
101,168,181862,2,0,L|119:331,1,150,0|8,0:0|0:0,0:0:0:0:
236,369,182290,1,0,0:0:0:0:
354,322,182433,2,0,L|370:172,1,150,0|8,0:0|0:0,0:0:0:0:
256,192,183005,12,0,184719,0:0:0:0:
350,283,185290,6,0,L|362:195,1,75,4|0,0:0|0:0,0:0:0:0:
308,95,185576,2,0,P|273:80|236:79,1,75,8|0,0:0|0:0,0:0:0:0:
117,161,185862,2,0,L|106:235,1,75,0|0,0:0|0:0,0:0:0:0:
172,331,186148,2,0,P|207:346|244:347,1,75,8|0,0:0|0:0,0:0:0:0:
411,216,186433,2,0,L|393:53,1,150,0|8,0:0|0:0,0:0:0:0:
276,15,186862,1,0,0:0:0:0:
158,62,187005,2,0,L|142:212,1,150,0|8,0:0|0:0,0:0:0:0:
256,192,187576,12,0,189290,0:0:0:0:
160,38,189862,6,0,L|241:29,1,75,4|0,0:0|0:0,0:0:0:0:
315,154,190148,2,0,L|240:145,1,75,8|0,0:0|0:0,0:0:0:0:
136,263,190433,2,0,L|217:254,1,75,0|0,0:0|0:0,0:0:0:0:
292,378,190719,2,0,L|217:369,1,75,8|0,0:0|0:0,0:0:0:0:
58,307,191005,2,0,P|40:260|45:145,1,150,0|8,0:0|0:0,0:0:0:0:
152,74,191433,1,0,0:0:0:0:
257,165,191576,2,0,P|262:239|240:311,1,150,0|8,0:0|0:0,0:0:0:0:
256,192,192148,12,0,193862,0:0:0:0:
352,346,194433,6,0,L|271:355,1,75,4|0,0:0|0:0,0:0:0:0:
197,230,194719,2,0,L|271:238,1,75,8|0,0:0|0:0,0:0:0:0:
376,121,195005,2,0,L|295:130,1,75,0|0,0:0|0:0,0:0:0:0:
220,6,195290,2,0,L|294:14,1,75,8|0,0:0|0:0,0:0:0:0:
453,76,195576,2,0,P|471:123|466:238,1,150
360,310,196005,1,0,0:0:0:0:
360,310,196148,1,6,0:0:0:0:
