osu file format v14

[General]
AudioFilename: Ghost Rule.mp3
AudioLeadIn: 0
PreviewTime: 48076
Countdown: 0
SampleSet: Normal
StackLeniency: 0.7
Mode: 0
LetterboxInBreaks: 0
WidescreenStoryboard: 0

[Editor]
DistanceSpacing: 1
BeatDivisor: 4
GridSize: 8
TimelineZoom: 1

[Metadata]
Title:Ghost Rule
TitleUnicode:ゴーストルール
Artist:DECO*27
ArtistUnicode:DECO*27
Creator:Awaken
Version:G's Harder
Source:
Tags:ボーカロイド vocaloid Naoki Itai MUSIC FOR MUSIC Regraz Mafumafu Evil_Twilight HabiHolic Flask Nasya N_a_s_y_a caren_sk val0108 z1085684963 hatsune miku 初音ミク japanese novelty
BeatmapID:2229085
BeatmapSetID:413117

[Difficulty]
HPDrainRate:6
CircleSize:4
OverallDifficulty:6
ApproachRate:8
SliderMultiplier:1.6
SliderTickRate:1

[Events]
//Background and Video events
0,0,"Ghost.jpg",0,0
//Break Periods
2,9490,17533
2,66633,74676
2,123776,131819
2,151204,158962
//Storyboard Layer 0 (Background)
//Storyboard Layer 1 (Fail)
//Storyboard Layer 2 (Pass)
//Storyboard Layer 3 (Foreground)
//Storyboard Layer 4 (Overlay)
//Storyboard Sound Samples

[TimingPoints]
148,285.714285714286,4,1,1,60,1,0
9290,-100,4,1,1,70,0,1
9362,-100,4,1,1,70,0,0
36719,-200,4,1,1,70,0,0
39005,-100,4,1,1,70,0,0
41290,-200,4,1,1,70,0,0
43576,-100,4,1,1,70,0,0
48148,-100,4,1,1,80,0,1
48219,-100,4,1,1,80,0,0
57290,-100,4,1,1,80,0,1
61433,-100,4,1,1,80,0,0
61862,-100,4,1,1,80,0,1
65862,-100,4,1,1,80,0,0
66433,-100,4,1,1,80,0,1
66505,-100,4,1,1,70,0,0
75576,-133.333333333333,4,2,2,60,0,0
84719,-100,4,1,1,70,0,0
105290,-100,4,1,1,80,0,1
105362,-100,4,1,1,80,0,0
114433,-100,4,1,1,80,0,1
118576,-100,4,1,1,80,0,0
119005,-100,4,1,1,80,0,1
123005,-100,4,1,1,80,0,0
132719,-200,4,1,1,60,0,0
141862,-133.333333333333,4,1,1,70,0,0
150433,-200,4,1,1,70,0,0
160148,-100,4,1,1,80,0,1
160219,-100,4,1,1,80,0,0
169290,-90.9090909090909,4,1,1,80,0,1
169362,-90.9090909090909,4,1,1,80,0,0
173862,-83.3333333333333,4,1,1,80,0,1
173933,-83.3333333333333,4,1,1,80,0,0
178433,-83.3333333333333,4,1,1,80,0,1
180576,-83.3333333333333,4,1,1,80,0,1
180719,-100,4,1,1,80,0,1
182576,-100,4,1,1,80,0,0
183005,-100,4,1,1,80,0,1
185148,-100,4,1,1,80,0,1
185290,-100,4,1,1,80,0,1
187148,-100,4,1,1,80,0,0
187576,-100,4,1,1,80,0,1
191719,-100,4,1,1,80,0,0
192148,-100,4,1,1,80,0,1
196148,-100,4,1,1,80,0,0

[Colours]
Combo1 : 255,40,40
Combo2 : 114,231,120
Combo3 : 78,210,214
Combo4 : 29,131,214
Combo5 : 255,0,0

[HitObjects]
256,192,148,12,0,7005,0:0:0:0:
295,120,8433,6,0,P|261:96|231:53,1,80,8|0,0:0|0:0,0:0:0:0:
298,262,8719,2,0,P|336:245|388:240,1,80,8|0,0:0|0:0,0:0:0:0:
173,193,9005,2,0,P|169:234|147:282,1,80,8|0,0:0|0:0,0:0:0:0:
256,192,9290,5,4,0:0:0:0:
136,176,18433,6,0,B|184:159|213:85|182:24,2,160,4|8|0,0:0|0:0|0:0,0:0:0:0:
136,176,19290,1,8,0:0:0:0:
80,232,19433,2,0,B|55:277|84:351|132:368,1,160,0|0,0:0|0:0,0:0:0:0:
208,376,19862,1,8,0:0:0:0:
240,304,20005,2,0,P|272:277|316:274,1,80,0|0,0:0|0:0,0:0:0:0:
308,272,20290,1,0,0:0:0:0:
376,320,20433,2,0,B|396:283|447:262|490:274,1,120,8|0,0:0|0:0,0:0:0:0:
478,271,20719,6,0,B|428:255|404:182|434:128,1,160,0|8,0:0|0:0,0:0:0:0:
352,136,21148,2,0,B|378:89|354:16|304:0,1,160,0|0,0:0|0:0,0:0:0:0:
224,8,21576,1,8,0:0:0:0:
152,48,21719,2,0,P|159:86|197:118,1,80,0|0,0:0|0:0,0:0:0:0:
187,114,22005,1,0,0:0:0:0:
192,192,22148,1,8,0:0:0:0:
112,200,22290,1,0,0:0:0:0:
112,200,22433,2,0,P|88:232|88:284,1,80,0|0,0:0|0:0,0:0:0:0:
128,344,22719,1,8,0:0:0:0:
288,368,23005,6,0,B|334:346|356:270|320:212,2,160,4|8|0,0:0|0:0|0:0,0:0:0:0:
288,368,23862,1,8,0:0:0:0:
224,320,24005,2,0,B|207:273|133:244|88:269,1,160,0|0,0:0|0:0,0:0:0:0:
32,208,24433,1,8,0:0:0:0:
104,184,24576,2,0,P|98:144|72:115,1,80,0|0,0:0|0:0,0:0:0:0:
72,115,24862,1,0,0:0:0:0:
40,40,25005,2,0,B|63:75|115:91|157:75,1,120,8|0,0:0|0:0,0:0:0:0:
146,79,25290,6,0,B|166:31|243:9|289:35,1,160,0|8,0:0|0:0,0:0:0:0:
304,112,25719,2,0,B|345:135|422:113|442:65,1,160,0|0,0:0|0:0,0:0:0:0:
496,128,26148,1,8,0:0:0:0:
432,184,26290,2,0,P|439:222|477:254,1,80,0|0,0:0|0:0,0:0:0:0:
467,250,26576,1,0,0:0:0:0:
448,328,26719,1,8,0:0:0:0:
376,288,26862,1,0,0:0:0:0:
376,288,27005,2,0,P|335:295|304:328,1,80,0|0,0:0|0:0,0:0:0:0:
232,288,27290,1,12,0:0:0:0:
72,320,27576,6,0,B|87:274|54:202|-6:185,2,160,4|8|0,0:0|0:0|0:0,0:0:0:0:
112,248,28290,1,0,0:0:0:0:
176,208,28433,1,8,0:0:0:0:
256,216,28576,2,0,B|241:170|274:98|334:81,1,160,0|0,0:0|0:0,0:0:0:0:
400,96,29005,1,8,0:0:0:0:
464,152,29148,2,0,B|479:198|446:270|386:287,1,160,0|0,0:0|0:0,0:0:0:0:
320,264,29576,1,8,0:0:0:0:
272,328,29719,1,0,0:0:0:0:
208,280,29862,6,0,B|161:259|88:285|65:344,1,160,0|8,0:0|0:0,0:0:0:0:
24,264,30290,1,0,0:0:0:0:
72,200,30433,2,0,B|24:40,1,160,0|8,0:0|0:0,0:0:0:0:
120,0,30862,2,0,B|174:20|189:98|151:148,1,160,0|0,0:0|0:0,0:0:0:0:
208,200,31290,1,8,0:0:0:0:
264,144,31433,2,0,P|303:143|336:165,2,80,0|0|0,0:0|0:0|0:0,0:0:0:0:
208,200,31862,1,8,0:0:0:0:
200,280,32005,1,0,0:0:0:0:
256,344,32148,6,0,B|303:364|378:344|404:286,2,160,4|8|0,0:0|0:0|0:0,0:0:0:0:
200,280,32862,1,0,0:0:0:0:
152,344,33005,1,8,0:0:0:0:
88,296,33148,2,0,B|103:250|70:178|10:161,1,160,0|0,0:0|0:0,0:0:0:0:
80,112,33576,1,8,0:0:0:0:
160,136,33719,2,0,B|145:90|178:18|238:1,1,160,0|0,0:0|0:0,0:0:0:0:
304,8,34148,1,8,0:0:0:0:
352,72,34290,1,0,0:0:0:0:
432,96,34433,6,0,B|447:142|414:214|354:231,1,160,0|8,0:0|0:0,0:0:0:0:
288,192,34862,1,0,0:0:0:0:
272,272,35005,2,0,P|301:296|312:348,2,80,0|0|8,0:0|0:0|0:0,0:0:0:0:
192,280,35433,1,0,0:0:0:0:
128,328,35576,5,0,0:0:0:0:
56,296,35719,2,0,P|34:298|16:304,2,40,0|0|8,0:0|0:0|0:0,0:0:0:0:
88,224,36005,1,0,0:0:0:0:
48,152,36148,2,0,P|67:116|64:72,1,80,8|8,0:0|0:0,0:0:0:0:
161,13,36433,2,0,P|143:48|144:88,1,80,0|0,0:0|0:0,0:0:0:0:
192,152,36719,6,0,B|236:178|297:167|326:131|326:131|411:133|451:276|380:333,1,400,4|0,0:0|0:0,0:0:0:0:
312,304,38433,1,8,0:0:0:0:
240,344,38719,1,0,0:0:0:0:
176,304,39005,5,0,0:0:0:0:
176,304,39148,2,0,P|134:310|97:347,1,80,0|0,0:0|0:0,0:0:0:0:
48,280,39433,1,0,0:0:0:0:
72,208,39576,2,0,P|114:202|151:165,1,80,8|0,0:0|0:0,0:0:0:0:
184,112,39862,2,0,L|200:24,1,80,0|0,0:0|0:0,0:0:0:0:
272,8,40148,5,0,0:0:0:0:
352,32,40290,2,0,B|391:70|379:148|320:179,1,160,0|0,0:0|0:0,0:0:0:0:
410,338,40719,2,0,B|372:301|384:223|432:200,1,160,8|0,0:0|0:0,0:0:0:0:
288,240,41290,6,0,B|237:273|140:230|119:174|119:174|139:243|74:327|19:321,1,400,0|0,0:0|0:0,0:0:0:0:
0,240,43005,1,8,0:0:0:0:
24,168,43290,1,0,0:0:0:0:
8,96,43576,5,0,0:0:0:0:
56,32,43719,2,0,P|100:30|134:54,1,80,0|0,0:0|0:0,0:0:0:0:
176,120,44005,1,0,0:0:0:0:
224,184,44148,2,0,P|268:186|302:162,1,80,8|0,0:0|0:0,0:0:0:0:
336,96,44433,2,0,P|370:76|409:79,1,80,0|0,0:0|0:0,0:0:0:0:
464,136,44719,6,0,L|488:216,1,80,0|0,0:0|0:0,0:0:0:0:
326,252,45005,2,0,L|304:176,1,80,0|0,0:0|0:0,0:0:0:0:
401,219,45290,2,0,L|424:296,1,80,8|8,0:0|0:0,0:0:0:0:
272,344,45576,2,0,L|249:267,1,80,8|8,0:0|0:0,0:0:0:0:
168,336,48148,6,0,B|148:293|72:270|14:300,2,160,4|8|0,0:0|0:0|0:0,0:0:0:0:
240,376,48862,1,0,0:0:0:0:
272,304,49005,2,0,P|247:272|246:233,1,80,8|0,0:0|0:0,0:0:0:0:
272,160,49290,2,2,B|300:114|378:101|414:134,1,160,0|8,0:0|0:0,0:0:0:0:
440,208,49719,1,0,0:0:0:0:
360,208,49862,2,0,B|320:32,1,160,0|8,0:0|0:0,0:0:0:0:
248,24,50290,1,0,0:0:0:0:
208,96,50433,6,0,L|120:71,1,80,4|0,0:0|0:0,0:0:0:0:
35,34,50719,2,0,L|56:112,1,80,8|0,0:0|0:0,0:0:0:0:
63,216,51005,2,0,L|120:160,2,80,0|0|8,0:0|0:0|0:0,0:0:0:0:
32,288,51433,1,0,0:0:0:0:
112,280,51576,6,2,B|159:259|236:288|249:350,1,160,0|8,0:0|0:0,0:0:0:0:
312,296,52005,1,0,0:0:0:0:
392,288,52148,1,0,0:0:0:0:
464,256,52290,2,0,L|504:288,2,40,0|0|8,0:0|0:0|0:0,0:0:0:0:
448,176,52576,1,0,0:0:0:0:
368,184,52719,6,0,B|353:129|377:64|429:49,2,160,4|8|0,0:0|0:0|0:0,0:0:0:0:
296,224,53433,1,0,0:0:0:0:
288,144,53576,2,0,P|256:119|217:118,1,80,8|0,0:0|0:0,0:0:0:0:
152,168,53862,2,2,B|102:192|30:164|16:117,1,160,0|8,0:0|0:0,0:0:0:0:
24,200,54290,1,0,0:0:0:0:
88,248,54433,2,0,B|135:244|186:302|180:358,1,160,0|8,0:0|0:0,0:0:0:0:
256,368,54862,1,0,0:0:0:0:
304,304,55005,6,0,P|284:270|289:231,1,80,0|0,0:0|0:0,0:0:0:0:
426,202,55290,2,0,P|406:236|369:250,1,80,8|0,0:0|0:0,0:0:0:0:
281,149,55576,2,0,P|320:148|351:173,2,80,0|0|8,0:0|0:0|0:0,0:0:0:0:
216,200,56005,1,0,0:0:0:0:
208,120,56148,5,0,0:0:0:0:
160,56,56290,1,0,0:0:0:0:
160,56,56433,2,2,P|125:36|85:38,1,80,8|0,0:0|0:0,0:0:0:0:
8,24,56719,2,0,P|8:63|30:96,1,80,8|8,0:0|0:0,0:0:0:0:
104,112,57005,2,0,P|106:168|70:218,1,120,8|0,0:0|0:0,0:0:0:0:
32,224,57290,6,0,B|86:224|143:268|145:333,3,160,4|8|0|8,0:0|0:0|0:0|0:0,0:0:0:0:
480,224,58433,2,0,B|426:224|369:268|367:333,3,160,4|8|0|8,0:0|0:0|0:0|0:0,0:0:0:0:
288,336,59433,1,0,0:0:0:0:
304,256,59576,6,2,P|274:227|227:221,1,80,4|0,0:0|0:0,0:0:0:0:
160,224,59862,1,8,0:0:0:0:
88,256,60005,1,0,0:0:0:0:
48,184,60148,2,2,B|28:130|57:61|119:52,1,160,0|8,0:0|0:0,0:0:0:0:
184,40,60576,1,0,0:0:0:0:
224,112,60719,6,2,L|384:168,1,160,0|8,0:0|0:0,0:0:0:0:
456,152,61148,1,0,0:0:0:0:
480,224,61290,2,0,P|444:243|427:288,1,80,0|0,0:0|0:0,0:0:0:0:
440,360,61576,1,8,0:0:0:0:
368,328,61719,1,0,0:0:0:0:
296,296,61862,6,0,B|241:280|177:307|153:373,3,160,4|8|0|8,0:0|0:0|0:0|0:0,0:0:0:0:
216,88,63005,2,0,B|271:104|335:77|359:11,3,160,0|8|0|8,0:0|0:0|0:0|0:0,0:0:0:0:
432,16,64005,1,0,0:0:0:0:
408,88,64148,6,2,P|429:123|472:136,1,80,4|0,0:0|0:0,0:0:0:0:
512,200,64433,1,8,0:0:0:0:
440,240,64576,1,0,0:0:0:0:
368,208,64719,2,2,B|317:191|258:211|228:273,1,160,0|8,0:0|0:0,0:0:0:0:
200,336,65148,1,0,0:0:0:0:
152,272,65290,5,0,0:0:0:0:
80,240,65433,2,0,L|32:256,2,40,0|0|8,0:0|0:0|0:0,0:0:0:0:
80,160,65719,1,0,0:0:0:0:
48,88,65862,1,0,0:0:0:0:
48,88,66433,5,4,0:0:0:0:
480,40,75576,6,0,P|483:95|432:144,1,120.000004577637,4|8,3:0|0:0,0:0:0:0:
336,192,76148,2,0,B|295:252|334:372|430:380,2,240.000009155274,0|0|0,0:0|0:0|0:0,0:0:0:0:
344,72,77576,1,0,0:0:0:0:
240,128,77862,6,0,P|209:74|138:60,1,120.000004577637,0|2,0:0|0:0,0:0:0:0:
40,88,78433,1,0,0:0:0:0:
120,176,78719,1,0,0:0:0:0:
16,240,79005,2,0,B|14:323|121:386|200:346,1,240.000009155274,0|0,0:0|0:0,0:0:0:0:
190,350,80148,6,0,L|232:232,1,120.000004577637,0|8,0:0|0:0,0:0:0:0:
328,312,80719,2,0,L|400:80,2,240.000009155274,2|0|0,0:0|0:0|0:0,0:0:0:0:
230,236,82148,1,0,0:0:0:0:
120,280,82433,6,0,P|80:248|8:252,1,120.000004577637,2|2,0:0|0:0,0:0:0:0:
8,128,83005,1,2,0:0:0:0:
128,152,83290,1,0,0:0:0:0:
216,64,83576,1,0,0:0:0:0:
216,64,83719,2,0,P|256:96|328:92,1,120.000004577637,8|0,0:0|0:0,0:0:0:0:
384,40,84148,1,0,0:0:0:0:
456,80,84290,6,0,P|484:64|520:64,2,60.0000022888184,8|0|8,0:0|0:0|0:0,0:0:0:0:
416,152,84719,6,0,B|397:200|428:278|494:287,2,160,4|8|2,0:0|0:0|0:0,0:0:0:0:
376,224,85433,1,0,0:0:0:0:
296,240,85576,1,8,0:0:0:0:
216,216,85719,2,0,B|169:200|101:230|85:283,1,160,0|0,0:0|0:0,0:0:0:0:
32,216,86148,1,8,0:0:0:0:
80,152,86290,2,0,B|95:106|62:34|2:17,1,160,2|2,0:0|0:0,0:0:0:0:
96,24,86719,1,8,0:0:0:0:
160,72,86862,1,0,0:0:0:0:
160,72,87005,6,0,B|328:32,1,160,2|8,0:0|0:0,0:0:0:0:
392,8,87433,1,2,0:0:0:0:
456,56,87576,2,0,P|456:93|426:130,1,80,0|0,0:0|0:0,0:0:0:0:
352,144,87862,1,10,0:0:0:0:
408,200,88005,2,0,B|460:217|474:296|439:348,1,160,0|0,0:0|0:0,0:0:0:0:
368,368,88433,1,8,0:0:0:0:
304,328,88576,2,0,P|265:327|232:349,2,80,0|0|2,0:0|0:0|0:0,0:0:0:0:
368,280,89005,1,8,0:0:0:0:
320,216,89148,1,2,0:0:0:0:
320,136,89290,6,0,B|317:84|361:21|425:16,2,160,4|8|2,0:0|0:0|0:0,0:0:0:0:
248,176,90005,1,0,0:0:0:0:
184,128,90148,1,8,0:0:0:0:
104,144,90290,2,0,B|106:193|62:257|12:259,1,160,0|0,0:0|0:0,0:0:0:0:
48,328,90719,1,8,0:0:0:0:
120,296,90862,2,0,B|166:281|238:314|255:374,1,160,0|0,0:0|0:0,0:0:0:0:
304,304,91290,1,8,0:0:0:0:
384,312,91433,1,0,0:0:0:0:
432,248,91576,6,0,B|417:202|450:130|510:113,1,160,2|8,0:0|0:0,0:0:0:0:
456,48,92005,1,0,0:0:0:0:
376,72,92148,2,0,P|364:34|334:8,2,80,2|0|8,0:0|0:0|0:0,0:0:0:0:
344,144,92576,1,0,0:0:0:0:
264,136,92719,5,2,0:0:0:0:
208,192,92862,2,0,P|210:214|216:232,2,40,0|0|2,0:0|0:0|0:0,0:0:0:0:
136,152,93148,1,0,0:0:0:0:
40,112,93290,5,10,0:0:0:0:
88,208,93433,1,8,0:0:0:0:
24,288,93576,1,2,0:0:0:0:
96,368,93719,1,8,0:0:0:0:
176,304,93862,5,4,0:0:0:0:
176,304,94005,2,0,B|222:275|293:287|323:333,1,160,0|0,0:0|0:0,0:0:0:0:
392,368,94433,1,2,0:0:0:0:
384,288,94576,2,0,P|382:248|407:205,1,80,0|2,0:0|0:0,0:0:0:0:
472,176,94862,1,0,0:0:0:0:
464,96,95005,5,2,0:0:0:0:
384,72,95148,1,0,0:0:0:0:
344,144,95290,2,0,P|302:134|274:93,1,80,2|0,0:0|0:0,0:0:0:0:
199,36,95576,2,0,P|211:74|200:112,1,80,2|0,0:0|0:0,0:0:0:0:
175,222,95862,2,0,P|201:192|240:184,1,80,8|10,0:0|0:0,0:0:0:0:
312,224,96148,5,2,0:0:0:0:
304,304,96290,1,0,0:0:0:0:
304,304,96433,2,0,P|277:333|239:342,1,80,0|0,0:0|0:0,0:0:0:0:
168,304,96719,1,2,0:0:0:0:
144,224,96862,2,0,B|146:172|92:115|24:125,1,160,0|0,0:0|0:0,0:0:0:0:
80,56,97290,5,2,0:0:0:0:
160,48,97433,1,0,0:0:0:0:
240,72,97576,2,0,P|280:53|297:12,1,80,2|0,0:0|0:0,0:0:0:0:
376,40,97862,1,2,0:0:0:0:
424,104,98005,2,0,P|384:123|367:164,1,80,0|0,0:0|0:0,0:0:0:0:
432,200,98290,1,0,0:0:0:0:
360,232,98433,5,4,0:0:0:0:
360,232,98576,2,0,B|357:286|403:341|458:344,1,160,0|0,0:0|0:0,0:0:0:0:
376,344,99005,1,2,0:0:0:0:
296,328,99148,2,0,P|256:333|221:365,1,80,0|0,0:0|0:0,0:0:0:0:
152,320,99433,1,0,0:0:0:0:
152,240,99576,5,2,0:0:0:0:
80,208,99719,1,0,0:0:0:0:
120,136,99862,2,0,P|160:131|195:99,1,80,0|0,0:0|0:0,0:0:0:0:
240,40,100148,2,0,B|282:7|363:21|384:72,2,160,2|0|4,0:0|0:0|0:0,0:0:0:0:
190,106,100862,1,0,0:0:0:0:
256,152,101005,2,0,P|274:181|268:227,1,80,0|0,0:0|0:0,0:0:0:0:
208,280,101290,1,0,0:0:0:0:
248,352,101433,2,0,B|292:379|368:361|393:297,1,160,0|0,0:0|0:0,0:0:0:0:
400,232,101862,5,0,0:0:0:0:
464,184,102005,1,0,0:0:0:0:
456,104,102148,2,0,P|475:64|516:47,2,80,0|0|8,0:0|0:0|0:0,0:0:0:0:
392,152,102576,1,8,0:0:0:0:
360,80,102719,2,0,P|328:55|289:52,1,80,8|8,0:0|0:0,0:0:0:0:
112,184,105290,6,0,B|119:132|71:69|24:65,2,160,4|8|0,0:0|0:0|0:0,0:0:0:0:
56,240,106005,1,0,0:0:0:0:
112,296,106148,2,0,P|142:271|182:269,1,80,8|0,0:0|0:0,0:0:0:0:
272,320,106433,2,0,B|307:352|385:339|413:293,1,160,0|8,0:0|0:0,0:0:0:0:
472,240,106862,1,0,0:0:0:0:
408,192,107005,2,0,B|432:24,1,160,0|8,0:0|0:0,0:0:0:0:
360,8,107433,1,0,0:0:0:0:
296,56,107576,6,0,P|256:51|224:19,1,80,0|0,0:0|0:0,0:0:0:0:
144,16,107862,1,8,0:0:0:0:
144,16,108005,1,0,0:0:0:0:
128,96,108148,2,0,P|168:101|200:133,1,80,0|0,0:0|0:0,0:0:0:0:
216,208,108433,1,8,0:0:0:0:
216,208,108576,1,0,0:0:0:0:
144,240,108719,6,0,B|123:287|152:364|214:377,1,160,0|8,0:0|0:0,0:0:0:0:
280,368,109148,1,0,0:0:0:0:
344,312,109290,1,0,0:0:0:0:
424,304,109433,2,0,L|458:340,2,40,0|8|8,0:0|0:0|0:0,0:0:0:0:
432,224,109719,1,0,0:0:0:0:
368,144,109862,6,0,B|413:121|426:53|401:1,2,160,0|12|0,0:0|0:0|0:0,0:0:0:0:
296,176,110576,1,0,0:0:0:0:
224,208,110719,2,0,P|199:240|198:279,1,80,8|0,0:0|0:0,0:0:0:0:
240,376,111005,5,0,0:0:0:0:
144,336,111148,1,0,0:0:0:0:
40,344,111290,1,8,0:0:0:0:
64,240,111433,1,0,0:0:0:0:
64,240,111576,2,0,B|109:227|137:155|112:105,1,160,0|8,0:0|0:0,0:0:0:0:
176,64,112005,1,0,0:0:0:0:
256,88,112148,6,0,P|261:46|296:17,1,80,0|0,0:0|0:0,0:0:0:0:
368,24,112433,1,12,0:0:0:0:
368,24,112576,1,0,0:0:0:0:
432,80,112719,2,0,P|427:122|392:151,1,80,0|0,0:0|0:0,0:0:0:0:
320,136,113005,1,8,0:0:0:0:
320,136,113148,1,0,0:0:0:0:
312,216,113290,5,0,0:0:0:0:
240,248,113433,1,0,0:0:0:0:
240,248,113576,2,0,P|220:283|222:323,1,80,8|0,0:0|0:0,0:0:0:0:
101,369,113862,2,0,P|121:335|120:296,1,80,8|8,0:0|0:0,0:0:0:0:
48,216,114148,2,0,P|18:166|27:96,1,120,8|0,0:0|0:0,0:0:0:0:
48,80,114433,6,0,L|224:32,2,160,4|8|0,0:0|0:0|0:0,0:0:0:0:
176,176,115290,1,8,0:0:0:0:
184,336,115576,2,0,L|8:384,2,160,4|8|0,0:0|0:0|0:0,0:0:0:0:
344,368,116433,1,8,0:0:0:0:
344,368,116576,1,0,0:0:0:0:
376,296,116719,6,0,P|399:260|447:247,1,80,4|0,0:0|0:0,0:0:0:0:
504,208,117005,1,8,0:0:0:0:
448,152,117148,1,0,0:0:0:0:
376,184,117290,2,2,B|319:194|256:153|258:91,1,160,0|8,0:0|0:0,0:0:0:0:
288,32,117719,1,0,0:0:0:0:
208,48,117862,6,2,B|179:98|107:120|61:78,1,160,0|8,0:0|0:0,0:0:0:0:
16,144,118290,1,0,0:0:0:0:
88,184,118433,2,0,P|113:214|111:263,1,80,0|0,0:0|0:0,0:0:0:0:
114,253,118719,1,8,0:0:0:0:
80,328,118862,1,0,0:0:0:0:
176,368,119005,6,0,B|192:319|256:292|309:308,2,160,4|8|0,0:0|0:0|0:0,0:0:0:0:
368,224,119862,1,8,0:0:0:0:
501,60,120148,2,0,B|484:108|420:135|367:119,2,160,0|8|0,0:0|0:0|0:0,0:0:0:0:
264,48,121005,1,8,0:0:0:0:
264,48,121148,1,0,0:0:0:0:
192,80,121290,6,0,P|160:54|115:56,1,80,4|0,0:0|0:0,0:0:0:0:
56,96,121576,1,8,0:0:0:0:
56,176,121719,1,0,0:0:0:0:
104,240,121862,2,2,B|155:257|214:237|244:175,1,160,0|8,0:0|0:0,0:0:0:0:
224,104,122290,1,0,0:0:0:0:
280,48,122433,5,0,0:0:0:0:
360,72,122576,2,0,L|400:48,2,40,0|0|8,0:0|0:0|0:0,0:0:0:0:
384,152,122862,1,0,0:0:0:0:
320,200,123005,1,0,0:0:0:0:
320,200,123576,5,4,0:0:0:0:
288,128,132719,6,0,L|368:104,1,80,0|0,0:0|0:0,0:0:0:0:
432,64,133290,2,0,B|384:76|357:160|393:212,1,160,0|0,0:0|0:0,0:0:0:0:
432,264,134148,1,0,0:0:0:0:
416,344,134433,1,0,0:0:0:0:
416,344,135005,6,0,P|371:339|344:314,1,80,0|0,0:0|0:0,0:0:0:0:
304,248,135576,2,0,L|280:88,1,160,0|0,0:0|0:0,0:0:0:0:
216,40,136433,1,0,0:0:0:0:
144,80,136719,2,0,P|161:115|150:166,1,80,0|0,0:0|0:0,0:0:0:0:
112,224,137290,6,0,P|77:241|26:230,1,80,0|0,0:0|0:0,0:0:0:0:
64,160,137862,2,0,L|87:318,1,160,0|0,0:0|0:0,0:0:0:0:
152,360,138719,1,0,0:0:0:0:
224,320,139005,1,0,0:0:0:0:
224,320,139576,6,0,P|259:295|304:297,1,80,0|0,0:0|0:0,0:0:0:0:
368,328,140148,2,0,B|418:316|446:241|413:181,1,160,0|0,0:0|0:0,0:0:0:0:
368,136,141005,1,0,0:0:0:0:
312,80,141290,2,0,P|310:40|344:-4,1,80,0|0,0:0|0:0,0:0:0:0:
208,16,141862,5,12,0:0:0:0:
208,16,142148,1,0,0:0:0:0:
136,112,142433,2,0,P|167:157|158:228,1,120.000004577637,8|0,0:0|0:0,0:0:0:0:
64,296,143005,2,0,B|192:267|174:391|302:341,1,240.000009155274,0|8,0:0|0:0,0:0:0:0:
288,344,144005,1,0,0:0:0:0:
288,344,144148,6,0,P|324:295|389:282,1,120.000004577637,0|0,0:0|0:0,0:0:0:0:
488,232,144719,2,0,P|427:225|383:175,1,120.000004577637,8|0,0:0|0:0,0:0:0:0:
368,64,145290,1,0,0:0:0:0:
480,112,145576,1,0,0:0:0:0:
387,184,145862,1,8,0:0:0:0:
387,184,146433,5,0,0:0:0:0:
387,184,146719,1,0,0:0:0:0:
328,80,147005,2,0,P|286:38|227:32,1,120.000004577637,8|0,0:0|0:0,0:0:0:0:
128,96,147576,2,0,B|66:185|182:228|90:328,1,240.000009155274,0|8,0:0|0:0,0:0:0:0:
95,321,148576,1,0,0:0:0:0:
95,321,148719,6,0,P|142:281|216:288,1,120.000004577637,0|0,0:0|0:0,0:0:0:0:
304,344,149290,2,0,P|361:365|428:333,1,120.000004577637,8|0,0:0|0:0,0:0:0:0:
480,248,149862,1,8,0:0:0:0:
480,248,150005,1,8,0:0:0:0:
384,176,150290,1,8,0:0:0:0:
384,176,150433,6,0,L|400:0,1,160,8|4,0:0|0:0,0:0:0:0:
424,240,159862,5,8,0:0:0:0:
424,240,160148,6,0,B|469:227|505:156|486:94,2,160,4|12|0,0:0|0:0|0:0,0:0:0:0:
347,217,160862,1,0,0:0:0:0:
336,136,161005,2,0,P|304:111|265:110,1,80,8|0,0:0|0:0,0:0:0:0:
208,24,161290,2,2,B|160:21|108:81|117:135,1,160,0|8,0:0|0:0,0:0:0:0:
168,192,161719,1,0,0:0:0:0:
208,264,161862,2,0,B|216:317|164:377|117:375,1,160,0|8,0:0|0:0,0:0:0:0:
200,376,162290,1,0,0:0:0:0:
272,336,162433,6,0,P|314:339|342:363,1,80,0|0,0:0|0:0,0:0:0:0:
458,325,162719,2,0,L|383:295,1,80,8|0,0:0|0:0,0:0:0:0:
347,172,163005,2,0,P|370:203|408:216,2,80,0|0|8,0:0|0:0|0:0,0:0:0:0:
376,96,163433,1,0,0:0:0:0:
328,32,163576,6,2,B|281:11|204:40|191:102,1,160,0|8,0:0|0:0,0:0:0:0:
200,168,164005,1,0,0:0:0:0:
128,136,164148,1,0,0:0:0:0:
80,72,164290,2,0,P|62:59|28:55,2,40,0|0|8,0:0|0:0|0:0,0:0:0:0:
128,136,164576,1,0,0:0:0:0:
200,168,164719,6,0,B|252:187|319:159|334:106,2,160,0|12|0,0:0|0:0|0:0,0:0:0:0:
128,136,165433,1,0,0:0:0:0:
64,184,165576,2,0,P|89:216|90:255,1,80,8|0,0:0|0:0,0:0:0:0:
56,352,165862,2,2,B|69:304|137:276|189:295,1,160,4|8,0:0|0:0,0:0:0:0:
248,352,166290,1,0,0:0:0:0:
272,272,166433,2,0,B|285:224|353:196|405:215,1,160,0|8,0:0|0:0,0:0:0:0:
464,264,166862,1,0,0:0:0:0:
480,184,167005,6,0,P|460:150|465:111,1,80,4|0,0:0|0:0,0:0:0:0:
415,1,167290,2,0,P|415:40|392:72,1,80,8|0,0:0|0:0,0:0:0:0:
256,129,167576,2,0,P|275:95|312:80,2,80,0|0|8,0:0|0:0|0:0,0:0:0:0:
264,208,168005,1,0,0:0:0:0:
344,232,168148,5,0,0:0:0:0:
392,296,168290,2,0,L|440:280,2,40,0|0|8,0:0|0:0|0:0,0:0:0:0:
360,368,168576,1,0,0:0:0:0:
280,352,168719,1,0,0:0:0:0:
280,352,168790,1,0,0:0:0:0:
280,352,168862,2,0,L|232:336,5,40,0|0|8|0|0|0,0:0|0:0|0:0|0:0|0:0|0:0,0:0:0:0:
200,352,169290,6,0,B|24:304,2,176.000005371094,0|12|0,0:0|0:0|0:0,0:0:0:0:
224,264,170005,1,0,0:0:0:0:
176,192,170148,2,0,P|176:145|203:113,1,88.000002685547,8|0,0:0|0:0,0:0:0:0:
304,64,170433,2,2,B|357:35|435:50|463:96,1,176.000005371094,4|8,0:0|0:0,0:0:0:0:
456,184,170862,1,0,0:0:0:0:
368,168,171005,2,0,B|321:257|422:264|363:356,1,176.000005371094,0|8,0:0|0:0,0:0:0:0:
296,368,171433,1,0,0:0:0:0:
240,304,171576,6,0,P|196:309|160:346,1,88.000002685547,4|0,0:0|0:0,0:0:0:0:
72,336,171862,1,8,0:0:0:0:
72,336,172005,1,0,0:0:0:0:
88,248,172148,2,0,L|56:152,1,88.000002685547,0|0,0:0|0:0,0:0:0:0:
88,80,172433,1,8,0:0:0:0:
88,80,172576,1,0,0:0:0:0:
144,144,172719,6,2,B|200:170|276:126|281:69,1,176.000005371094,4|8,0:0|0:0,0:0:0:0:
344,8,173148,2,0,P|377:37|420:37,1,88.000002685547,0|0,0:0|0:0,0:0:0:0:
464,112,173433,2,0,P|485:96|514:92,2,44.0000013427735,0|0|12,0:0|0:0|0:0,0:0:0:0:
424,192,173719,1,0,0:0:0:0:
336,280,173862,6,0,B|278:300|192:251|196:174,2,191.999994140625,0|12|0,0:0|0:0|0:0,0:0:0:0:
416,224,174576,1,0,0:0:0:0:
400,128,174719,2,0,P|416:80|456:54,1,95.9999970703126,12|0,0:0|0:0,0:0:0:0:
328,56,175005,2,2,B|120:8,1,191.999994140625,0|12,0:0|0:0,0:0:0:0:
40,88,175433,1,0,0:0:0:0:
72,208,175576,2,0,B|122:249|218:219|235:157,1,191.999994140625,0|12,0:0|0:0,0:0:0:0:
320,128,176005,1,0,0:0:0:0:
368,48,176148,6,0,P|407:21|454:24,1,95.9999970703126,4|0,0:0|0:0,0:0:0:0:
512,104,176433,1,8,0:0:0:0:
512,104,176576,1,0,0:0:0:0:
456,184,176719,2,0,L|480:296,1,95.9999970703126,0|0,0:0|0:0,0:0:0:0:
416,352,177005,1,8,0:0:0:0:
416,352,177148,1,0,0:0:0:0:
336,304,177290,5,8,0:0:0:0:
240,312,177433,1,0,0:0:0:0:
240,312,177505,1,0,0:0:0:0:
240,312,177576,2,0,P|192:308|153:335,1,95.9999970703126,8|0,0:0|0:0,0:0:0:0:
112,248,177862,2,0,L|16:224,1,95.9999970703126,0|8,0:0|0:0,0:0:0:0:
80,144,178148,2,0,P|41:113|32:56,1,95.9999970703126,8|8,0:0|0:0,0:0:0:0:
104,8,178433,5,12,0:0:0:0:
256,192,178505,12,0,180148,0:0:0:0:
288,72,180719,6,2,P|280:114|312:160,1,80,4|0,0:0|0:0,0:0:0:0:
368,176,181005,1,8,0:0:0:0:
336,248,181148,1,0,0:0:0:0:
360,320,181290,2,2,B|320:359|241:353|211:298,1,160,0|8,0:0|0:0,0:0:0:0:
176,240,181719,1,0,0:0:0:0:
192,160,181862,2,2,B|211:113|167:41|109:43,1,160,0|8,0:0|0:0,0:0:0:0:
40,80,182290,1,0,0:0:0:0:
16,152,182433,2,0,P|35:188|80:205,1,80,0|0,0:0|0:0,0:0:0:0:
144,232,182719,1,8,0:0:0:0:
216,192,182862,1,0,0:0:0:0:
224,112,183005,5,12,0:0:0:0:
256,192,183076,12,0,184719,0:0:0:0:
176,248,185290,6,2,P|155:210|101:196,1,80,4|0,0:0|0:0,0:0:0:0:
112,112,185576,1,8,0:0:0:0:
192,120,185719,1,0,0:0:0:0:
248,176,185862,2,2,B|298:198|371:166|380:104,1,160,0|8,0:0|0:0,0:0:0:0:
456,128,186290,1,0,0:0:0:0:
424,200,186433,2,2,B|395:244|436:318|486:325,1,160,8|8,0:0|0:0,0:0:0:0:
408,320,186862,1,0,0:0:0:0:
336,296,187005,2,0,P|294:304|262:346,1,80,8|0,0:0|0:0,0:0:0:0:
148,305,187290,2,0,P|187:299|216:272,1,80,8|0,0:0|0:0,0:0:0:0:
240,192,187576,6,0,L|264:24,1,160,4|8,0:0|0:0,0:0:0:0:
336,8,188005,1,0,0:0:0:0:
360,88,188148,2,0,B|376:137|461:158|508:118,1,160,0|8,0:0|0:0,0:0:0:0:
512,208,188576,1,0,0:0:0:0:
464,272,188719,6,0,P|427:274|392:304,1,80,0|0,0:0|0:0,0:0:0:0:
336,352,189005,1,8,0:0:0:0:
336,352,189148,1,0,0:0:0:0:
264,320,189290,2,0,P|233:294|194:292,1,80,0|0,0:0|0:0,0:0:0:0:
120,328,189576,1,8,0:0:0:0:
120,328,189719,1,0,0:0:0:0:
104,248,189862,6,2,P|133:228|140:185,1,80,4|0,0:0|0:0,0:0:0:0:
128,104,190148,1,8,0:0:0:0:
200,128,190290,1,0,0:0:0:0:
248,64,190433,2,2,B|273:14|356:-2|411:32,1,160,0|8,0:0|0:0,0:0:0:0:
448,88,190862,1,0,0:0:0:0:
408,160,191005,2,2,B|390:197|420:275|474:291,1,160,0|8,0:0|0:0,0:0:0:0:
424,352,191433,1,0,0:0:0:0:
360,304,191576,2,0,P|322:315|296:360,1,80,0|0,0:0|0:0,0:0:0:0:
216,360,191862,1,0,0:0:0:0:
248,288,192005,1,0,0:0:0:0:
224,208,192148,6,0,B|220:154|173:102|103:107,1,160,0|8,0:0|0:0,0:0:0:0:
152,32,192576,1,0,0:0:0:0:
232,56,192719,2,0,B|400:24,1,160,0|8,0:0|0:0,0:0:0:0:
456,72,193148,1,0,0:0:0:0:
408,136,193290,6,0,P|410:173|440:208,1,80,0|0,0:0|0:0,0:0:0:0:
496,256,193576,1,8,0:0:0:0:
496,256,193719,1,0,0:0:0:0:
456,328,193862,2,0,P|425:302|386:300,1,80,0|0,0:0|0:0,0:0:0:0:
312,328,194148,1,8,0:0:0:0:
312,328,194290,1,0,0:0:0:0:
240,360,194433,6,2,P|200:357|170:331,1,80,4|0,0:0|0:0,0:0:0:0:
136,256,194719,1,8,0:0:0:0:
152,176,194862,1,0,0:0:0:0:
224,136,195005,2,2,B|257:112|340:128|365:178,1,160,0|8,0:0|0:0,0:0:0:0:
376,256,195433,1,0,0:0:0:0:
448,224,195576,2,2,B|430:186|460:108|512:92,1,160,0|8,0:0|0:0,0:0:0:0:
512,92,196005,1,0,0:0:0:0:
432,32,196148,1,6,0:0:0:0:
