osu file format v14

[General]
AudioFilename: Ghost Rule.mp3
AudioLeadIn: 0
PreviewTime: 48076
Countdown: 0
SampleSet: Normal
StackLeniency: 0.7
Mode: 0
LetterboxInBreaks: 0
WidescreenStoryboard: 0

[Editor]
Bookmarks: 111290,111362,111433,111505,111576,123576,151005
DistanceSpacing: 0.5
BeatDivisor: 4
GridSize: 32
TimelineZoom: 1

[Metadata]
Title:Ghost Rule
TitleUnicode:ゴーストルール
Artist:DECO*27
ArtistUnicode:DECO*27
Creator:Awaken
Version:Extra
Source:
Tags:ボーカロイド vocaloid Naoki Itai MUSIC FOR MUSIC Regraz Mafumafu Evil_Twilight HabiHolic Flask Nasya N_a_s_y_a caren_sk val0108 z1085684963 hatsune miku 初音ミク japanese novelty
BeatmapID:896480
BeatmapSetID:413117

[Difficulty]
HPDrainRate:6
CircleSize:4
OverallDifficulty:8
ApproachRate:9
SliderMultiplier:1.7
SliderTickRate:1

[Events]
//Background and Video events
0,0,"Ghost.jpg",0,0
//Break Periods
2,9490,17833
2,66633,74976
2,123776,132119
2,151205,156976
//Storyboard Layer 0 (Background)
//Storyboard Layer 1 (Fail)
//Storyboard Layer 2 (Pass)
//Storyboard Layer 3 (Foreground)
//Storyboard Layer 4 (Overlay)
//Storyboard Sound Samples

[TimingPoints]
148,285.714285714286,4,1,1,60,1,0
36719,-200,4,1,1,50,0,0
48148,-100,4,1,1,70,0,0
58862,-100,4,1,1,70,0,0
66148,-200,4,1,1,70,0,0
75576,-200,4,2,1,50,0,0
84719,-100,4,1,1,60,0,0
93862,-200,4,1,1,60,0,0
105290,-100,4,1,1,70,0,0
105862,-100,4,1,1,70,0,0
132719,-200,4,1,1,50,0,0
141862,-100,4,1,1,60,0,0
157576,-100,4,1,1,40,0,0
157862,-200,4,1,1,40,0,0
159719,-100,4,1,1,70,0,0
160148,-83.3333333333333,4,1,1,70,0,0
160576,-100,4,1,1,70,0,0
164719,-83.3333333333333,4,1,1,70,0,0
165148,-100,4,1,1,70,0,0
169290,-83.3333333333333,4,1,1,75,0,0
173719,-76.9230769230769,4,1,1,80,0,0

[Colours]
Combo1 : 255,40,40
Combo2 : 114,231,120
Combo3 : 78,210,214
Combo4 : 29,131,214
Combo5 : 255,0,0

[HitObjects]
256,192,148,12,0,8005,0:0:0:0:
182,112,8290,5,0,0:0:0:0:
182,112,8362,1,0,0:0:0:0:
182,112,8433,1,8,0:0:0:0:
269,183,8576,1,0,0:0:0:0:
98,158,8719,2,0,P|89:108|109:65,1,85,8|0,0:0|0:0,0:0:0:0:
269,183,9005,2,0,P|278:233|258:276,1,85,8|0,0:0|0:0,0:0:0:0:
109,321,9290,1,4,0:0:0:0:
413,261,18433,6,0,P|418:208|401:173,1,85,4|0,0:0|0:0,0:0:0:0:
251,125,18719,2,0,P|246:178|263:213,1,85,8|0,0:0|0:0,0:0:0:0:
319,354,19005,2,0,P|263:313|163:357,1,170,0|8,0:0|0:0,0:0:0:0:
65,218,19433,1,0,0:0:0:0:
65,218,19505,1,0,0:0:0:0:
65,218,19576,2,0,P|123:231|153:218,1,85,0|0,0:0|0:0,0:0:0:0:
286,94,19862,2,0,P|246:80|206:90,1,85,8|0,0:0|0:0,0:0:0:0:
110,154,20148,5,0,0:0:0:0:
300,176,20290,1,0,0:0:0:0:
110,154,20433,1,8,0:0:0:0:
198,234,20576,1,0,0:0:0:0:
198,234,20648,1,0,0:0:0:0:
198,234,20719,2,0,L|200:140,1,85
365,63,21005,5,8,0:0:0:0:
428,243,21148,2,0,P|377:253|329:230,1,85
284,91,21433,1,0,0:0:0:0:
387,176,21576,1,8,0:0:0:0:
284,91,21719,1,0,0:0:0:0:
437,106,21862,6,0,P|447:55|437:21,1,85
203,44,22148,2,0,P|193:95|203:129,1,85,8|0,0:0|0:0,0:0:0:0:
387,176,22433,1,0,0:0:0:0:
284,91,22576,1,0,0:0:0:0:
214,247,22719,1,8,0:0:0:0:
299,182,22862,5,0,0:0:0:0:
299,182,22933,1,0,0:0:0:0:
299,182,23005,2,0,L|306:276,1,85,4|0,0:0|0:0,0:0:0:0:
199,158,23290,2,0,L|192:73,1,85,8|0,0:0|0:0,0:0:0:0:
365,102,23576,2,0,P|323:106|284:90,1,85,0|0,0:0|0:0,0:0:0:0:
401,208,23862,2,0,P|454:183|493:187,1,85,8|0,0:0|0:0,0:0:0:0:
372,312,24148,6,0,P|331:276|207:273,1,170,0|8,0:0|0:0,0:0:0:0:
114,167,24576,1,0,0:0:0:0:
114,167,24648,1,0,0:0:0:0:
114,167,24719,2,0,P|165:167|212:141,1,85,0|0,0:0|0:0,0:0:0:0:
86,255,25005,1,8,0:0:0:0:
141,84,25148,1,0,0:0:0:0:
185,252,25290,6,0,L|204:353,1,85,0|0,0:0|0:0,0:0:0:0:
388,227,25576,1,8,0:0:0:0:
289,180,25719,2,0,L|289:277,1,85,0|0,0:0|0:0,0:0:0:0:
484,254,26005,1,0,0:0:0:0:
289,180,26148,1,8,0:0:0:0:
469,169,26290,1,0,0:0:0:0:
469,169,26362,1,0,0:0:0:0:
469,169,26433,2,0,P|476:128|455:77,1,85,0|0,0:0|0:0,0:0:0:0:
306,262,26719,2,0,P|299:303|320:354,1,85,8|0,0:0|0:0,0:0:0:0:
359,111,27005,6,0,L|331:107,6,21.25,0|0|0|0|0|0|0,0:0|0:0|0:0|0:0|0:0|0:0|0:0,0:0:0:0:
269,40,27290,2,0,L|218:47,1,42.5,12|0,0:0|0:0,0:0:0:0:
169,148,27433,2,0,L|111:131,1,42.5,0|0,0:0|0:0,0:0:0:0:
31,204,27576,6,0,P|20:251|34:294,1,85,4|0,0:0|0:0,0:0:0:0:
165,360,27862,2,0,P|176:313|162:270,1,85,8|0,0:0|0:0,0:0:0:0:
303,167,28148,2,0,P|292:214|306:257,1,85,0|0,0:0|0:0,0:0:0:0:
437,323,28433,2,0,P|448:276|434:233,1,85,8|0,0:0|0:0,0:0:0:0:
244,60,28719,6,0,P|206:52|154:63,1,85,0|0,0:0|0:0,0:0:0:0:
303,167,29005,2,0,P|341:175|393:164,1,85,8|0,0:0|0:0,0:0:0:0:
197,256,29290,2,0,P|159:248|107:259,1,85,0|0,0:0|0:0,0:0:0:0:
256,363,29576,2,0,P|294:371|346:360,1,85,8|0,0:0|0:0,0:0:0:0:
190,153,29862,6,0,L|4:173,1,170,0|8,0:0|0:0,0:0:0:0:
271,210,30290,2,0,P|288:166|282:123,1,85,0|0,0:0|0:0,0:0:0:0:
391,199,30576,2,0,P|374:243|380:286,1,85,0|8,0:0|0:0,0:0:0:0:
369,97,30862,1,0,0:0:0:0:
297,294,31005,2,0,P|258:295|203:266,1,85,0|0,0:0|0:0,0:0:0:0:
369,97,31290,2,0,P|408:96|463:125,1,85,8|0,0:0|0:0,0:0:0:0:
286,181,31576,5,0,0:0:0:0:
350,12,31719,1,8,0:0:0:0:
449,113,31862,1,0,0:0:0:0:
283,96,32005,1,0,0:0:0:0:
283,96,32076,1,0,0:0:0:0:
283,96,32148,2,0,L|187:89,1,85,0|0,0:0|0:0,0:0:0:0:
86,215,32433,2,0,L|185:209,1,85,8|0,0:0|0:0,0:0:0:0:
338,309,32719,6,0,P|288:289|200:361,1,170,0|8,0:0|0:0,0:0:0:0:
7,283,33148,1,0,0:0:0:0:
86,215,33290,2,0,P|111:255|114:296,1,85,0|0,0:0|0:0,0:0:0:0:
213,181,33576,2,0,P|227:139|266:106,1,85,8|0,0:0|0:0,0:0:0:0:
114,100,33862,2,0,P|56:107|11:87,1,85,0|0,0:0|0:0,0:0:0:0:
216,23,34148,2,0,P|274:16|319:36,1,85,8|0,0:0|0:0,0:0:0:0:
385,116,34433,6,0,L|372:293,1,170,0|8,0:0|0:0,0:0:0:0:
158,162,34862,1,0,0:0:0:0:
280,262,35005,1,0,0:0:0:0:
276,105,35148,1,0,0:0:0:0:
202,230,35290,2,0,P|151:242|111:228,1,85,8|0,0:0|0:0,0:0:0:0:
270,184,35576,5,0,0:0:0:0:
363,294,35719,1,0,0:0:0:0:
363,294,35790,1,0,0:0:0:0:
363,294,35862,1,8,0:0:0:0:
211,314,36005,1,0,0:0:0:0:
350,208,36148,5,0,0:0:0:0:
350,208,36290,1,0,0:0:0:0:
229,60,36433,1,8,0:0:0:0:
229,60,36576,1,0,0:0:0:0:
203,225,36719,6,0,P|262:234|174:144,1,340,4|2,0:0|0:0,0:0:0:0:
438,239,38148,1,0,0:0:0:0:
243,165,38433,1,8,0:0:0:0:
66,239,38719,1,8,0:0:0:0:
323,374,39005,2,0,P|257:249|182:368,1,340,4|0,0:0|0:0,0:0:0:0:
255,327,40290,2,0,L|243:224,1,85,0|2,0:0|0:0,0:0:0:0:
346,251,40719,2,0,L|345:206,1,42.5,8|0,0:0|0:0,0:0:0:0:
449,249,41005,2,0,L|456:193,1,42.5,8|0,0:0|0:0,0:0:0:0:
489,321,41290,6,0,B|437:343|396:313|396:313|340:347|286:308|286:308|237:345|162:322,1,340,4|2,0:0|0:0,0:0:0:0:
170,31,42719,1,0,0:0:0:0:
388,232,43005,1,8,0:0:0:0:
114,314,43290,1,8,0:0:0:0:
317,154,43576,6,0,P|275:106|269:242,1,340,4|0,0:0|0:0,0:0:0:0:
344,231,44862,2,0,B|388:227|388:227|432:242,1,85,0|8,0:0|0:0,0:0:0:0:
496,198,45290,2,0,L|504:153,1,42.5,8|8,0:0|0:0,0:0:0:0:
399,115,45576,2,0,L|394:58,1,42.5,8|10,0:0|0:0,0:0:0:0:
501,0,45862,5,0,0:0:0:0:
256,192,45933,12,0,47862,0:0:0:0:
164,241,48148,6,0,P|144:204|153:143,1,85,4|0,0:0|0:0,0:0:0:0:
380,102,48433,2,0,P|400:139|391:200,1,85,8|0,0:0|0:0,0:0:0:0:
224,187,48719,1,0,0:0:0:0:
312,44,48862,1,0,0:0:0:0:
335,259,49005,1,8,0:0:0:0:
280,120,49148,1,0,0:0:0:0:
250,267,49290,6,0,P|200:267|160:237,1,85
360,171,49576,1,8,0:0:0:0:
442,306,49719,2,0,L|453:212,1,85
242,346,50005,1,0,0:0:0:0:
335,259,50148,2,0,L|343:349,1,85,8|0,0:0|0:0,0:0:0:0:
342,343,50362,1,0,0:0:0:0:
342,343,50433,1,4,0:0:0:0:
437,223,50576,5,0,0:0:0:0:
280,146,50719,1,8,0:0:0:0:
422,93,50862,1,0,0:0:0:0:
360,171,51005,1,0,0:0:0:0:
377,14,51148,1,0,0:0:0:0:
490,144,51290,2,0,P|505:96|486:45,1,85,8|0,0:0|0:0,0:0:0:0:
304,63,51576,2,0,L|134:69,1,170,0|8,0:0|0:0,0:0:0:0:
58,221,52005,2,0,L|228:215,1,170,0|0,0:0|0:0,0:0:0:0:
413,297,52433,1,8,0:0:0:0:
340,148,52576,5,0,0:0:0:0:
340,148,52648,1,0,0:0:0:0:
340,148,52719,2,0,P|329:206|345:238,1,85,4|0,0:0|0:0,0:0:0:0:
212,337,53005,2,0,P|223:279|207:247,1,85,8|0,0:0|0:0,0:0:0:0:
249,129,53290,1,0,0:0:0:0:
415,188,53433,1,0,0:0:0:0:
249,129,53576,1,8,0:0:0:0:
355,30,53719,1,0,0:0:0:0:
298,200,53862,6,0,P|247:217|196:192,1,85
104,261,54148,1,8,0:0:0:0:
211,336,54290,2,0,P|254:318|300:319,1,85
495,274,54576,1,0,0:0:0:0:
390,358,54719,2,0,L|383:256,1,85,8|0,0:0|0:0,0:0:0:0:
384,273,54933,1,0,0:0:0:0:
384,273,55005,1,0,0:0:0:0:
494,177,55148,5,0,0:0:0:0:
324,182,55290,1,8,0:0:0:0:
483,96,55433,1,0,0:0:0:0:
346,60,55576,2,0,L|257:60,1,85
114,96,55862,1,8,0:0:0:0:
195,182,56005,1,0,0:0:0:0:
195,182,56076,1,0,0:0:0:0:
195,182,56148,1,0,0:0:0:0:
77,276,56290,5,0,0:0:0:0:
77,276,56362,1,8,0:0:0:0:
77,276,56433,2,0,L|85:341,1,42.5,8|0,0:0|0:0,0:0:0:0:
219,297,56576,2,0,L|215:339,1,42.5,0|0,0:0|0:0,0:0:0:0:
356,321,56719,1,8,0:0:0:0:
422,202,56862,1,8,0:0:0:0:
356,321,57005,1,8,0:0:0:0:
422,202,57148,1,8,0:0:0:0:
307,81,57290,6,0,P|282:126|292:171,1,85,4|0,0:0|0:0,0:0:0:0:
197,247,57576,2,0,P|152:222|107:232,1,85,8|0,0:0|0:0,0:0:0:0:
26,149,57862,2,0,P|51:104|41:59,1,85,0|0,0:0|0:0,0:0:0:0:
143,2,58148,2,0,P|188:27|233:17,1,85,8|0,0:0|0:0,0:0:0:0:
389,128,58433,6,0,P|337:118|290:135,1,85,0|0,0:0|0:0,0:0:0:0:
197,247,58719,2,0,P|249:257|296:240,1,85,8|0,0:0|0:0,0:0:0:0:
304,361,59005,1,0,0:0:0:0:
241,182,59148,1,0,0:0:0:0:
155,340,59290,2,0,P|113:348|72:337,1,85,8|0,0:0|0:0,0:0:0:0:
102,150,59576,6,0,L|111:234,1,85,4|0,0:0|0:0,0:0:0:0:
225,149,59862,2,0,L|215:64,1,85,8|0,0:0|0:0,0:0:0:0:
351,127,60148,2,0,L|342:219,1,85
145,310,60433,1,8,0:0:0:0:
235,235,60576,1,0,0:0:0:0:
235,235,60648,1,0,0:0:0:0:
235,235,60719,2,0,P|260:271|262:328,1,85
437,111,61005,1,8,0:0:0:0:
361,271,61148,2,0,P|421:278|464:174,1,170
271,80,61576,6,0,L|280:178,1,85,8|0,0:0|0:0,0:0:0:0:
235,235,61790,1,0,0:0:0:0:
235,235,61862,2,0,P|245:278|232:327,1,85,4|0,0:0|0:0,0:0:0:0:
392,200,62148,2,0,P|382:157|395:108,1,85,8|0,0:0|0:0,0:0:0:0:
273,126,62433,2,0,P|230:136|181:123,1,85,0|0,0:0|0:0,0:0:0:0:
357,306,62719,2,0,P|400:296|449:309,1,85,8|0,0:0|0:0,0:0:0:0:
204,274,63005,6,0,P|194:324|226:374,1,85,0|0,0:0|0:0,0:0:0:0:
57,298,63290,2,0,P|67:248|35:198,1,85,8|0,0:0|0:0,0:0:0:0:
149,102,63576,2,0,P|139:152|171:202,1,85
273,126,63862,2,0,P|283:76|251:26,1,85,8|0,0:0|0:0,0:0:0:0:
322,213,64148,6,0,L|412:203,1,85,4|0,0:0|0:0,0:0:0:0:
473,322,64433,2,0,L|381:315,1,85,8|0,0:0|0:0,0:0:0:0:
187,319,64719,1,0,0:0:0:0:
282,287,64862,1,0,0:0:0:0:
282,287,64933,1,0,0:0:0:0:
282,287,65005,2,0,L|285:343,1,42.5,8|0,0:0|0:0,0:0:0:0:
200,220,65148,2,0,L|197:157,1,42.5,0|0,0:0|0:0,0:0:0:0:
309,110,65290,6,0,L|305:202,1,85,0|0,0:0|0:0,0:0:0:0:
305,194,65505,1,0,0:0:0:0:
305,194,65576,1,8,0:0:0:0:
418,171,65719,1,0,0:0:0:0:
207,139,65862,1,0,0:0:0:0:
492,99,66433,5,4,0:0:0:0:
176,93,75576,6,0,L|305:82,2,127.5,2|0|2,0:0|0:0|0:0,0:0:0:0:
372,196,77862,2,0,L|237:181,2,127.5,2|2|0,0:0|0:0|0:0,0:0:0:0:
127,307,80148,6,0,P|186:293|253:321,2,127.5,2|0|2,0:0|0:0|0:0,0:0:0:0:
327,220,82433,2,0,P|385:242|446:228,2,127.5,2|2|2,0:0|0:0|0:0,0:0:0:0:
481,180,84719,6,0,P|492:133|478:90,1,85,4|0,0:0|0:0,0:0:0:0:
347,24,85005,2,0,P|336:71|350:114,1,85,8|0,0:0|0:0,0:0:0:0:
209,217,85290,2,0,P|220:170|206:127,1,85,0|0,0:0|0:0,0:0:0:0:
75,61,85576,2,0,P|64:108|78:151,1,85,8|0,0:0|0:0,0:0:0:0:
268,324,85862,6,0,P|306:332|358:321,1,85,0|0,0:0|0:0,0:0:0:0:
209,217,86148,2,0,P|171:209|119:220,1,85,8|0,0:0|0:0,0:0:0:0:
315,128,86433,2,0,P|353:136|405:125,1,85,0|0,0:0|0:0,0:0:0:0:
256,21,86719,2,0,P|218:13|166:24,1,85,8|0,0:0|0:0,0:0:0:0:
322,231,87005,6,0,L|508:211,1,170,0|8,0:0|0:0,0:0:0:0:
241,174,87433,2,0,P|224:218|230:261,1,85,0|0,0:0|0:0,0:0:0:0:
121,185,87719,2,0,P|138:141|132:98,1,85,0|8,0:0|0:0,0:0:0:0:
143,287,88005,1,0,0:0:0:0:
215,90,88148,2,0,P|254:89|309:118,1,85,0|0,0:0|0:0,0:0:0:0:
143,287,88433,2,0,P|104:288|49:259,1,85,8|0,0:0|0:0,0:0:0:0:
226,203,88719,5,0,0:0:0:0:
162,372,88862,1,0,0:0:0:0:
63,271,89005,1,8,0:0:0:0:
229,288,89148,1,0,0:0:0:0:
229,288,89219,1,0,0:0:0:0:
229,288,89290,2,0,L|325:295,1,85,0|0,0:0|0:0,0:0:0:0:
426,169,89576,2,0,L|327:175,1,85,8|0,0:0|0:0,0:0:0:0:
174,75,89862,6,0,P|224:95|312:23,1,170,0|8,0:0|0:0,0:0:0:0:
505,101,90290,1,0,0:0:0:0:
426,169,90433,2,0,P|401:129|398:88,1,85,0|0,0:0|0:0,0:0:0:0:
299,203,90719,2,0,P|285:245|246:278,1,85,8|0,0:0|0:0,0:0:0:0:
398,284,91005,2,0,P|456:277|501:297,1,85,0|0,0:0|0:0,0:0:0:0:
296,361,91290,2,0,P|238:368|193:348,1,85,8|0,0:0|0:0,0:0:0:0:
127,268,91576,6,0,L|140:91,1,170,0|8,0:0|0:0,0:0:0:0:
354,222,92005,1,0,0:0:0:0:
232,122,92148,1,0,0:0:0:0:
236,279,92290,1,0,0:0:0:0:
310,154,92433,2,0,P|361:142|401:156,1,85,8|0,0:0|0:0,0:0:0:0:
242,200,92719,5,0,0:0:0:0:
149,90,92862,1,0,0:0:0:0:
149,90,92933,1,0,0:0:0:0:
149,90,93005,1,0,0:0:0:0:
301,70,93148,1,0,0:0:0:0:
162,176,93290,1,0,0:0:0:0:
162,176,93433,1,0,0:0:0:0:
283,324,93576,1,0,0:0:0:0:
283,324,93719,1,0,0:0:0:0:
309,159,93862,6,0,P|250:150|338:240,1,340,0|0,0:0|0:0,0:0:0:0:
74,145,95290,1,0,0:0:0:0:
269,219,95576,1,0,0:0:0:0:
446,145,95862,1,0,0:0:0:0:
189,10,96148,2,0,P|255:135|330:16,1,340,0|0,0:0|0:0,0:0:0:0:
257,57,97433,2,0,L|269:160,1,85,0|0,0:0|0:0,0:0:0:0:
168,133,97862,2,0,L|169:178,1,42.5
63,135,98148,2,0,L|56:191,1,42.5
23,63,98433,6,0,B|75:41|116:71|116:71|172:37|226:76|226:76|275:39|350:62,1,340,4|2,0:0|0:0,0:0:0:0:
342,353,99862,1,0,0:0:0:0:
124,152,100148,1,0,0:0:0:0:
398,70,100433,1,0,0:0:0:0:
195,230,100719,6,0,P|237:278|243:142,1,340,0|0,0:0|0:0,0:0:0:0:
241,32,102005,2,0,P|296:51|335:45,1,85,0|8,0:0|0:0,0:0:0:0:
416,83,102433,2,0,L|423:136,1,42.5,8|8,0:0|0:0,0:0:0:0:
295,188,102719,2,0,L|290:241,1,42.5,8|8,0:0|0:0,0:0:0:0:
443,334,103005,1,0,0:0:0:0:
256,192,103076,12,0,105005,0:0:0:0:
348,143,105290,6,0,P|368:180|359:241,1,85,4|0,0:0|0:0,0:0:0:0:
132,282,105576,2,0,P|112:245|112:189,1,85,8|0,0:0|0:0,0:0:0:0:
288,197,105862,1,0,0:0:0:0:
200,340,106005,1,0,0:0:0:0:
177,125,106148,1,8,0:0:0:0:
232,264,106290,1,0,0:0:0:0:
262,117,106433,6,0,P|312:117|352:147,1,85
152,213,106719,1,8,0:0:0:0:
70,78,106862,2,0,L|59:172,1,85,0|0,0:0|0:0,0:0:0:0:
270,38,107148,1,0,0:0:0:0:
177,125,107290,2,0,L|169:35,1,85,8|0,0:0|0:0,0:0:0:0:
170,41,107505,1,0,0:0:0:0:
170,41,107576,1,0,0:0:0:0:
75,161,107719,5,0,0:0:0:0:
232,238,107862,1,8,0:0:0:0:
90,291,108005,1,0,0:0:0:0:
152,213,108148,1,0,0:0:0:0:
135,370,108290,1,0,0:0:0:0:
22,240,108433,2,0,P|7:288|26:339,1,85,8|0,0:0|0:0,0:0:0:0:
208,321,108719,2,0,L|378:315,1,170,0|8,0:0|0:0,0:0:0:0:
454,163,109148,2,0,L|284:169,1,170,0|0,0:0|0:0,0:0:0:0:
99,87,109576,1,8,0:0:0:0:
172,236,109719,5,0,0:0:0:0:
172,236,109790,1,0,0:0:0:0:
172,236,109862,2,0,P|183:178|167:146,1,85,0|0,0:0|0:0,0:0:0:0:
300,47,110148,2,0,P|289:105|305:137,1,85,12|0,0:0|0:0,0:0:0:0:
263,255,110433,1,0,0:0:0:0:
97,196,110576,1,0,0:0:0:0:
263,255,110719,1,8,0:0:0:0:
157,354,110862,1,0,0:0:0:0:
214,184,111005,6,0,P|265:167|316:192,1,85,0|0,0:0|0:0,0:0:0:0:
408,123,111290,1,8,0:0:0:0:
301,48,111433,2,0,P|258:66|212:65,1,85,0|0,0:0|0:0,0:0:0:0:
17,110,111719,1,0,0:0:0:0:
122,26,111862,2,0,L|129:128,1,85,8|0,0:0|0:0,0:0:0:0:
128,111,112076,1,0,0:0:0:0:
128,111,112148,1,0,0:0:0:0:
18,207,112290,5,0,0:0:0:0:
188,202,112433,1,12,0:0:0:0:
29,288,112576,1,0,0:0:0:0:
166,324,112719,2,0,L|255:324,1,85
398,288,113005,1,8,0:0:0:0:
317,202,113148,1,0,0:0:0:0:
317,202,113219,1,0,0:0:0:0:
317,202,113290,1,0,0:0:0:0:
435,108,113433,5,0,0:0:0:0:
435,108,113505,1,8,0:0:0:0:
435,108,113576,2,0,L|427:43,1,42.5,8|0,0:0|0:0,0:0:0:0:
293,87,113719,2,0,L|297:45,1,42.5,0|0,0:0|0:0,0:0:0:0:
156,63,113862,1,8,0:0:0:0:
90,182,114005,1,8,0:0:0:0:
156,63,114148,1,8,0:0:0:0:
90,182,114290,1,8,0:0:0:0:
205,303,114433,6,0,P|230:258|220:213,1,85,4|0,0:0|0:0,0:0:0:0:
315,137,114719,2,0,P|360:162|405:152,1,85,8|0,0:0|0:0,0:0:0:0:
486,235,115005,2,0,P|461:280|471:325,1,85
369,382,115290,2,0,P|324:357|279:367,1,85,8|0,0:0|0:0,0:0:0:0:
123,256,115576,6,0,P|175:266|222:249,1,85,0|0,0:0|0:0,0:0:0:0:
315,137,115862,2,0,P|263:127|216:144,1,85,8|0,0:0|0:0,0:0:0:0:
212,34,116148,1,0,0:0:0:0:
276,211,116290,1,0,0:0:0:0:
360,42,116433,2,0,P|402:34|443:45,1,85,8|0,0:0|0:0,0:0:0:0:
410,234,116719,6,0,L|401:150,1,85,4|0,0:0|0:0,0:0:0:0:
287,235,117005,2,0,L|297:320,1,85,8|0,0:0|0:0,0:0:0:0:
161,257,117290,2,0,L|170:165,1,85,0|0,0:0|0:0,0:0:0:0:
363,72,117576,1,8,0:0:0:0:
277,149,117719,1,0,0:0:0:0:
277,149,117790,1,0,0:0:0:0:
277,149,117862,2,0,P|252:113|250:56,1,85,0|0,0:0|0:0,0:0:0:0:
117,266,118148,1,8,0:0:0:0:
151,113,118290,2,0,P|91:106|48:210,1,170
241,304,118719,6,0,L|232:206,1,85,8|0,0:0|0:0,0:0:0:0:
277,149,118933,1,0,0:0:0:0:
277,149,119005,2,0,P|267:106|280:57,1,85,4|0,0:0|0:0,0:0:0:0:
120,184,119290,2,0,P|130:227|117:276,1,85,8|0,0:0|0:0,0:0:0:0:
239,258,119576,2,0,P|282:248|331:261,1,85,0|0,0:0|0:0,0:0:0:0:
156,78,119862,2,0,P|113:88|64:75,1,85,8|0,0:0|0:0,0:0:0:0:
308,110,120148,6,0,P|318:60|286:10,1,85,0|0,0:0|0:0,0:0:0:0:
455,86,120433,2,0,P|445:136|477:186,1,85,8|0,0:0|0:0,0:0:0:0:
323,308,120719,1,0,0:0:0:0:
353,187,120862,1,0,0:0:0:0:
248,269,121005,2,0,P|238:319|270:369,1,85,8|0,0:0|0:0,0:0:0:0:
190,171,121290,6,0,L|100:181,1,85,4|0,0:0|0:0,0:0:0:0:
39,62,121576,2,0,L|131:69,1,85,8|0,0:0|0:0,0:0:0:0:
325,65,121862,1,0,0:0:0:0:
230,97,122005,1,0,0:0:0:0:
230,97,122076,1,0,0:0:0:0:
230,97,122148,2,0,L|227:41,1,42.5,8|0,0:0|0:0,0:0:0:0:
312,164,122290,2,0,L|315:227,1,42.5,0|0,0:0|0:0,0:0:0:0:
203,274,122433,6,0,L|207:182,1,85,0|0,0:0|0:0,0:0:0:0:
207,190,122648,1,0,0:0:0:0:
207,190,122719,1,8,0:0:0:0:
94,213,122862,1,0,0:0:0:0:
305,245,123005,1,0,0:0:0:0:
305,245,123576,5,4,0:0:0:0:
445,134,132719,6,0,L|447:80,1,42.5,0|0,0:0|0:0,0:0:0:0:
347,113,133005,2,0,L|345:155,1,42.5
255,182,133290,2,0,L|256:139,1,42.5,0|0,0:0|0:0,0:0:0:0:
168,157,133576,2,0,L|166:199,1,42.5
135,274,133862,6,0,P|95:288|45:279,1,85
131,369,134290,1,0,0:0:0:0:
215,324,134433,2,0,L|306:318,2,85
282,224,135148,2,0,L|335:232,1,42.5
386,298,135433,1,0,0:0:0:0:
467,252,135576,2,0,P|479:214|463:157,1,85
419,102,136005,5,0,0:0:0:0:
419,102,136148,2,0,L|368:95,1,42.5
284,20,136433,2,0,L|377:10,1,85
286,112,136862,2,0,L|241:107,2,42.5
359,177,137290,6,0,P|364:209|361:231,1,42.5,0|0,0:0|0:0,0:0:0:0:
475,243,137576,2,0,P|470:275|473:297,1,42.5
361,334,137862,2,0,P|329:334|308:327,1,42.5,0|0,0:0|0:0,0:0:0:0:
246,238,138148,2,0,P|225:234|204:235,1,42.5
83,268,138433,6,0,P|93:222|78:175,1,85
21,141,138862,1,0,0:0:0:0:
21,141,139005,2,0,P|48:139|102:104,1,85
178,192,139433,6,0,L|170:140,1,42.5,0|0,0:0|0:0,0:0:0:0:
336,267,139862,6,0,L|341:218,1,42.5
151,362,140290,6,0,L|145:308,1,42.5
206,267,140576,1,0,0:0:0:0:
256,202,140719,2,0,P|270:159|262:107,1,85
291,33,141148,1,0,0:0:0:0:
291,33,141290,2,0,L|381:22,1,85
481,168,141719,5,0,0:0:0:0:
481,168,141790,1,0,0:0:0:0:
481,168,141862,2,0,P|431:178|388:156,1,85,4|0,0:0|0:0,0:0:0:0:
291,312,142148,2,0,P|341:302|384:324,1,85
203,220,142433,2,0,P|143:233|72:152,1,170,8|0,0:0|0:0,0:0:0:0:
228,95,142862,1,0,0:0:0:0:
142,66,143005,2,0,P|139:108|155:148,1,85,0|0,0:0|0:0,0:0:0:0:
323,127,143290,2,0,P|325:84|310:45,1,85
290,235,143576,6,0,B|347:254|347:254|410:231|424:180,1,170,8|0,0:0|0:0,0:0:0:0:
431,346,144005,1,0,0:0:0:0:
431,346,144076,1,0,0:0:0:0:
431,346,144148,2,0,B|390:338|390:338|336:341,1,85,0|0,0:0|0:0,0:0:0:0:
290,235,144433,2,0,B|246:237|246:237|205:229,1,85
226,384,144719,2,0,B|185:376|185:376|131:379,1,85,8|0,0:0|0:0,0:0:0:0:
85,273,145005,2,0,B|41:275|41:275|0:267,1,85
205,229,145290,2,0,L|219:145,1,85,0|0,0:0|0:0,0:0:0:0:
85,77,145576,2,0,L|99:161,1,85
346,199,145862,6,0,B|335:143|335:143|354:16,1,170,8|0,0:0|0:0,0:0:0:0:
480,153,146290,1,0,0:0:0:0:
480,153,146362,1,0,0:0:0:0:
480,153,146433,2,0,L|462:251,1,85,0|0,0:0|0:0,0:0:0:0:
403,384,146719,2,0,P|379:324|339:302,1,85
268,184,147005,2,0,P|307:200|350:200,1,85,8|0,0:0|0:0,0:0:0:0:
266,54,147290,2,0,P|227:37|184:38,1,85
95,115,147576,6,0,L|107:293,1,170
199,253,148005,1,0,0:0:0:0:
164,350,148148,2,0,P|119:373|71:364,1,85,8|0,0:0|0:0,0:0:0:0:
293,305,148433,2,0,L|380:318,1,85
474,264,148719,6,0,P|508:214|477:114,1,170
350,74,149148,1,0,0:0:0:0:
350,74,149290,2,0,L|181:96,1,170,8|0,0:0|0:0,0:0:0:0:
245,216,149719,1,0,0:0:0:0:
350,180,149862,2,0,P|357:238|336:278,1,85,0|0,0:0|0:0,0:0:0:0:
178,362,150148,2,0,P|171:304|192:264,1,85
173,46,150433,2,0,P|180:104|159:144,1,85,8|0,0:0|0:0,0:0:0:0:
12,242,150719,2,0,P|5:184|26:144,1,85,0|0,0:0|0:0,0:0:0:0:
245,216,151005,5,4,0:0:0:0:
258,163,157576,6,0,B|313:156|313:156|334:160|334:160|387:155,1,127.5
461,127,157862,6,0,B|411:132|373:102|373:102|318:106|289:161|289:161|227:99|150:116|96:200|155:268,1,467.5
164,274,159719,6,0,L|218:269,1,42.5
278,301,159862,2,0,B|332:294|332:294|349:297|349:297|412:289,1,127.5,8|0,0:0|0:0,0:0:0:0:
457,235,160148,6,0,P|480:285|466:338,1,101.999996887207,4|0,0:0|0:0,0:0:0:0:
178,368,160433,2,0,P|155:318|169:265,1,101.999996887207,12|0,0:0|0:0,0:0:0:0:
329,78,160719,2,0,P|337:128|320:165,1,85
278,301,161005,1,8,0:0:0:0:
207,185,161148,1,0,0:0:0:0:
278,301,161290,2,0,L|374:294,1,85
485,236,161576,1,8,0:0:0:0:
384,148,161719,2,0,P|344:161|302:156,1,85,0|0,0:0|0:0,0:0:0:0:
121,132,162005,1,0,0:0:0:0:
207,185,162148,6,0,P|221:122|205:80,1,85,8|0,0:0|0:0,0:0:0:0:
216,103,162362,1,0,0:0:0:0:
216,103,162433,1,0,0:0:0:0:
125,213,162576,1,0,0:0:0:0:
258,286,162719,1,8,0:0:0:0:
216,103,162862,1,0,0:0:0:0:
160,293,163005,2,0,P|104:298|62:267,1,85,0|0,0:0|0:0,0:0:0:0:
291,206,163290,2,0,L|387:232,1,85,8|0,0:0|0:0,0:0:0:0:
479,171,163576,6,0,P|495:83|435:23,1,170,0|8,0:0|0:0,0:0:0:0:
291,206,164005,1,0,0:0:0:0:
405,107,164148,2,0,P|367:123|315:116,1,85
382,207,164433,2,0,P|421:239|429:287,1,85,8|0,0:0|0:0,0:0:0:0:
350,384,164719,6,0,P|335:328|351:282,1,101.999996887207
217,147,165005,2,0,P|232:203|215:248,1,101.999996887207,12|0,0:0|0:0,0:0:0:0:
365,98,165290,2,0,P|353:48|369:6,1,85
464,135,165576,1,8,0:0:0:0:
314,211,165719,1,0,0:0:0:0:
395,261,165862,2,0,P|407:209|386:163,1,85,4|0,0:0|0:0,0:0:0:0:
507,285,166148,1,8,0:0:0:0:
427,371,166290,2,0,P|366:341|260:362,1,170,0|0,0:0|0:0,0:0:0:0:
169,196,166719,2,0,P|223:203|262:181,1,85,8|0,0:0|0:0,0:0:0:0:
312,141,166933,5,0,0:0:0:0:
312,141,167005,2,0,L|409:158,1,85,4|0,0:0|0:0,0:0:0:0:
507,285,167290,2,0,L|423:270,1,85,8|0,0:0|0:0,0:0:0:0:
401,68,167576,1,0,0:0:0:0:
480,186,167719,1,0,0:0:0:0:
336,252,167862,1,8,0:0:0:0:
401,68,168005,1,0,0:0:0:0:
426,259,168148,6,0,P|466:278|509:273,1,85
484,101,168433,1,8,0:0:0:0:
338,158,168576,2,0,P|281:138|182:182,1,170
205,40,169005,1,8,0:0:0:0:
149,248,169148,5,0,0:0:0:0:
149,248,169219,1,0,0:0:0:0:
149,248,169290,2,0,L|134:146,1,101.999996887207,0|0,0:0|0:0,0:0:0:0:
285,245,169576,2,0,L|300:347,1,101.999996887207,12|0,0:0|0:0,0:0:0:0:
242,152,169862,1,0,0:0:0:0:
200,332,170005,1,0,0:0:0:0:
242,152,170148,1,8,0:0:0:0:
397,213,170290,1,0,0:0:0:0:
174,203,170433,6,0,P|158:148|182:97,1,101.999996887207,4|0,0:0|0:0,0:0:0:0:
342,121,170719,1,8,0:0:0:0:
320,290,170862,2,0,P|237:286|156:379,1,203.999993774414,0|0,0:0|0:0,0:0:0:0:
70,247,171290,2,0,P|77:183|57:137,1,101.999996887207,8|0,0:0|0:0,0:0:0:0:
87,52,171505,5,0,0:0:0:0:
87,52,171576,2,0,P|151:56|185:36,1,101.999996887207,4|0,0:0|0:0,0:0:0:0:
342,121,171862,2,0,P|278:117|244:137,1,101.999996887207,8|0,0:0|0:0,0:0:0:0:
173,260,172148,1,0,0:0:0:0:
307,189,172290,1,0,0:0:0:0:
385,311,172433,1,8,0:0:0:0:
512,221,172576,1,0,0:0:0:0:
208,349,172719,6,0,P|140:345|95:224,1,203.999993774414,4|8,0:0|0:0,0:0:0:0:
210,89,173148,1,0,0:0:0:0:
286,297,173290,2,0,P|299:243|281:180,1,101.999996887207,0|0,0:0|0:0,0:0:0:0:
489,294,173576,1,12,0:0:0:0:
407,203,173719,5,0,0:0:0:0:
407,203,173790,1,0,0:0:0:0:
407,203,173862,2,0,L|386:330,1,110.499994941712,0|0,0:0|0:0,0:0:0:0:
290,198,174148,2,0,L|308:86,1,110.499994941712,12|4,0:0|0:0,0:0:0:0:
182,155,174433,1,0,0:0:0:0:
362,268,174576,1,0,0:0:0:0:
104,340,174719,1,12,0:0:0:0:
182,155,174862,1,0,0:0:0:0:
104,340,175005,6,0,P|37:349|-19:314,1,110.499994941712,0|0,0:0|0:0,0:0:0:0:
215,242,175290,1,12,0:0:0:0:
94,201,175433,2,0,P|93:120|129:81,1,110.499994941712,0|0,0:0|0:0,0:0:0:0:
249,37,175719,1,0,0:0:0:0:
374,143,175862,2,0,P|375:224|331:265,1,110.499994941712,12|0,0:0|0:0,0:0:0:0:
228,354,176148,5,4,0:0:0:0:
292,184,176290,1,0,0:0:0:0:
474,284,176433,1,8,0:0:0:0:
228,354,176576,1,0,0:0:0:0:
409,218,176719,2,0,P|472:195|527:215,1,110.499994941712,0|0,0:0|0:0,0:0:0:0:
285,269,177005,1,8,0:0:0:0:
226,126,177148,5,0,0:0:0:0:
226,126,177219,1,0,0:0:0:0:
226,126,177290,2,0,P|202:194|226:246,1,110.499994941712,8|0,0:0|0:0,0:0:0:0:
119,357,177576,1,8,0:0:0:0:
32,175,177719,1,0,0:0:0:0:
32,175,177790,1,0,0:0:0:0:
32,175,177862,1,8,0:0:0:0:
135,268,178005,1,8,0:0:0:0:
97,116,178148,5,8,0:0:0:0:
206,331,178290,1,8,0:0:0:0:
276,55,178433,1,4,0:0:0:0:
256,192,178505,12,0,180576,0:0:0:0:
178,261,180719,6,0,P|140:218|135:164,1,110.499994941712,4|0,0:0|0:0,0:0:0:0:
333,245,181005,2,0,L|302:369,1,110.499994941712,8|0,0:0|0:0,0:0:0:0:
250,178,181290,2,0,P|311:133|441:197,1,220.999989883423,0|8,0:0|0:0,0:0:0:0:
476,52,181719,1,0,0:0:0:0:
476,52,181790,1,0,0:0:0:0:
476,52,181862,2,0,P|419:63|361:48,1,110.499994941712
250,178,182148,1,8,0:0:0:0:
353,200,182290,2,0,P|306:107|184:107,1,220.999989883423,0|0,0:0|0:0,0:0:0:0:
111,265,182719,1,8,0:0:0:0:
375,358,182862,5,0,0:0:0:0:
375,358,182933,1,0,0:0:0:0:
375,358,183005,1,4,0:0:0:0:
256,192,183076,12,0,185148,0:0:0:0:
346,261,185290,6,0,L|364:146,1,110.499994941712,4|0,0:0|0:0,0:0:0:0:
239,87,185576,2,0,L|225:196,1,110.499994941712,8|0,0:0|0:0,0:0:0:0:
311,361,185862,2,0,P|376:372|425:347,1,110.499994941712,0|0,0:0|0:0,0:0:0:0:
113,218,186148,1,8,0:0:0:0:
217,298,186290,1,0,0:0:0:0:
217,298,186362,1,0,0:0:0:0:
217,298,186433,2,0,P|148:263|44:348,1,220.999989883423,0|8,0:0|0:0,0:0:0:0:
140,87,186862,2,0,P|209:122|313:37,1,220.999989883423,0|0,0:0|0:0,0:0:0:0:
466,181,187290,1,8,0:0:0:0:
224,201,187433,5,0,0:0:0:0:
224,201,187505,1,0,0:0:0:0:
224,201,187576,1,4,0:0:0:0:
256,192,187648,12,0,189719,0:0:0:0:
141,122,189862,6,0,P|124:171|149:251,1,110.499994941712,4|0,0:0|0:0,0:0:0:0:
268,324,190148,2,0,P|326:330|374:302,1,110.499994941712,8|0,0:0|0:0,0:0:0:0:
424,143,190433,2,0,P|366:137|318:165,1,110.499994941712
186,48,190719,1,8,0:0:0:0:
229,232,190862,1,0,0:0:0:0:
229,232,190933,1,0,0:0:0:0:
229,232,191005,2,0,P|237:172|223:112,1,110.499994941712,0|0,0:0|0:0,0:0:0:0:
424,143,191290,1,8,0:0:0:0:
361,334,191433,6,0,P|354:269|372:214,1,110.499994941712
331,47,191719,1,0,0:0:0:0:
506,201,191862,1,8,0:0:0:0:
247,317,192005,5,0,0:0:0:0:
247,317,192076,1,0,0:0:0:0:
247,317,192148,1,4,0:0:0:0:
256,192,192219,12,0,194290,0:0:0:0:
230,112,194433,6,0,P|179:94|111:113,1,110.499994941712,4|0,0:0|0:0,0:0:0:0:
26,312,194719,2,0,P|77:330|145:311,1,110.499994941712,8|0,0:0|0:0,0:0:0:0:
313,203,195005,1,0,0:0:0:0:
87,247,195148,1,0,0:0:0:0:
221,351,195290,1,8,0:0:0:0:
383,265,195433,1,0,0:0:0:0:
383,265,195505,1,0,0:0:0:0:
383,265,195576,2,0,P|406:215|392:147,1,110.499994941712
209,260,195862,1,0,0:0:0:0:
425,345,196005,1,0,0:0:0:0:
349,88,196148,5,6,0:0:0:0:
