osu file format v14

[General]
AudioFilename: Ghost Rule.mp3
AudioLeadIn: 0
PreviewTime: 48076
Countdown: 0
SampleSet: Normal
StackLeniency: 0.2
Mode: 0
LetterboxInBreaks: 0
EpilepsyWarning: 1
WidescreenStoryboard: 0

[Editor]
Bookmarks: 45862,75576,84719,93862,103005,105290,123576,132719,141862,145290,151005,169290,178433,188719,196719
DistanceSpacing: 1.2
BeatDivisor: 4
GridSize: 16
TimelineZoom: 1.9

[Metadata]
Title:Ghost Rule
TitleUnicode:ゴーストルール
Artist:DECO*27
ArtistUnicode:DECO*27
Creator:Awaken
Version:CRN's Extra
Source:
Tags:ボーカロイド vocaloid Naoki Itai MUSIC FOR MUSIC Regraz Mafumafu Evil_Twilight HabiHolic Flask Nasya N_a_s_y_a caren_sk val0108 z1085684963 hatsune miku 初音ミク japanese novelty
BeatmapID:2168419
BeatmapSetID:413117

[Difficulty]
HPDrainRate:5
CircleSize:4
OverallDifficulty:9.3
ApproachRate:9.5
SliderMultiplier:1.8
SliderTickRate:2

[Events]
//Background and Video events
0,0,"bg.jpg",0,0
//Break Periods
2,9490,18149
2,66633,75337
2,123776,132194
2,151204,157292
//Storyboard Layer 0 (Background)
//Storyboard Layer 1 (Fail)
//Storyboard Layer 2 (Pass)
//Storyboard Layer 3 (Foreground)
//Storyboard Layer 4 (Overlay)
//Storyboard Sound Samples

[TimingPoints]
148,285.714285714286,4,1,1,70,1,0
18719,-100,4,3,0,60,0,0
27005,-66.6666666666667,4,1,1,50,0,0
27290,-66.6666666666667,4,1,1,70,0,0
27576,-100,4,1,1,75,0,0
37219,-100,4,1,1,10,0,0
37290,-100,4,1,1,70,0,0
38076,-100,4,1,1,10,0,0
38148,-100,4,1,1,70,0,0
39505,-100,4,1,1,10,0,0
39576,-100,4,1,1,70,0,0
40362,-100,4,1,1,10,0,0
40433,-100,4,1,1,70,0,0
41790,-100,4,1,1,10,0,0
41862,-100,4,1,1,70,0,0
42076,-100,4,1,1,10,0,0
42148,-100,4,1,1,70,0,0
42719,-100,4,1,1,70,0,0
42933,-100,4,1,1,10,0,0
43005,-100,4,1,1,70,0,0
43219,-100,4,1,1,10,0,0
43290,-100,4,1,1,70,0,0
43505,-100,4,1,1,10,0,0
43576,-100,4,1,1,70,0,0
44076,-100,4,1,1,10,0,0
44148,-100,4,1,1,70,0,0
44362,-100,4,1,1,10,0,0
44433,-100,4,1,1,70,0,0
44648,-100,4,1,1,10,0,0
44719,-100,4,1,1,70,0,0
45862,-100,4,2,1,70,0,0
48148,-83.3333333333333,4,1,1,80,0,1
56148,-83.3333333333333,4,3,0,80,0,1
57290,-83.3333333333333,4,1,1,80,0,1
65862,-83.3333333333333,4,2,1,80,0,1
66076,-83.3333333333333,4,1,1,10,0,1
66148,-83.3333333333333,4,2,1,40,0,1
66433,-100,4,1,1,80,0,0
75576,-133.333333333333,4,2,1,60,0,0
83719,-133.333333333333,4,3,0,60,0,0
84290,-100,4,1,1,55,0,0
84433,-66.6666666666667,4,1,1,75,0,0
84576,-66.6666666666667,4,3,0,75,0,0
84648,-66.6666666666667,4,1,1,15,0,0
84719,-100,4,1,1,75,0,0
93862,-100,4,1,1,70,0,0
94362,-100,4,1,1,10,0,0
94433,-100,4,1,1,70,0,0
95219,-100,4,1,1,10,0,0
95290,-100,4,1,1,70,0,0
96648,-100,4,1,1,10,0,0
96719,-100,4,1,1,70,0,0
97505,-100,4,1,1,10,0,0
97576,-100,4,1,1,70,0,0
98933,-100,4,1,1,10,0,0
99005,-100,4,1,1,70,0,0
99790,-100,4,1,1,10,0,0
99862,-100,4,1,1,70,0,0
103005,-100,4,2,1,70,0,0
105005,-100,4,3,0,70,0,0
105290,-83.3333333333333,4,1,1,80,0,1
113290,-83.3333333333333,4,3,0,80,0,1
114433,-83.3333333333333,4,1,1,80,0,1
123005,-83.3333333333333,4,1,1,80,0,1
123219,-83.3333333333333,4,1,1,10,0,1
123290,-83.3333333333333,4,1,1,80,0,1
123576,-133.333333333333,4,2,1,50,0,0
132719,-133.333333333333,4,2,1,65,0,0
141862,-133.333333333333,4,1,1,65,0,0
157862,-133.333333333333,4,1,0,5,0,0
159862,-133.333333333333,4,1,0,45,0,0
160148,-83.3333333333333,4,1,1,80,0,1
169290,-71.4285714285714,4,1,1,80,0,1
173862,-66.6666666666667,4,1,1,80,0,1
177290,-50,4,1,1,80,0,1
178433,-66.6666666666667,4,1,1,80,0,1
187005,-66.6666666666667,4,2,1,80,0,0
187505,-66.6666666666667,4,2,1,20,0,0
187576,-66.6666666666667,4,1,1,80,0,1
191862,-50,4,1,1,80,0,1
192148,-66.6666666666667,4,1,1,80,0,1
195576,-50,4,1,1,80,0,1
196148,-66.6666666666667,4,1,1,80,0,0
196719,-133.333333333333,4,2,1,50,0,0

[Colours]
Combo1 : 128,255,0
Combo2 : 128,255,255
Combo3 : 255,0,128
Combo4 : 255,128,255

[HitObjects]
256,192,148,12,4,9290,0:0:0:0:
307,192,18719,6,0,P|398:167|506:176,1,180,0|2,0:0|0:0,0:0:0:0:
244,230,19148,2,0,P|200:234|144:223,1,90,2|0,0:0|0:0,0:0:0:0:
2,187,19433,1,2,0:0:0:0:
166,300,19576,1,2,0:0:0:0:
194,146,19719,1,0,0:0:0:0:
60,301,19862,1,2,0:0:0:0:
60,301,20148,5,2,0:0:0:0:
194,146,20291,1,0,0:0:0:0:
13,37,20433,1,2,0:0:0:0:
13,37,20719,6,0,L|22:133,1,90
1,242,21005,2,0,P|92:217|200:226,1,180,2|2,0:0|0:0,0:0:0:0:
423,260,21433,2,0,P|379:264|323:253,1,90,2|0,0:0|0:0,0:0:0:0:
190,144,21719,1,2,0:0:0:0:
245,367,21862,6,0,L|256:269,1,90,2|0,0:0|0:0,0:0:0:0:
370,98,22148,2,0,L|381:196,1,90,2|0,0:0|0:0,0:0:0:0:
399,340,22433,1,2,0:0:0:0:
265,188,22576,1,0,0:0:0:0:
496,126,22719,1,2,0:0:0:0:
496,126,23005,6,0,L|487:30,1,90
370,98,23290,2,0,L|381:196,1,90,2|0,0:0|0:0,0:0:0:0:
399,340,23576,1,2,0:0:0:0:
293,284,23719,2,0,P|247:280|203:286,1,90
13,306,24005,1,2,0:0:0:0:
13,306,24290,5,0,0:0:0:0:
122,32,24433,1,2,0:0:0:0:
122,32,24719,5,2,0:0:0:0:
293,284,24862,1,0,0:0:0:0:
13,306,25005,1,2,0:0:0:0:
13,306,25290,6,0,P|2:256|2:212,1,90,2|0,0:0|0:0,0:0:0:0:
4,105,25576,1,0,0:0:0:0:
169,234,25719,2,0,P|119:245|75:245,1,90,2|0,0:0|0:0,0:0:0:0:
266,302,26005,2,0,P|316:291|360:291,1,90,2|0,0:0|0:0,0:0:0:0:
507,114,26290,5,2,0:0:0:0:
447,274,26433,1,2,0:0:0:0:
342,140,26576,1,0,0:0:0:0:
510,213,26719,1,2,0:0:0:0:
383,18,26862,1,0,0:0:0:0:
166,201,27005,2,0,P|181:216|192:239,7,33.7500012874604
166,201,27290,6,0,P|109:136|179:63,1,202.500007724762
272,139,27576,6,0,L|168:133,1,90,4|0,0:0|0:0,0:0:0:0:
8,118,27862,1,8,0:0:0:0:
262,314,28005,1,0,0:0:0:0:
262,314,28076,1,0,0:0:0:0:
262,314,28148,2,0,L|268:210,1,90
493,165,28433,2,0,L|487:269,1,90,8|0,0:0|0:0,0:0:0:0:
334,29,28719,6,0,P|401:26|429:30,1,90
291,153,29005,1,8,0:0:0:0:
257,23,29148,1,0,0:0:0:0:
174,240,29290,1,0,0:0:0:0:
371,177,29433,1,0,0:0:0:0:
92,103,29576,1,8,0:0:0:0:
257,23,29719,5,0,0:0:0:0:
257,23,29790,1,0,0:0:0:0:
257,23,29862,2,0,P|259:73|254:117,1,90
168,308,30148,1,8,0:0:0:0:
0,170,30290,2,0,P|50:168|94:173,1,90
292,253,30576,1,0,0:0:0:0:
390,93,30719,1,8,0:0:0:0:
512,261,30862,6,0,P|462:263|418:258,1,90
193,167,31148,1,0,0:0:0:0:
284,342,31290,2,0,L|292:247,1,90,8|0,0:0|0:0,0:0:0:0:
478,85,31576,2,0,L|470:180,1,90
294,130,31862,1,8,0:0:0:0:
422,258,32005,1,0,0:0:0:0:
143,272,32148,6,0,L|135:182,1,90
122,76,32433,1,8,0:0:0:0:
291,252,32576,1,0,0:0:0:0:
55,330,32719,2,0,L|47:240,1,90
38,19,33005,1,8,0:0:0:0:
90,139,33148,2,0,P|44:147|-10:145,1,90
180,89,33433,5,0,0:0:0:0:
201,244,33576,2,0,P|247:252|301:250,1,90,8|0,0:0|0:0,0:0:0:0:
486,166,33862,1,0,0:0:0:0:
366,333,34005,1,0,0:0:0:0:
337,151,34148,1,8,0:0:0:0:
495,271,34290,1,0,0:0:0:0:
290,251,34433,6,0,P|336:243|390:245,1,90,8|0,0:0|0:0,0:0:0:0:
501,75,34719,2,0,P|455:83|401:81,1,90
127,25,35005,1,8,0:0:0:0:
282,159,35148,1,0,0:0:0:0:
144,165,35290,1,8,0:0:0:0:
267,8,35433,1,0,0:0:0:0:
170,277,35576,1,8,0:0:0:0:
0,96,35719,1,0,0:0:0:0:
0,96,35790,1,0,0:0:0:0:
0,96,35862,1,8,0:0:0:0:
96,224,36005,5,0,0:0:0:0:
160,96,36148,1,2,0:0:0:0:
256,256,36290,1,0,0:0:0:0:
352,96,36433,1,2,0:0:0:0:
416,224,36576,1,0,0:0:0:0:
496,32,36719,6,0,B|459:114|481:196|555:218|495:352,1,315,2|0,0:0|0:0,0:0:0:0:
432,352,37290,5,2,0:0:0:0:
345,266,37433,1,0,0:0:0:0:
141,312,37576,6,0,B|87:192|161:170|183:88|146:6,1,315,2|0,0:0|0:0,0:0:0:0:
147,8,38148,5,2,0:0:0:0:
65,83,38290,1,0,0:0:0:0:
225,156,38433,2,0,L|321:150,1,90,2|0,0:0|0:0,0:0:0:0:
122,224,38719,2,0,L|26:230,1,90,2|0,0:0|0:0,0:0:0:0:
1,333,39005,6,0,B|83:296|165:318|187:392|321:332,1,315,2|0,0:0|0:0,0:0:0:0:
369,310,39576,1,2,0:0:0:0:
435,102,39719,1,0,0:0:0:0:
512,212,39862,6,0,B|430:249|348:227|326:153|192:213,1,315,2|0,0:0|0:0,0:0:0:0:
137,225,40433,1,2,0:0:0:0:
119,34,40576,1,0,0:0:0:0:
5,133,40719,2,0,P|51:138|112:129,1,90,2|0,0:0|0:0,0:0:0:0:
214,29,41005,2,0,P|260:24|321:33,1,90,2|0,0:0|0:0,0:0:0:0:
418,146,41290,6,0,P|485:138|380:70,1,315,2|0,0:0|0:0,0:0:0:0:
336,128,41862,2,0,L|336:271,1,135
384,323,42148,2,0,P|507:323|418:238,1,315,2|0,0:0|0:0,0:0:0:0:
348,213,42719,6,0,L|235:301,1,135,2|0,0:0|0:0,0:0:0:0:
171,204,43005,2,0,L|305:257,1,135
251,364,43290,2,0,L|231:221,1,135,2|0,0:0|0:0,0:0:0:0:
223,156,43576,5,2,0:0:0:0:
77,249,43719,1,0,0:0:0:0:
9,73,43862,2,0,P|81:62|159:78,1,135,2|0,0:0|0:0,0:0:0:0:
223,104,44148,2,0,P|295:115|373:99,1,135
430,91,44433,2,0,L|418:255,1,135,2|0,0:0|0:0,0:0:0:0:
411,353,44719,5,2,0:0:0:0:
214,298,44862,1,0,0:0:0:0:
332,228,45005,1,2,0:0:0:0:
299,372,45148,1,0,0:0:0:0:
484,255,45290,1,2,0:0:0:0:
133,199,45433,1,0,0:0:0:0:
351,39,45576,1,2,0:0:0:0:
316,300,45719,1,0,0:0:0:0:
256,192,45862,5,2,0:0:0:0:
256,176,46290,1,2,0:0:0:0:
256,160,46719,1,2,0:0:0:0:
256,144,47147,1,2,0:0:0:0:
256,368,47576,1,2,0:0:0:0:
246,10,48148,21,6,0:0:0:0:
317,305,48290,1,0,0:0:0:0:
103,172,48433,1,10,0:0:0:0:
433,106,48576,1,0,0:0:0:0:
246,10,48719,2,0,P|233:66|237:118,1,107.999996704102
424,212,49005,2,0,P|437:156|433:104,1,107.999996704102,10|0,0:0|0:0,0:0:0:0:
28,96,49290,6,0,P|16:175|32:258,1,161.999995056152,6|0,0:0|0:0,0:0:0:0:
63,315,49576,2,0,L|172:310,1,107.999996704102,8|0,0:0|0:0,0:0:0:0:
329,155,49862,1,2,0:0:0:0:
451,318,50005,1,0,0:0:0:0:
501,217,50148,2,0,L|392:222,1,107.999996704102,14|0,0:0|0:0,0:0:0:0:
109,133,50433,5,14,0:0:0:0:
346,27,50576,1,0,0:0:0:0:
300,282,50719,1,8,0:0:0:0:
205,21,50862,1,8,0:0:0:0:
158,361,51005,1,10,0:0:0:0:
242,117,51148,1,0,0:0:0:0:
21,226,51290,1,10,0:0:0:0:
376,298,51433,1,0,0:0:0:0:
158,361,51576,6,0,L|146:249,1,107.999996704102,10|0,0:0|0:0,0:0:0:0:
129,46,51862,1,0,0:0:0:0:
21,226,52005,1,8,0:0:0:0:
242,117,52148,2,0,L|254:229,1,107.999996704102,10|0,0:0|0:0,0:0:0:0:
253,224,52362,1,0,0:0:0:0:
253,224,52433,1,14,0:0:0:0:
382,153,52576,1,0,0:0:0:0:
263,316,52719,5,14,0:0:0:0:
85,174,52862,1,0,0:0:0:0:
293,29,53005,1,10,0:0:0:0:
253,224,53148,1,0,0:0:0:0:
498,274,53290,2,0,P|510:223|508:153,1,107.999996704102,8|0,0:0|0:0,0:0:0:0:
293,29,53576,2,0,P|281:80|283:150,1,107.999996704102,2|0,0:0|0:0,0:0:0:0:
19,202,53862,6,0,P|100:167|197:164,1,161.999995056153,14|0,0:0|0:0,0:0:0:0:
253,224,54148,2,0,P|202:236|132:234,1,107.999996704102
50,74,54433,1,10,0:0:0:0:
17,299,54576,1,0,0:0:0:0:
253,224,54719,2,0,P|265:276|265:330,1,107.999996704102,14|0,0:0|0:0,0:0:0:0:
386,278,55005,5,14,0:0:0:0:
148,353,55148,1,0,0:0:0:0:
197,35,55290,1,8,0:0:0:0:
253,224,55433,1,8,0:0:0:0:
73,165,55576,1,10,0:0:0:0:
427,100,55719,1,0,0:0:0:0:
265,330,55862,1,8,0:0:0:0:
95,58,56005,1,0,0:0:0:0:
0,291,56148,5,14,0:0:0:0:
253,224,56290,1,6,0:0:0:0:
253,224,56362,1,0,0:0:0:0:
253,224,56433,1,0,0:0:0:0:
204,323,56576,1,2,0:0:0:0:
287,124,56719,1,10,0:0:0:0:
330,262,56862,1,0,0:0:0:0:
93,176,57005,1,6,0:0:0:0:
333,36,57148,1,2,0:0:0:0:
422,297,57290,5,6,0:0:0:0:
512,126,57433,1,0,0:0:0:0:
446,194,57576,2,0,L|330:188,1,107.999996704102,8|0,0:0|0:0,0:0:0:0:
99,122,57862,1,2,0:0:0:0:
16,320,58005,1,0,0:0:0:0:
116,251,58148,2,0,L|232:257,1,107.999996704102,8|0,0:0|0:0,0:0:0:0:
512,273,58433,5,2,0:0:0:0:
311,107,58576,1,0,0:0:0:0:
299,376,58719,2,0,L|305:260,1,107.999996704102,8|0,0:0|0:0,0:0:0:0:
213,8,59005,2,0,L|207:124,1,107.999996704102,2|0,0:0|0:0,0:0:0:0:
116,251,59290,1,10,0:0:0:0:
396,133,59433,1,0,0:0:0:0:
132,32,59576,5,14,0:0:0:0:
304,268,59719,1,0,0:0:0:0:
40,315,59862,2,0,P|32:260|35:201,1,107.999996704102
316,44,60148,2,0,P|324:99|315:215,1,161.999995056153,10|0,0:0|0:0,0:0:0:0:
304,268,60433,2,0,L|185:266,1,107.999996704102,2|0,0:0|0:0,0:0:0:0:
0,118,60719,6,0,L|119:120,1,107.999996704102,14|0,0:0|0:0,0:0:0:0:
316,44,61005,1,8,0:0:0:0:
445,270,61148,1,0,0:0:0:0:
512,172,61290,2,0,L|393:174,1,107.999996704102,14|0,0:0|0:0,0:0:0:0:
153,194,61576,1,14,0:0:0:0:
365,320,61719,1,0,0:0:0:0:
155,378,61862,6,0,L|153:259,1,107.999996704102,6|0,0:0|0:0,0:0:0:0:
147,64,62148,1,8,0:0:0:0:
256,192,62290,1,0,0:0:0:0:
357,6,62433,2,0,L|359:125,1,107.999996704102,2|0,0:0|0:0,0:0:0:0:
365,320,62719,1,8,0:0:0:0:
458,150,62862,1,0,0:0:0:0:
511,249,63005,6,0,L|392:251,1,107.999996704102,2|0,0:0|0:0,0:0:0:0:
224,256,63290,1,8,0:0:0:0:
54,30,63433,1,0,0:0:0:0:
1,135,63576,2,0,L|120:133,1,107.999996704102,2|0,0:0|0:0,0:0:0:0:
469,40,63862,2,0,L|350:42,1,107.999996704102,10|0,0:0|0:0,0:0:0:0:
191,43,64148,5,14,0:0:0:0:
324,122,64290,1,0,0:0:0:0:
176,233,64433,1,0,0:0:0:0:
309,312,64575,1,8,0:0:0:0:
225,131,64719,1,10,0:0:0:0:
122,342,64862,1,0,0:0:0:0:
394,253,65005,1,10,0:0:0:0:
11,125,65148,1,8,0:0:0:0:
338,43,65290,5,12,0:0:0:0:
176,233,65433,1,0,0:0:0:0:
176,233,65505,1,0,0:0:0:0:
176,233,65576,1,6,0:0:0:0:
256,0,65719,1,0,0:0:0:0:
332,233,65862,6,0,P|261:253|175:232,1,161.999995056153,2|0,0:0|0:0,0:0:0:0:
256,160,66148,6,0,L|256:384,1,215.999993408203,2|4,0:0|0:0,0:0:0:0:
43,121,75862,6,0,P|32:189|48:272,1,135.000005149842,2|0,0:0|0:0,0:0:0:0:
175,309,76433,1,2,0:0:0:0:
35,350,76576,2,0,P|77:328|123:319,1,67.5000025749208,2|0,0:0|0:0,0:0:0:0:
226,240,76862,1,2,0:0:0:0:
260,363,77005,1,0,0:0:0:0:
384,330,77148,1,2,0:0:0:0:
384,330,77719,5,0,0:0:0:0:
502,230,77862,2,0,L|436:247,1,67.5000025749208,2|0,0:0|0:0,0:0:0:0:
272,218,78148,1,0,0:0:0:0:
348,159,78290,2,0,L|414:176,1,67.5000025749208,2|0,0:0|0:0,0:0:0:0:
208,271,78576,2,0,L|142:254,1,67.5000025749208,2|0,0:0|0:0,0:0:0:0:
41,253,78862,2,0,P|32:187|43:121,1,135.000005149842,2|2,0:0|0:0,0:0:0:0:
78,26,79290,1,2,0:0:0:0:
192,97,79433,1,2,0:0:0:0:
192,97,80148,6,0,P|159:101|119:98,2,67.5000025749208,0|0|2,0:0|0:0|0:0,0:0:0:0:
287,63,80576,1,0,0:0:0:0:
260,153,80719,2,0,P|256:186|259:226,1,67.5000025749208,2|0,0:0|0:0,0:0:0:0:
314,299,81005,2,0,P|318:332|315:372,1,67.5000025749208,2|0,0:0|0:0,0:0:0:0:
339,223,81290,2,0,P|404:209|477:212,1,135.000005149842,2|0,0:0|0:0,0:0:0:0:
472,211,81719,1,2,0:0:0:0:
416,340,82290,5,0,0:0:0:0:
472,211,82433,2,0,P|404:208|339:223,1,135.000005149842,2|0,0:0|0:0,0:0:0:0:
169,129,82862,2,0,P|236:131|302:117,1,135.000005149842,2|0,0:0|0:0,0:0:0:0:
409,135,83290,1,2,0:0:0:0:
284,272,83433,2,0,P|273:242|266:204,1,67.5000025749208,2|2,0:0|0:0,0:0:0:0:
236,48,83719,1,2,0:0:0:0:
345,194,83862,1,0,0:0:0:0:
417,40,84005,1,8,0:0:0:0:
302,116,84148,1,0,0:0:0:0:
473,140,84290,6,0,P|482:211|464:283,1,135
423,329,84576,2,0,P|389:333|340:325,1,67.5000025749208,6|0,0:0|0:0,0:0:0:0:
291,282,84719,5,4,0:0:0:0:
192,376,84862,1,0,0:0:0:0:
57,259,85005,2,0,P|103:250|155:253,1,90,8|0,0:0|0:0,0:0:0:0:
388,186,85290,2,0,P|342:195|290:192,1,90
111,138,85576,1,8,0:0:0:0:
212,307,85719,6,0,P|226:260|226:205,1,90
187,16,86005,1,0,0:0:0:0:
23,131,86148,2,0,P|69:140|121:137,1,90,8|0,0:0|0:0,0:0:0:0:
258,66,86433,1,0,0:0:0:0:
358,162,86576,1,0,0:0:0:0:
427,23,86719,1,8,0:0:0:0:
358,162,86862,1,0,0:0:0:0:
496,123,87005,6,0,P|505:169|502:221,1,90
452,351,87290,1,8,0:0:0:0:
322,271,87433,2,0,P|368:262|420:265,1,90
247,368,87719,2,0,L|240:273,1,90,0|8,0:0|0:0,0:0:0:0:
63,77,88005,6,0,L|70:172,1,90
79,356,88290,1,0,0:0:0:0:
240,278,88433,1,8,0:0:0:0:
69,166,88576,1,0,0:0:0:0:
303,97,88719,2,0,L|208:104,1,90
12,281,89005,2,0,L|107:274,1,90,8|0,0:0|0:0,0:0:0:0:
256,192,89290,5,0,0:0:0:0:
343,332,89433,1,0,0:0:0:0:
497,253,89576,2,0,L|402:260,1,90,8|0,0:0|0:0,0:0:0:0:
177,317,89862,2,0,P|168:272|168:212,1,90
162,29,90148,1,8,0:0:0:0:
22,96,90290,1,0,0:0:0:0:
162,29,90433,6,0,P|171:74|171:134,1,90
166,228,90719,1,8,0:0:0:0:
392,195,90862,1,0,0:0:0:0:
278,257,91005,2,0,P|269:212|269:152,1,90
493,70,91290,2,0,P|502:115|502:175,1,90,8|0,0:0|0:0,0:0:0:0:
423,293,91576,5,0,0:0:0:0:
392,195,91719,1,0,0:0:0:0:
336,365,91862,1,8,0:0:0:0:
423,293,92005,2,0,P|483:288|516:293,1,90
336,365,92290,2,0,P|276:370|243:365,1,90,0|8,0:0|0:0,0:0:0:0:
80,343,92576,1,0,0:0:0:0:
122,177,92719,5,8,0:0:0:0:
212,284,92862,1,0,0:0:0:0:
212,284,92933,1,0,0:0:0:0:
212,284,93005,1,8,0:0:0:0:
14,255,93148,1,0,0:0:0:0:
212,284,93290,2,0,P|223:237|223:193,1,90,8|0,0:0|0:0,0:0:0:0:
37,55,93576,2,0,P|26:102|26:146,1,90,8|0,0:0|0:0,0:0:0:0:
14,255,93862,6,0,P|136:367|210:247,1,315,6|0,0:0|0:0,0:0:0:0:
223,195,94433,5,2,0:0:0:0:
316,319,94576,1,0,0:0:0:0:
420,223,94719,2,0,P|298:111|224:231,1,315,2|0,0:0|0:0,0:0:0:0:
211,283,95290,5,2,0:0:0:0:
323,198,95433,1,0,0:0:0:0:
122,229,95576,2,0,L|117:120,1,90,2|0,0:0|0:0,0:0:0:0:
323,198,95862,2,0,L|328:307,1,90,2|0,0:0|0:0,0:0:0:0:
459,357,96148,6,0,B|411:260|534:147|455:37,1,315,2|0,0:0|0:0,0:0:0:0:
463,50,96719,5,2,0:0:0:0:
356,151,96862,1,0,0:0:0:0:
247,11,97005,2,0,B|295:108|172:221|251:331,1,315,2|0,0:0|0:0,0:0:0:0:
242,317,97576,5,2,0:0:0:0:
145,202,97719,1,0,0:0:0:0:
110,334,97862,2,0,P|63:333|14:319,1,90,2|0,0:0|0:0,0:0:0:0:
242,317,98148,2,0,P|285:303|327:274,1,90,2|0,0:0|0:0,0:0:0:0:
427,142,98433,6,0,P|494:150|389:218,1,315,2|0,0:0|0:0,0:0:0:0:
310,160,99005,5,2,0:0:0:0:
208,224,99148,1,0,0:0:0:0:
85,142,99290,2,0,P|18:150|123:218,1,315,2|0,0:0|0:0,0:0:0:0:
202,160,99862,5,2,0:0:0:0:
256,304,100005,1,0,0:0:0:0:
185,252,100148,2,0,P|176:297|184:347,1,90,2|0,0:0|0:0,0:0:0:0:
330,340,100433,2,0,P|335:295|327:252,1,90,2|0,0:0|0:0,0:0:0:0:
339,139,100719,6,0,P|394:115|519:120,1,180,2|0,0:0|0:0,0:0:0:0:
282,189,101148,2,0,P|237:194|194:186,1,90,2|0,0:0|0:0,0:0:0:0:
91,152,101433,1,0,0:0:0:0:
214,24,101576,2,0,L|221:126,1,90,2|0,0:0|0:0,0:0:0:0:
225,285,101862,5,0,0:0:0:0:
339,139,102005,1,2,0:0:0:0:
106,66,102148,1,0,0:0:0:0:
285,217,102290,1,0,0:0:0:0:
56,315,102433,1,2,0:0:0:0:
320,353,102576,1,0,0:0:0:0:
220,113,102719,1,2,0:0:0:0:
176,368,102862,1,0,0:0:0:0:
176,368,103005,5,2,0:0:0:0:
432,304,103433,1,2,0:0:0:0:
48,240,103862,1,2,0:0:0:0:
432,80,104290,1,2,0:0:0:0:
48,32,104719,1,2,0:0:0:0:
256,192,105005,1,4,0:0:0:0:
266,10,105290,21,6,0:0:0:0:
195,305,105434,1,0,0:0:0:0:
409,172,105577,1,10,0:0:0:0:
79,106,105720,1,0,0:0:0:0:
266,10,105863,2,0,P|279:66|275:118,1,107.999996704102
88,212,106149,2,0,P|75:156|79:104,1,107.999996704102,10|0,0:0|0:0,0:0:0:0:
484,96,106433,6,0,P|496:175|480:258,1,161.999995056152,6|0,0:0|0:0,0:0:0:0:
449,315,106719,2,0,L|340:310,1,107.999996704102,8|0,0:0|0:0,0:0:0:0:
183,155,107005,1,2,0:0:0:0:
61,318,107148,1,0,0:0:0:0:
11,217,107291,2,0,L|120:222,1,107.999996704102,14|0,0:0|0:0,0:0:0:0:
403,133,107576,5,14,0:0:0:0:
166,27,107719,1,0,0:0:0:0:
212,282,107862,1,8,0:0:0:0:
307,21,108005,1,8,0:0:0:0:
354,361,108148,1,10,0:0:0:0:
270,117,108291,1,0,0:0:0:0:
491,226,108433,1,10,0:0:0:0:
136,298,108576,1,0,0:0:0:0:
354,361,108719,6,0,L|366:249,1,107.999996704102,10|0,0:0|0:0,0:0:0:0:
383,46,109005,1,8,0:0:0:0:
491,226,109148,1,8,0:0:0:0:
270,117,109291,2,0,L|258:229,1,107.999996704102,10|0,0:0|0:0,0:0:0:0:
259,224,109505,1,0,0:0:0:0:
259,224,109576,1,14,0:0:0:0:
130,153,109719,1,0,0:0:0:0:
249,316,109862,5,14,0:0:0:0:
427,174,110005,1,0,0:0:0:0:
219,29,110148,1,2,0:0:0:0:
259,224,110291,1,0,0:0:0:0:
14,274,110433,2,0,P|2:223|4:153,1,107.999996704102,8|0,0:0|0:0,0:0:0:0:
219,29,110719,2,0,P|231:80|229:150,1,107.999996704102,2|0,0:0|0:0,0:0:0:0:
493,202,111005,6,0,P|412:167|315:164,1,161.999995056153,14|0,0:0|0:0,0:0:0:0:
259,224,111291,2,0,P|310:236|380:234,1,107.999996704102
462,74,111576,1,10,0:0:0:0:
495,299,111719,1,0,0:0:0:0:
259,224,111862,2,0,P|247:276|247:330,1,107.999996704102,14|0,0:0|0:0,0:0:0:0:
126,278,112148,5,14,0:0:0:0:
364,353,112291,1,0,0:0:0:0:
315,35,112433,1,8,0:0:0:0:
259,224,112576,1,8,0:0:0:0:
439,165,112719,1,10,0:0:0:0:
85,100,112862,1,0,0:0:0:0:
247,330,113005,1,8,0:0:0:0:
417,58,113148,1,0,0:0:0:0:
512,291,113291,5,14,0:0:0:0:
259,224,113433,1,6,0:0:0:0:
259,224,113505,1,0,0:0:0:0:
259,224,113576,1,0,0:0:0:0:
308,323,113719,1,2,0:0:0:0:
225,124,113862,1,10,0:0:0:0:
182,262,114005,1,0,0:0:0:0:
396,185,114148,1,6,0:0:0:0:
179,36,114291,1,2,0:0:0:0:
90,297,114433,5,6,0:0:0:0:
0,126,114576,1,0,0:0:0:0:
66,194,114719,2,0,L|182:188,1,107.999996704102,8|0,0:0|0:0,0:0:0:0:
413,122,115005,1,2,0:0:0:0:
496,320,115148,1,0,0:0:0:0:
396,251,115291,2,0,L|280:257,1,107.999996704102,8|0,0:0|0:0,0:0:0:0:
0,273,115576,5,2,0:0:0:0:
201,107,115719,1,0,0:0:0:0:
213,376,115862,2,0,L|207:260,1,107.999996704102,8|0,0:0|0:0,0:0:0:0:
299,8,116148,2,0,L|305:124,1,107.999996704102,2|0,0:0|0:0,0:0:0:0:
396,251,116433,1,10,0:0:0:0:
116,133,116576,1,0,0:0:0:0:
380,32,116719,5,14,0:0:0:0:
208,268,116862,1,0,0:0:0:0:
472,315,117005,2,0,P|480:260|477:201,1,107.999996704102,8|0,0:0|0:0,0:0:0:0:
196,44,117291,2,0,P|188:99|197:215,1,161.999995056153,10|0,0:0|0:0,0:0:0:0:
208,268,117576,2,0,L|327:266,1,107.999996704102,2|0,0:0|0:0,0:0:0:0:
512,118,117862,6,0,L|393:120,1,107.999996704102,14|0,0:0|0:0,0:0:0:0:
196,44,118148,1,0,0:0:0:0:
67,270,118291,1,0,0:0:0:0:
0,172,118433,2,0,L|119:174,1,107.999996704102,14|0,0:0|0:0,0:0:0:0:
359,194,118719,1,14,0:0:0:0:
147,320,118862,1,0,0:0:0:0:
357,378,119005,6,0,L|359:259,1,107.999996704102,6|0,0:0|0:0,0:0:0:0:
365,64,119291,1,8,0:0:0:0:
256,192,119433,1,0,0:0:0:0:
155,6,119576,2,0,L|153:125,1,107.999996704102,2|0,0:0|0:0,0:0:0:0:
147,320,119862,1,8,0:0:0:0:
54,150,120005,1,0,0:0:0:0:
1,249,120148,6,0,L|120:251,1,107.999996704102,2|0,0:0|0:0,0:0:0:0:
288,256,120433,1,8,0:0:0:0:
458,30,120576,1,0,0:0:0:0:
511,135,120719,2,0,L|392:133,1,107.999996704102,2|0,0:0|0:0,0:0:0:0:
43,40,121005,2,0,L|162:42,1,107.999996704102,10|0,0:0|0:0,0:0:0:0:
321,43,121291,5,14,0:0:0:0:
188,122,121433,1,0,0:0:0:0:
336,233,121576,1,8,0:0:0:0:
203,312,121718,1,8,0:0:0:0:
287,131,121862,1,10,0:0:0:0:
390,342,122005,1,0,0:0:0:0:
118,253,122148,1,10,0:0:0:0:
501,125,122291,1,8,0:0:0:0:
174,43,122433,5,12,0:0:0:0:
336,233,122576,1,0,0:0:0:0:
336,233,122648,1,0,0:0:0:0:
336,233,122719,1,6,0:0:0:0:
256,0,122862,1,0,0:0:0:0:
180,233,123005,6,0,P|251:253|337:232,1,161.999995056153,2|0,0:0|0:0,0:0:0:0:
256,160,123291,6,0,L|256:384,1,215.999993408203,2|6,0:0|0:0,0:0:0:0:
35,163,132719,6,0,L|44:91,1,67.5000025749208,2|0,0:0|0:0,0:0:0:0:
89,244,133005,2,2,L|80:316,1,67.5000025749208,2|0,0:0|0:0,0:0:0:0:
122,162,133290,2,0,P|189:150|267:162,1,135.000005149842,2|0,0:0|0:0,0:0:0:0:
409,191,133719,1,0,0:0:0:0:
336,62,133862,2,0,P|332:106|335:138,1,67.5000025749208,2|0,0:0|0:0,0:0:0:0:
350,264,134148,1,2,0:0:0:0:
512,164,134290,1,2,0:0:0:0:
350,264,134862,5,0,0:0:0:0:
350,264,135005,2,0,L|343:340,2,67.5000025749208,2|0|0,0:0|0:0|0:0,0:0:0:0:
438,302,135433,2,0,L|500:346,1,67.5000025749208,0|2,0:0|0:0,0:0:0:0:
352,148,135719,2,0,L|282:179,1,67.5000025749208,0|2,0:0|0:0,0:0:0:0:
208,212,136005,1,0,0:0:0:0:
427,214,136148,2,0,P|439:147|433:77,1,135.000005149842,2|0,0:0|0:0,0:0:0:0:
357,16,136576,1,0,0:0:0:0:
293,89,136719,2,0,P|256:96|217:91,1,67.5000025749208
132,80,137005,2,0,P|96:69|64:51,1,67.5000025749208
163,173,137290,6,2,L|150:246,1,67.5000025749208
20,300,137576,2,0,P|56:290|93:290,1,67.5000025749208,2|0,0:0|0:0,0:0:0:0:
377,342,137862,2,0,P|341:352|304:352,1,67.5000025749208,2|0,0:0|0:0,0:0:0:0:
235,352,138148,1,2,0:0:0:0:
267,231,138290,1,0,0:0:0:0:
329,282,138433,1,2,0:0:0:0:
215,176,138576,1,0,0:0:0:0:
85,289,138719,1,2,0:0:0:0:
403,249,138862,1,2,0:0:0:0:
403,249,139433,5,2,0:0:0:0:
123,203,139576,1,0,0:0:0:0:
123,203,139862,5,2,0:0:0:0:
422,96,140005,1,2,0:0:0:0:
422,96,140290,5,2,0:0:0:0:
298,25,140433,1,2,0:0:0:0:
261,175,140576,1,2,0:0:0:0:
422,96,140719,2,0,B|371:79|287:116|216:92,1,202.500007724762,2|0,0:0|0:0,0:0:0:0:
90,288,141290,2,0,B|141:305|225:268|296:292,1,202.500007724762,2|0,0:0|0:0,0:0:0:0:
372,353,141862,6,0,L|380:278,1,67.5000025749208,4|0,0:0|0:0,0:0:0:0:
448,154,142148,1,2,0:0:0:0:
470,300,142290,1,0,0:0:0:0:
448,154,142433,2,0,L|456:229,1,67.5000025749208,8|0,0:0|0:0,0:0:0:0:
369,69,142719,2,0,P|426:58|449:59,1,67.5000025749208,2|0,0:0|0:0,0:0:0:0:
366,198,143005,6,0,P|314:206|246:193,1,101.250003862381
195,177,143290,1,2,0:0:0:0:
276,284,143433,1,0,0:0:0:0:
66,310,143576,2,0,L|62:229,1,67.5000025749208,8|0,0:0|0:0,0:0:0:0:
191,109,143862,2,0,L|195:190,1,67.5000025749208,2|0,0:0|0:0,0:0:0:0:
276,284,144148,6,0,L|281:364,1,67.5000025749208,2|0,0:0|0:0,0:0:0:0:
415,310,144433,1,2,0:0:0:0:
273,206,144576,1,0,0:0:0:0:
447,135,144719,1,10,0:0:0:0:
380,212,144862,1,0,0:0:0:0:
412,60,145005,2,0,P|451:55|497:59,1,67.5000025749208,2|0,0:0|0:0,0:0:0:0:
288,111,145290,6,0,P|256:86|227:51,1,67.5000025749208,2|0,0:0|0:0,0:0:0:0:
333,26,145576,1,0,0:0:0:0:
201,189,145719,1,0,0:0:0:0:
380,212,145862,2,0,P|374:250|358:294,1,67.5000025749208,10|0,0:0|0:0,0:0:0:0:
252,372,146148,2,0,P|213:366|169:350,1,67.5000025749208,2|0,0:0|0:0,0:0:0:0:
48,366,146433,6,0,L|40:293,1,67.5000025749208,2|0,0:0|0:0,0:0:0:0:
31,173,146719,1,2,0:0:0:0:
222,269,146862,1,0,0:0:0:0:
121,307,147005,2,0,L|113:234,1,67.5000025749208,8|0,0:0|0:0,0:0:0:0:
241,117,147290,2,0,L|233:190,1,67.5000025749208,2|0,0:0|0:0,0:0:0:0:
222,269,147576,5,2,0:0:0:0:
328,166,147719,1,0,0:0:0:0:
147,75,147862,1,0,0:0:0:0:
312,0,148005,1,0,0:0:0:0:
328,166,148148,2,0,L|320:93,1,67.5000025749208,10|0,0:0|0:0,0:0:0:0:
312,0,148433,1,2,0:0:0:0:
241,117,148576,1,0,0:0:0:0:
487,170,148719,6,0,P|449:174|393:171,1,67.5000025749208,2|0,0:0|0:0,0:0:0:0:
115,231,149005,1,2,0:0:0:0:
115,231,149148,2,0,P|153:227|209:230,1,67.5000025749208,0|10,0:0|0:0,0:0:0:0:
399,284,149433,1,0,0:0:0:0:
186,336,149576,1,2,0:0:0:0:
218,79,149719,1,0,0:0:0:0:
256,224,149862,5,10,0:0:0:0:
256,224,150005,1,10,0:0:0:0:
256,16,150290,1,10,0:0:0:0:
465,192,150433,2,0,P|442:316|315:336,1,270.000010299683,10|4,0:0|0:0,0:0:0:0:
256,192,157862,12,0,159576,0:0:0:0:
325,75,159862,5,8,0:0:0:0:
325,75,160148,6,0,L|444:83,1,107.999996704102,6|0,0:0|0:0,0:0:0:0:
342,340,160433,2,0,L|223:348,1,107.999996704102,10|0,0:0|0:0,0:0:0:0:
0,259,160719,2,0,L|171:248,1,161.999995056153
240,248,161005,2,0,P|249:191|245:133,1,107.999996704102,10|0,0:0|0:0,0:0:0:0:
239,32,161290,5,6,0:0:0:0:
352,215,161433,1,0,0:0:0:0:
118,158,161576,1,8,0:0:0:0:
377,88,161719,1,0,0:0:0:0:
246,140,161862,2,0,P|237:83|241:25,1,107.999996704102,2|0,0:0|0:0,0:0:0:0:
497,35,162148,2,8,P|506:92|502:150,1,107.999996704102,10|0,0:0|0:0,0:0:0:0:
468,330,162433,5,14,0:0:0:0:
261,218,162576,1,0,0:0:0:0:
424,233,162719,1,8,0:0:0:0:
197,362,162862,1,10,0:0:0:0:
151,143,163005,1,10,0:0:0:0:
327,283,163148,1,0,0:0:0:0:
20,217,163290,1,10,0:0:0:0:
170,16,163433,1,0,0:0:0:0:
261,218,163576,6,0,P|205:226|143:215,1,107.999996704102,10|0,0:0|0:0,0:0:0:0:
4,103,163862,1,8,0:0:0:0:
80,337,164005,1,0,0:0:0:0:
350,214,164148,2,0,P|358:270|347:332,1,107.999996704102,10|0,0:0|0:0,0:0:0:0:
350,320,164362,1,0,0:0:0:0:
350,320,164433,1,10,0:0:0:0:
219,259,164576,1,0,0:0:0:0:
335,9,164719,5,6,0:0:0:0:
512,252,164862,1,0,0:0:0:0:
279,156,165005,1,10,0:0:0:0:
499,110,165148,1,0,0:0:0:0:
414,331,165290,1,0,0:0:0:0:
194,55,165433,1,0,0:0:0:0:
15,290,165576,1,10,0:0:0:0:
256,368,165719,5,0,0:0:0:0:
256,368,165790,1,0,0:0:0:0:
256,368,165862,2,0,P|267:308|262:251,1,107.999996704102,6|0,0:0|0:0,0:0:0:0:
194,55,166148,1,8,0:0:0:0:
97,217,166290,1,0,0:0:0:0:
7,106,166433,2,0,P|61:95|117:95,1,107.999996704102,2|0,0:0|0:0,0:0:0:0:
469,193,166719,2,0,P|415:204|359:204,1,107.999996704102,10|0,0:0|0:0,0:0:0:0:
97,217,167005,5,14,0:0:0:0:
260,26,167148,1,0,0:0:0:0:
382,288,167290,1,8,0:0:0:0:
499,74,167433,1,10,0:0:0:0:
214,173,167576,1,10,0:0:0:0:
373,76,167719,1,0,0:0:0:0:
290,348,167862,1,10,0:0:0:0:
1,193,168005,1,0,0:0:0:0:
307,159,168148,5,10,0:0:0:0:
176,19,168290,1,0,0:0:0:0:
144,270,168433,1,10,0:0:0:0:
0,72,168576,1,0,0:0:0:0:
325,20,168719,6,0,L|320:82,1,53.9999983520508,2|0,0:0|0:0,0:0:0:0:
163,153,168862,2,0,L|168:91,1,53.9999983520508
403,200,169005,2,0,L|398:262,1,53.9999983520508,2|0,0:0|0:0,0:0:0:0:
241,333,169148,2,0,L|246:271,1,53.9999983520508
257,189,169290,5,14,0:0:0:0:
387,346,169433,1,0,0:0:0:0:
512,106,169576,1,10,0:0:0:0:
124,296,169719,1,0,0:0:0:0:
74,24,169862,1,8,0:0:0:0:
327,256,170005,1,0,0:0:0:0:
11,163,170148,1,2,0:0:0:0:
320,73,170290,1,0,0:0:0:0:
47,358,170433,6,0,P|27:296|20:230,1,125.999996154785,14|0,0:0|0:0,0:0:0:0:
320,73,170719,2,0,P|312:135|293:195,1,125.999996154785,2|0,0:0|0:0,0:0:0:0:
248,286,171005,1,8,0:0:0:0:
198,32,171148,1,0,0:0:0:0:
501,163,171290,1,10,0:0:0:0:
115,294,171433,1,0,0:0:0:0:
465,358,171576,6,0,P|485:296|492:230,1,125.999996154785,14|0,0:0|0:0,0:0:0:0:
47,26,171862,2,0,P|27:88|20:154,1,125.999996154785,2|10,0:0|0:0,0:0:0:0:
47,358,172148,5,12,0:0:0:0:
256,288,172290,1,0,0:0:0:0:
47,358,172433,2,0,P|27:296|20:230,1,125.999996154785,10|0,0:0|0:0,0:0:0:0:
465,26,172719,2,0,P|485:88|492:154,1,125.999996154785,10|0,0:0|0:0,0:0:0:0:
99,257,173005,2,0,P|85:192|97:125,1,125.999996154785,2|0,0:0|0:0,0:0:0:0:
418,133,173290,2,0,P|426:195|413:257,1,125.999996154785,10|0,0:0|0:0,0:0:0:0:
375,334,173505,5,0,0:0:0:0:
298,361,173576,1,10,0:0:0:0:
217,340,173648,1,0,0:0:0:0:
178,268,173719,1,2,0:0:0:0:
187,187,173790,1,0,0:0:0:0:
253,128,173862,5,14,0:0:0:0:
299,245,174005,1,0,0:0:0:0:
503,71,174148,1,10,0:0:0:0:
215,7,174290,1,0,0:0:0:0:
477,228,174433,5,0,0:0:0:0:
93,240,174576,1,0,0:0:0:0:
354,51,174719,1,10,0:0:0:0:
437,333,174862,1,0,0:0:0:0:
109,375,175005,6,0,L|93:240,1,135.000005149842,14|0,0:0|0:0,0:0:0:0:
403,9,175290,2,0,L|419:144,1,135.000005149842,2|0,0:0|0:0,0:0:0:0:
437,333,175576,6,2,L|302:349,1,135.000005149842,14|2,0:0|0:0,0:0:0:0:
75,51,175862,2,0,L|210:35,1,135.000005149842,10|0,0:0|0:0,0:0:0:0:
403,9,176148,5,14,0:0:0:0:
352,266,176290,1,0,0:0:0:0:
26,112,176433,1,8,0:0:0:0:
338,94,176576,1,10,0:0:0:0:
161,379,176719,5,14,0:0:0:0:
136,12,176862,1,0,0:0:0:0:
512,187,177005,1,10,0:0:0:0:
15,290,177148,1,0,0:0:0:0:
338,384,177290,6,0,L|345:292,1,90,14|0,0:0|0:0,0:0:0:0:
115,187,177433,2,0,L|123:277,1,90
411,319,177576,2,0,L|418:227,1,90,10|0,0:0|0:0,0:0:0:0:
188,122,177719,2,0,L|195:211,1,90
489,270,177862,2,0,L|496:178,1,90,10|0,0:0|0:0,0:0:0:0:
266,73,178005,2,0,L|273:162,1,90
193,296,178148,6,0,P|236:312|303:318,1,90,10|0,0:0|0:0,0:0:0:0:
452,76,178290,2,0,P|409:60|342:54,1,90,2|0,0:0|0:0,0:0:0:0:
256,0,178433,5,6,0:0:0:0:
320,256,178576,1,0,0:0:0:0:
0,192,178719,1,8,0:0:0:0:
320,128,178862,1,0,0:0:0:0:
256,384,179005,1,2,0:0:0:0:
192,128,179148,1,0,0:0:0:0:
512,192,179290,1,10,0:0:0:0:
192,256,179433,1,0,0:0:0:0:
256,0,179576,5,6,0:0:0:0:
384,320,179719,1,0,0:0:0:0:
0,192,179862,1,10,0:0:0:0:
384,64,180005,1,0,0:0:0:0:
256,384,180148,1,0,0:0:0:0:
128,64,180291,1,2,0:0:0:0:
512,192,180433,1,10,0:0:0:0:
128,320,180576,1,0,0:0:0:0:
423,361,180719,6,0,P|439:290|431:215,1,135.000005149842,6|0,0:0|0:0,0:0:0:0:
28,95,181005,1,14,0:0:0:0:
352,288,181148,1,0,0:0:0:0:
89,361,181290,2,0,P|73:295|77:228,1,135.000005149842,6|0,0:0|0:0,0:0:0:0:
484,95,181576,1,14,0:0:0:0:
160,288,181719,1,0,0:0:0:0:
423,361,181862,6,8,P|439:290|431:215,1,135.000005149842,6|0,0:0|0:0,0:0:0:0:
77,228,182148,2,0,P|73:295|89:361,1,135.000005149842,10|0,0:0|0:0,0:0:0:0:
89,361,182362,1,0,0:0:0:0:
89,361,182433,1,14,0:0:0:0:
258,276,182576,1,0,0:0:0:0:
37,138,182719,1,14,0:0:0:0:
460,57,182862,1,0,0:0:0:0:
256,0,183005,5,6,0:0:0:0:
160,288,183148,1,0,0:0:0:0:
512,192,183291,1,8,0:0:0:0:
160,96,183434,1,0,0:0:0:0:
256,384,183577,1,2,0:0:0:0:
352,96,183720,1,0,0:0:0:0:
0,192,183862,1,10,0:0:0:0:
352,288,184005,1,2,0:0:0:0:
256,0,184148,5,6,0:0:0:0:
128,320,184291,1,0,0:0:0:0:
512,192,184434,1,8,0:0:0:0:
128,64,184577,1,2,0:0:0:0:
256,384,184720,1,2,0:0:0:0:
384,64,184863,1,0,0:0:0:0:
0,192,185005,1,10,0:0:0:0:
384,320,185148,1,0,0:0:0:0:
91,363,185290,6,0,P|74:293|79:221,1,135.000005149842,6|0,0:0|0:0,0:0:0:0:
421,21,185576,2,2,P|438:91|433:163,1,135.000005149842,8|0,0:0|0:0,0:0:0:0:
164,290,185862,1,6,0:0:0:0:
328,101,186005,1,0,0:0:0:0:
85,27,186148,2,0,P|155:10|227:15,1,135.000005149842,10|0,0:0|0:0,0:0:0:0:
427,357,186433,2,0,P|357:374|285:369,1,135.000005149842,14|0,0:0|0:0,0:0:0:0:
294,370,186648,1,0,0:0:0:0:
294,370,186719,1,14,0:0:0:0:
356,177,186862,1,0,0:0:0:0:
192,177,187005,22,0,L|186:101,1,67.5000025749208,4|0,0:0|0:0,0:0:0:0:
356,177,187148,2,0,L|362:253,1,67.5000025749208,2|0,0:0|0:0,0:0:0:0:
280,280,187290,2,6,L|264:62,1,202.500007724762
256,0,187576,5,6,0:0:0:0:
96,320,187719,1,0,0:0:0:0:
512,192,187862,1,8,0:0:0:0:
96,64,188005,1,0,0:0:0:0:
256,384,188148,5,2,0:0:0:0:
416,64,188290,1,0,0:0:0:0:
0,192,188433,1,10,0:0:0:0:
416,320,188576,1,0,0:0:0:0:
256,0,188719,5,6,0:0:0:0:
32,352,188862,1,0,0:0:0:0:
512,192,189005,1,8,0:0:0:0:
32,32,189148,1,0,0:0:0:0:
256,384,189291,5,2,0:0:0:0:
480,32,189433,1,0,0:0:0:0:
0,192,189576,1,10,0:0:0:0:
480,352,189719,1,0,0:0:0:0:
256,0,189862,5,6,0:0:0:0:
105,285,190005,1,0,0:0:0:0:
426,125,190148,1,8,0:0:0:0:
68,90,190290,1,0,0:0:0:0:
420,251,190433,5,6,0:0:0:0:
29,329,190576,1,0,0:0:0:0:
509,198,190719,1,10,0:0:0:0:
0,39,190862,1,0,0:0:0:0:
339,182,191005,5,6,0:0:0:0:
23,234,191148,1,0,0:0:0:0:
501,312,191290,1,8,0:0:0:0:
112,32,191433,1,0,0:0:0:0:
107,368,191576,1,14,0:0:0:0:
411,6,191719,1,0,0:0:0:0:
509,198,191862,6,8,L|369:182,1,90,2|0,0:0|0:0,0:0:0:0:
256,288,192005,2,0,L|141:280,1,90
0,192,192148,5,6,0:0:0:0:
384,64,192290,1,0,0:0:0:0:
256,384,192433,1,8,0:0:0:0:
128,64,192576,1,0,0:0:0:0:
512,192,192719,5,2,0:0:0:0:
128,320,192862,1,0,0:0:0:0:
256,0,193005,1,10,0:0:0:0:
384,320,193148,1,0,0:0:0:0:
50,18,193290,5,6,0:0:0:0:
512,192,193433,1,0,0:0:0:0:
53,356,193576,1,8,0:0:0:0:
256,0,193719,1,0,0:0:0:0:
502,288,193862,5,2,0:0:0:0:
0,96,194005,1,0,0:0:0:0:
466,51,194148,1,10,0:0:0:0:
144,384,194290,1,0,0:0:0:0:
0,96,194433,6,0,P|71:85|150:91,1,135.000005149842,6|0,0:0|0:0,0:0:0:0:
502,288,194719,2,0,P|431:299|352:293,1,135.000005149842,14|0,0:0|0:0,0:0:0:0:
0,265,195005,5,14,0:0:0:0:
475,147,195148,1,0,0:0:0:0:
157,0,195290,1,14,0:0:0:0:
257,384,195433,1,0,0:0:0:0:
475,147,195576,6,0,L|488:242,1,90,2|0,0:0|0:0,0:0:0:0:
218,313,195719,2,0,L|205:218,1,90
370,98,195862,2,0,L|383:193,1,90,2|0,0:0|0:0,0:0:0:0:
113,264,196005,2,0,L|100:169,1,90
90,85,196148,1,2,0:0:0:0:
90,85,196719,6,0,L|19:95,2,67.5000025749208,2|0|0,0:0|0:0|0:0,0:0:0:0:
193,136,197148,2,0,P|260:145|335:134,1,135.000005149842,2|0,0:0|0:0,0:0:0:0:
422,85,197576,1,2,0:0:0:0:
422,85,197719,1,2,0:0:0:0:
422,85,198862,6,0,L|493:95,2,67.5000025749208,2|0|0,0:0|0:0|0:0,0:0:0:0:
319,136,199291,2,0,P|252:145|177:134,1,135.000005149842,2|0,0:0|0:0,0:0:0:0:
90,85,199719,1,2,0:0:0:0:
5,262,199862,1,0,0:0:0:0:
89,221,200005,2,0,P|156:212|231:223,1,135.000005149842,2|0,0:0|0:0,0:0:0:0:
306,239,200433,1,2,0:0:0:0:
256,368,200576,1,2,0:0:0:0:
256,368,201290,6,0,L|256:288,2,67.5000025749208,2|0|0,0:0|0:0|0:0,0:0:0:0:
181,331,201719,2,0,L|110:320,1,67.5000025749208,2|0,0:0|0:0,0:0:0:0:
307,240,202005,2,0,L|378:251,1,67.5000025749208,2|0,0:0|0:0,0:0:0:0:
449,264,202290,1,2,0:0:0:0:
449,264,203005,1,2,0:0:0:0:
449,264,203576,6,0,P|459:230|456:179,2,67.5000025749208,2|0|0,0:0|0:0|0:0,0:0:0:0:
397,354,204005,2,0,P|330:364|248:350,1,135.000005149842,2|2,0:0|0:0,0:0:0:0:
170,309,204433,1,0,0:0:0:0:
252,189,204576,2,0,L|257:256,1,67.5000025749208,2|0,0:0|0:0,0:0:0:0:
242,84,204862,1,2,0:0:0:0:
127,232,205005,1,0,0:0:0:0:
356,281,205148,1,2,0:0:0:0:
