osu file format v14

[General]
AudioFilename: audio.mp3
AudioLeadIn: 0
PreviewTime: 48167
Countdown: 0
SampleSet: None
StackLeniency: 0.7
Mode: 3
LetterboxInBreaks: 0
SpecialStyle: 0
WidescreenStoryboard: 1

[Editor]
DistanceSpacing: 1
BeatDivisor: 4
GridSize: 8
TimelineZoom: 2.34

[Metadata]
Title:Ghost Rule
TitleUnicode:ゴーストルール
Artist:DECO*27
ArtistUnicode:DECO*27
Creator:AnkhPH
Version:EZ
Source:
Tags:deco 27 hatsune miku vocaloid ghost rule
BeatmapID:1527498
BeatmapSetID:626630

[Difficulty]
HPDrainRate:7
CircleSize:4
OverallDifficulty:7.5
ApproachRate:5
SliderMultiplier:1.4
SliderTickRate:1

[Events]
//Background and Video events
0,0,"bg.jpg",0,0
//Break Periods
//Storyboard Layer 0 (Background)
//Storyboard Layer 1 (Fail)
//Storyboard Layer 2 (Pass)
//Storyboard Layer 3 (Foreground)
//Storyboard Sound Samples

[TimingPoints]
148,285.714285714286,4,1,0,15,1,0
48148,-100,4,1,0,15,0,1
66148,-100,4,1,0,15,0,0
66433,-100,4,1,0,15,0,1
75576,-100,4,1,0,15,0,0
105290,-100,4,1,0,15,0,1
123290,-100,4,1,0,15,0,0
151005,-133.333333333333,4,1,0,15,0,0
157862,-100,4,1,0,15,0,0
160148,-100,4,1,0,15,0,1
196148,-100,4,1,0,15,0,0

[HitObjects]
64,192,148,5,0,0:0:0:0:
448,192,433,1,0,0:0:0:0:
64,192,719,1,0,0:0:0:0:
192,192,1148,1,0,0:0:0:0:
448,192,1433,1,0,0:0:0:0:
64,192,1576,1,0,0:0:0:0:
192,192,1862,1,0,0:0:0:0:
448,192,2433,1,0,0:0:0:0:
64,192,2719,1,0,0:0:0:0:
448,192,3005,1,0,0:0:0:0:
192,192,3433,1,0,0:0:0:0:
448,192,3719,1,0,0:0:0:0:
64,192,3862,1,0,0:0:0:0:
320,192,4148,1,0,0:0:0:0:
192,192,4576,1,0,0:0:0:0:
448,192,4719,1,0,0:0:0:0:
64,192,5005,1,0,0:0:0:0:
320,192,5290,1,0,0:0:0:0:
192,192,5719,1,0,0:0:0:0:
448,192,6005,1,0,0:0:0:0:
64,192,6148,1,0,0:0:0:0:
320,192,6433,1,0,0:0:0:0:
192,192,7005,1,0,0:0:0:0:
448,192,7290,1,0,0:0:0:0:
64,192,7576,1,0,0:0:0:0:
192,192,8005,1,0,0:0:0:0:
448,192,8290,128,0,8719:0:0:0:0:
64,192,8719,1,0,0:0:0:0:
192,192,8719,1,0,0:0:0:0:
448,192,9005,1,0,0:0:0:0:
320,192,9005,1,0,0:0:0:0:
64,192,9290,1,0,0:0:0:0:
192,192,9576,1,0,0:0:0:0:
448,192,9862,1,0,0:0:0:0:
320,192,9862,1,0,0:0:0:0:
64,192,10290,1,0,0:0:0:0:
192,192,10290,1,0,0:0:0:0:
448,192,10719,1,0,0:0:0:0:
320,192,11005,1,0,0:0:0:0:
64,192,11290,1,0,0:0:0:0:
448,192,11576,1,0,0:0:0:0:
320,192,11862,1,0,0:0:0:0:
192,192,12148,1,0,0:0:0:0:
64,192,12148,1,0,0:0:0:0:
448,192,12576,1,0,0:0:0:0:
320,192,12576,1,0,0:0:0:0:
64,192,13005,1,0,0:0:0:0:
192,192,13290,1,0,0:0:0:0:
448,192,13576,1,0,0:0:0:0:
192,192,13862,1,0,0:0:0:0:
320,192,14148,1,0,0:0:0:0:
64,192,14433,1,0,0:0:0:0:
192,192,14433,1,0,0:0:0:0:
320,192,14862,1,0,0:0:0:0:
448,192,14862,1,0,0:0:0:0:
192,192,15290,1,0,0:0:0:0:
448,192,15576,1,0,0:0:0:0:
64,192,15862,1,0,0:0:0:0:
320,192,16148,1,0,0:0:0:0:
192,192,16433,1,0,0:0:0:0:
448,192,16719,1,0,0:0:0:0:
320,192,16719,1,0,0:0:0:0:
192,192,17148,1,0,0:0:0:0:
64,192,17148,1,0,0:0:0:0:
320,192,17576,1,0,0:0:0:0:
192,192,17862,1,0,0:0:0:0:
64,192,18148,1,0,0:0:0:0:
448,192,18433,1,0,0:0:0:0:
64,192,18719,1,0,0:0:0:0:
448,192,19148,1,0,0:0:0:0:
192,192,19290,1,0,0:0:0:0:
448,192,19719,1,0,0:0:0:0:
64,192,19862,1,0,0:0:0:0:
320,192,20148,1,0,0:0:0:0:
192,192,20433,1,0,0:0:0:0:
448,192,20719,1,0,0:0:0:0:
64,192,21005,1,0,0:0:0:0:
192,192,21433,1,0,0:0:0:0:
448,192,21576,1,0,0:0:0:0:
192,192,21862,1,0,0:0:0:0:
320,192,22148,1,0,0:0:0:0:
192,192,22433,1,0,0:0:0:0:
448,192,22719,128,0,23005:0:0:0:0:
64,192,23005,1,0,0:0:0:0:
192,192,23290,1,0,0:0:0:0:
64,192,23719,1,0,0:0:0:0:
448,192,23862,1,0,0:0:0:0:
320,192,24290,1,0,0:0:0:0:
192,192,24433,1,0,0:0:0:0:
448,192,24719,1,0,0:0:0:0:
64,192,25005,1,0,0:0:0:0:
448,192,25290,1,0,0:0:0:0:
64,192,25576,1,0,0:0:0:0:
192,192,26005,1,0,0:0:0:0:
448,192,26148,1,0,0:0:0:0:
192,192,26433,1,0,0:0:0:0:
448,192,26719,1,0,0:0:0:0:
64,192,27005,128,0,27290:0:0:0:0:
192,192,27290,1,0,0:0:0:0:
448,192,27576,1,0,0:0:0:0:
192,192,27862,1,0,0:0:0:0:
320,192,28148,1,0,0:0:0:0:
64,192,28433,1,0,0:0:0:0:
448,192,28719,1,0,0:0:0:0:
320,192,29005,1,0,0:0:0:0:
64,192,29290,1,0,0:0:0:0:
448,192,29576,1,0,0:0:0:0:
64,192,29862,1,0,0:0:0:0:
192,192,30148,1,0,0:0:0:0:
448,192,30433,1,0,0:0:0:0:
320,192,30719,1,0,0:0:0:0:
64,192,31005,1,0,0:0:0:0:
448,192,31290,1,0,0:0:0:0:
192,192,31576,1,0,0:0:0:0:
320,192,31862,1,0,0:0:0:0:
64,192,32148,1,0,0:0:0:0:
320,192,32433,1,0,0:0:0:0:
192,192,32719,1,0,0:0:0:0:
448,192,33005,1,0,0:0:0:0:
64,192,33290,1,0,0:0:0:0:
192,192,33576,1,0,0:0:0:0:
448,192,33862,1,0,0:0:0:0:
320,192,34148,1,0,0:0:0:0:
192,192,34433,1,0,0:0:0:0:
320,192,34719,1,0,0:0:0:0:
64,192,35005,1,0,0:0:0:0:
448,192,35290,1,0,0:0:0:0:
192,192,35576,1,0,0:0:0:0:
64,192,35862,1,0,0:0:0:0:
192,192,36148,1,0,0:0:0:0:
320,192,36433,1,0,0:0:0:0:
448,192,36719,1,0,0:0:0:0:
320,192,37005,1,0,0:0:0:0:
64,192,37290,1,0,0:0:0:0:
192,192,37290,1,0,0:0:0:0:
448,192,37719,1,0,0:0:0:0:
320,192,37719,1,0,0:0:0:0:
64,192,38148,1,0,0:0:0:0:
448,192,38433,1,0,0:0:0:0:
192,192,38719,1,0,0:0:0:0:
448,192,39005,1,0,0:0:0:0:
192,192,39290,1,0,0:0:0:0:
448,192,39576,1,0,0:0:0:0:
320,192,39576,1,0,0:0:0:0:
192,192,40005,1,0,0:0:0:0:
64,192,40005,1,0,0:0:0:0:
448,192,40433,1,0,0:0:0:0:
320,192,40719,1,0,0:0:0:0:
64,192,41005,1,0,0:0:0:0:
192,192,41290,1,0,0:0:0:0:
448,192,41576,1,0,0:0:0:0:
192,192,41862,1,0,0:0:0:0:
64,192,41862,1,0,0:0:0:0:
320,192,42290,1,0,0:0:0:0:
448,192,42290,1,0,0:0:0:0:
192,192,42719,1,0,0:0:0:0:
448,192,43005,1,0,0:0:0:0:
320,192,43290,1,0,0:0:0:0:
64,192,43576,1,0,0:0:0:0:
192,192,43862,1,0,0:0:0:0:
320,192,44148,1,0,0:0:0:0:
448,192,44148,1,0,0:0:0:0:
64,192,44576,1,0,0:0:0:0:
192,192,44576,1,0,0:0:0:0:
448,192,45005,1,0,0:0:0:0:
320,192,45290,1,0,0:0:0:0:
192,192,45576,1,0,0:0:0:0:
64,192,45862,1,0,0:0:0:0:
320,192,46290,1,0,0:0:0:0:
192,192,46719,1,0,0:0:0:0:
448,192,47148,1,0,0:0:0:0:
64,192,47576,128,0,48148:0:0:0:0:
448,192,48148,1,0,0:0:0:0:
320,192,48148,1,0,0:0:0:0:
192,192,48433,1,0,0:0:0:0:
448,192,48719,1,0,0:0:0:0:
192,192,49005,1,0,0:0:0:0:
320,192,49290,1,0,0:0:0:0:
64,192,49576,1,0,0:0:0:0:
448,192,49862,1,0,0:0:0:0:
192,192,50148,1,0,0:0:0:0:
448,192,50433,1,0,0:0:0:0:
64,192,50433,1,0,0:0:0:0:
320,192,50719,1,0,0:0:0:0:
64,192,51005,1,0,0:0:0:0:
448,192,51290,1,0,0:0:0:0:
64,192,51576,1,0,0:0:0:0:
192,192,51862,1,0,0:0:0:0:
448,192,52148,1,0,0:0:0:0:
64,192,52433,1,0,0:0:0:0:
448,192,52719,1,0,0:0:0:0:
320,192,52719,1,0,0:0:0:0:
64,192,53005,1,0,0:0:0:0:
448,192,53290,1,0,0:0:0:0:
192,192,53576,1,0,0:0:0:0:
448,192,53862,1,0,0:0:0:0:
64,192,54148,1,0,0:0:0:0:
192,192,54433,1,0,0:0:0:0:
448,192,54719,1,0,0:0:0:0:
64,192,55005,1,0,0:0:0:0:
192,192,55005,1,0,0:0:0:0:
448,192,55290,1,0,0:0:0:0:
64,192,55576,1,0,0:0:0:0:
320,192,55862,1,0,0:0:0:0:
192,192,56148,1,0,0:0:0:0:
448,192,56433,1,0,0:0:0:0:
192,192,56719,1,0,0:0:0:0:
64,192,57005,1,0,0:0:0:0:
448,192,57290,128,0,57576:0:0:0:0:
64,192,57576,1,0,0:0:0:0:
320,192,57862,128,0,58148:0:0:0:0:
192,192,58148,1,0,0:0:0:0:
192,192,58433,128,0,58719:0:0:0:0:
320,192,58719,1,0,0:0:0:0:
64,192,59005,128,0,59576:0:0:0:0:
448,192,59576,1,0,0:0:0:0:
320,192,59862,1,0,0:0:0:0:
64,192,60148,1,0,0:0:0:0:
448,192,60433,1,0,0:0:0:0:
192,192,60719,1,0,0:0:0:0:
320,192,61005,1,0,0:0:0:0:
64,192,61290,1,0,0:0:0:0:
448,192,61576,1,0,0:0:0:0:
64,192,61862,128,0,62148:0:0:0:0:
320,192,62148,1,0,0:0:0:0:
192,192,62433,128,0,62719:0:0:0:0:
320,192,62719,1,0,0:0:0:0:
320,192,63005,128,0,63290:0:0:0:0:
192,192,63290,1,0,0:0:0:0:
448,192,63576,128,0,64148:0:0:0:0:
64,192,64148,1,0,0:0:0:0:
192,192,64433,1,0,0:0:0:0:
448,192,64719,1,0,0:0:0:0:
64,192,65005,1,0,0:0:0:0:
320,192,65290,1,0,0:0:0:0:
64,192,65576,1,0,0:0:0:0:
448,192,65862,1,0,0:0:0:0:
192,192,66148,1,0,0:0:0:0:
448,192,66433,1,0,0:0:0:0:
320,192,66433,1,0,0:0:0:0:
64,192,66719,1,0,0:0:0:0:
448,192,67005,1,0,0:0:0:0:
320,192,67290,1,0,0:0:0:0:
64,192,67576,1,0,0:0:0:0:
192,192,67862,1,0,0:0:0:0:
448,192,68148,1,0,0:0:0:0:
192,192,68433,1,0,0:0:0:0:
320,192,68719,1,0,0:0:0:0:
192,192,69005,1,0,0:0:0:0:
448,192,69290,1,0,0:0:0:0:
64,192,69576,1,0,0:0:0:0:
448,192,69862,1,0,0:0:0:0:
320,192,70148,1,0,0:0:0:0:
64,192,70433,1,0,0:0:0:0:
320,192,70719,1,0,0:0:0:0:
192,192,71005,1,0,0:0:0:0:
448,192,71290,1,0,0:0:0:0:
64,192,71576,1,0,0:0:0:0:
320,192,71862,1,0,0:0:0:0:
192,192,72148,1,0,0:0:0:0:
320,192,72433,1,0,0:0:0:0:
64,192,72719,1,0,0:0:0:0:
448,192,73005,1,0,0:0:0:0:
64,192,73290,1,0,0:0:0:0:
192,192,73576,1,0,0:0:0:0:
448,192,73862,1,0,0:0:0:0:
192,192,74148,1,0,0:0:0:0:
320,192,74433,1,0,0:0:0:0:
64,192,74719,1,0,0:0:0:0:
448,192,75005,1,0,0:0:0:0:
320,192,75005,1,0,0:0:0:0:
192,192,75290,1,0,0:0:0:0:
64,192,75290,1,0,0:0:0:0:
448,192,75576,1,0,0:0:0:0:
64,192,76148,1,0,0:0:0:0:
448,192,76576,1,0,0:0:0:0:
192,192,77005,1,0,0:0:0:0:
320,192,77148,1,0,0:0:0:0:
64,192,77862,1,0,0:0:0:0:
448,192,78290,1,0,0:0:0:0:
192,192,78576,1,0,0:0:0:0:
448,192,78862,1,0,0:0:0:0:
64,192,79290,1,0,0:0:0:0:
448,192,79576,1,0,0:0:0:0:
64,192,79719,1,0,0:0:0:0:
192,192,80148,1,0,0:0:0:0:
320,192,80433,1,0,0:0:0:0:
64,192,80719,1,0,0:0:0:0:
448,192,81148,1,0,0:0:0:0:
320,192,81433,1,0,0:0:0:0:
64,192,81576,1,0,0:0:0:0:
448,192,81862,1,0,0:0:0:0:
320,192,82433,1,0,0:0:0:0:
64,192,82719,1,0,0:0:0:0:
448,192,83005,1,0,0:0:0:0:
192,192,83433,1,0,0:0:0:0:
448,192,83719,1,0,0:0:0:0:
320,192,83719,1,0,0:0:0:0:
64,192,84148,1,0,0:0:0:0:
448,192,84433,1,0,0:0:0:0:
192,192,84719,1,0,0:0:0:0:
320,192,85005,1,0,0:0:0:0:
448,192,85290,1,0,0:0:0:0:
64,192,85576,1,0,0:0:0:0:
320,192,85862,1,0,0:0:0:0:
192,192,86148,1,0,0:0:0:0:
64,192,86433,1,0,0:0:0:0:
448,192,86719,1,0,0:0:0:0:
192,192,87005,1,0,0:0:0:0:
448,192,87290,1,0,0:0:0:0:
64,192,87576,1,0,0:0:0:0:
320,192,87862,1,0,0:0:0:0:
448,192,88148,1,0,0:0:0:0:
192,192,88433,1,0,0:0:0:0:
64,192,88719,1,0,0:0:0:0:
448,192,89005,1,0,0:0:0:0:
192,192,89290,1,0,0:0:0:0:
320,192,89576,1,0,0:0:0:0:
64,192,89862,1,0,0:0:0:0:
448,192,90148,1,0,0:0:0:0:
64,192,90433,1,0,0:0:0:0:
320,192,90719,1,0,0:0:0:0:
192,192,91005,1,0,0:0:0:0:
448,192,91290,1,0,0:0:0:0:
192,192,91576,1,0,0:0:0:0:
448,192,91862,1,0,0:0:0:0:
64,192,92148,1,0,0:0:0:0:
320,192,92433,1,0,0:0:0:0:
192,192,92719,1,0,0:0:0:0:
448,192,93005,1,0,0:0:0:0:
320,192,93290,1,0,0:0:0:0:
192,192,93576,1,0,0:0:0:0:
320,192,93862,1,0,0:0:0:0:
448,192,94148,1,0,0:0:0:0:
192,192,94433,1,0,0:0:0:0:
64,192,94433,1,0,0:0:0:0:
448,192,94862,1,0,0:0:0:0:
320,192,94862,1,0,0:0:0:0:
64,192,95290,1,0,0:0:0:0:
448,192,95576,1,0,0:0:0:0:
320,192,95862,1,0,0:0:0:0:
64,192,96148,1,0,0:0:0:0:
192,192,96433,1,0,0:0:0:0:
448,192,96719,1,0,0:0:0:0:
320,192,96719,1,0,0:0:0:0:
64,192,97148,1,0,0:0:0:0:
192,192,97148,1,0,0:0:0:0:
320,192,97576,1,0,0:0:0:0:
64,192,97862,1,0,0:0:0:0:
448,192,98148,1,0,0:0:0:0:
192,192,98433,1,0,0:0:0:0:
64,192,98719,1,0,0:0:0:0:
320,192,99005,1,0,0:0:0:0:
448,192,99005,1,0,0:0:0:0:
64,192,99433,1,0,0:0:0:0:
192,192,99433,1,0,0:0:0:0:
448,192,99862,1,0,0:0:0:0:
64,192,100148,1,0,0:0:0:0:
192,192,100433,1,0,0:0:0:0:
448,192,100719,1,0,0:0:0:0:
320,192,101005,1,0,0:0:0:0:
64,192,101290,1,0,0:0:0:0:
192,192,101290,1,0,0:0:0:0:
448,192,101719,1,0,0:0:0:0:
320,192,101719,1,0,0:0:0:0:
192,192,102148,1,0,0:0:0:0:
320,192,102433,1,0,0:0:0:0:
192,192,102719,1,0,0:0:0:0:
64,192,103005,128,0,105005:0:0:0:0:
448,192,105005,1,0,0:0:0:0:
320,192,105290,1,0,0:0:0:0:
192,192,105290,1,0,0:0:0:0:
64,192,105576,1,0,0:0:0:0:
448,192,105862,1,0,0:0:0:0:
192,192,106148,1,0,0:0:0:0:
448,192,106433,1,0,0:0:0:0:
64,192,106719,1,0,0:0:0:0:
320,192,107005,1,0,0:0:0:0:
192,192,107290,1,0,0:0:0:0:
448,192,107576,1,0,0:0:0:0:
320,192,107576,1,0,0:0:0:0:
64,192,107862,1,0,0:0:0:0:
320,192,108148,1,0,0:0:0:0:
192,192,108433,1,0,0:0:0:0:
448,192,108719,1,0,0:0:0:0:
64,192,109005,1,0,0:0:0:0:
320,192,109290,1,0,0:0:0:0:
192,192,109576,1,0,0:0:0:0:
64,192,109862,1,0,0:0:0:0:
448,192,109862,1,0,0:0:0:0:
320,192,110148,1,0,0:0:0:0:
64,192,110433,1,0,0:0:0:0:
448,192,110719,1,0,0:0:0:0:
64,192,111005,1,0,0:0:0:0:
320,192,111290,1,0,0:0:0:0:
192,192,111576,1,0,0:0:0:0:
448,192,111862,1,0,0:0:0:0:
64,192,112148,1,0,0:0:0:0:
192,192,112148,1,0,0:0:0:0:
448,192,112433,1,0,0:0:0:0:
192,192,112719,1,0,0:0:0:0:
320,192,113005,1,0,0:0:0:0:
448,192,113290,1,0,0:0:0:0:
64,192,113576,1,0,0:0:0:0:
320,192,113862,1,0,0:0:0:0:
64,192,114148,1,0,0:0:0:0:
448,192,114433,128,0,114719:0:0:0:0:
320,192,114719,1,0,0:0:0:0:
192,192,115005,128,0,115290:0:0:0:0:
448,192,115290,1,0,0:0:0:0:
320,192,115576,128,0,115862:0:0:0:0:
192,192,115862,1,0,0:0:0:0:
64,192,116148,128,0,116719:0:0:0:0:
320,192,116719,1,0,0:0:0:0:
192,192,117005,1,0,0:0:0:0:
448,192,117290,1,0,0:0:0:0:
64,192,117576,1,0,0:0:0:0:
192,192,117862,1,0,0:0:0:0:
448,192,118148,1,0,0:0:0:0:
320,192,118433,1,0,0:0:0:0:
192,192,118719,1,0,0:0:0:0:
64,192,119005,128,0,119290:0:0:0:0:
448,192,119290,1,0,0:0:0:0:
320,192,119576,128,0,119862:0:0:0:0:
64,192,119862,1,0,0:0:0:0:
192,192,120148,128,0,120433:0:0:0:0:
320,192,120433,1,0,0:0:0:0:
448,192,120719,128,0,121290:0:0:0:0:
192,192,121290,1,0,0:0:0:0:
320,192,121576,1,0,0:0:0:0:
192,192,121862,1,0,0:0:0:0:
448,192,122148,1,0,0:0:0:0:
64,192,122433,1,0,0:0:0:0:
320,192,122719,1,0,0:0:0:0:
192,192,123005,1,0,0:0:0:0:
448,192,123290,128,0,123576:0:0:0:0:
64,192,123576,128,0,124719:0:0:0:0:
192,192,124719,128,0,125862:0:0:0:0:
448,192,125862,128,0,127005:0:0:0:0:
64,192,127005,128,0,127576:0:0:0:0:
192,192,127576,128,0,128148:0:0:0:0:
320,192,128148,128,0,129290:0:0:0:0:
64,192,129290,128,0,130433:0:0:0:0:
192,192,130433,128,0,131576:0:0:0:0:
448,192,131576,128,0,132148:0:0:0:0:
320,192,132148,128,0,132719:0:0:0:0:
64,192,132719,1,0,0:0:0:0:
448,192,133005,1,0,0:0:0:0:
64,192,133290,1,0,0:0:0:0:
448,192,133576,1,0,0:0:0:0:
192,192,133862,1,0,0:0:0:0:
320,192,134148,1,0,0:0:0:0:
64,192,134433,1,0,0:0:0:0:
320,192,134719,1,0,0:0:0:0:
448,192,135005,1,0,0:0:0:0:
192,192,135290,1,0,0:0:0:0:
320,192,135576,1,0,0:0:0:0:
64,192,135862,1,0,0:0:0:0:
448,192,136148,1,0,0:0:0:0:
64,192,136433,1,0,0:0:0:0:
320,192,136719,1,0,0:0:0:0:
64,192,137005,1,0,0:0:0:0:
192,192,137290,1,0,0:0:0:0:
448,192,137576,1,0,0:0:0:0:
320,192,137862,1,0,0:0:0:0:
64,192,138148,1,0,0:0:0:0:
320,192,138433,1,0,0:0:0:0:
192,192,138719,1,0,0:0:0:0:
448,192,139005,1,0,0:0:0:0:
64,192,139290,1,0,0:0:0:0:
320,192,139576,1,0,0:0:0:0:
192,192,139862,1,0,0:0:0:0:
448,192,140148,1,0,0:0:0:0:
64,192,140433,1,0,0:0:0:0:
320,192,140719,1,0,0:0:0:0:
192,192,141005,1,0,0:0:0:0:
64,192,141290,1,0,0:0:0:0:
448,192,141576,1,0,0:0:0:0:
64,192,141862,1,0,0:0:0:0:
320,192,142148,1,0,0:0:0:0:
192,192,142433,1,0,0:0:0:0:
448,192,142719,1,0,0:0:0:0:
64,192,143005,1,0,0:0:0:0:
448,192,143290,1,0,0:0:0:0:
320,192,143576,1,0,0:0:0:0:
64,192,143862,1,0,0:0:0:0:
448,192,144148,1,0,0:0:0:0:
192,192,144433,1,0,0:0:0:0:
320,192,144719,1,0,0:0:0:0:
64,192,145005,1,0,0:0:0:0:
448,192,145290,1,0,0:0:0:0:
64,192,145576,1,0,0:0:0:0:
448,192,145862,1,0,0:0:0:0:
192,192,146148,1,0,0:0:0:0:
320,192,146433,1,0,0:0:0:0:
192,192,146719,1,0,0:0:0:0:
448,192,147005,1,0,0:0:0:0:
64,192,147290,1,0,0:0:0:0:
320,192,147576,1,0,0:0:0:0:
192,192,147862,1,0,0:0:0:0:
448,192,148148,1,0,0:0:0:0:
64,192,148433,1,0,0:0:0:0:
320,192,148719,1,0,0:0:0:0:
192,192,149005,1,0,0:0:0:0:
64,192,149290,1,0,0:0:0:0:
320,192,149576,1,0,0:0:0:0:
64,192,149862,1,0,0:0:0:0:
320,192,150148,1,0,0:0:0:0:
448,192,150433,128,0,151005:0:0:0:0:
64,192,151005,128,0,152148:0:0:0:0:
192,192,152148,128,0,153290:0:0:0:0:
320,192,153290,128,0,154433:0:0:0:0:
448,192,154433,128,0,155005:0:0:0:0:
320,192,155005,128,0,155576:0:0:0:0:
64,192,155576,128,0,156719:0:0:0:0:
320,192,156719,128,0,157862:0:0:0:0:
64,192,159862,1,0,0:0:0:0:
320,192,160148,1,0,0:0:0:0:
448,192,160148,1,0,0:0:0:0:
64,192,160433,1,0,0:0:0:0:
448,192,160719,1,0,0:0:0:0:
192,192,161005,1,0,0:0:0:0:
448,192,161290,1,0,0:0:0:0:
64,192,161576,1,0,0:0:0:0:
320,192,161862,1,0,0:0:0:0:
448,192,162148,1,0,0:0:0:0:
192,192,162433,1,0,0:0:0:0:
64,192,162433,1,0,0:0:0:0:
448,192,162719,1,0,0:0:0:0:
64,192,163005,1,0,0:0:0:0:
192,192,163290,1,0,0:0:0:0:
448,192,163576,1,0,0:0:0:0:
192,192,163862,1,0,0:0:0:0:
320,192,164148,1,0,0:0:0:0:
448,192,164433,1,0,0:0:0:0:
64,192,164719,1,0,0:0:0:0:
192,192,164719,1,0,0:0:0:0:
448,192,165005,1,0,0:0:0:0:
192,192,165290,1,0,0:0:0:0:
448,192,165576,1,0,0:0:0:0:
64,192,165862,1,0,0:0:0:0:
192,192,166148,1,0,0:0:0:0:
448,192,166433,1,0,0:0:0:0:
64,192,166719,1,0,0:0:0:0:
448,192,167005,1,0,0:0:0:0:
320,192,167005,1,0,0:0:0:0:
192,192,167290,1,0,0:0:0:0:
448,192,167576,1,0,0:0:0:0:
64,192,167862,1,0,0:0:0:0:
192,192,168148,1,0,0:0:0:0:
448,192,168433,1,0,0:0:0:0:
320,192,168719,128,0,169290:0:0:0:0:
64,192,169290,1,0,0:0:0:0:
448,192,169290,1,0,0:0:0:0:
192,192,169576,1,0,0:0:0:0:
448,192,169862,1,0,0:0:0:0:
64,192,170148,1,0,0:0:0:0:
448,192,170433,1,0,0:0:0:0:
320,192,170719,1,0,0:0:0:0:
64,192,171005,1,0,0:0:0:0:
448,192,171290,1,0,0:0:0:0:
192,192,171576,1,0,0:0:0:0:
64,192,171576,1,0,0:0:0:0:
448,192,171862,1,0,0:0:0:0:
64,192,172148,1,0,0:0:0:0:
320,192,172433,1,0,0:0:0:0:
64,192,172719,1,0,0:0:0:0:
192,192,173005,1,0,0:0:0:0:
448,192,173290,1,0,0:0:0:0:
192,192,173576,1,0,0:0:0:0:
320,192,173862,128,0,175005:0:0:0:0:
448,192,173862,1,0,0:0:0:0:
64,192,174148,1,0,0:0:0:0:
192,192,174433,1,0,0:0:0:0:
448,192,174719,1,0,0:0:0:0:
64,192,175005,128,0,176148:0:0:0:0:
448,192,175290,1,0,0:0:0:0:
192,192,175576,1,0,0:0:0:0:
320,192,175862,1,0,0:0:0:0:
192,192,176148,128,0,177290:0:0:0:0:
448,192,176433,1,0,0:0:0:0:
320,192,176719,1,0,0:0:0:0:
64,192,177005,1,0,0:0:0:0:
448,192,177290,128,0,178433:0:0:0:0:
320,192,177576,1,0,0:0:0:0:
192,192,177862,1,0,0:0:0:0:
64,192,178148,1,0,0:0:0:0:
192,192,178433,128,0,178719:0:0:0:0:
448,192,178719,1,0,0:0:0:0:
320,192,179005,128,0,179290:0:0:0:0:
192,192,179290,1,0,0:0:0:0:
64,192,179576,128,0,179862:0:0:0:0:
320,192,179862,1,0,0:0:0:0:
448,192,180148,128,0,180719:0:0:0:0:
64,192,180719,128,0,181862:0:0:0:0:
320,192,180719,1,0,0:0:0:0:
192,192,181005,1,0,0:0:0:0:
448,192,181290,1,0,0:0:0:0:
320,192,181576,1,0,0:0:0:0:
192,192,181862,128,0,183005:0:0:0:0:
448,192,182148,1,0,0:0:0:0:
64,192,182433,1,0,0:0:0:0:
448,192,182719,1,0,0:0:0:0:
320,192,183005,128,0,183290:0:0:0:0:
64,192,183290,1,0,0:0:0:0:
192,192,183576,128,0,183862:0:0:0:0:
320,192,183862,1,0,0:0:0:0:
448,192,184148,128,0,184433:0:0:0:0:
192,192,184433,1,0,0:0:0:0:
64,192,184719,128,0,185290:0:0:0:0:
448,192,185290,1,0,0:0:0:0:
192,192,185576,1,0,0:0:0:0:
320,192,185862,1,0,0:0:0:0:
64,192,186148,1,0,0:0:0:0:
448,192,186433,1,0,0:0:0:0:
192,192,186719,1,0,0:0:0:0:
64,192,187005,1,0,0:0:0:0:
448,192,187290,1,0,0:0:0:0:
64,192,187576,1,0,0:0:0:0:
448,192,187862,1,0,0:0:0:0:
320,192,187862,1,0,0:0:0:0:
192,192,188148,1,0,0:0:0:0:
448,192,188433,1,0,0:0:0:0:
64,192,188433,1,0,0:0:0:0:
320,192,188719,1,0,0:0:0:0:
192,192,189005,1,0,0:0:0:0:
64,192,189005,1,0,0:0:0:0:
320,192,189290,1,0,0:0:0:0:
64,192,189576,1,0,0:0:0:0:
448,192,189576,1,0,0:0:0:0:
320,192,189862,1,0,0:0:0:0:
64,192,190148,1,0,0:0:0:0:
448,192,190433,1,0,0:0:0:0:
192,192,190719,1,0,0:0:0:0:
64,192,191005,1,0,0:0:0:0:
448,192,191290,1,0,0:0:0:0:
192,192,191576,1,0,0:0:0:0:
320,192,191862,1,0,0:0:0:0:
64,192,192148,1,0,0:0:0:0:
320,192,192433,1,0,0:0:0:0:
448,192,192433,1,0,0:0:0:0:
192,192,192719,1,0,0:0:0:0:
64,192,193005,1,0,0:0:0:0:
320,192,193005,1,0,0:0:0:0:
448,192,193290,1,0,0:0:0:0:
192,192,193576,1,0,0:0:0:0:
64,192,193576,1,0,0:0:0:0:
320,192,193862,1,0,0:0:0:0:
448,192,194148,1,0,0:0:0:0:
64,192,194148,1,0,0:0:0:0:
320,192,194433,1,0,0:0:0:0:
64,192,194719,1,0,0:0:0:0:
448,192,195005,1,0,0:0:0:0:
192,192,195290,1,0,0:0:0:0:
64,192,195576,1,0,0:0:0:0:
192,192,195862,1,0,0:0:0:0:
448,192,196148,1,0,0:0:0:0:
64,192,196719,128,0,197148:0:0:0:0:
448,192,197719,1,0,0:0:0:0:
192,192,199005,128,0,199433:0:0:0:0:
448,192,200005,1,0,0:0:0:0:
448,192,201290,128,0,201719:0:0:0:0:
64,192,202290,1,0,0:0:0:0:
448,192,203005,1,0,0:0:0:0:
192,192,203576,128,0,204005:0:0:0:0:
448,192,204433,1,0,0:0:0:0:
64,192,204719,128,0,205290:0:0:0:0:
