osu file format v14

[General]
AudioFilename: audio.mp3
AudioLeadIn: 0
PreviewTime: 48167
Countdown: 0
SampleSet: Normal
StackLeniency: 0.7
Mode: 3
LetterboxInBreaks: 0
SpecialStyle: 0
WidescreenStoryboard: 1

[Editor]
DistanceSpacing: 1
BeatDivisor: 4
GridSize: 8
TimelineZoom: 2.34

[Metadata]
Title:Ghost Rule
TitleUnicode:ゴーストルール
Artist:DECO*27
ArtistUnicode:DECO*27
Creator:AnkhPH
Version:Draw's MX
Source:
Tags:deco 27 hatsune miku vocaloid ghost rule
BeatmapID:1503970
BeatmapSetID:626630

[Difficulty]
HPDrainRate:8
CircleSize:4
OverallDifficulty:8
ApproachRate:5
SliderMultiplier:1.4
SliderTickRate:1

[Events]
//Background and Video events
0,0,"bg.jpg",0,0
//Break Periods
//Storyboard Layer 0 (Background)
//Storyboard Layer 1 (Fail)
//Storyboard Layer 2 (Pass)
//Storyboard Layer 3 (Foreground)
//Storyboard Sound Samples

[TimingPoints]
148,285.714285714286,4,1,0,15,1,0
45433,-105.263157894737,4,1,0,15,0,0
45505,-111.111111111111,4,1,0,15,0,0
45576,-117.647058823529,4,1,0,15,0,0
45648,-125,4,1,0,15,0,0
45719,-142.857142857143,4,1,0,15,0,0
47576,-133.333333333333,4,1,0,15,0,0
47719,-125,4,1,0,15,0,0
47862,-117.647058823529,4,1,0,15,0,0
48005,-111.111111111111,4,1,0,15,0,0
48148,-100,4,1,0,15,0,1
66148,-100,4,1,0,15,0,0
66433,-100,4,1,0,15,0,1
75576,-100,4,1,0,15,0,0
102576,-105.263157894737,4,1,0,15,0,0
102648,-111.111111111111,4,1,0,15,0,0
102719,-117.647058823529,4,1,0,15,0,0
102790,-125,4,1,0,15,0,0
102862,-142.857142857143,4,1,0,15,0,0
104719,-133.333333333333,4,1,0,15,0,0
104862,-125,4,1,0,15,0,0
105005,-117.647058823529,4,1,0,15,0,0
105148,-111.111111111111,4,1,0,15,0,0
105290,-100,4,1,0,15,0,1
123290,-100,4,1,0,15,0,0
151005,-133.333333333333,4,1,0,15,0,0
157862,-100,4,1,0,15,0,0
160148,-100,4,1,0,15,0,1
196148,-100,4,1,0,15,0,0

[HitObjects]
320,192,148,5,0,2:0:0:0:
448,192,148,1,0,0:0:0:0:
192,192,433,1,0,0:0:0:0:
64,192,433,1,0,0:0:0:0:
320,192,719,1,0,2:0:0:0:
64,192,719,1,0,2:0:0:0:
448,192,719,1,0,0:0:0:0:
192,192,1148,1,0,2:0:0:0:
64,192,1148,1,0,2:0:0:0:
320,192,1433,1,0,2:0:0:0:
448,192,1433,1,0,0:0:0:0:
64,192,1576,1,0,2:0:0:0:
448,192,1862,1,0,2:0:0:0:
192,192,1862,1,0,2:0:0:0:
64,192,1862,1,0,0:0:0:0:
320,192,2005,1,0,0:0:0:0:
448,192,2148,1,0,0:0:0:0:
64,192,2219,1,0,0:0:0:0:
192,192,2290,1,0,0:0:0:0:
64,192,2433,1,0,2:0:0:0:
448,192,2433,1,0,2:0:0:0:
320,192,2433,1,0,0:0:0:0:
64,192,2719,1,0,2:0:0:0:
192,192,2719,1,0,0:0:0:0:
320,192,3005,1,0,2:0:0:0:
448,192,3005,1,0,2:0:0:0:
64,192,3005,1,0,0:0:0:0:
64,192,3433,1,0,2:0:0:0:
192,192,3433,1,0,0:0:0:0:
448,192,3576,1,0,0:0:0:0:
64,192,3719,1,0,2:0:0:0:
448,192,3862,1,0,2:0:0:0:
192,192,4005,1,0,0:0:0:0:
320,192,4076,1,0,0:0:0:0:
448,192,4148,1,0,2:0:0:0:
64,192,4148,1,0,2:0:0:0:
192,192,4148,1,0,0:0:0:0:
64,192,4290,1,0,2:0:0:0:
448,192,4433,1,0,0:0:0:0:
320,192,4505,1,0,0:0:0:0:
64,192,4576,1,0,0:0:0:0:
192,192,4648,1,0,0:0:0:0:
448,192,4719,1,0,2:0:0:0:
320,192,4719,1,0,0:0:0:0:
64,192,4719,1,0,0:0:0:0:
64,192,5005,1,0,2:0:0:0:
192,192,5005,1,0,0:0:0:0:
448,192,5290,1,0,0:0:0:0:
320,192,5290,1,0,0:0:0:0:
64,192,5290,1,0,0:0:0:0:
192,192,5719,1,0,2:0:0:0:
64,192,5719,1,0,2:0:0:0:
448,192,6005,1,0,2:0:0:0:
320,192,6005,1,0,0:0:0:0:
64,192,6148,1,0,0:0:0:0:
192,192,6433,1,0,2:0:0:0:
64,192,6433,1,0,2:0:0:0:
448,192,6433,1,0,0:0:0:0:
320,192,6576,1,0,2:0:0:0:
448,192,6719,1,0,0:0:0:0:
320,192,6790,1,0,0:0:0:0:
64,192,6862,1,0,0:0:0:0:
192,192,6933,1,0,0:0:0:0:
64,192,7005,1,0,2:0:0:0:
448,192,7005,1,0,2:0:0:0:
320,192,7005,1,0,0:0:0:0:
64,192,7290,1,0,2:0:0:0:
192,192,7290,1,0,0:0:0:0:
448,192,7576,1,0,2:0:0:0:
64,192,7576,1,0,2:0:0:0:
320,192,7576,1,0,0:0:0:0:
192,192,7862,1,0,2:0:0:0:
64,192,7862,1,0,0:0:0:0:
448,192,8005,1,0,2:0:0:0:
448,192,8290,128,0,8433:2:0:0:0:
64,192,8290,128,0,8433:2:0:0:0:
320,192,8433,128,0,8576:0:0:0:0:
192,192,8433,128,0,8576:0:0:0:0:
64,192,8719,5,0,0:0:0:0:
320,192,8719,1,0,0:0:0:0:
448,192,8719,1,0,0:0:0:0:
448,192,8862,1,0,0:0:0:0:
192,192,8862,1,0,0:0:0:0:
64,192,9005,1,0,0:0:0:0:
320,192,9005,128,0,9290:0:0:0:0:
192,192,9005,128,0,9290:0:0:0:0:
64,192,9290,128,0,9433:0:0:0:0:
448,192,9290,128,0,9433:0:0:0:0:
320,192,9433,128,0,9576:0:0:0:0:
192,192,9433,1,0,0:0:0:0:
64,192,9719,128,0,9862:0:0:0:0:
448,192,9719,128,0,9862:0:0:0:0:
320,192,9862,1,0,0:0:0:0:
192,192,9862,128,0,10005:0:0:0:0:
192,192,10148,128,0,10290:0:0:0:0:
448,192,10148,128,0,10290:0:0:0:0:
320,192,10290,1,0,0:0:0:0:
64,192,10290,128,0,10433:0:0:0:0:
64,192,10576,128,0,10719:0:0:0:0:
320,192,10576,128,0,10719:0:0:0:0:
448,192,10719,128,0,10862:0:0:0:0:
192,192,10719,1,0,0:0:0:0:
448,192,11005,1,0,0:0:0:0:
320,192,11005,1,0,0:0:0:0:
192,192,11148,1,0,0:0:0:0:
64,192,11148,1,0,0:0:0:0:
448,192,11290,1,0,0:0:0:0:
320,192,11290,1,0,0:0:0:0:
64,192,11433,1,0,0:0:0:0:
192,192,11433,1,0,0:0:0:0:
448,192,11576,128,0,11719:0:0:0:0:
320,192,11576,128,0,11719:0:0:0:0:
64,192,11719,128,0,11862:0:0:0:0:
192,192,11719,1,0,0:0:0:0:
64,192,12005,128,0,12148:0:0:0:0:
192,192,12005,128,0,12148:0:0:0:0:
320,192,12148,1,0,0:0:0:0:
448,192,12148,128,0,12290:0:0:0:0:
64,192,12433,128,0,12576:0:0:0:0:
320,192,12433,128,0,12576:0:0:0:0:
448,192,12576,1,0,0:0:0:0:
192,192,12576,128,0,12719:0:0:0:0:
192,192,12862,128,0,13005:0:0:0:0:
448,192,12862,128,0,13005:0:0:0:0:
64,192,13005,1,0,0:0:0:0:
320,192,13005,128,0,13148:0:0:0:0:
448,192,13290,1,0,0:0:0:0:
64,192,13290,1,0,0:0:0:0:
192,192,13433,1,0,0:0:0:0:
320,192,13433,1,0,0:0:0:0:
64,192,13576,1,0,0:0:0:0:
448,192,13576,1,0,0:0:0:0:
320,192,13719,1,0,0:0:0:0:
192,192,13719,1,0,0:0:0:0:
64,192,13862,1,0,0:0:0:0:
448,192,13862,128,0,14005:0:0:0:0:
320,192,14005,1,0,0:0:0:0:
192,192,14005,128,0,14148:0:0:0:0:
448,192,14290,1,0,0:0:0:0:
64,192,14290,128,0,14433:0:0:0:0:
192,192,14433,1,0,0:0:0:0:
320,192,14433,128,0,14576:0:0:0:0:
64,192,14719,1,0,0:0:0:0:
448,192,14719,128,0,14862:0:0:0:0:
320,192,14862,1,0,0:0:0:0:
192,192,14862,128,0,15005:0:0:0:0:
64,192,15148,128,0,15290:0:0:0:0:
448,192,15148,1,0,0:0:0:0:
192,192,15290,1,0,0:0:0:0:
320,192,15290,128,0,15433:0:0:0:0:
448,192,15576,1,0,0:0:0:0:
192,192,15576,1,0,0:0:0:0:
64,192,15719,1,0,0:0:0:0:
320,192,15719,1,0,0:0:0:0:
448,192,15862,1,0,0:0:0:0:
192,192,15862,1,0,0:0:0:0:
320,192,16005,1,0,0:0:0:0:
64,192,16005,1,0,0:0:0:0:
192,192,16148,1,0,0:0:0:0:
448,192,16148,128,0,16290:0:0:0:0:
64,192,16290,128,0,16433:0:0:0:0:
320,192,16290,1,0,0:0:0:0:
448,192,16576,128,0,16719:0:0:0:0:
320,192,16576,1,0,0:0:0:0:
192,192,16719,1,0,0:0:0:0:
64,192,16719,128,0,16862:0:0:0:0:
192,192,17005,1,0,0:0:0:0:
448,192,17005,128,0,17148:0:0:0:0:
64,192,17148,128,0,17290:0:0:0:0:
320,192,17148,1,0,0:0:0:0:
448,192,17433,1,0,0:0:0:0:
192,192,17433,128,0,17576:0:0:0:0:
64,192,17576,1,0,0:0:0:0:
320,192,17576,128,0,17719:0:0:0:0:
192,192,17719,1,0,0:0:0:0:
64,192,17719,1,0,0:0:0:0:
448,192,17862,1,0,0:0:0:0:
320,192,17862,1,0,0:0:0:0:
64,192,18005,1,0,0:0:0:0:
192,192,18005,1,0,0:0:0:0:
448,192,18148,1,0,0:0:0:0:
320,192,18148,1,0,0:0:0:0:
320,192,18290,1,0,0:0:0:0:
192,192,18290,1,0,0:0:0:0:
64,192,18433,1,0,0:0:0:0:
448,192,18433,1,0,0:0:0:0:
192,192,18433,1,0,0:0:0:0:
320,192,18719,1,0,0:0:0:0:
448,192,18719,1,0,0:0:0:0:
320,192,19148,1,0,0:0:0:0:
192,192,19290,1,0,0:0:0:0:
64,192,19290,1,0,0:0:0:0:
448,192,19433,1,0,0:0:0:0:
320,192,19719,1,0,0:0:0:0:
448,192,19719,1,0,0:0:0:0:
64,192,19862,1,0,0:0:0:0:
192,192,19862,1,0,0:0:0:0:
448,192,20148,1,0,0:0:0:0:
192,192,20148,1,0,0:0:0:0:
64,192,20290,128,0,20433:0:0:0:0:
192,192,20433,128,0,20576:0:0:0:0:
448,192,20433,1,0,0:0:0:0:
448,192,20576,128,0,20719:0:0:0:0:
64,192,20719,1,0,0:0:0:0:
320,192,20719,1,0,0:0:0:0:
192,192,21005,1,0,0:0:0:0:
448,192,21005,1,0,0:0:0:0:
192,192,21148,1,0,0:0:0:0:
320,192,21433,1,0,0:0:0:0:
64,192,21576,1,0,0:0:0:0:
320,192,21576,1,0,0:0:0:0:
192,192,21862,1,0,0:0:0:0:
192,192,22005,1,0,0:0:0:0:
448,192,22148,1,0,0:0:0:0:
320,192,22148,1,0,0:0:0:0:
64,192,22290,1,0,0:0:0:0:
64,192,22433,1,0,0:0:0:0:
320,192,22576,1,0,0:0:0:0:
64,192,22719,128,0,23005:0:0:0:0:
448,192,22719,128,0,23005:0:0:0:0:
320,192,22719,1,0,0:0:0:0:
192,192,23005,1,0,0:0:0:0:
320,192,23005,1,0,0:0:0:0:
192,192,23290,1,0,0:0:0:0:
64,192,23290,1,0,0:0:0:0:
192,192,23719,1,0,0:0:0:0:
448,192,23862,1,0,0:0:0:0:
320,192,23862,1,0,0:0:0:0:
64,192,24005,1,0,0:0:0:0:
448,192,24290,1,0,0:0:0:0:
448,192,24433,1,0,0:0:0:0:
192,192,24433,1,0,0:0:0:0:
64,192,24576,1,0,0:0:0:0:
320,192,24719,1,0,0:0:0:0:
64,192,24719,1,0,0:0:0:0:
448,192,24862,128,0,25005:0:0:0:0:
192,192,25005,128,0,25148:0:0:0:0:
64,192,25005,1,0,0:0:0:0:
64,192,25148,128,0,25290:0:0:0:0:
192,192,25290,1,0,0:0:0:0:
448,192,25290,1,0,0:0:0:0:
320,192,25576,1,0,0:0:0:0:
64,192,25576,1,0,0:0:0:0:
320,192,25719,1,0,0:0:0:0:
192,192,26005,1,0,0:0:0:0:
448,192,26148,1,0,0:0:0:0:
192,192,26148,1,0,0:0:0:0:
448,192,26433,1,0,0:0:0:0:
320,192,26433,1,0,0:0:0:0:
64,192,26576,1,0,0:0:0:0:
192,192,26576,1,0,0:0:0:0:
448,192,26719,1,0,0:0:0:0:
64,192,26719,1,0,0:0:0:0:
320,192,26719,1,0,0:0:0:0:
192,192,26862,1,0,0:0:0:0:
448,192,27005,1,0,0:0:0:0:
320,192,27076,1,0,0:0:0:0:
64,192,27148,1,0,0:0:0:0:
192,192,27219,1,0,0:0:0:0:
448,192,27290,1,0,0:0:0:0:
320,192,27362,1,0,0:0:0:0:
64,192,27433,1,0,0:0:0:0:
192,192,27505,1,0,0:0:0:0:
448,192,27576,1,0,0:0:0:0:
320,192,27576,1,0,0:0:0:0:
64,192,27576,1,0,0:0:0:0:
320,192,27719,1,0,0:0:0:0:
448,192,27862,1,0,0:0:0:0:
64,192,27862,1,0,0:0:0:0:
192,192,27862,1,0,0:0:0:0:
448,192,28005,1,0,0:0:0:0:
320,192,28148,1,0,0:0:0:0:
192,192,28148,1,0,0:0:0:0:
192,192,28290,1,0,0:0:0:0:
64,192,28433,1,0,0:0:0:0:
320,192,28433,1,0,0:0:0:0:
448,192,28433,1,0,0:0:0:0:
64,192,28576,1,0,0:0:0:0:
320,192,28719,1,0,0:0:0:0:
192,192,28719,1,0,0:0:0:0:
320,192,28862,1,0,0:0:0:0:
448,192,29005,1,0,0:0:0:0:
64,192,29005,1,0,0:0:0:0:
192,192,29005,1,0,0:0:0:0:
448,192,29148,1,0,0:0:0:0:
320,192,29290,1,0,0:0:0:0:
192,192,29290,1,0,0:0:0:0:
192,192,29433,1,0,0:0:0:0:
320,192,29576,1,0,0:0:0:0:
64,192,29576,1,0,0:0:0:0:
448,192,29576,1,0,0:0:0:0:
64,192,29719,1,0,0:0:0:0:
192,192,29790,1,0,0:0:0:0:
448,192,29862,1,0,0:0:0:0:
320,192,29862,1,0,0:0:0:0:
320,192,30005,1,0,0:0:0:0:
448,192,30148,1,0,0:0:0:0:
64,192,30148,1,0,0:0:0:0:
192,192,30148,1,0,0:0:0:0:
448,192,30290,1,0,0:0:0:0:
320,192,30433,1,0,0:0:0:0:
192,192,30433,1,0,0:0:0:0:
192,192,30576,1,0,0:0:0:0:
448,192,30719,1,0,0:0:0:0:
64,192,30719,1,0,0:0:0:0:
320,192,30719,1,0,0:0:0:0:
64,192,30862,1,0,0:0:0:0:
192,192,30933,1,0,0:0:0:0:
320,192,31005,1,0,0:0:0:0:
448,192,31005,1,0,0:0:0:0:
320,192,31148,1,0,0:0:0:0:
448,192,31290,1,0,0:0:0:0:
64,192,31290,1,0,0:0:0:0:
192,192,31290,1,0,0:0:0:0:
448,192,31433,1,0,0:0:0:0:
192,192,31576,1,0,0:0:0:0:
320,192,31576,1,0,0:0:0:0:
192,192,31719,1,0,0:0:0:0:
448,192,31862,1,0,0:0:0:0:
64,192,31862,1,0,0:0:0:0:
320,192,31862,1,0,0:0:0:0:
64,192,32005,1,0,0:0:0:0:
192,192,32148,1,0,0:0:0:0:
320,192,32148,1,0,0:0:0:0:
448,192,32148,1,0,0:0:0:0:
192,192,32290,1,0,0:0:0:0:
64,192,32433,1,0,0:0:0:0:
320,192,32433,1,0,0:0:0:0:
448,192,32433,1,0,0:0:0:0:
320,192,32576,1,0,0:0:0:0:
64,192,32719,1,0,0:0:0:0:
448,192,32719,1,0,0:0:0:0:
64,192,32862,1,0,0:0:0:0:
448,192,33005,1,0,0:0:0:0:
320,192,33005,1,0,0:0:0:0:
192,192,33005,1,0,0:0:0:0:
448,192,33148,1,0,0:0:0:0:
320,192,33219,1,0,0:0:0:0:
64,192,33290,1,0,0:0:0:0:
192,192,33290,1,0,0:0:0:0:
64,192,33433,1,0,0:0:0:0:
192,192,33576,1,0,0:0:0:0:
448,192,33576,1,0,0:0:0:0:
320,192,33576,1,0,0:0:0:0:
448,192,33719,1,0,0:0:0:0:
64,192,33862,1,0,0:0:0:0:
192,192,33862,1,0,0:0:0:0:
192,192,34005,1,0,0:0:0:0:
320,192,34148,1,0,0:0:0:0:
448,192,34148,1,0,0:0:0:0:
64,192,34148,1,0,0:0:0:0:
320,192,34290,1,0,0:0:0:0:
192,192,34362,1,0,0:0:0:0:
64,192,34433,1,0,0:0:0:0:
448,192,34433,1,0,0:0:0:0:
448,192,34576,1,0,0:0:0:0:
320,192,34719,1,0,0:0:0:0:
192,192,34719,1,0,0:0:0:0:
64,192,34719,1,0,0:0:0:0:
64,192,34862,1,0,0:0:0:0:
320,192,35005,1,0,0:0:0:0:
192,192,35005,1,0,0:0:0:0:
320,192,35148,1,0,0:0:0:0:
64,192,35290,1,0,0:0:0:0:
448,192,35290,1,0,0:0:0:0:
192,192,35290,1,0,0:0:0:0:
192,192,35433,1,0,0:0:0:0:
448,192,35576,1,0,0:0:0:0:
64,192,35576,1,0,0:0:0:0:
192,192,35719,1,0,0:0:0:0:
320,192,35790,1,0,0:0:0:0:
448,192,35862,1,0,0:0:0:0:
64,192,36005,1,0,0:0:0:0:
192,192,36005,1,0,0:0:0:0:
448,192,36005,1,0,0:0:0:0:
448,192,36148,1,0,0:0:0:0:
64,192,36148,1,0,0:0:0:0:
320,192,36148,1,0,0:0:0:0:
64,192,36290,1,0,0:0:0:0:
448,192,36290,1,0,0:0:0:0:
320,192,36433,1,0,0:0:0:0:
192,192,36433,1,0,0:0:0:0:
192,192,36576,1,0,0:0:0:0:
64,192,36576,1,0,0:0:0:0:
320,192,36719,1,0,0:0:0:0:
192,192,36719,1,0,0:0:0:0:
448,192,36719,1,0,0:0:0:0:
64,192,36719,128,0,38005:0:0:0:0:
192,192,36862,1,0,0:0:0:0:
448,192,37005,1,0,0:0:0:0:
192,192,37148,1,0,0:0:0:0:
448,192,37290,1,0,0:0:0:0:
320,192,37290,1,0,0:0:0:0:
192,192,37433,1,0,0:0:0:0:
320,192,37576,1,0,0:0:0:0:
448,192,37576,1,0,0:0:0:0:
448,192,37719,1,0,0:0:0:0:
192,192,37719,1,0,0:0:0:0:
320,192,38005,1,0,0:0:0:0:
448,192,38148,1,0,0:0:0:0:
64,192,38148,128,0,38290:0:0:0:0:
320,192,38290,1,0,0:0:0:0:
448,192,38433,128,0,38576:0:0:0:0:
64,192,38433,1,0,0:0:0:0:
192,192,38576,1,0,0:0:0:0:
64,192,38719,128,0,38862:0:0:0:0:
320,192,38862,1,0,0:0:0:0:
64,192,39005,1,0,0:0:0:0:
320,192,39005,1,0,0:0:0:0:
448,192,39005,128,0,41148:0:0:0:0:
192,192,39148,1,0,0:0:0:0:
64,192,39290,1,0,0:0:0:0:
320,192,39433,1,0,0:0:0:0:
64,192,39576,1,0,0:0:0:0:
192,192,39576,1,0,0:0:0:0:
320,192,39719,1,0,0:0:0:0:
64,192,39862,1,0,0:0:0:0:
192,192,39862,1,0,0:0:0:0:
320,192,40005,1,0,0:0:0:0:
64,192,40005,1,0,0:0:0:0:
192,192,40148,1,0,0:0:0:0:
64,192,40290,1,0,0:0:0:0:
64,192,40433,1,0,0:0:0:0:
320,192,40433,1,0,0:0:0:0:
320,192,40576,1,0,0:0:0:0:
64,192,40719,1,0,0:0:0:0:
192,192,40719,1,0,0:0:0:0:
320,192,40862,1,0,0:0:0:0:
64,192,41005,1,0,0:0:0:0:
192,192,41148,1,0,0:0:0:0:
320,192,41148,1,0,0:0:0:0:
64,192,41290,1,0,0:0:0:0:
448,192,41290,1,0,0:0:0:0:
192,192,41290,128,0,42719:0:0:0:0:
320,192,41433,1,0,0:0:0:0:
64,192,41576,1,0,0:0:0:0:
320,192,41719,1,0,0:0:0:0:
448,192,41862,1,0,0:0:0:0:
320,192,41862,1,0,0:0:0:0:
64,192,42005,1,0,0:0:0:0:
448,192,42148,1,0,0:0:0:0:
320,192,42148,1,0,0:0:0:0:
448,192,42290,1,0,0:0:0:0:
64,192,42290,1,0,0:0:0:0:
64,192,42433,1,0,0:0:0:0:
448,192,42576,1,0,0:0:0:0:
320,192,42719,1,0,0:0:0:0:
64,192,42719,128,0,43005:0:0:0:0:
320,192,42862,1,0,0:0:0:0:
448,192,43005,128,0,43290:0:0:0:0:
192,192,43005,1,0,0:0:0:0:
192,192,43148,1,0,0:0:0:0:
64,192,43290,128,0,43576:0:0:0:0:
320,192,43290,1,0,0:0:0:0:
192,192,43433,1,0,0:0:0:0:
448,192,43576,1,0,0:0:0:0:
320,192,43576,128,0,45433:0:0:0:0:
192,192,43719,1,0,0:0:0:0:
64,192,43862,1,0,0:0:0:0:
192,192,44005,1,0,0:0:0:0:
448,192,44148,1,0,0:0:0:0:
64,192,44148,1,0,0:0:0:0:
192,192,44290,1,0,0:0:0:0:
448,192,44433,1,0,0:0:0:0:
64,192,44433,1,0,0:0:0:0:
64,192,44576,1,0,0:0:0:0:
192,192,44576,1,0,0:0:0:0:
448,192,44719,1,0,0:0:0:0:
64,192,44862,1,0,0:0:0:0:
448,192,45005,1,0,0:0:0:0:
192,192,45005,1,0,0:0:0:0:
448,192,45148,1,0,0:0:0:0:
64,192,45148,1,0,0:0:0:0:
64,192,45290,1,0,0:0:0:0:
192,192,45290,1,0,0:0:0:0:
448,192,45433,1,0,0:0:0:0:
192,192,45433,1,0,0:0:0:0:
448,192,45576,1,0,0:0:0:0:
64,192,45576,1,0,0:0:0:0:
64,192,45719,1,0,0:0:0:0:
320,192,45719,1,0,0:0:0:0:
64,192,45862,128,0,46290:0:0:0:0:
320,192,46219,1,0,0:0:0:0:
192,192,46290,128,0,46719:0:0:0:0:
448,192,46648,1,0,0:0:0:0:
320,192,46719,128,0,47148:0:0:0:0:
448,192,47148,128,0,47576:0:0:0:0:
64,192,47148,1,0,0:0:0:0:
64,192,47576,128,0,48148:0:0:0:0:
320,192,47576,128,0,48148:0:0:0:0:
192,192,47576,128,0,48148:0:0:0:0:
448,192,48148,1,0,0:0:0:0:
192,192,48290,1,0,0:0:0:0:
192,192,48433,1,0,0:0:0:0:
448,192,48433,1,0,0:0:0:0:
64,192,48433,1,0,0:0:0:0:
192,192,48719,1,0,0:0:0:0:
448,192,48719,1,0,0:0:0:0:
320,192,48862,1,0,0:0:0:0:
64,192,49005,1,0,0:0:0:0:
192,192,49005,1,0,0:0:0:0:
320,192,49148,1,0,0:0:0:0:
448,192,49290,128,0,49576:0:0:0:0:
64,192,49290,1,0,0:0:0:0:
64,192,49433,1,0,0:0:0:0:
192,192,49576,128,0,49719:0:0:0:0:
320,192,49576,1,0,0:0:0:0:
320,192,49719,128,0,50148:0:0:0:0:
64,192,49862,1,0,0:0:0:0:
192,192,49862,1,0,0:0:0:0:
192,192,50005,1,0,0:0:0:0:
448,192,50148,1,0,0:0:0:0:
64,192,50148,128,0,50433:0:0:0:0:
192,192,50433,1,0,0:0:0:0:
448,192,50433,1,0,0:0:0:0:
192,192,50576,1,0,0:0:0:0:
320,192,50719,1,0,0:0:0:0:
64,192,50719,1,0,0:0:0:0:
448,192,50862,1,0,0:0:0:0:
192,192,51005,1,0,0:0:0:0:
448,192,51005,1,0,0:0:0:0:
64,192,51148,1,0,0:0:0:0:
320,192,51290,1,0,0:0:0:0:
192,192,51290,1,0,0:0:0:0:
448,192,51433,128,0,51862:0:0:0:0:
64,192,51576,1,0,0:0:0:0:
320,192,51576,1,0,0:0:0:0:
192,192,51719,1,0,0:0:0:0:
64,192,51862,1,0,0:0:0:0:
320,192,51862,1,0,0:0:0:0:
320,192,52005,1,0,0:0:0:0:
64,192,52148,1,0,0:0:0:0:
448,192,52148,1,0,0:0:0:0:
192,192,52290,1,0,0:0:0:0:
320,192,52362,1,0,0:0:0:0:
64,192,52433,1,0,0:0:0:0:
448,192,52433,1,0,0:0:0:0:
320,192,52576,1,0,0:0:0:0:
192,192,52576,1,0,0:0:0:0:
448,192,52719,1,0,0:0:0:0:
64,192,52719,1,0,0:0:0:0:
320,192,52719,1,0,0:0:0:0:
320,192,53005,1,0,0:0:0:0:
64,192,53005,1,0,0:0:0:0:
192,192,53005,1,0,0:0:0:0:
192,192,53290,1,0,0:0:0:0:
64,192,53290,1,0,0:0:0:0:
320,192,53433,1,0,0:0:0:0:
448,192,53433,1,0,0:0:0:0:
64,192,53576,1,0,0:0:0:0:
448,192,53576,1,0,0:0:0:0:
192,192,53576,1,0,0:0:0:0:
192,192,53719,1,0,0:0:0:0:
448,192,53862,128,0,54148:0:0:0:0:
64,192,53862,1,0,0:0:0:0:
192,192,54005,1,0,0:0:0:0:
320,192,54148,128,0,54290:0:0:0:0:
192,192,54148,1,0,0:0:0:0:
64,192,54290,128,0,54719:0:0:0:0:
448,192,54433,1,0,0:0:0:0:
192,192,54433,1,0,0:0:0:0:
320,192,54576,1,0,0:0:0:0:
192,192,54719,1,0,0:0:0:0:
448,192,54719,128,0,55005:0:0:0:0:
320,192,55005,1,0,0:0:0:0:
192,192,55005,1,0,0:0:0:0:
64,192,55148,1,0,0:0:0:0:
192,192,55290,1,0,0:0:0:0:
320,192,55290,1,0,0:0:0:0:
64,192,55433,1,0,0:0:0:0:
320,192,55433,1,0,0:0:0:0:
448,192,55576,1,0,0:0:0:0:
192,192,55576,1,0,0:0:0:0:
64,192,55862,1,0,0:0:0:0:
320,192,55862,1,0,0:0:0:0:
448,192,56005,1,0,0:0:0:0:
192,192,56076,1,0,0:0:0:0:
448,192,56148,1,0,0:0:0:0:
64,192,56290,1,0,0:0:0:0:
192,192,56290,1,0,0:0:0:0:
320,192,56362,1,0,0:0:0:0:
448,192,56362,1,0,0:0:0:0:
64,192,56433,1,0,0:0:0:0:
192,192,56433,1,0,0:0:0:0:
448,192,56576,1,0,0:0:0:0:
320,192,56576,1,0,0:0:0:0:
192,192,56719,1,0,0:0:0:0:
320,192,56719,1,0,0:0:0:0:
64,192,56862,1,0,0:0:0:0:
192,192,56862,1,0,0:0:0:0:
64,192,57005,128,0,57290:0:0:0:0:
448,192,57148,1,0,0:0:0:0:
320,192,57148,1,0,0:0:0:0:
448,192,57290,128,0,57862:0:0:0:0:
192,192,57290,128,0,57576:0:0:0:0:
64,192,57576,128,0,57862:0:0:0:0:
320,192,57862,128,0,58148:0:0:0:0:
192,192,57862,1,0,0:0:0:0:
192,192,58005,1,0,0:0:0:0:
64,192,58148,128,0,58433:0:0:0:0:
448,192,58148,128,0,58433:0:0:0:0:
192,192,58148,1,0,0:0:0:0:
192,192,58433,128,0,58719:0:0:0:0:
64,192,58719,128,0,59005:0:0:0:0:
448,192,58719,128,0,59005:0:0:0:0:
320,192,59005,128,0,59576:0:0:0:0:
192,192,59148,128,0,59576:0:0:0:0:
64,192,59290,1,0,0:0:0:0:
448,192,59290,1,0,0:0:0:0:
64,192,59576,1,0,0:0:0:0:
448,192,59576,1,0,0:0:0:0:
320,192,59719,1,0,0:0:0:0:
192,192,59862,1,0,0:0:0:0:
64,192,59862,1,0,0:0:0:0:
448,192,60005,1,0,0:0:0:0:
320,192,60148,1,0,0:0:0:0:
64,192,60148,1,0,0:0:0:0:
320,192,60433,1,0,0:0:0:0:
448,192,60433,1,0,0:0:0:0:
64,192,60576,1,0,0:0:0:0:
192,192,60719,1,0,0:0:0:0:
448,192,60719,128,0,61005:0:0:0:0:
320,192,60862,1,0,0:0:0:0:
64,192,61005,128,0,61148:0:0:0:0:
192,192,61005,1,0,0:0:0:0:
192,192,61148,128,0,61576:0:0:0:0:
320,192,61148,1,0,0:0:0:0:
320,192,61290,1,0,0:0:0:0:
448,192,61290,1,0,0:0:0:0:
64,192,61433,1,0,0:0:0:0:
320,192,61505,1,0,0:0:0:0:
64,192,61576,1,0,0:0:0:0:
448,192,61576,128,0,61862:0:0:0:0:
192,192,61719,1,0,0:0:0:0:
320,192,61719,1,0,0:0:0:0:
64,192,61862,128,0,62148:0:0:0:0:
320,192,61862,1,0,0:0:0:0:
192,192,61862,1,0,0:0:0:0:
192,192,62148,128,0,62433:0:0:0:0:
448,192,62148,128,0,62433:0:0:0:0:
64,192,62433,128,0,62719:0:0:0:0:
320,192,62433,1,0,0:0:0:0:
320,192,62576,1,0,0:0:0:0:
448,192,62719,128,0,63005:0:0:0:0:
192,192,62719,128,0,63005:0:0:0:0:
320,192,62719,1,0,0:0:0:0:
320,192,63005,128,0,63290:0:0:0:0:
448,192,63290,128,0,63576:0:0:0:0:
64,192,63290,128,0,63576:0:0:0:0:
320,192,63576,128,0,64148:0:0:0:0:
192,192,63719,128,0,64148:0:0:0:0:
64,192,63862,1,0,0:0:0:0:
448,192,63862,1,0,0:0:0:0:
448,192,64148,1,0,0:0:0:0:
64,192,64148,1,0,0:0:0:0:
192,192,64290,1,0,0:0:0:0:
448,192,64433,1,0,0:0:0:0:
192,192,64576,1,0,0:0:0:0:
448,192,64719,1,0,0:0:0:0:
64,192,64719,1,0,0:0:0:0:
192,192,65005,1,0,0:0:0:0:
64,192,65005,1,0,0:0:0:0:
448,192,65148,1,0,0:0:0:0:
320,192,65290,1,0,0:0:0:0:
192,192,65290,1,0,0:0:0:0:
448,192,65433,1,0,0:0:0:0:
320,192,65433,1,0,0:0:0:0:
192,192,65505,1,0,0:0:0:0:
64,192,65505,1,0,0:0:0:0:
448,192,65576,1,0,0:0:0:0:
320,192,65576,1,0,0:0:0:0:
64,192,65719,1,0,0:0:0:0:
192,192,65862,1,0,0:0:0:0:
448,192,65862,1,0,0:0:0:0:
320,192,66148,128,0,66433:0:0:0:0:
192,192,66148,128,0,66433:0:0:0:0:
64,192,66433,128,0,66576:0:0:0:0:
448,192,66433,128,0,66576:0:0:0:0:
192,192,66576,128,0,66719:0:0:0:0:
64,192,66719,1,0,0:0:0:0:
64,192,66862,128,0,67005:0:0:0:0:
448,192,66862,128,0,67005:0:0:0:0:
192,192,67005,128,0,67148:0:0:0:0:
320,192,67005,1,0,0:0:0:0:
64,192,67148,1,0,0:0:0:0:
448,192,67290,128,0,67433:0:0:0:0:
320,192,67290,128,0,67433:0:0:0:0:
64,192,67433,128,0,67576:0:0:0:0:
192,192,67433,1,0,0:0:0:0:
320,192,67719,128,0,67862:0:0:0:0:
448,192,67719,128,0,67862:0:0:0:0:
192,192,67862,128,0,68005:0:0:0:0:
64,192,68005,1,0,0:0:0:0:
320,192,68148,1,0,0:0:0:0:
64,192,68148,1,0,0:0:0:0:
448,192,68148,1,0,0:0:0:0:
192,192,68290,1,0,0:0:0:0:
320,192,68290,1,0,0:0:0:0:
64,192,68433,1,0,0:0:0:0:
320,192,68576,128,0,68719:0:0:0:0:
448,192,68576,1,0,0:0:0:0:
192,192,68719,128,0,68862:0:0:0:0:
64,192,68719,128,0,68862:0:0:0:0:
448,192,68862,128,0,69005:0:0:0:0:
320,192,69005,1,0,0:0:0:0:
64,192,69148,128,0,69290:0:0:0:0:
192,192,69148,128,0,69290:0:0:0:0:
320,192,69290,128,0,69433:0:0:0:0:
448,192,69290,1,0,0:0:0:0:
64,192,69433,1,0,0:0:0:0:
192,192,69576,128,0,69719:0:0:0:0:
448,192,69576,128,0,69719:0:0:0:0:
320,192,69719,128,0,69862:0:0:0:0:
64,192,69719,1,0,0:0:0:0:
64,192,70005,128,0,70148:0:0:0:0:
320,192,70005,128,0,70148:0:0:0:0:
192,192,70148,128,0,70290:0:0:0:0:
448,192,70148,1,0,0:0:0:0:
448,192,70433,1,0,0:0:0:0:
192,192,70433,1,0,0:0:0:0:
320,192,70576,1,0,0:0:0:0:
448,192,70719,1,0,0:0:0:0:
64,192,70719,1,0,0:0:0:0:
320,192,70862,1,0,0:0:0:0:
192,192,70862,1,0,0:0:0:0:
64,192,71005,128,0,71148:0:0:0:0:
448,192,71005,1,0,0:0:0:0:
192,192,71148,128,0,71290:0:0:0:0:
448,192,71148,1,0,0:0:0:0:
448,192,71433,128,0,71576:0:0:0:0:
64,192,71433,1,0,0:0:0:0:
320,192,71576,128,0,71719:0:0:0:0:
64,192,71576,1,0,0:0:0:0:
64,192,71862,128,0,72005:0:0:0:0:
320,192,71862,1,0,0:0:0:0:
448,192,72005,128,0,72148:0:0:0:0:
192,192,72005,1,0,0:0:0:0:
448,192,72290,1,0,0:0:0:0:
192,192,72290,128,0,72433:0:0:0:0:
320,192,72433,128,0,72576:0:0:0:0:
64,192,72433,1,0,0:0:0:0:
448,192,72719,128,0,72862:0:0:0:0:
192,192,72719,1,0,0:0:0:0:
64,192,72719,1,0,0:0:0:0:
192,192,72862,128,0,73005:0:0:0:0:
320,192,72862,1,0,0:0:0:0:
320,192,73005,128,0,73290:0:0:0:0:
64,192,73005,1,0,0:0:0:0:
448,192,73148,1,0,0:0:0:0:
64,192,73290,128,0,73433:0:0:0:0:
192,192,73290,1,0,0:0:0:0:
320,192,73433,1,0,0:0:0:0:
448,192,73433,128,0,73576:0:0:0:0:
320,192,73719,1,0,0:0:0:0:
64,192,73719,128,0,73862:0:0:0:0:
448,192,73862,128,0,74005:0:0:0:0:
192,192,73862,1,0,0:0:0:0:
320,192,74005,1,0,0:0:0:0:
64,192,74148,128,0,74290:0:0:0:0:
192,192,74148,1,0,0:0:0:0:
320,192,74290,1,0,0:0:0:0:
448,192,74290,128,0,74433:0:0:0:0:
192,192,74433,1,0,0:0:0:0:
320,192,74576,128,0,74719:0:0:0:0:
64,192,74576,1,0,0:0:0:0:
192,192,74719,128,0,74862:0:0:0:0:
448,192,74719,1,0,0:0:0:0:
448,192,74862,1,0,0:0:0:0:
320,192,74862,1,0,0:0:0:0:
192,192,75005,1,0,0:0:0:0:
64,192,75005,1,0,0:0:0:0:
320,192,75148,1,0,0:0:0:0:
448,192,75148,1,0,0:0:0:0:
192,192,75290,1,0,0:0:0:0:
64,192,75290,1,0,0:0:0:0:
320,192,75433,1,0,0:0:0:0:
192,192,75433,1,0,0:0:0:0:
320,192,75576,1,0,0:0:0:0:
64,192,75576,1,0,0:0:0:0:
448,192,75576,1,0,0:0:0:0:
64,192,75862,1,0,0:0:0:0:
448,192,76148,1,0,0:0:0:0:
448,192,76433,1,0,0:0:0:0:
64,192,76576,1,0,0:0:0:0:
320,192,76862,1,0,0:0:0:0:
192,192,77005,1,0,0:0:0:0:
320,192,77148,1,0,0:0:0:0:
64,192,77719,1,0,0:0:0:0:
320,192,77862,1,0,0:0:0:0:
320,192,78148,1,0,0:0:0:0:
448,192,78290,1,0,0:0:0:0:
192,192,78576,1,0,0:0:0:0:
192,192,78862,1,0,0:0:0:0:
448,192,79148,1,0,0:0:0:0:
192,192,79290,1,0,0:0:0:0:
64,192,79433,1,0,0:0:0:0:
64,192,80433,1,0,0:0:0:0:
448,192,80719,1,0,2:0:0:0:
320,192,80719,1,0,0:0:0:0:
192,192,81005,1,0,2:0:0:0:
448,192,81148,1,0,0:0:0:0:
64,192,81433,1,0,0:0:0:0:
320,192,81576,1,0,2:0:0:0:
64,192,81719,1,0,0:0:0:0:
320,192,81862,1,0,0:0:0:0:
448,192,81862,1,0,0:0:0:0:
448,192,82290,1,0,0:0:0:0:
448,192,82433,1,0,0:0:0:0:
320,192,82719,1,0,2:0:0:0:
320,192,82862,1,0,0:0:0:0:
64,192,83005,1,0,0:0:0:0:
448,192,83005,1,0,0:0:0:0:
192,192,83148,1,0,0:0:0:0:
192,192,83433,1,0,0:0:0:0:
64,192,83719,1,0,0:0:0:0:
448,192,83719,1,0,0:0:0:0:
320,192,83719,1,0,0:0:0:0:
448,192,83862,1,0,0:0:0:0:
192,192,84005,1,0,0:0:0:0:
64,192,84290,128,0,84433:0:0:0:0:
192,192,84290,128,0,84433:0:0:0:0:
448,192,84576,128,0,84719:0:0:0:0:
320,192,84576,128,0,84719:0:0:0:0:
64,192,84719,1,0,0:0:0:0:
192,192,84719,1,0,0:0:0:0:
192,192,84862,1,0,0:0:0:0:
64,192,85005,1,0,0:0:0:0:
448,192,85005,1,0,0:0:0:0:
320,192,85005,1,0,0:0:0:0:
320,192,85148,1,0,0:0:0:0:
64,192,85290,1,0,0:0:0:0:
192,192,85290,1,0,0:0:0:0:
192,192,85433,1,0,0:0:0:0:
64,192,85576,1,0,0:0:0:0:
448,192,85576,1,0,0:0:0:0:
320,192,85576,1,0,0:0:0:0:
320,192,85719,1,0,0:0:0:0:
192,192,85862,1,0,0:0:0:0:
64,192,85862,1,0,0:0:0:0:
192,192,86005,1,0,0:0:0:0:
448,192,86148,1,0,0:0:0:0:
64,192,86148,1,0,0:0:0:0:
320,192,86148,1,0,0:0:0:0:
320,192,86290,1,0,0:0:0:0:
64,192,86433,1,0,0:0:0:0:
192,192,86433,1,0,0:0:0:0:
192,192,86576,1,0,0:0:0:0:
448,192,86719,1,0,0:0:0:0:
64,192,86719,1,0,0:0:0:0:
320,192,86719,1,0,0:0:0:0:
320,192,86862,1,0,0:0:0:0:
448,192,86933,1,0,0:0:0:0:
192,192,87005,1,0,0:0:0:0:
64,192,87005,1,0,0:0:0:0:
64,192,87148,1,0,0:0:0:0:
320,192,87290,1,0,0:0:0:0:
192,192,87290,1,0,0:0:0:0:
448,192,87290,1,0,0:0:0:0:
448,192,87433,1,0,0:0:0:0:
320,192,87576,1,0,0:0:0:0:
192,192,87576,1,0,0:0:0:0:
64,192,87719,1,0,0:0:0:0:
320,192,87862,1,0,0:0:0:0:
192,192,87862,1,0,0:0:0:0:
64,192,87862,1,0,0:0:0:0:
448,192,88005,1,0,0:0:0:0:
64,192,88076,1,0,0:0:0:0:
192,192,88148,1,0,0:0:0:0:
320,192,88148,1,0,0:0:0:0:
64,192,88290,1,0,0:0:0:0:
320,192,88433,1,0,0:0:0:0:
448,192,88433,1,0,0:0:0:0:
192,192,88433,1,0,0:0:0:0:
448,192,88576,1,0,0:0:0:0:
192,192,88719,1,0,0:0:0:0:
320,192,88719,1,0,0:0:0:0:
64,192,88862,1,0,0:0:0:0:
64,192,89005,1,0,0:0:0:0:
192,192,89005,1,0,0:0:0:0:
320,192,89005,1,0,0:0:0:0:
448,192,89148,1,0,0:0:0:0:
192,192,89290,1,0,0:0:0:0:
320,192,89290,1,0,0:0:0:0:
448,192,89290,1,0,0:0:0:0:
192,192,89433,1,0,0:0:0:0:
448,192,89576,1,0,0:0:0:0:
64,192,89576,1,0,0:0:0:0:
320,192,89576,1,0,0:0:0:0:
320,192,89719,1,0,0:0:0:0:
64,192,89862,1,0,0:0:0:0:
192,192,89862,1,0,0:0:0:0:
192,192,90005,1,0,0:0:0:0:
448,192,90148,1,0,0:0:0:0:
320,192,90148,1,0,0:0:0:0:
64,192,90148,1,0,0:0:0:0:
320,192,90290,1,0,0:0:0:0:
64,192,90433,1,0,0:0:0:0:
192,192,90433,1,0,0:0:0:0:
192,192,90576,1,0,0:0:0:0:
448,192,90719,1,0,0:0:0:0:
320,192,90719,1,0,0:0:0:0:
64,192,90719,1,0,0:0:0:0:
320,192,90862,1,0,0:0:0:0:
192,192,91005,1,0,0:0:0:0:
64,192,91005,1,0,0:0:0:0:
192,192,91148,1,0,0:0:0:0:
448,192,91290,1,0,0:0:0:0:
320,192,91290,1,0,0:0:0:0:
64,192,91290,1,0,0:0:0:0:
320,192,91433,1,0,0:0:0:0:
448,192,91505,1,0,0:0:0:0:
192,192,91576,1,0,0:0:0:0:
64,192,91576,1,0,0:0:0:0:
64,192,91719,1,0,0:0:0:0:
192,192,91862,1,0,0:0:0:0:
320,192,91862,1,0,0:0:0:0:
448,192,91862,1,0,0:0:0:0:
448,192,92005,1,0,0:0:0:0:
192,192,92148,1,0,0:0:0:0:
320,192,92148,1,0,0:0:0:0:
64,192,92290,1,0,0:0:0:0:
320,192,92433,1,0,0:0:0:0:
192,192,92433,1,0,0:0:0:0:
64,192,92433,1,0,0:0:0:0:
448,192,92576,1,0,0:0:0:0:
320,192,92719,1,0,0:0:0:0:
192,192,92719,1,0,0:0:0:0:
192,192,92862,1,0,0:0:0:0:
64,192,92862,1,0,0:0:0:0:
320,192,92933,1,0,0:0:0:0:
448,192,92933,1,0,0:0:0:0:
64,192,93005,1,0,0:0:0:0:
192,192,93005,1,0,0:0:0:0:
448,192,93148,1,0,0:0:0:0:
64,192,93148,1,0,0:0:0:0:
448,192,93290,1,0,0:0:0:0:
320,192,93290,1,0,0:0:0:0:
192,192,93433,1,0,0:0:0:0:
64,192,93433,1,0,0:0:0:0:
320,192,93576,1,0,0:0:0:0:
192,192,93576,1,0,0:0:0:0:
448,192,93719,1,0,0:0:0:0:
64,192,93719,1,0,0:0:0:0:
64,192,93862,1,0,0:0:0:0:
448,192,93862,128,0,95148:0:0:0:0:
192,192,93862,1,0,0:0:0:0:
320,192,93862,1,0,0:0:0:0:
320,192,94005,1,0,0:0:0:0:
64,192,94148,1,0,0:0:0:0:
320,192,94290,1,0,0:0:0:0:
192,192,94433,1,0,0:0:0:0:
64,192,94433,1,0,0:0:0:0:
320,192,94576,1,0,0:0:0:0:
64,192,94719,1,0,0:0:0:0:
192,192,94719,1,0,0:0:0:0:
320,192,94862,1,0,0:0:0:0:
64,192,94862,1,0,0:0:0:0:
192,192,95005,1,0,0:0:0:0:
192,192,95148,1,0,0:0:0:0:
448,192,95290,128,0,95433:0:0:0:0:
64,192,95290,1,0,0:0:0:0:
192,192,95433,1,0,0:0:0:0:
448,192,95576,1,0,0:0:0:0:
64,192,95576,128,0,95719:0:0:0:0:
320,192,95719,1,0,0:0:0:0:
448,192,95862,128,0,96005:0:0:0:0:
192,192,96005,1,0,0:0:0:0:
64,192,96148,128,0,98290:0:0:0:0:
192,192,96148,1,0,0:0:0:0:
448,192,96148,1,0,0:0:0:0:
320,192,96290,1,0,0:0:0:0:
448,192,96433,1,0,0:0:0:0:
192,192,96576,1,0,0:0:0:0:
320,192,96719,1,0,0:0:0:0:
448,192,96719,1,0,0:0:0:0:
192,192,96862,1,0,0:0:0:0:
320,192,97005,1,0,0:0:0:0:
448,192,97005,1,0,0:0:0:0:
448,192,97148,1,0,0:0:0:0:
192,192,97148,1,0,0:0:0:0:
320,192,97290,1,0,0:0:0:0:
448,192,97433,1,0,0:0:0:0:
192,192,97576,1,0,0:0:0:0:
448,192,97576,1,0,0:0:0:0:
192,192,97719,1,0,0:0:0:0:
320,192,97862,1,0,0:0:0:0:
448,192,97862,1,0,0:0:0:0:
192,192,98005,1,0,0:0:0:0:
448,192,98148,1,0,0:0:0:0:
192,192,98290,1,0,0:0:0:0:
320,192,98290,1,0,0:0:0:0:
320,192,98433,128,0,99862:0:0:0:0:
64,192,98433,1,0,0:0:0:0:
448,192,98433,1,0,0:0:0:0:
192,192,98576,1,0,0:0:0:0:
448,192,98719,1,0,0:0:0:0:
192,192,98862,1,0,0:0:0:0:
192,192,99005,1,0,0:0:0:0:
64,192,99005,1,0,0:0:0:0:
448,192,99148,1,0,0:0:0:0:
192,192,99290,1,0,0:0:0:0:
64,192,99290,1,0,0:0:0:0:
448,192,99433,1,0,0:0:0:0:
64,192,99433,1,0,0:0:0:0:
192,192,99576,1,0,0:0:0:0:
64,192,99719,1,0,0:0:0:0:
448,192,99862,128,0,100148:0:0:0:0:
192,192,99862,1,0,0:0:0:0:
320,192,100005,1,0,0:0:0:0:
192,192,100148,1,0,0:0:0:0:
64,192,100148,128,0,100433:0:0:0:0:
192,192,100290,1,0,0:0:0:0:
320,192,100433,1,0,0:0:0:0:
448,192,100433,128,0,100719:0:0:0:0:
320,192,100576,1,0,0:0:0:0:
192,192,100719,128,0,102576:0:0:0:0:
64,192,100719,1,0,0:0:0:0:
320,192,100862,1,0,0:0:0:0:
448,192,101005,1,0,0:0:0:0:
320,192,101148,1,0,0:0:0:0:
448,192,101290,1,0,0:0:0:0:
64,192,101290,1,0,0:0:0:0:
320,192,101433,1,0,0:0:0:0:
448,192,101576,1,0,0:0:0:0:
64,192,101576,1,0,0:0:0:0:
320,192,101719,1,0,0:0:0:0:
448,192,101719,1,0,0:0:0:0:
64,192,101862,1,0,0:0:0:0:
448,192,102005,1,0,0:0:0:0:
320,192,102148,1,0,0:0:0:0:
64,192,102148,1,0,0:0:0:0:
64,192,102290,1,0,0:0:0:0:
320,192,102433,1,0,0:0:0:0:
448,192,102433,1,0,0:0:0:0:
320,192,102576,1,0,0:0:0:0:
64,192,102576,1,0,0:0:0:0:
448,192,102719,1,0,0:0:0:0:
192,192,102719,1,0,0:0:0:0:
320,192,102862,1,0,0:0:0:0:
64,192,102862,1,0,0:0:0:0:
448,192,103005,128,0,103433:0:0:0:0:
192,192,103005,1,0,0:0:0:0:
192,192,103433,128,0,103862:0:0:0:0:
448,192,103790,1,0,0:0:0:0:
320,192,103862,128,0,104290:0:0:0:0:
64,192,104219,1,0,0:0:0:0:
192,192,104290,128,0,104719:0:0:0:0:
448,192,104719,128,0,105005:0:0:0:0:
64,192,104719,128,0,105005:0:0:0:0:
320,192,104719,128,0,105290:0:0:0:0:
192,192,105005,1,0,0:0:0:0:
64,192,105290,1,0,0:0:0:0:
448,192,105290,1,0,0:0:0:0:
192,192,105290,1,0,0:0:0:0:
192,192,105433,1,0,0:0:0:0:
320,192,105576,1,0,0:0:0:0:
64,192,105576,1,0,0:0:0:0:
448,192,105576,1,0,0:0:0:0:
320,192,105862,1,0,0:0:0:0:
64,192,105862,1,0,0:0:0:0:
192,192,106005,1,0,0:0:0:0:
448,192,106148,1,0,0:0:0:0:
320,192,106148,1,0,0:0:0:0:
192,192,106290,1,0,0:0:0:0:
64,192,106433,128,0,106719:0:0:0:0:
448,192,106433,1,0,0:0:0:0:
448,192,106576,1,0,0:0:0:0:
320,192,106719,128,0,106862:0:0:0:0:
192,192,106719,1,0,0:0:0:0:
192,192,106862,128,0,107290:0:0:0:0:
448,192,107005,1,0,0:0:0:0:
320,192,107005,1,0,0:0:0:0:
320,192,107148,1,0,0:0:0:0:
64,192,107290,1,0,0:0:0:0:
448,192,107290,128,0,107576:0:0:0:0:
320,192,107576,1,0,0:0:0:0:
64,192,107576,1,0,0:0:0:0:
320,192,107719,1,0,0:0:0:0:
192,192,107862,1,0,0:0:0:0:
448,192,107862,1,0,0:0:0:0:
64,192,108005,1,0,0:0:0:0:
320,192,108148,1,0,0:0:0:0:
64,192,108148,1,0,0:0:0:0:
448,192,108290,1,0,0:0:0:0:
192,192,108433,1,0,0:0:0:0:
320,192,108433,1,0,0:0:0:0:
64,192,108576,128,0,108719:0:0:0:0:
448,192,108719,1,0,0:0:0:0:
192,192,108719,1,0,0:0:0:0:
320,192,108719,128,0,109005:0:0:0:0:
448,192,109005,1,0,0:0:0:0:
192,192,109005,1,0,0:0:0:0:
192,192,109148,1,0,0:0:0:0:
448,192,109290,1,0,0:0:0:0:
64,192,109290,1,0,0:0:0:0:
320,192,109433,1,0,0:0:0:0:
192,192,109505,1,0,0:0:0:0:
448,192,109576,1,0,0:0:0:0:
64,192,109576,1,0,0:0:0:0:
192,192,109719,1,0,0:0:0:0:
320,192,109719,1,0,0:0:0:0:
64,192,109862,1,0,0:0:0:0:
448,192,109862,1,0,0:0:0:0:
192,192,109862,1,0,0:0:0:0:
192,192,110148,1,0,0:0:0:0:
448,192,110148,1,0,0:0:0:0:
320,192,110148,1,0,0:0:0:0:
320,192,110433,1,0,0:0:0:0:
448,192,110433,1,0,0:0:0:0:
192,192,110576,1,0,0:0:0:0:
64,192,110576,1,0,0:0:0:0:
448,192,110719,1,0,0:0:0:0:
64,192,110719,1,0,0:0:0:0:
320,192,110719,1,0,0:0:0:0:
320,192,110862,1,0,0:0:0:0:
64,192,111005,128,0,111148:0:0:0:0:
192,192,111005,1,0,0:0:0:0:
320,192,111148,128,0,111290:0:0:0:0:
448,192,111148,1,0,0:0:0:0:
192,192,111290,128,0,111433:0:0:0:0:
64,192,111290,1,0,0:0:0:0:
448,192,111433,128,0,111862:0:0:0:0:
320,192,111433,1,0,0:0:0:0:
64,192,111576,1,0,0:0:0:0:
320,192,111576,1,0,0:0:0:0:
192,192,111719,1,0,0:0:0:0:
320,192,111862,1,0,0:0:0:0:
64,192,111862,128,0,112148:0:0:0:0:
192,192,112148,1,0,0:0:0:0:
320,192,112148,1,0,0:0:0:0:
448,192,112290,1,0,0:0:0:0:
320,192,112433,1,0,0:0:0:0:
192,192,112433,1,0,0:0:0:0:
448,192,112576,1,0,0:0:0:0:
192,192,112576,1,0,0:0:0:0:
64,192,112719,1,0,0:0:0:0:
320,192,112719,1,0,0:0:0:0:
448,192,113005,1,0,0:0:0:0:
192,192,113005,1,0,0:0:0:0:
64,192,113148,1,0,0:0:0:0:
320,192,113219,1,0,0:0:0:0:
64,192,113290,1,0,0:0:0:0:
448,192,113433,1,0,0:0:0:0:
320,192,113433,1,0,0:0:0:0:
192,192,113505,1,0,0:0:0:0:
64,192,113505,1,0,0:0:0:0:
448,192,113576,1,0,0:0:0:0:
320,192,113576,1,0,0:0:0:0:
64,192,113719,1,0,0:0:0:0:
192,192,113719,1,0,0:0:0:0:
320,192,113862,1,0,0:0:0:0:
192,192,113862,1,0,0:0:0:0:
448,192,114005,1,0,0:0:0:0:
320,192,114005,1,0,0:0:0:0:
448,192,114148,128,0,114433:0:0:0:0:
64,192,114290,1,0,0:0:0:0:
192,192,114290,1,0,0:0:0:0:
64,192,114433,128,0,115005:0:0:0:0:
320,192,114433,128,0,114719:0:0:0:0:
448,192,114719,128,0,115005:0:0:0:0:
192,192,115005,128,0,115290:0:0:0:0:
320,192,115005,1,0,0:0:0:0:
320,192,115148,1,0,0:0:0:0:
448,192,115290,128,0,115576:0:0:0:0:
64,192,115290,128,0,115576:0:0:0:0:
320,192,115290,1,0,0:0:0:0:
320,192,115576,128,0,115862:0:0:0:0:
448,192,115862,128,0,116148:0:0:0:0:
64,192,115862,128,0,116148:0:0:0:0:
192,192,116148,128,0,116719:0:0:0:0:
320,192,116290,128,0,116719:0:0:0:0:
448,192,116433,1,0,0:0:0:0:
64,192,116433,1,0,0:0:0:0:
448,192,116719,1,0,0:0:0:0:
320,192,117005,1,0,0:0:0:0:
448,192,117005,1,0,0:0:0:0:
64,192,117148,1,0,0:0:0:0:
192,192,117290,1,0,0:0:0:0:
448,192,117290,1,0,0:0:0:0:
192,192,117576,1,0,0:0:0:0:
64,192,117576,1,0,0:0:0:0:
448,192,117719,1,0,0:0:0:0:
320,192,117862,1,0,0:0:0:0:
64,192,117862,128,0,118148:0:0:0:0:
192,192,118005,1,0,0:0:0:0:
448,192,118148,128,0,118290:0:0:0:0:
320,192,118148,1,0,0:0:0:0:
320,192,118290,128,0,118719:0:0:0:0:
192,192,118290,1,0,0:0:0:0:
192,192,118433,1,0,0:0:0:0:
64,192,118433,1,0,0:0:0:0:
448,192,118576,1,0,0:0:0:0:
192,192,118648,1,0,0:0:0:0:
448,192,118719,1,0,0:0:0:0:
64,192,118719,128,0,119005:0:0:0:0:
320,192,118862,1,0,0:0:0:0:
192,192,118862,1,0,0:0:0:0:
448,192,119005,128,0,119290:0:0:0:0:
192,192,119005,1,0,0:0:0:0:
320,192,119005,1,0,0:0:0:0:
320,192,119290,128,0,119576:0:0:0:0:
64,192,119290,128,0,119576:0:0:0:0:
448,192,119576,128,0,119862:0:0:0:0:
192,192,119576,1,0,0:0:0:0:
192,192,119719,1,0,0:0:0:0:
64,192,119862,128,0,120148:0:0:0:0:
320,192,119862,128,0,120148:0:0:0:0:
192,192,119862,1,0,0:0:0:0:
192,192,120148,128,0,120433:0:0:0:0:
64,192,120433,128,0,120719:0:0:0:0:
448,192,120433,128,0,120719:0:0:0:0:
192,192,120719,128,0,120862:0:0:0:0:
320,192,120862,128,0,121290:0:0:0:0:
448,192,121005,1,0,0:0:0:0:
64,192,121005,1,0,0:0:0:0:
64,192,121290,1,0,0:0:0:0:
448,192,121290,1,0,0:0:0:0:
320,192,121433,1,0,0:0:0:0:
192,192,121576,1,0,0:0:0:0:
320,192,121719,1,0,0:0:0:0:
64,192,121862,1,0,0:0:0:0:
448,192,121862,1,0,0:0:0:0:
320,192,122148,1,0,0:0:0:0:
448,192,122148,1,0,0:0:0:0:
64,192,122290,1,0,0:0:0:0:
192,192,122433,1,0,0:0:0:0:
320,192,122433,1,0,0:0:0:0:
64,192,122576,1,0,0:0:0:0:
192,192,122576,1,0,0:0:0:0:
320,192,122648,1,0,0:0:0:0:
448,192,122648,1,0,0:0:0:0:
64,192,122719,1,0,0:0:0:0:
192,192,122719,1,0,0:0:0:0:
448,192,122862,1,0,0:0:0:0:
320,192,123005,1,0,0:0:0:0:
64,192,123005,1,0,0:0:0:0:
320,192,123290,128,0,123576:0:0:0:0:
192,192,123290,128,0,123576:0:0:0:0:
64,192,123576,128,0,124719:2:0:0:0:
448,192,123576,1,0,2:0:0:0:
320,192,123719,1,0,2:0:0:0:
192,192,123862,1,0,2:0:0:0:
320,192,124005,1,0,2:0:0:0:
448,192,124148,128,0,124290:0:0:0:0:
320,192,124290,1,0,2:0:0:0:
192,192,124433,128,0,124576:0:0:0:0:
320,192,124576,1,0,2:0:0:0:
448,192,124719,128,0,125862:2:0:0:0:
320,192,124719,1,0,0:0:0:0:
192,192,124862,1,0,2:0:0:0:
64,192,125005,1,0,2:0:0:0:
320,192,125148,1,0,2:0:0:0:
192,192,125290,128,0,125433:0:0:0:0:
320,192,125433,1,0,2:0:0:0:
64,192,125576,128,0,125719:0:0:0:0:
192,192,125719,1,0,2:0:0:0:
320,192,125862,128,0,127005:2:0:0:0:
192,192,125862,1,0,0:0:0:0:
64,192,126005,1,0,2:0:0:0:
192,192,126148,1,0,2:0:0:0:
64,192,126290,1,0,2:0:0:0:
448,192,126433,128,0,126576:0:0:0:0:
192,192,126576,128,0,126719:0:0:0:0:
448,192,126719,128,0,126862:0:0:0:0:
192,192,126862,128,0,127005:0:0:0:0:
448,192,127005,128,0,127148:0:0:0:0:
64,192,127005,128,0,127576:0:0:0:0:
192,192,127148,128,0,127290:0:0:0:0:
448,192,127290,128,0,127433:0:0:0:0:
320,192,127433,128,0,127576:0:0:0:0:
192,192,127576,128,0,127719:0:0:0:0:
448,192,127576,128,0,128148:0:0:0:0:
320,192,127719,128,0,127862:0:0:0:0:
192,192,127862,128,0,128005:0:0:0:0:
64,192,128005,128,0,128148:0:0:0:0:
192,192,128148,128,0,129290:2:0:0:0:
320,192,128148,1,0,0:0:0:0:
64,192,128290,1,0,2:0:0:0:
448,192,128433,1,0,2:0:0:0:
64,192,128576,1,0,2:0:0:0:
320,192,128719,128,0,128862:0:0:0:0:
448,192,128862,1,0,2:0:0:0:
64,192,129005,128,0,129148:0:0:0:0:
448,192,129148,1,0,2:0:0:0:
64,192,129290,128,0,130433:2:0:0:0:
320,192,129290,1,0,2:0:0:0:
448,192,129433,1,0,2:0:0:0:
320,192,129505,1,0,2:0:0:0:
192,192,129576,1,0,2:0:0:0:
448,192,129719,1,0,2:0:0:0:
320,192,129862,128,0,130005:0:0:0:0:
448,192,130005,1,0,2:0:0:0:
192,192,130148,128,0,130290:0:0:0:0:
320,192,130290,1,0,2:0:0:0:
448,192,130433,128,0,131576:2:0:0:0:
320,192,130433,1,0,0:0:0:0:
192,192,130576,1,0,2:0:0:0:
320,192,130719,1,0,2:0:0:0:
64,192,130862,1,0,2:0:0:0:
192,192,131005,128,0,131148:0:0:0:0:
64,192,131148,1,0,2:0:0:0:
320,192,131290,128,0,131433:0:0:0:0:
64,192,131433,1,0,2:0:0:0:
192,192,131576,128,0,132148:2:0:0:0:
320,192,131576,128,0,131719:0:0:0:0:
448,192,131719,1,0,0:0:0:0:
64,192,131862,128,0,132005:0:0:0:0:
320,192,132005,1,0,2:0:0:0:
64,192,132148,128,0,132719:2:0:0:0:
448,192,132148,128,0,132290:0:0:0:0:
320,192,132290,1,0,2:0:0:0:
192,192,132433,128,0,132576:0:0:0:0:
320,192,132576,1,0,2:0:0:0:
448,192,132719,1,0,2:0:0:0:
448,192,132862,1,0,2:0:0:0:
448,192,133005,1,0,2:0:0:0:
320,192,133148,1,0,2:0:0:0:
64,192,133290,1,0,2:0:0:0:
64,192,133433,1,0,2:0:0:0:
320,192,133576,1,0,0:0:0:0:
192,192,133719,1,0,2:0:0:0:
320,192,133862,1,0,2:0:0:0:
192,192,134005,1,0,0:0:0:0:
64,192,134148,1,0,2:0:0:0:
64,192,134290,1,0,0:0:0:0:
448,192,134433,128,0,134719:0:0:0:0:
192,192,134576,1,0,0:0:0:0:
64,192,134719,128,0,135005:0:0:0:0:
320,192,134862,1,0,0:0:0:0:
448,192,135005,1,0,2:0:0:0:
448,192,135148,1,0,2:0:0:0:
192,192,135290,1,0,2:0:0:0:
192,192,135433,1,0,2:0:0:0:
320,192,135576,1,0,2:0:0:0:
320,192,135719,1,0,2:0:0:0:
64,192,135862,1,0,2:0:0:0:
64,192,136005,1,0,2:0:0:0:
64,192,136148,128,0,136433:2:0:0:0:
448,192,136148,128,0,136433:0:0:0:0:
192,192,136148,1,0,0:0:0:0:
192,192,136433,128,0,137290:2:0:0:0:
320,192,136433,1,0,2:0:0:0:
320,192,136576,1,0,0:0:0:0:
448,192,136719,128,0,136862:2:0:0:0:
320,192,136862,128,0,137005:2:0:0:0:
448,192,137005,128,0,137148:0:0:0:0:
64,192,137148,128,0,137290:0:0:0:0:
448,192,137290,1,0,2:0:0:0:
320,192,137290,1,0,2:0:0:0:
320,192,137433,1,0,2:0:0:0:
320,192,137576,1,0,0:0:0:0:
192,192,137719,1,0,2:0:0:0:
448,192,137862,1,0,2:0:0:0:
448,192,138005,1,0,0:0:0:0:
448,192,138148,1,0,0:0:0:0:
64,192,138290,1,0,2:0:0:0:
320,192,138433,1,0,2:0:0:0:
192,192,138576,1,0,0:0:0:0:
320,192,138648,1,0,0:0:0:0:
192,192,138719,1,0,0:0:0:0:
320,192,138862,1,0,0:0:0:0:
192,192,139005,1,0,2:0:0:0:
320,192,139148,1,0,0:0:0:0:
64,192,139290,1,0,0:0:0:0:
320,192,139433,1,0,2:0:0:0:
64,192,139576,1,0,2:0:0:0:
192,192,139719,1,0,0:0:0:0:
448,192,139862,1,0,2:0:0:0:
64,192,140005,1,0,2:0:0:0:
320,192,140148,1,0,0:0:0:0:
448,192,140290,1,0,0:0:0:0:
320,192,140433,1,0,0:0:0:0:
64,192,140576,1,0,2:0:0:0:
192,192,140719,128,0,141005:0:0:0:0:
320,192,140719,1,0,0:0:0:0:
448,192,140862,1,0,0:0:0:0:
448,192,141005,128,0,141290:0:0:0:0:
64,192,141005,1,0,0:0:0:0:
64,192,141148,1,0,0:0:0:0:
320,192,141290,128,0,141576:0:0:0:0:
192,192,141290,1,0,0:0:0:0:
64,192,141433,1,0,0:0:0:0:
192,192,141576,128,0,141862:0:0:0:0:
448,192,141576,1,0,0:0:0:0:
64,192,141719,1,0,0:0:0:0:
64,192,141862,1,0,0:0:0:0:
448,192,141862,1,0,0:0:0:0:
320,192,141862,1,0,0:0:0:0:
192,192,142005,1,0,0:0:0:0:
192,192,142148,1,0,0:0:0:0:
64,192,142148,1,0,0:0:0:0:
320,192,142290,1,0,0:0:0:0:
320,192,142433,1,0,0:0:0:0:
448,192,142433,1,0,0:0:0:0:
64,192,142433,1,0,0:0:0:0:
192,192,142576,1,0,0:0:0:0:
64,192,142719,1,0,0:0:0:0:
192,192,142719,1,0,0:0:0:0:
320,192,142862,1,0,0:0:0:0:
448,192,143005,1,0,0:0:0:0:
320,192,143005,1,0,0:0:0:0:
64,192,143148,1,0,0:0:0:0:
192,192,143219,1,0,0:0:0:0:
320,192,143290,1,0,0:0:0:0:
448,192,143290,1,0,0:0:0:0:
64,192,143433,1,0,0:0:0:0:
64,192,143576,1,0,0:0:0:0:
448,192,143576,1,0,0:0:0:0:
320,192,143576,1,0,0:0:0:0:
192,192,143862,1,0,0:0:0:0:
448,192,144005,1,0,0:0:0:0:
320,192,144076,1,0,0:0:0:0:
192,192,144148,1,0,0:0:0:0:
64,192,144148,1,0,0:0:0:0:
320,192,144290,1,0,0:0:0:0:
320,192,144433,1,0,0:0:0:0:
448,192,144433,1,0,0:0:0:0:
192,192,144576,1,0,0:0:0:0:
448,192,144719,1,0,0:0:0:0:
64,192,144719,1,0,0:0:0:0:
192,192,144719,1,0,0:0:0:0:
320,192,144862,1,0,0:0:0:0:
448,192,145005,1,0,0:0:0:0:
320,192,145005,1,0,0:0:0:0:
192,192,145148,1,0,0:0:0:0:
64,192,145290,1,0,0:0:0:0:
192,192,145290,1,0,0:0:0:0:
320,192,145433,1,0,0:0:0:0:
448,192,145576,1,0,0:0:0:0:
320,192,145576,1,0,0:0:0:0:
192,192,145719,1,0,0:0:0:0:
64,192,145862,1,0,0:0:0:0:
192,192,145862,1,0,0:0:0:0:
448,192,145862,1,0,0:0:0:0:
320,192,146148,1,0,0:0:0:0:
64,192,146433,1,0,0:0:0:0:
192,192,146433,1,0,0:0:0:0:
192,192,146576,1,0,0:0:0:0:
64,192,146576,1,0,0:0:0:0:
448,192,146719,1,0,0:0:0:0:
320,192,146719,1,0,0:0:0:0:
64,192,146862,1,0,0:0:0:0:
448,192,147005,1,0,0:0:0:0:
320,192,147005,1,0,0:0:0:0:
64,192,147005,1,0,0:0:0:0:
320,192,147148,1,0,0:0:0:0:
448,192,147148,1,0,0:0:0:0:
192,192,147290,1,0,0:0:0:0:
64,192,147290,1,0,0:0:0:0:
320,192,147433,1,0,0:0:0:0:
448,192,147576,1,0,0:0:0:0:
320,192,147576,1,0,0:0:0:0:
320,192,147719,1,0,0:0:0:0:
192,192,147719,1,0,0:0:0:0:
64,192,147862,1,0,0:0:0:0:
192,192,147862,1,0,0:0:0:0:
320,192,148005,1,0,0:0:0:0:
448,192,148005,1,0,0:0:0:0:
192,192,148148,1,0,0:0:0:0:
448,192,148148,1,0,0:0:0:0:
64,192,148148,1,0,0:0:0:0:
320,192,148433,1,0,0:0:0:0:
448,192,148433,1,0,0:0:0:0:
64,192,148576,1,0,0:0:0:0:
192,192,148648,1,0,0:0:0:0:
448,192,148719,1,0,0:0:0:0:
320,192,148719,1,0,0:0:0:0:
192,192,148862,1,0,0:0:0:0:
192,192,149005,1,0,0:0:0:0:
64,192,149005,1,0,0:0:0:0:
448,192,149148,1,0,0:0:0:0:
320,192,149148,1,0,0:0:0:0:
448,192,149290,1,0,0:0:0:0:
192,192,149290,1,0,0:0:0:0:
64,192,149290,1,0,0:0:0:0:
64,192,149433,1,0,0:0:0:0:
192,192,149433,1,0,0:0:0:0:
448,192,149576,1,0,0:0:0:0:
320,192,149576,1,0,0:0:0:0:
192,192,149719,1,0,0:0:0:0:
64,192,149719,1,0,0:0:0:0:
320,192,149790,1,0,0:0:0:0:
64,192,149862,1,0,0:0:0:0:
192,192,149862,1,0,0:0:0:0:
448,192,149862,1,0,0:0:0:0:
448,192,150005,1,0,0:0:0:0:
64,192,150005,1,0,0:0:0:0:
320,192,150005,1,0,0:0:0:0:
192,192,150148,1,0,0:0:0:0:
320,192,150290,1,0,0:0:0:0:
448,192,150290,1,0,0:0:0:0:
448,192,150433,1,0,0:0:0:0:
64,192,150433,1,0,0:0:0:0:
192,192,150433,128,0,151005:0:0:0:0:
448,192,151005,1,0,2:0:0:0:
64,192,151005,128,0,151862:0:0:0:0:
320,192,151005,1,0,0:0:0:0:
320,192,151862,128,0,152148:0:0:0:0:
192,192,152148,128,0,153005:0:0:0:0:
448,192,153005,128,0,153290:0:0:0:0:
320,192,153290,128,0,154148:0:0:0:0:
64,192,154148,128,0,154433:0:0:0:0:
448,192,154433,128,0,154719:2:0:0:0:
192,192,154719,128,0,155005:0:0:0:0:
320,192,155005,128,0,155290:0:0:0:0:
448,192,155290,128,0,155576:0:0:0:0:
64,192,155576,128,0,156433:2:0:0:0:
320,192,156433,128,0,156719:0:0:0:0:
448,192,156719,128,0,157576:2:0:0:0:
192,192,157576,128,0,157790:0:0:0:0:
64,192,157576,128,0,157790:0:0:0:0:
320,192,157576,128,0,157790:0:0:0:0:
64,192,159862,1,0,0:0:0:0:
448,192,159862,1,0,0:0:0:0:
320,192,159862,128,0,160148:0:0:0:0:
64,192,160148,1,0,0:0:0:0:
192,192,160148,1,0,0:0:0:0:
448,192,160148,1,0,0:0:0:0:
192,192,160290,1,0,0:0:0:0:
320,192,160433,1,0,0:0:0:0:
64,192,160433,1,0,0:0:0:0:
448,192,160433,1,0,0:0:0:0:
320,192,160719,1,0,0:0:0:0:
64,192,160719,1,0,0:0:0:0:
192,192,160862,1,0,0:0:0:0:
448,192,161005,1,0,0:0:0:0:
320,192,161005,1,0,0:0:0:0:
192,192,161148,1,0,0:0:0:0:
64,192,161290,128,0,161576:0:0:0:0:
448,192,161290,1,0,0:0:0:0:
448,192,161433,1,0,0:0:0:0:
320,192,161576,128,0,161719:0:0:0:0:
192,192,161576,1,0,0:0:0:0:
192,192,161719,128,0,162148:0:0:0:0:
448,192,161862,1,0,0:0:0:0:
320,192,161862,1,0,0:0:0:0:
320,192,162005,1,0,0:0:0:0:
64,192,162148,1,0,0:0:0:0:
448,192,162148,128,0,162433:0:0:0:0:
320,192,162433,1,0,0:0:0:0:
64,192,162433,1,0,0:0:0:0:
320,192,162576,1,0,0:0:0:0:
192,192,162719,1,0,0:0:0:0:
448,192,162719,1,0,0:0:0:0:
64,192,162862,1,0,0:0:0:0:
320,192,163005,1,0,0:0:0:0:
64,192,163005,1,0,0:0:0:0:
448,192,163148,1,0,0:0:0:0:
192,192,163290,1,0,0:0:0:0:
320,192,163290,1,0,0:0:0:0:
64,192,163433,128,0,163576:0:0:0:0:
448,192,163576,1,0,0:0:0:0:
192,192,163576,1,0,0:0:0:0:
320,192,163576,128,0,163862:0:0:0:0:
448,192,163862,1,0,0:0:0:0:
192,192,163862,1,0,0:0:0:0:
192,192,164005,1,0,0:0:0:0:
448,192,164148,1,0,0:0:0:0:
64,192,164148,1,0,0:0:0:0:
320,192,164290,1,0,0:0:0:0:
192,192,164362,1,0,0:0:0:0:
448,192,164433,1,0,0:0:0:0:
64,192,164433,1,0,0:0:0:0:
192,192,164576,1,0,0:0:0:0:
320,192,164576,1,0,0:0:0:0:
64,192,164719,1,0,0:0:0:0:
448,192,164719,1,0,0:0:0:0:
192,192,164719,1,0,0:0:0:0:
320,192,165005,1,0,0:0:0:0:
64,192,165005,1,0,0:0:0:0:
448,192,165005,1,0,0:0:0:0:
192,192,165290,1,0,0:0:0:0:
64,192,165290,1,0,0:0:0:0:
320,192,165433,1,0,0:0:0:0:
448,192,165433,1,0,0:0:0:0:
64,192,165576,1,0,0:0:0:0:
448,192,165576,1,0,0:0:0:0:
192,192,165576,1,0,0:0:0:0:
192,192,165719,1,0,0:0:0:0:
448,192,165862,128,0,166005:0:0:0:0:
320,192,165862,1,0,0:0:0:0:
192,192,166005,128,0,166148:0:0:0:0:
64,192,166005,1,0,0:0:0:0:
320,192,166148,128,0,166290:0:0:0:0:
448,192,166148,1,0,0:0:0:0:
64,192,166290,128,0,166719:0:0:0:0:
192,192,166290,1,0,0:0:0:0:
448,192,166433,1,0,0:0:0:0:
192,192,166433,1,0,0:0:0:0:
320,192,166576,1,0,0:0:0:0:
192,192,166719,1,0,0:0:0:0:
448,192,166719,128,0,167005:0:0:0:0:
320,192,167005,1,0,0:0:0:0:
192,192,167005,1,0,0:0:0:0:
64,192,167148,1,0,0:0:0:0:
192,192,167290,1,0,0:0:0:0:
320,192,167290,1,0,0:0:0:0:
64,192,167433,1,0,0:0:0:0:
320,192,167433,1,0,0:0:0:0:
448,192,167576,1,0,0:0:0:0:
192,192,167576,1,0,0:0:0:0:
64,192,167862,1,0,0:0:0:0:
192,192,167862,1,0,0:0:0:0:
320,192,168005,1,0,0:0:0:0:
192,192,168076,1,0,0:0:0:0:
64,192,168148,1,0,0:0:0:0:
448,192,168290,1,0,0:0:0:0:
320,192,168290,1,0,0:0:0:0:
64,192,168362,1,0,0:0:0:0:
192,192,168362,1,0,0:0:0:0:
448,192,168433,1,0,0:0:0:0:
320,192,168433,1,0,0:0:0:0:
192,192,168576,1,0,0:0:0:0:
64,192,168576,1,0,0:0:0:0:
320,192,168719,1,0,0:0:0:0:
448,192,168719,1,0,0:0:0:0:
64,192,168790,1,0,0:0:0:0:
192,192,168790,1,0,0:0:0:0:
448,192,168862,1,0,0:0:0:0:
320,192,168862,1,0,0:0:0:0:
64,192,168933,1,0,0:0:0:0:
192,192,168933,1,0,0:0:0:0:
448,192,169005,1,0,0:0:0:0:
320,192,169005,1,0,0:0:0:0:
64,192,169076,1,0,0:0:0:0:
192,192,169076,1,0,0:0:0:0:
448,192,169148,1,0,0:0:0:0:
320,192,169148,1,0,0:0:0:0:
64,192,169219,1,0,0:0:0:0:
192,192,169219,1,0,0:0:0:0:
320,192,169290,1,0,0:0:0:0:
448,192,169290,1,0,0:0:0:0:
64,192,169290,1,0,0:0:0:0:
448,192,169576,1,0,0:0:0:0:
64,192,169576,1,0,0:0:0:0:
192,192,169576,1,0,0:0:0:0:
448,192,169862,1,0,0:0:0:0:
192,192,169862,1,0,0:0:0:0:
320,192,170005,1,0,0:0:0:0:
192,192,170148,1,0,0:0:0:0:
64,192,170148,1,0,0:0:0:0:
320,192,170290,1,0,0:0:0:0:
64,192,170433,1,0,0:0:0:0:
448,192,170433,128,0,170719:0:0:0:0:
64,192,170576,1,0,0:0:0:0:
320,192,170719,1,0,0:0:0:0:
192,192,170719,128,0,170862:0:0:0:0:
320,192,170862,128,0,171290:0:0:0:0:
192,192,171005,1,0,0:0:0:0:
64,192,171005,1,0,0:0:0:0:
192,192,171148,1,0,0:0:0:0:
64,192,171290,128,0,171576:0:0:0:0:
448,192,171290,1,0,0:0:0:0:
448,192,171576,1,0,0:0:0:0:
192,192,171576,1,0,0:0:0:0:
192,192,171719,1,0,0:0:0:0:
64,192,171862,1,0,0:0:0:0:
320,192,171862,1,0,0:0:0:0:
448,192,172005,1,0,0:0:0:0:
448,192,172148,1,0,0:0:0:0:
192,192,172148,1,0,0:0:0:0:
64,192,172290,1,0,0:0:0:0:
192,192,172433,1,0,0:0:0:0:
320,192,172433,1,0,0:0:0:0:
448,192,172576,128,0,172719:0:0:0:0:
192,192,172719,128,0,173005:0:0:0:0:
320,192,172719,1,0,0:0:0:0:
64,192,172719,1,0,0:0:0:0:
320,192,173005,1,0,0:0:0:0:
64,192,173005,1,0,0:0:0:0:
320,192,173148,1,0,0:0:0:0:
448,192,173290,1,0,0:0:0:0:
64,192,173290,1,0,0:0:0:0:
192,192,173433,1,0,0:0:0:0:
320,192,173505,1,0,0:0:0:0:
448,192,173576,1,0,0:0:0:0:
64,192,173576,1,0,0:0:0:0:
192,192,173719,1,0,0:0:0:0:
320,192,173719,1,0,0:0:0:0:
320,192,173862,1,0,0:0:0:0:
64,192,173862,1,0,0:0:0:0:
448,192,173862,1,0,0:0:0:0:
448,192,174148,1,0,0:0:0:0:
192,192,174148,1,0,0:0:0:0:
64,192,174148,1,0,0:0:0:0:
448,192,174433,1,0,0:0:0:0:
320,192,174433,1,0,0:0:0:0:
64,192,174576,1,0,0:0:0:0:
192,192,174576,1,0,0:0:0:0:
320,192,174719,1,0,0:0:0:0:
64,192,174719,1,0,0:0:0:0:
448,192,174719,1,0,0:0:0:0:
320,192,174862,1,0,0:0:0:0:
192,192,175005,1,0,0:0:0:0:
64,192,175005,128,0,175148:0:0:0:0:
448,192,175148,1,0,0:0:0:0:
320,192,175148,1,0,0:0:0:0:
64,192,175290,1,0,0:0:0:0:
192,192,175290,128,0,175433:0:0:0:0:
320,192,175433,1,0,0:0:0:0:
448,192,175433,128,0,175862:0:0:0:0:
320,192,175576,1,0,0:0:0:0:
64,192,175576,1,0,0:0:0:0:
192,192,175719,1,0,0:0:0:0:
64,192,175862,128,0,176148:0:0:0:0:
320,192,175862,1,0,0:0:0:0:
320,192,176148,1,0,0:0:0:0:
192,192,176148,1,0,0:0:0:0:
448,192,176290,1,0,0:0:0:0:
192,192,176433,1,0,0:0:0:0:
320,192,176433,1,0,0:0:0:0:
192,192,176576,1,0,0:0:0:0:
448,192,176576,1,0,0:0:0:0:
320,192,176719,1,0,0:0:0:0:
64,192,176719,1,0,0:0:0:0:
192,192,177005,1,0,0:0:0:0:
448,192,177005,1,0,0:0:0:0:
64,192,177148,1,0,0:0:0:0:
320,192,177219,1,0,0:0:0:0:
64,192,177290,1,0,0:0:0:0:
320,192,177433,1,0,0:0:0:0:
448,192,177433,1,0,0:0:0:0:
64,192,177505,1,0,0:0:0:0:
192,192,177505,1,0,0:0:0:0:
320,192,177576,1,0,0:0:0:0:
448,192,177576,1,0,0:0:0:0:
192,192,177719,1,0,0:0:0:0:
64,192,177719,1,0,0:0:0:0:
192,192,177862,1,0,0:0:0:0:
320,192,177862,1,0,0:0:0:0:
320,192,178005,1,0,0:0:0:0:
448,192,178005,1,0,0:0:0:0:
192,192,178148,1,0,0:0:0:0:
64,192,178148,1,0,0:0:0:0:
320,192,178290,1,0,0:0:0:0:
192,192,178290,1,0,0:0:0:0:
64,192,178433,128,0,178719:0:0:0:0:
448,192,178433,128,0,179290:0:0:0:0:
320,192,178433,1,0,0:0:0:0:
192,192,178433,1,0,0:0:0:0:
192,192,178719,128,0,179005:0:0:0:0:
320,192,179005,128,0,179290:0:0:0:0:
64,192,179290,128,0,179862:0:0:0:0:
192,192,179576,128,0,179862:0:0:0:0:
448,192,179576,1,0,0:0:0:0:
320,192,179862,128,0,180148:0:0:0:0:
448,192,180148,128,0,180719:0:0:0:0:
64,192,180148,128,0,180290:0:0:0:0:
192,192,180148,1,0,0:0:0:0:
192,192,180290,128,0,180719:0:0:0:0:
320,192,180433,1,0,0:0:0:0:
64,192,180719,128,0,181862:0:0:0:0:
320,192,180719,1,0,0:0:0:0:
448,192,180862,1,0,0:0:0:0:
448,192,181005,1,0,0:0:0:0:
320,192,181005,1,0,0:0:0:0:
192,192,181148,1,0,0:0:0:0:
192,192,181290,1,0,0:0:0:0:
448,192,181290,1,0,0:0:0:0:
192,192,181576,1,0,0:0:0:0:
320,192,181576,1,0,0:0:0:0:
448,192,181719,1,0,0:0:0:0:
448,192,181862,128,0,182433:0:0:0:0:
320,192,181862,1,0,0:0:0:0:
64,192,182005,1,0,0:0:0:0:
320,192,182148,1,0,0:0:0:0:
64,192,182290,5,0,0:0:0:0:
192,192,182362,1,0,0:0:0:0:
320,192,182433,1,0,0:0:0:0:
64,192,182576,1,0,0:0:0:0:
448,192,182576,1,0,0:0:0:0:
192,192,182648,1,0,0:0:0:0:
320,192,182648,1,0,0:0:0:0:
64,192,182719,1,0,0:0:0:0:
448,192,182719,1,0,0:0:0:0:
192,192,182862,1,0,0:0:0:0:
320,192,182862,1,0,0:0:0:0:
448,192,183005,128,0,184148:0:0:0:0:
64,192,183005,128,0,183219:0:0:0:0:
320,192,183005,1,0,0:0:0:0:
192,192,183219,128,0,183576:0:0:0:0:
320,192,183576,128,0,183790:0:0:0:0:
192,192,183790,128,0,184148:0:0:0:0:
64,192,184148,128,0,185290:0:0:0:0:
320,192,184148,128,0,184433:0:0:0:0:
448,192,184433,128,0,184719:0:0:0:0:
192,192,184719,128,0,184862:0:0:0:0:
320,192,184862,128,0,185290:0:0:0:0:
192,192,185290,1,0,0:0:0:0:
448,192,185290,1,0,0:0:0:0:
320,192,185433,1,0,0:0:0:0:
64,192,185576,1,0,0:0:0:0:
192,192,185576,1,0,0:0:0:0:
448,192,185576,1,0,0:0:0:0:
320,192,185719,1,0,0:0:0:0:
448,192,185862,1,0,0:0:0:0:
64,192,185862,1,0,0:0:0:0:
64,192,186148,1,0,0:0:0:0:
448,192,186148,1,0,0:0:0:0:
320,192,186290,1,0,0:0:0:0:
192,192,186433,1,0,0:0:0:0:
320,192,186576,1,0,0:0:0:0:
448,192,186576,1,0,0:0:0:0:
192,192,186648,1,0,0:0:0:0:
64,192,186648,1,0,0:0:0:0:
448,192,186719,1,0,0:0:0:0:
320,192,186719,1,0,0:0:0:0:
64,192,186862,1,0,0:0:0:0:
192,192,186862,1,0,0:0:0:0:
192,192,187005,1,0,0:0:0:0:
448,192,187005,1,0,0:0:0:0:
64,192,187148,1,0,0:0:0:0:
320,192,187148,1,0,0:0:0:0:
192,192,187290,128,0,187576:0:0:0:0:
320,192,187290,128,0,187576:0:0:0:0:
64,192,187576,1,0,0:0:0:0:
448,192,187576,128,0,187862:0:0:0:0:
320,192,187719,1,0,0:0:0:0:
192,192,187862,1,0,0:0:0:0:
64,192,187862,128,0,188148:0:0:0:0:
320,192,187862,1,0,0:0:0:0:
448,192,188005,1,0,0:0:0:0:
192,192,188148,1,0,0:0:0:0:
320,192,188148,128,0,188433:0:0:0:0:
448,192,188290,1,0,0:0:0:0:
192,192,188433,1,0,0:0:0:0:
448,192,188433,1,0,0:0:0:0:
64,192,188433,128,0,188719:0:0:0:0:
320,192,188576,1,0,0:0:0:0:
448,192,188719,128,0,189005:0:0:0:0:
192,192,188719,1,0,0:0:0:0:
64,192,188862,1,0,0:0:0:0:
64,192,189005,1,0,0:0:0:0:
320,192,189005,1,0,0:0:0:0:
192,192,189005,128,0,189290:0:0:0:0:
448,192,189148,1,0,0:0:0:0:
448,192,189290,1,0,0:0:0:0:
320,192,189290,128,0,189433:0:0:0:0:
192,192,189433,1,0,0:0:0:0:
64,192,189433,128,0,189576:0:0:0:0:
448,192,189576,1,0,0:0:0:0:
320,192,189576,1,0,0:0:0:0:
192,192,189719,1,0,0:0:0:0:
192,192,189862,1,0,0:0:0:0:
64,192,189862,1,0,0:0:0:0:
448,192,190005,1,0,0:0:0:0:
448,192,190148,1,0,0:0:0:0:
192,192,190148,1,0,0:0:0:0:
64,192,190148,1,0,0:0:0:0:
64,192,190290,1,0,0:0:0:0:
448,192,190433,1,0,0:0:0:0:
64,192,190433,1,0,0:0:0:0:
448,192,190719,1,0,0:0:0:0:
64,192,190719,1,0,0:0:0:0:
448,192,190862,1,0,0:0:0:0:
448,192,191005,128,0,191433:0:0:0:0:
64,192,191005,1,0,0:0:0:0:
320,192,191005,1,0,0:0:0:0:
192,192,191148,1,0,0:0:0:0:
320,192,191290,1,0,0:0:0:0:
64,192,191290,1,0,0:0:0:0:
192,192,191290,128,0,191433:0:0:0:0:
64,192,191433,128,0,192148:0:0:0:0:
192,192,191576,1,0,0:0:0:0:
448,192,191719,1,0,0:0:0:0:
192,192,191790,1,0,0:0:0:0:
320,192,191862,1,0,0:0:0:0:
320,192,192005,1,0,0:0:0:0:
448,192,192005,1,0,0:0:0:0:
192,192,192148,1,0,0:0:0:0:
448,192,192148,128,0,192433:0:0:0:0:
320,192,192290,1,0,0:0:0:0:
64,192,192433,1,0,0:0:0:0:
320,192,192433,1,0,0:0:0:0:
192,192,192433,128,0,192719:0:0:0:0:
448,192,192576,1,0,0:0:0:0:
64,192,192719,1,0,0:0:0:0:
448,192,192719,1,0,0:0:0:0:
320,192,192719,128,0,193005:0:0:0:0:
192,192,192862,1,0,0:0:0:0:
64,192,193005,1,0,0:0:0:0:
192,192,193005,1,0,0:0:0:0:
448,192,193005,128,0,193290:0:0:0:0:
320,192,193148,1,0,0:0:0:0:
192,192,193290,1,0,0:0:0:0:
320,192,193290,1,0,0:0:0:0:
64,192,193290,128,0,193576:0:0:0:0:
448,192,193433,1,0,0:0:0:0:
448,192,193576,1,0,0:0:0:0:
192,192,193576,1,0,0:0:0:0:
320,192,193576,128,0,193862:0:0:0:0:
192,192,193719,1,0,0:0:0:0:
448,192,193862,1,0,0:0:0:0:
192,192,193862,1,0,0:0:0:0:
64,192,193862,128,0,194005:0:0:0:0:
448,192,194005,1,0,0:0:0:0:
320,192,194005,128,0,194148:0:0:0:0:
192,192,194148,1,0,0:0:0:0:
64,192,194148,1,0,0:0:0:0:
320,192,194433,1,0,0:0:0:0:
448,192,194433,1,0,0:0:0:0:
448,192,194576,1,0,0:0:0:0:
448,192,194719,1,0,0:0:0:0:
64,192,194719,1,0,0:0:0:0:
320,192,194719,1,0,0:0:0:0:
64,192,194862,1,0,0:0:0:0:
64,192,195005,1,0,0:0:0:0:
192,192,195005,1,0,0:0:0:0:
448,192,195290,1,0,0:0:0:0:
320,192,195290,1,0,0:0:0:0:
448,192,195433,1,0,0:0:0:0:
64,192,195576,1,0,0:0:0:0:
320,192,195576,1,0,0:0:0:0:
64,192,195719,1,0,0:0:0:0:
320,192,195719,1,0,0:0:0:0:
192,192,195790,1,0,0:0:0:0:
448,192,195790,1,0,0:0:0:0:
320,192,195862,1,0,0:0:0:0:
64,192,195862,1,0,0:0:0:0:
192,192,196005,1,0,0:0:0:0:
448,192,196005,1,0,0:0:0:0:
64,192,196148,1,0,0:0:0:0:
448,192,196148,1,0,0:0:0:0:
320,192,196148,1,0,0:0:0:0:
192,192,197005,1,0,0:0:0:0:
448,192,197290,1,0,0:0:0:0:
448,192,197576,1,0,0:0:0:0:
192,192,197719,1,0,2:0:0:0:
64,192,198005,1,0,0:0:0:0:
448,192,198148,1,0,0:0:0:0:
64,192,198862,1,0,0:0:0:0:
320,192,199005,1,0,0:0:0:0:
192,192,199290,1,0,0:0:0:0:
320,192,199433,1,0,2:0:0:0:
320,192,199719,1,0,0:0:0:0:
448,192,200005,1,0,0:0:0:0:
320,192,200290,1,0,0:0:0:0:
64,192,200433,1,0,0:0:0:0:
64,192,200576,1,0,0:0:0:0:
192,192,201433,1,0,0:0:0:0:
320,192,201576,1,0,0:0:0:0:
320,192,201862,1,0,0:0:0:0:
64,192,202148,1,0,0:0:0:0:
448,192,202290,1,0,0:0:0:0:
448,192,202576,1,0,0:0:0:0:
192,192,202719,1,0,0:0:0:0:
448,192,202862,1,0,0:0:0:0:
320,192,203433,1,0,0:0:0:0:
64,192,203576,1,0,0:0:0:0:
64,192,203862,1,0,0:0:0:0:
448,192,204005,1,0,2:0:0:0:
448,192,204290,1,0,0:0:0:0:
192,192,204576,1,0,0:0:0:0:
448,192,204719,128,0,205290:0:0:0:0:
64,192,204719,1,0,0:0:0:0:
192,192,204862,1,0,0:0:0:0:
64,192,205005,1,0,0:0:0:0:
192,192,205148,1,0,0:0:0:0:
