osu file format v14

[General]
AudioFilename: audio.mp3
AudioLeadIn: 0
PreviewTime: 179448
Countdown: 1
SampleSet: Soft
StackLeniency: 0.7
Mode: 0
LetterboxInBreaks: 0
WidescreenStoryboard: 0

[Editor]
Bookmarks: 1343,6395,13974,16500,18711,24079,34185,41764,44290,64500,68290,69553,71764,73343,74606,81869,83921,84711,86921,88974,92132,93553,94816,97343,101132,102395,107448,114869,117553,127658,137764,147869,152921,155132,156711,157974,163027,165553,168079,170606,173132,175658,178185,179448,180711,189869,190816,193027,195079,198395,203448,204711,205974,207237,208343,208816,217500,218606,220816,226185,227448,232500
DistanceSpacing: 1.1
BeatDivisor: 4
GridSize: 16
TimelineZoom: 2.999999

[Metadata]
Title:First Storm feat. Hatsune Miku
TitleUnicode:初嵐 feat. 初音ミク
Artist:DECO*27
ArtistUnicode:DECO*27
Creator:Leonlxrd
Version:leonlxrd
Source:
Tags:
BeatmapID:1987259
BeatmapSetID:951583

[Difficulty]
HPDrainRate:6
CircleSize:4.3
OverallDifficulty:10
ApproachRate:9.6
SliderMultiplier:1.8
SliderTickRate:1

[Events]
//Background and Video events
0,0,"74060341_p0_master1200.jpg",0,0
//Break Periods
2,158174,162518
//Storyboard Layer 0 (Background)
//Storyboard Layer 1 (Fail)
//Storyboard Layer 2 (Pass)
//Storyboard Layer 3 (Foreground)
//Storyboard Sound Samples

[TimingPoints]
1343,315.789473684211,4,2,0,30,1,0
1343,-133.333333333333,4,2,0,30,0,0
6395,-80,4,2,0,50,0,0
23290,-133.333333333333,4,2,0,50,0,0
24079,-100,4,2,0,40,0,0
44290,-80,4,2,0,60,0,0
70500,-133.333333333333,4,2,0,30,0,0
70816,-80,4,2,0,60,0,0
74606,-76.9230769230769,4,2,0,75,0,1
96079,-100,4,2,0,75,0,0
97343,-100,4,2,0,50,0,0
107448,-100,4,2,0,40,0,0
114869,-100,4,2,0,55,0,0
117632,-100,4,2,0,40,0,0
120079,-100,4,2,0,50,0,0
120395,-100,4,2,0,40,0,0
125132,-100,4,2,0,50,0,0
126395,-90.9090909090909,4,2,0,60,0,0
126869,-100,4,2,0,50,0,0
127658,-100,4,2,0,55,0,0
137764,-100,4,2,0,60,0,0
153869,-100,4,2,0,30,0,0
154185,-100,4,2,0,60,0,0
170606,-71.4285714285714,4,2,0,70,0,0
172500,-133.333333333333,4,2,0,60,0,0
173132,-100,4,2,0,60,0,0
180711,-66.6666666666667,4,2,0,75,0,1
203448,-100,4,2,0,90,0,1
207237,-100,4,2,0,90,0,0
208343,-100,4,2,0,50,0,0
208816,-100,4,2,0,75,0,1
226185,-100,4,2,0,75,0,0
227448,-200,4,2,0,60,0,0
227764,-200,4,2,0,57,0,0
228079,-200,4,2,0,54,0,0
228395,-200,4,2,0,51,0,0
228711,-200,4,2,0,48,0,0
229027,-200,4,2,0,45,0,0
229343,-200,4,2,0,42,0,0
229658,-200,4,2,0,39,0,0
229974,-200,4,2,0,36,0,0
230290,-200,4,2,0,33,0,0
230606,-200,4,2,0,30,0,0
230921,-200,4,2,0,27,0,0
231237,-200,4,2,0,24,0,0
231553,-200,4,2,0,21,0,0
231869,-200,4,2,0,18,0,0
232185,-200,4,2,0,15,0,0
232500,-200,4,2,0,5,0,0

[Colours]
Combo1 : 230,65,190
Combo2 : 0,50,255
Combo3 : 75,200,255

[HitObjects]
129,242,1343,6,0,L|112:144,2,67.5000025749208,2|0|2,0:0|0:0|0:0,0:0:0:0:
209,84,1816,1,2,0:0:0:0:
340,211,2132,6,0,L|328:121,1,67.5000025749208,2|0,0:0|0:0,0:0:0:0:
210,85,2448,1,2,0:0:0:0:
142,251,2764,1,2,0:0:0:0:
203,301,2921,1,2,0:0:0:0:
282,300,3079,1,2,0:0:0:0:
331,168,3395,5,0,0:0:0:0:
176,160,3553,1,0,0:0:0:0:
32,315,3869,5,2,0:0:0:0:
92,127,4027,1,2,0:0:0:0:
187,289,4185,5,0,0:0:0:0:
33,180,4343,1,2,0:0:0:0:
118,334,4500,1,0,0:0:0:0:
176,160,4658,1,2,0:0:0:0:
118,334,4816,1,0,0:0:0:0:
103,136,4974,1,2,0:0:0:0:
206,339,5132,5,2,0:0:0:0:
48,336,5448,1,0,0:0:0:0:
275,160,5606,1,2,0:0:0:0:
87,106,6079,5,2,0:0:0:0:
243,279,6395,5,12,0:0:0:0:
243,279,6474,1,0,0:0:0:0:
243,279,6553,1,8,0:0:0:0:
160,94,6711,2,0,B|103:187|181:188|114:315,1,225,2|0,0:0|0:0,0:0:0:0:
213,328,7185,1,8,0:0:0:0:
58,186,7343,1,0,0:0:0:0:
244,189,7500,1,8,0:0:0:0:
244,189,7579,1,0,0:0:0:0:
244,189,7658,6,0,L|287:82,1,112.5,10|0,0:0|0:0,0:0:0:0:
120,33,7974,5,8,0:0:0:0:
120,33,8053,1,0,0:0:0:0:
120,33,8132,2,0,B|153:86|153:86|131:170,1,112.5,10|0,0:0|0:0,0:0:0:0:
52,201,8448,1,8,0:0:0:0:
310,127,8606,1,8,0:0:0:0:
65,107,8764,1,8,0:0:0:0:
347,214,8921,6,0,B|188:230|251:163|110:171,2,225,2|2|2,0:0|0:0|0:0,0:0:0:0:
203,311,9711,5,0,0:0:0:0:
259,81,9869,1,0,0:0:0:0:
128,168,10027,1,8,0:0:0:0:
128,168,10106,1,0,0:0:0:0:
128,168,10185,6,0,B|236:129|207:203|349:160,1,225,10|0,0:0|0:0,0:0:0:0:
259,81,10658,1,0,0:0:0:0:
203,311,10816,1,0,0:0:0:0:
145,83,10974,1,0,0:0:0:0:
290,273,11132,5,8,0:0:0:0:
290,273,11211,1,8,0:0:0:0:
290,273,11290,1,8,0:0:0:0:
290,273,11369,1,8,0:0:0:0:
290,273,11448,6,0,L|326:155,1,112.5,6|0,0:0|0:0,0:0:0:0:
232,51,11764,2,0,B|160:78|160:183|160:183|205:173|259:130,1,225,2|0,0:0|0:0,0:0:0:0:
310,104,12237,1,0,0:0:0:0:
188,299,12395,2,0,L|285:243,1,112.5,2|0,0:0|0:0,0:0:0:0:
48,240,12711,5,4,0:0:0:0:
222,353,12869,1,2,0:0:0:0:
157,153,13027,1,8,0:0:0:0:
122,360,13185,1,2,0:0:0:0:
271,169,13343,2,0,L|218:268,1,112.5,2|0,0:0|0:0,0:0:0:0:
205,81,13658,1,2,0:0:0:0:
205,81,13816,1,2,0:0:0:0:
126,228,13974,5,14,0:0:0:0:
354,141,14132,1,8,0:0:0:0:
354,141,14211,1,0,0:0:0:0:
354,141,14290,1,8,0:0:0:0:
128,99,14448,5,10,0:0:0:0:
318,254,14606,1,8,0:0:0:0:
318,254,14685,1,0,0:0:0:0:
318,254,14764,1,8,0:0:0:0:
248,90,14921,1,0,0:0:0:0:
165,152,15079,2,0,B|184:258|132:246|166:339|166:339|189:276|226:242,1,281.25,2|0,0:0|0:0,0:0:0:0:
254,296,15553,5,12,0:0:0:0:
298,300,15632,1,0,0:0:0:0:
340,286,15711,1,2,0:0:0:0:
372,254,15790,1,0,0:0:0:0:
387,213,15869,5,8,0:0:0:0:
384,168,15948,1,0,0:0:0:0:
361,129,16027,1,2,0:0:0:0:
347,88,16106,1,0,0:0:0:0:
360,45,16185,5,8,0:0:0:0:
395,19,16264,1,0,0:0:0:0:
439,19,16343,1,2,0:0:0:0:
475,46,16421,1,0,0:0:0:0:
488,88,16500,6,0,L|460:227,1,112.5,6|0,0:0|0:0,0:0:0:0:
378,284,16816,5,2,0:0:0:0:
205,114,16974,1,8,0:0:0:0:
264,338,17132,5,2,0:0:0:0:
343,97,17290,1,8,0:0:0:0:
366,311,17448,5,2,0:0:0:0:
237,50,17606,1,8,0:0:0:0:
183,285,17764,5,2,0:0:0:0:
412,148,17921,1,8,0:0:0:0:
335,332,18079,5,2,0:0:0:0:
309,33,18237,1,8,0:0:0:0:
165,339,18395,5,2,0:0:0:0:
353,113,18553,1,8,0:0:0:0:
265,312,18711,1,8,0:0:0:0:
265,312,18790,1,8,0:0:0:0:
265,312,18869,1,8,0:0:0:0:
265,312,18948,1,8,0:0:0:0:
265,312,19027,6,0,B|227:217|287:229|246:99,1,168.75,4|0,0:0|0:0,0:0:0:0:
209,53,19343,1,8,0:0:0:0:
209,53,19421,1,8,0:0:0:0:
209,53,19500,1,8,0:0:0:0:
209,53,19579,1,8,0:0:0:0:
209,53,19658,6,0,B|139:106|139:106|113:226,1,168.75,4|0,0:0|0:0,0:0:0:0:
177,259,19974,1,8,0:0:0:0:
177,259,20053,1,8,0:0:0:0:
177,259,20132,1,8,0:0:0:0:
177,259,20211,1,8,0:0:0:0:
177,259,20290,6,0,B|105:332|13:258|13:258|28:162|132:120,1,337.5,4|0,0:0|0:0,0:0:0:0:
237,185,20843,5,8,0:0:0:0:
237,185,20921,2,0,B|215:68|215:68|263:3|263:3|338:52|336:108|336:108|351:68|394:35,1,393.75,4|0,0:0|0:0,0:0:0:0:
446,98,21553,2,0,B|482:192|402:197|461:290,1,168.75,2|0,0:0|0:0,0:0:0:0:
418,320,21869,2,0,L|297:357,1,112.5,2|0,0:0|0:0,0:0:0:0:
184,214,22185,2,0,L|305:251,1,112.5,2|8,0:0|0:0,0:0:0:0:
384,229,22421,1,8,0:0:0:0:
384,229,22500,1,8,0:0:0:0:
251,82,22658,5,0,0:0:0:0:
292,288,22816,1,12,0:0:0:0:
274,266,22895,1,8,0:0:0:0:
256,244,22974,1,8,0:0:0:0:
238,222,23053,1,8,0:0:0:0:
220,200,23132,1,8,0:0:0:0:
198,147,23290,6,0,P|214:81|212:59,2,67.5000025749208
317,111,23764,2,0,P|301:45|303:23,1,67.5000025749208
338,191,24079,6,0,P|394:189|450:147,1,90,2|0,0:0|0:0,0:0:0:0:
459,251,24395,1,0,0:0:0:0:
392,292,24553,1,0,0:0:0:0:
445,349,24711,1,10,0:0:0:0:
445,349,24790,1,0,0:0:0:0:
445,349,24869,1,8,0:0:0:0:
299,246,25027,6,0,L|317:356,1,90
205,140,25343,1,10,0:0:0:0:
205,140,25421,1,8,0:0:0:0:
205,140,25500,2,0,L|181:207,1,45
207,255,25658,6,0,B|155:277|155:277|106:325,1,90,2|0,0:0|0:0,0:0:0:0:
73,317,25895,1,0,0:0:0:0:
73,317,25974,1,0,0:0:0:0:
76,198,26132,1,0,0:0:0:0:
175,324,26290,1,8,0:0:0:0:
175,324,26448,1,0,0:0:0:0:
197,147,26606,6,0,L|145:253,1,90,2|0,0:0|0:0,0:0:0:0:
307,176,26921,2,0,L|257:74,1,90
240,274,27237,2,0,L|346:237,1,90
392,152,27553,1,0,0:0:0:0:
392,152,27711,1,0,0:0:0:0:
325,226,27869,2,0,L|287:119,1,90,2|0,0:0|0:0,0:0:0:0:
239,96,28185,1,0,0:0:0:0:
231,237,28343,1,8,0:0:0:0:
231,237,28421,1,0,0:0:0:0:
231,237,28500,6,0,P|257:284|299:320,1,90,10|0,0:0|0:0,0:0:0:0:
366,273,28816,1,0,0:0:0:0:
196,324,28974,1,0,0:0:0:0:
299,183,29132,6,0,L|262:74,1,90,4|0,0:0|0:0,0:0:0:0:
188,144,29448,2,0,L|151:250,1,90,2|0,0:0|0:0,0:0:0:0:
204,359,29764,2,0,L|240:252,1,90,2|0,0:0|0:0,0:0:0:0:
315,314,30079,1,0,0:0:0:0:
341,82,30237,1,8,0:0:0:0:
341,82,30316,1,0,0:0:0:0:
341,82,30395,6,0,P|355:136|346:192,1,90,10|0,0:0|0:0,0:0:0:0:
259,230,30711,1,8,0:0:0:0:
259,230,30790,1,8,0:0:0:0:
259,230,30869,1,8,0:0:0:0:
259,230,30948,1,8,0:0:0:0:
259,230,31027,1,8,0:0:0:0:
184,128,31185,1,0,0:0:0:0:
180,279,31343,5,0,0:0:0:0:
180,279,31500,1,0,0:0:0:0:
73,158,31658,2,0,L|84:297,1,135,4|0,0:0|0:0,0:0:0:0:
124,308,31974,1,8,0:0:0:0:
124,308,32053,1,0,0:0:0:0:
124,308,32132,2,0,L|209:233,1,90,8|0,0:0|0:0,0:0:0:0:
298,92,32448,5,2,0:0:0:0:
274,202,32606,1,0,0:0:0:0:
348,286,32764,1,8,0:0:0:0:
363,167,32921,5,10,0:0:0:0:
457,227,33079,1,0,0:0:0:0:
464,339,33237,1,8,0:0:0:0:
362,298,33395,1,8,0:0:0:0:
362,298,33474,1,0,0:0:0:0:
362,298,33553,1,8,0:0:0:0:
457,227,33711,5,2,0:0:0:0:
424,148,33869,1,2,0:0:0:0:
266,216,34027,1,8,0:0:0:0:
346,55,34185,6,0,P|344:124|346:175,1,90,6|0,0:0|0:0,0:0:0:0:
407,229,34500,1,2,0:0:0:0:
323,332,34658,1,0,0:0:0:0:
286,151,34816,2,0,P|306:215|340:262,1,90,2|0,0:0|0:0,0:0:0:0:
412,307,35132,1,2,0:0:0:0:
205,322,35290,1,0,0:0:0:0:
280,246,35448,1,10,0:0:0:0:
280,246,35527,1,0,0:0:0:0:
280,246,35606,5,8,0:0:0:0:
361,289,35764,2,0,L|355:167,1,90,2|0,0:0|0:0,0:0:0:0:
266,123,36079,1,2,0:0:0:0:
372,99,36237,1,0,0:0:0:0:
208,48,36395,1,2,0:0:0:0:
304,204,36553,1,0,0:0:0:0:
303,34,36711,6,0,B|388:104|331:137|413:221,2,180,0|2|2,0:0|0:0|0:0,0:0:0:0:
237,76,37500,1,0,0:0:0:0:
255,205,37658,1,2,0:0:0:0:
255,205,37816,1,0,0:0:0:0:
105,84,37974,5,2,0:0:0:0:
120,230,38132,2,0,L|56:126,1,90
186,138,38448,1,8,0:0:0:0:
186,138,38527,1,0,0:0:0:0:
186,138,38606,1,10,0:0:0:0:
39,262,38764,1,8,0:0:0:0:
143,307,38921,1,2,0:0:0:0:
101,205,39079,1,0,0:0:0:0:
202,377,39237,5,14,0:0:0:0:
254,272,39395,2,0,L|284:383,1,90
198,183,39711,1,8,0:0:0:0:
198,183,39790,1,0,0:0:0:0:
198,183,39869,2,0,L|168:294,1,90,10|0,0:0|0:0,0:0:0:0:
293,311,40185,1,0,0:0:0:0:
293,311,40343,1,0,0:0:0:0:
345,195,40500,6,0,P|362:257|404:306,1,90,6|0,0:0|0:0,0:0:0:0:
397,99,40816,1,0,0:0:0:0:
397,99,40974,2,0,L|409:154,3,45,8|8|8|8,0:0|0:0|0:0|0:0,0:0:0:0:
445,208,41290,1,8,0:0:0:0:
445,208,41369,1,8,0:0:0:0:
445,208,41448,6,0,B|398:238|398:238|330:229,1,90,6|0,0:0|0:0,0:0:0:0:
227,111,41764,6,0,L|241:283,1,135,2|0,0:0|0:0,0:0:0:0:
248,310,42079,1,0,0:0:0:0:
136,156,42237,1,0,0:0:0:0:
316,215,42395,1,0,0:0:0:0:
136,273,42553,1,0,0:0:0:0:
248,120,42711,1,0,0:0:0:0:
153,346,42869,1,8,0:0:0:0:
182,176,43027,5,8,0:0:0:0:
318,288,43185,1,0,0:0:0:0:
331,245,43263,1,0,0:0:0:0:
360,211,43342,1,0,0:0:0:0:
399,189,43421,1,0,0:0:0:0:
444,184,43501,1,8,0:0:0:0:
458,142,43579,1,8,0:0:0:0:
448,100,43658,1,8,0:0:0:0:
415,70,43737,1,8,0:0:0:0:
372,65,43816,5,8,0:0:0:0:
355,106,43895,1,8,0:0:0:0:
321,135,43974,1,8,0:0:0:0:
278,145,44053,1,8,0:0:0:0:
235,133,44132,1,8,0:0:0:0:
202,103,44211,1,8,0:0:0:0:
187,61,44290,6,0,L|128:170,1,112.5,10|0,0:0|0:0,0:0:0:0:
76,107,44606,1,2,0:0:0:0:
148,258,44764,1,0,0:0:0:0:
215,162,44921,2,0,P|232:247|342:248,1,168.75,2|0,0:0|0:0,0:0:0:0:
321,205,45237,1,2,0:0:0:0:
209,331,45395,1,8,0:0:0:0:
305,379,45553,1,2,0:0:0:0:
221,209,45711,1,8,0:0:0:0:
377,348,45869,6,0,L|303:254,1,112.5,2|0,0:0|0:0,0:0:0:0:
188,238,46185,2,0,L|257:149,1,112.5,2|0,0:0|0:0,0:0:0:0:
206,50,46500,1,2,0:0:0:0:
206,50,46658,1,0,0:0:0:0:
107,225,46816,6,0,L|72:76,1,112.5,6|0,0:0|0:0,0:0:0:0:
201,221,47132,1,2,0:0:0:0:
201,221,47290,1,0,0:0:0:0:
258,358,47448,2,0,L|161:296,1,112.5,2|0,0:0|0:0,0:0:0:0:
270,275,47764,2,0,L|364:214,1,112.5,2|0,0:0|0:0,0:0:0:0:
197,108,48079,2,0,L|291:168,1,112.5,2|0,0:0|0:0,0:0:0:0:
321,86,48395,1,6,0:0:0:0:
197,198,48553,1,8,0:0:0:0:
295,17,48711,6,0,P|340:18|400:76,1,112.5,2|0,0:0|0:0,0:0:0:0:
417,148,49027,2,0,B|379:223|379:223|433:340,1,168.75,2|0,0:0|0:0,0:0:0:0:
400,329,49343,6,0,P|351:362|295:372,1,112.5,4|0,0:0|0:0,0:0:0:0:
199,214,49658,2,0,L|233:352,1,112.5,2|0,0:0|0:0,0:0:0:0:
289,160,49974,1,0,0:0:0:0:
289,160,50132,1,0,0:0:0:0:
227,21,50290,2,0,L|193:159,1,112.5,2|0,0:0|0:0,0:0:0:0:
129,204,50606,5,2,0:0:0:0:
337,120,50764,1,0,0:0:0:0:
287,235,50921,1,2,0:0:0:0:
244,74,51079,1,0,0:0:0:0:
206,313,51237,2,0,P|198:253|209:177,1,112.5,2|0,0:0|0:0,0:0:0:0:
320,67,51553,2,0,P|328:127|317:203,1,112.5,2|0,0:0|0:0,0:0:0:0:
353,279,51869,6,0,B|250:280|281:336|127:310,1,225,6|0,0:0|0:0,0:0:0:0:
87,370,52343,1,0,0:0:0:0:
184,241,52500,1,10,0:0:0:0:
68,153,52658,1,0,0:0:0:0:
84,252,52816,1,2,0:0:0:0:
84,252,52974,1,0,0:0:0:0:
213,179,53132,1,10,0:0:0:0:
111,61,53290,5,2,0:0:0:0:
174,271,53448,1,8,0:0:0:0:
279,131,53606,1,8,0:0:0:0:
80,205,53764,1,2,0:0:0:0:
286,310,53921,1,8,0:0:0:0:
79,122,54079,1,12,0:0:0:0:
157,336,54237,1,2,0:0:0:0:
201,72,54395,6,0,B|276:118|304:40|425:95,2,225,2|2|2,0:0|0:0|0:0,0:0:0:0:
254,173,55185,1,0,0:0:0:0:
135,228,55343,1,2,0:0:0:0:
201,72,55500,1,0,0:0:0:0:
117,148,55658,6,0,L|89:29,1,112.5,2|0,0:0|0:0,0:0:0:0:
176,271,55974,2,0,L|204:152,1,112.5,2|0,0:0|0:0,0:0:0:0:
336,105,56290,1,2,0:0:0:0:
336,105,56448,1,0,0:0:0:0:
266,272,56606,1,2,0:0:0:0:
234,98,56764,1,0,0:0:0:0:
368,279,56921,6,0,P|337:230|448:231,2,225,2|2|2,0:0|0:0|0:0,0:0:0:0:
302,334,57711,1,8,0:0:0:0:
216,260,57869,1,8,0:0:0:0:
262,157,58027,1,8,0:0:0:0:
224,50,58185,6,0,B|121:47|154:103|-6:96,2,225,2|2|2,0:0|0:0|0:0,0:0:0:0:
200,178,58974,1,0,0:0:0:0:
308,75,59132,1,0,0:0:0:0:
259,309,59290,1,0,0:0:0:0:
370,141,59448,6,0,P|384:201|286:162,1,225,2|0,0:0|0:0,0:0:0:0:
308,75,59921,1,0,0:0:0:0:
176,184,60079,1,2,0:0:0:0:
438,96,60237,1,0,0:0:0:0:
202,99,60395,1,2,0:0:0:0:
202,99,60553,1,0,0:0:0:0:
401,205,60711,6,0,L|283:170,1,112.5,2|0,0:0|0:0,0:0:0:0:
134,77,61027,1,2,0:0:0:0:
134,77,61185,1,8,0:0:0:0:
261,147,61343,1,8,0:0:0:0:
120,241,61500,1,2,0:0:0:0:
212,57,61658,1,8,0:0:0:0:
210,271,61816,1,8,0:0:0:0:
122,27,61974,6,0,L|176:195,1,168.75,2|0,0:0|0:0,0:0:0:0:
148,198,62290,2,0,P|151:268|61:265,1,168.75,2|0,0:0|0:0,0:0:0:0:
21,277,62606,2,0,B|47:351|47:351|141:376,1,168.75,2|0,0:0|0:0,0:0:0:0:
228,351,62921,1,2,0:0:0:0:
42,200,63079,1,4,0:0:0:0:
192,232,63237,5,2,0:0:0:0:
68,321,63395,1,0,0:0:0:0:
110,97,63553,1,2,0:0:0:0:
163,319,63711,1,8,0:0:0:0:
163,319,63790,1,0,0:0:0:0:
163,319,63869,1,8,0:0:0:0:
252,192,64027,1,0,0:0:0:0:
174,224,64185,1,0,0:0:0:0:
246,115,64343,1,0,0:0:0:0:
368,239,64500,5,12,0:0:0:0:
297,160,65448,1,0,3:3:0:0:
185,173,65606,1,0,3:3:0:0:
91,110,65764,1,2,3:3:0:0:
155,272,67027,5,2,3:3:0:0:
263,142,67658,1,8,3:0:0:0:
100,188,67816,1,0,3:0:0:0:
177,37,67974,1,8,3:0:0:0:
179,262,68132,1,0,3:0:0:0:
86,30,68290,5,8,0:0:0:0:
107,63,68369,1,8,0:0:0:0:
128,96,68448,1,8,0:0:0:0:
149,129,68527,1,8,0:0:0:0:
170,163,68606,1,8,0:0:0:0:
269,130,68764,1,0,0:0:0:0:
99,226,68921,1,8,0:0:0:0:
204,90,69079,1,8,0:0:0:0:
216,272,69237,1,8,0:0:0:0:
84,102,69395,1,8,0:0:0:0:
84,102,69553,5,6,3:2:0:0:
190,136,69711,1,0,3:3:0:0:
252,230,69869,1,8,3:3:0:0:
252,95,70500,2,0,L|273:215,1,101.250003862381
252,230,70816,5,2,3:3:0:0:
145,264,70974,1,0,3:3:0:0:
84,358,71132,1,8,3:3:0:0:
112,140,71764,5,2,0:0:0:0:
314,179,71921,1,8,0:0:0:0:
159,316,72079,5,6,0:0:0:0:
170,58,72237,1,8,0:0:0:0:
282,307,72395,5,2,0:0:0:0:
50,202,72553,1,8,0:0:0:0:
402,125,72711,5,6,0:0:0:0:
101,348,72869,1,8,0:0:0:0:
73,7,73027,5,2,0:0:0:0:
245,384,73185,1,8,0:0:0:0:
299,1,73343,6,0,B|323:67|251:74|307:154|307:154|313:113|349:97,3,225,6|2|2|2,0:0|0:0|0:0|0:0,0:0:0:0:
398,341,74606,6,0,B|432:257|432:257|396:162,1,175.499991966248,6|0,0:0|0:0,0:0:0:0:
361,184,74921,1,2,0:0:0:0:
246,282,75079,1,0,0:0:0:0:
274,82,75237,2,0,L|287:219,1,116.999994644165,2|0,0:0|0:0,0:0:0:0:
191,183,75553,1,8,0:0:0:0:
191,183,75632,1,0,0:0:0:0:
191,183,75711,1,8,0:0:0:0:
131,56,75869,6,0,P|84:134|104:222,1,175.499991966248,2|0,0:0|0:0,0:0:0:0:
158,340,76185,2,0,P|205:262|185:174,1,175.499991966248,2|0,0:0|0:0,0:0:0:0:
232,93,76500,2,8,P|143:114|95:191,1,175.499991966248,10|8,0:0|0:0,0:0:0:0:
155,244,76816,1,8,0:0:0:0:
193,217,76895,1,8,0:0:0:0:
238,210,76974,1,8,0:0:0:0:
283,224,77053,1,8,0:0:0:0:
316,256,77132,6,0,B|342:198|296:96|296:96|345:156|385:152,1,233.999989288331,2|0,0:0|0:0,0:0:0:0:
424,175,77606,1,0,0:0:0:0:
197,150,77764,1,2,0:0:0:0:
356,80,77921,1,0,0:0:0:0:
320,312,78079,1,2,0:0:0:0:
274,114,78237,1,8,0:0:0:0:
274,114,78316,1,0,0:0:0:0:
274,114,78395,6,0,B|303:143|296:183|296:183|395:166|405:287,2,233.999989288331,10|0|0,0:0|0:0|0:0,0:0:0:0:
198,240,79185,1,8,0:0:0:0:
198,240,79343,1,8,0:0:0:0:
274,114,79500,1,8,0:0:0:0:
148,24,79658,6,0,B|106:95|156:87|129:165|129:165|138:111|217:60,2,233.999989288331,4|0|0,0:0|0:0|0:0,0:0:0:0:
99,280,80448,1,0,0:0:0:0:
174,92,80606,1,2,0:0:0:0:
212,315,80764,2,0,L|167:206,1,116.999994644165
257,188,81079,5,0,0:0:0:0:
96,211,81237,1,2,0:0:0:0:
232,78,81395,1,0,0:0:0:0:
232,78,81553,1,2,0:0:0:0:
181,272,81711,1,0,0:0:0:0:
101,96,81869,5,2,0:0:0:0:
253,208,82027,1,8,0:0:0:0:
40,219,82185,5,6,0:0:0:0:
390,105,82343,1,8,0:0:0:0:
136,350,82500,5,2,0:0:0:0:
235,36,82658,1,8,0:0:0:0:
49,330,82816,5,2,0:0:0:0:
440,305,82974,1,8,0:0:0:0:
180,382,83132,5,2,0:0:0:0:
79,69,83290,1,8,0:0:0:0:
61,266,83448,5,2,0:0:0:0:
366,152,83606,1,8,0:0:0:0:
277,358,83764,5,2,0:0:0:0:
252,15,83921,1,8,0:0:0:0:
206,5,84000,1,8,0:0:0:0:
160,14,84079,1,8,0:0:0:0:
122,39,84158,1,8,0:0:0:0:
96,78,84237,1,8,0:0:0:0:
87,123,84316,1,8,0:0:0:0:
127,146,84395,1,8,0:0:0:0:
147,187,84474,1,8,0:0:0:0:
140,233,84553,2,0,L|153:302,1,58.4999973220826,8|0,0:0|0:0,0:0:0:0:
228,380,84711,5,6,0:0:0:0:
352,127,84869,1,8,0:0:0:0:
295,373,85027,5,2,0:0:0:0:
134,40,85185,1,8,0:0:0:0:
360,293,85343,5,2,0:0:0:0:
75,260,85500,1,8,0:0:0:0:
295,373,85658,5,2,0:0:0:0:
282,12,85816,1,8,0:0:0:0:
392,382,85974,5,2,0:0:0:0:
207,1,86132,1,8,0:0:0:0:
217,384,86290,5,2,0:0:0:0:
350,5,86448,1,8,0:0:0:0:
337,335,86606,5,2,0:0:0:0:
127,10,86764,1,8,0:0:0:0:
159,310,86921,1,0,0:0:0:0:
159,310,87000,1,0,0:0:0:0:
159,310,87079,1,0,0:0:0:0:
159,310,87158,1,0,0:0:0:0:
159,310,87237,6,0,B|204:295|237:305|237:305|234:235|268:171,1,175.499991966248,4|0,0:0|0:0,0:0:0:0:
270,138,87553,1,0,0:0:0:0:
270,138,87632,1,0,0:0:0:0:
270,138,87711,1,0,0:0:0:0:
270,138,87790,1,0,0:0:0:0:
270,138,87869,6,0,B|266:102|239:81|239:81|295:42|301:90|360:34,1,175.499991966248,4|0,0:0|0:0,0:0:0:0:
410,113,88185,1,0,0:0:0:0:
410,113,88264,1,0,0:0:0:0:
410,113,88343,1,0,0:0:0:0:
410,113,88421,1,0,0:0:0:0:
410,113,88500,6,0,B|380:166|416:166|382:219|382:219|448:238|486:296,1,233.999989288331,4|0,0:0|0:0,0:0:0:0:
287,295,88974,1,0,0:0:0:0:
287,295,89132,6,0,B|304:188|245:201|278:94,1,175.499991966248,2|0,0:0|0:0,0:0:0:0:
250,103,89448,2,0,L|195:162,1,58.4999973220826,2|0,0:0|0:0,0:0:0:0:
122,267,89606,1,8,0:0:0:0:
122,267,89685,1,8,0:0:0:0:
122,267,89764,6,0,B|161:327|161:327|314:338,1,175.499991966248,2|0,0:0|0:0,0:0:0:0:
313,238,90079,2,0,B|335:358|335:358|384:315,1,175.499991966248,2|0,0:0|0:0,0:0:0:0:
434,296,90395,1,0,0:0:0:0:
224,233,90553,1,0,0:0:0:0:
345,157,90711,1,2,0:0:0:0:
253,330,90869,1,0,0:0:0:0:
233,128,91027,5,2,0:0:0:0:
337,287,91185,1,0,0:0:0:0:
164,226,91343,1,2,0:0:0:0:
329,104,91500,1,8,0:0:0:0:
329,104,91579,1,0,0:0:0:0:
329,104,91658,1,8,0:0:0:0:
242,257,91816,1,0,0:0:0:0:
104,155,91974,1,2,0:0:0:0:
87,359,92132,5,4,0:0:0:0:
87,359,92211,1,0,0:0:0:0:
87,359,92290,5,8,0:0:0:0:
128,318,92369,1,0,0:0:0:0:
183,303,92448,1,0,2:3:0:0:
240,317,92527,1,0,0:0:0:0:
282,356,92606,1,2,0:0:0:0:
339,361,92685,1,0,0:0:0:0:
389,332,92764,1,0,0:0:0:0:
414,280,92843,1,0,0:0:0:0:
404,223,92921,5,8,0:0:0:0:
364,182,93000,1,0,0:0:0:0:
308,171,93079,1,0,0:0:0:0:
255,148,93158,1,0,0:0:0:0:
232,96,93237,5,2,0:0:0:0:
251,42,93316,1,0,0:0:0:0:
301,15,93395,1,0,0:0:0:0:
356,30,93474,1,0,0:0:0:0:
386,79,93553,5,12,0:0:0:0:
371,145,93632,1,0,0:0:0:0:
309,173,93711,1,0,0:0:0:0:
249,141,93790,1,0,0:0:0:0:
207,85,93869,5,2,0:0:0:0:
143,60,93948,1,0,0:0:0:0:
75,74,94027,1,0,0:0:0:0:
24,121,94106,1,0,0:0:0:0:
7,188,94185,5,8,0:0:0:0:
28,254,94264,1,0,0:0:0:0:
82,299,94343,1,0,0:0:0:0:
150,308,94421,1,0,0:0:0:0:
213,280,94500,5,2,0:0:0:0:
269,320,94579,1,0,0:0:0:0:
338,318,94658,1,0,0:0:0:0:
391,275,94737,1,0,0:0:0:0:
407,208,94816,5,14,0:0:0:0:
333,204,94895,1,0,0:0:0:0:
283,149,94974,1,8,0:0:0:0:
288,75,95053,1,0,0:0:0:0:
345,27,95132,5,8,0:0:0:0:
418,33,95211,1,0,0:0:0:0:
465,91,95290,1,8,0:0:0:0:
464,167,95369,1,0,0:0:0:0:
464,243,95448,5,12,0:0:0:0:
463,319,95527,1,0,0:0:0:0:
412,264,95606,1,8,0:0:0:0:
338,257,95685,1,0,0:0:0:0:
278,300,95764,5,8,0:0:0:0:
204,313,95843,1,0,0:0:0:0:
138,278,95921,1,8,0:0:0:0:
106,210,96000,1,0,0:0:0:0:
122,137,96079,5,12,0:0:0:0:
138,154,97343,5,6,0:0:0:0:
195,274,97500,1,8,0:0:0:0:
195,274,97579,1,0,0:0:0:0:
195,274,97658,1,8,0:0:0:0:
232,112,97816,2,0,L|254:224,1,90
106,294,98132,1,0,0:0:0:0:
313,242,98290,1,0,0:0:0:0:
205,318,98448,1,0,0:0:0:0:
179,89,98606,6,0,B|163:133|163:133|178:216,1,90,2|0,0:0|0:0,0:0:0:0:
248,258,98921,2,0,B|264:214|264:214|249:131,1,90
240,128,99158,1,0,0:0:0:0:
240,128,99237,1,0,0:0:0:0:
168,231,99395,1,0,0:0:0:0:
382,160,99553,1,0,0:0:0:0:
272,296,99711,1,0,0:0:0:0:
111,112,99869,6,0,B|209:126|184:191|280:184,2,180,2|2|2,0:0|0:0|0:0,0:0:0:0:
112,215,100658,1,0,0:0:0:0:
238,71,100816,1,0,0:0:0:0:
211,245,100974,1,0,0:0:0:0:
293,0,101132,5,6,0:0:0:0:
96,155,101290,1,8,0:0:0:0:
352,142,101448,1,2,0:0:0:0:
153,45,101606,5,8,0:0:0:0:
280,245,101764,1,2,0:0:0:0:
76,234,101921,1,8,0:0:0:0:
246,80,102079,5,2,0:0:0:0:
176,310,102237,1,8,0:0:0:0:
428,296,102395,6,0,P|374:330|304:345,1,135,2|0,0:0|0:0,0:0:0:0:
224,179,102711,2,0,P|281:214|346:227,1,135,2|0,0:0|0:0,0:0:0:0:
400,191,103027,1,8,0:0:0:0:
176,310,103185,2,0,L|278:277,1,90,2|0,0:0|0:0,0:0:0:0:
316,375,103500,1,0,0:0:0:0:
106,198,103658,5,10,0:0:0:0:
176,310,103816,1,0,0:0:0:0:
166,113,103974,1,8,0:0:0:0:
62,302,104132,1,8,0:0:0:0:
62,302,104211,1,0,0:0:0:0:
62,302,104290,1,8,0:0:0:0:
198,184,104448,2,0,L|192:294,1,90
299,242,104764,1,0,0:0:0:0:
299,242,104921,6,0,B|301:192|301:192|279:131|279:131|287:50,1,180,2|0,0:0|0:0,0:0:0:0:
152,217,105395,1,4,0:0:0:0:
324,322,105553,1,2,0:0:0:0:
150,121,105711,1,2,0:0:0:0:
195,347,105869,1,2,0:0:0:0:
253,75,106027,6,0,B|214:121|261:129|227:188|227:188|270:152|360:159,1,225,2|0,0:0|0:0,0:0:0:0:
363,173,106500,1,8,0:0:0:0:
345,214,106579,1,8,0:0:0:0:
328,256,106658,1,8,0:0:0:0:
311,297,106737,1,8,0:0:0:0:
294,339,106816,5,8,0:0:0:0:
182,196,106974,1,8,0:0:0:0:
187,330,107132,1,8,0:0:0:0:
239,256,107290,1,8,0:0:0:0:
239,256,107448,5,14,0:0:0:0:
139,138,109027,5,8,0:0:0:0:
306,204,109343,5,8,0:0:0:0:
155,301,109658,5,8,0:0:0:0:
207,108,109816,2,0,L|207:166,2,45,10|10|10,0:0|0:0|0:0,0:0:0:0:
235,152,110606,5,8,0:0:0:0:
304,221,110764,1,8,0:0:0:0:
296,264,110843,1,8,0:0:0:0:
267,297,110921,1,10,0:0:0:0:
224,308,111000,1,8,0:0:0:0:
182,294,111079,1,8,0:0:0:0:
155,258,111158,1,8,0:0:0:0:
151,214,111237,5,10,0:0:0:0:
295,104,112500,5,12,0:0:0:0:
144,128,114869,5,8,0:0:0:0:
144,128,114948,1,0,0:0:0:0:
144,128,115027,2,0,L|224:225,1,90,8|0,0:0|0:0,0:0:0:0:
309,173,115500,5,8,0:0:0:0:
145,279,115658,1,8,0:0:0:0:
233,366,115816,1,2,0:0:0:0:
184,381,116132,5,8,0:0:0:0:
110,326,116290,1,2,0:0:0:0:
50,374,116448,1,8,0:0:0:0:
46,284,116606,5,8,0:0:0:0:
126,206,116764,1,2,0:0:0:0:
47,261,116921,1,8,0:0:0:0:
71,123,117079,1,8,0:0:0:0:
71,123,117158,1,0,0:0:0:0:
71,123,117237,1,8,0:0:0:0:
211,232,117395,1,8,0:0:0:0:
211,232,117474,1,0,0:0:0:0:
211,232,117553,5,12,0:0:0:0:
177,65,118027,5,0,3:0:0:0:
91,167,118185,1,0,3:0:0:0:
227,165,118816,5,0,3:0:0:0:
227,187,119132,1,0,3:0:0:0:
226,209,119448,1,0,0:0:0:0:
104,157,119606,1,0,0:0:0:0:
310,293,120079,6,0,B|341:146|341:146|316:203|290:216,1,225,2|0,0:0|0:0,0:0:0:0:
264,193,120553,1,0,0:0:0:0:
387,79,120711,1,0,0:0:0:0:
404,244,121343,6,0,P|365:296|288:320,1,135,2|0,0:0|0:0,0:0:0:0:
287,296,121658,1,0,0:0:0:0:
405,367,121974,1,0,0:0:0:0:
389,199,122290,1,8,0:0:0:0:
218,383,122606,5,6,0:0:0:0:
304,349,122921,1,8,0:0:0:0:
336,378,123079,1,8,0:0:0:0:
411,316,123237,1,8,0:0:0:0:
499,362,123553,5,8,0:0:0:0:
465,300,123711,1,8,0:0:0:0:
488,186,123869,1,2,0:0:0:0:
419,235,124185,1,2,0:0:0:0:
488,77,124500,1,8,0:0:0:0:
364,173,124816,1,8,0:0:0:0:
256,7,125132,5,4,0:0:0:0:
153,302,125448,1,8,0:0:0:0:
430,195,125764,1,8,0:0:0:0:
176,216,126079,5,8,0:0:0:0:
320,112,126237,1,8,0:0:0:0:
268,358,126395,2,0,B|243:257|284:300|259:155,1,198.000006042481,4|0,0:0|0:0,0:0:0:0:
190,105,126869,5,2,0:0:0:0:
152,253,127027,1,0,0:0:0:0:
152,253,127106,1,0,0:0:0:0:
152,253,127185,1,0,0:0:0:0:
152,253,127264,1,0,0:0:0:0:
152,253,127343,1,0,0:0:0:0:
266,230,127500,1,0,0:0:0:0:
75,107,127658,6,0,L|88:177,1,45,2|0,0:0|0:0,0:0:0:0:
28,196,127816,2,0,L|15:266,1,45,2|0,0:0|0:0,0:0:0:0:
130,357,127974,2,0,L|113:268,1,90,2|0,0:0|0:0,0:0:0:0:
230,169,128290,2,0,L|213:257,1,90,2|0,0:0|0:0,0:0:0:0:
142,137,128606,2,0,L|125:48,1,90,2|0,0:0|0:0,0:0:0:0:
230,169,128921,5,2,0:0:0:0:
230,169,129079,1,0,0:0:0:0:
301,317,129237,2,0,L|318:228,1,90,2|0,0:0|0:0,0:0:0:0:
341,98,129553,1,2,0:0:0:0:
341,98,129711,1,0,0:0:0:0:
198,261,129869,1,2,0:0:0:0:
196,112,130027,1,0,0:0:0:0:
292,254,130185,6,0,L|265:318,1,45,2|0,0:0|0:0,0:0:0:0:
351,311,130343,2,0,L|378:375,1,45,2|0,0:0|0:0,0:0:0:0:
377,219,130500,2,0,L|412:137,1,90,2|0,0:0|0:0,0:0:0:0:
307,117,130816,1,2,0:0:0:0:
469,224,130974,1,0,0:0:0:0:
341,307,131132,1,2,0:0:0:0:
399,50,131290,6,0,B|425:150|372:136|400:268,1,180,2|0,0:0|0:0,0:0:0:0:
420,309,131764,1,6,0:0:0:0:
297,346,131921,1,0,0:0:0:0:
474,197,132079,1,2,0:0:0:0:
261,256,132237,1,0,0:0:0:0:
383,381,132395,2,0,L|343:290,1,90,2|0,0:0|0:0,0:0:0:0:
312,150,132711,5,8,0:0:0:0:
312,150,133027,2,0,L|288:56,1,90,2|0,0:0|0:0,0:0:0:0:
195,225,133343,2,0,L|219:131,1,90,2|0,0:0|0:0,0:0:0:0:
284,248,133658,2,0,L|260:342,1,90,2|0,0:0|0:0,0:0:0:0:
376,263,133974,6,0,L|353:175,1,90,2|0,0:0|0:0,0:0:0:0:
340,336,134290,2,8,L|417:381,1,90,10|8,0:0|0:0,0:0:0:0:
512,239,134606,2,8,L|434:284,1,90,10|8,0:0|0:0,0:0:0:0:
409,265,134843,1,8,0:0:0:0:
409,265,134921,2,2,B|371:235|371:235|356:144,1,135,10|2,0:0|0:0,0:0:0:0:
370,130,135237,5,12,0:0:0:0:
370,130,135553,2,0,L|275:73,1,90,2|0,0:0|0:0,0:0:0:0:
355,41,135869,1,2,0:0:0:0:
227,152,136027,1,0,0:0:0:0:
273,0,136185,1,2,0:0:0:0:
273,0,136343,1,0,0:0:0:0:
172,84,136500,5,2,0:0:0:0:
172,278,136658,1,2,0:0:0:0:
285,182,136816,1,8,0:0:0:0:
102,157,136974,5,2,0:0:0:0:
255,290,137132,1,2,0:0:0:0:
246,93,137290,1,8,0:0:0:0:
159,327,137448,5,6,0:0:0:0:
333,352,137606,1,2,0:0:0:0:
205,211,137764,6,0,L|193:106,1,90,12|0,0:0|0:0,0:0:0:0:
292,287,138079,2,0,L|304:182,1,90,2|0,0:0|0:0,0:0:0:0:
250,356,138395,2,0,L|167:290,1,90,2|0,0:0|0:0,0:0:0:0:
210,238,138711,2,0,L|199:148,1,90,6|0,0:0|0:0,0:0:0:0:
264,35,139027,5,8,0:0:0:0:
264,35,139343,2,0,L|274:124,1,90,2|0,0:0|0:0,0:0:0:0:
168,75,139658,1,2,0:0:0:0:
168,75,139816,1,0,0:0:0:0:
184,254,139974,2,0,L|213:158,1,90,2|0,0:0|0:0,0:0:0:0:
295,44,140290,6,0,L|317:262,1,180,6|0,0:0|0:0,0:0:0:0:
274,321,140764,1,8,0:0:0:0:
412,312,140921,6,0,L|430:132,1,180,6|0,0:0|0:0,0:0:0:0:
295,44,141395,1,8,0:0:0:0:
255,141,141553,6,0,L|274:321,1,180,6|0,0:0|0:0,0:0:0:0:
177,288,142027,1,8,0:0:0:0:
177,288,142185,1,2,0:0:0:0:
116,158,142343,1,8,0:0:0:0:
79,251,142500,2,0,L|85:371,1,90,4|0,0:0|0:0,0:0:0:0:
223,344,142816,6,0,B|270:282|270:282|284:199,1,135,2|0,0:0|0:0,0:0:0:0:
240,197,143132,1,8,0:0:0:0:
366,254,143290,2,0,B|376:331|376:331|425:399,1,135,2|0,0:0|0:0,0:0:0:0:
496,348,143606,1,8,0:0:0:0:
496,348,143764,1,8,0:0:0:0:
398,203,143921,1,8,0:0:0:0:
465,230,144079,6,0,B|471:279|439:310|439:310|390:315|347:253,1,180,6|0,0:0|0:0,0:0:0:0:
345,165,144553,1,0,0:0:0:0:
345,165,144711,1,2,0:0:0:0:
251,79,144869,1,0,0:0:0:0:
246,259,145027,2,2,B|224:208|224:208|225:152,1,90,0|0,0:0|0:0,0:0:0:0:
161,290,145343,6,0,B|205:336|205:336|312:337,1,135,6|0,0:0|0:0,0:0:0:0:
346,348,145658,2,0,L|366:252,1,90,2|0,0:0|0:0,0:0:0:0:
338,215,145895,1,8,0:0:0:0:
338,215,145974,2,0,P|291:183|292:100,1,135,8|0,0:0|0:0,0:0:0:0:
330,96,146290,1,0,0:0:0:0:
122,188,146448,5,4,0:0:0:0:
162,90,146606,1,2,0:0:0:0:
193,272,146764,1,2,0:0:0:0:
250,86,146921,5,10,0:0:0:0:
285,58,146999,1,8,0:0:0:0:
328,46,147078,1,8,0:0:0:0:
372,50,147157,1,8,0:0:0:0:
412,71,147236,1,10,0:0:0:0:
347,158,147395,1,8,0:0:0:0:
455,158,147553,1,8,0:0:0:0:
455,158,147711,1,8,0:0:0:0:
356,276,147869,5,14,0:0:0:0:
174,69,149132,5,0,3:0:0:0:
254,218,149607,1,0,3:0:0:0:
254,218,149764,1,0,3:0:0:0:
358,85,150079,1,0,3:0:0:0:
124,242,150395,5,0,3:0:0:0:
340,294,150711,1,0,3:0:0:0:
340,294,150869,1,0,3:0:0:0:
260,167,151027,5,8,0:0:0:0:
233,331,151185,1,8,0:0:0:0:
386,183,151343,1,8,0:0:0:0:
177,251,151500,1,8,0:0:0:0:
177,251,151579,1,0,0:0:0:0:
177,251,151658,5,12,0:0:0:0:
282,136,151816,1,0,0:0:0:0:
291,323,151974,1,2,0:0:0:0:
192,152,152132,1,0,0:0:0:0:
385,295,152290,1,2,0:0:0:0:
201,313,152448,1,0,0:0:0:0:
353,177,152606,1,2,0:0:0:0:
260,365,152764,1,0,0:0:0:0:
266,153,152921,5,0,3:0:0:0:
360,366,153079,1,0,3:0:0:0:
173,66,153869,2,0,L|173:214,1,135
200,216,154185,1,0,3:0:0:0:
39,78,154343,1,0,3:0:0:0:
140,203,155132,5,2,0:0:0:0:
140,203,155290,1,0,0:0:0:0:
105,73,155448,5,6,0:0:0:0:
261,227,155606,1,8,0:0:0:0:
210,34,155764,5,2,0:0:0:0:
100,324,155921,1,8,0:0:0:0:
31,26,156079,5,2,0:0:0:0:
216,353,156237,1,8,0:0:0:0:
279,190,156395,5,2,0:0:0:0:
19,279,156553,1,8,0:0:0:0:
174,50,156711,6,0,B|193:135|193:135|149:243,3,180,6|2|2|2,0:0|0:0|0:0|0:0,0:0:0:0:
328,83,157974,5,2,0:0:0:0:
121,229,163027,5,2,0:0:0:0:
121,229,163343,2,0,P|110:171|123:119,1,90,8|0,0:0|0:0,0:0:0:0:
270,12,163658,5,2,0:0:0:0:
270,12,163974,2,0,P|281:70|268:122,1,90,8|0,0:0|0:0,0:0:0:0:
192,166,164290,5,2,0:0:0:0:
192,166,164606,2,0,P|187:210|198:254,1,90,8|0,0:0|0:0,0:0:0:0:
296,352,164921,5,2,0:0:0:0:
296,352,165237,2,0,P|300:307|289:263,1,90,8|0,0:0|0:0,0:0:0:0:
165,319,165553,5,6,0:0:0:0:
64,93,165711,1,0,0:0:0:0:
332,272,165869,1,8,0:0:0:0:
332,272,165948,1,0,0:0:0:0:
332,272,166027,1,8,0:0:0:0:
89,284,166185,1,2,0:0:0:0:
232,94,166343,1,0,0:0:0:0:
187,377,166500,1,2,0:0:0:0:
83,22,166658,1,0,0:0:0:0:
264,308,166816,5,6,0:0:0:0:
371,283,167132,1,10,0:0:0:0:
371,283,167211,1,8,0:0:0:0:
371,283,167290,2,8,L|355:219,1,45,0|8,0:0|0:0,0:0:0:0:
296,93,167448,1,10,0:0:0:0:
312,133,167527,1,8,0:0:0:0:
297,175,167606,1,8,0:0:0:0:
260,198,167685,1,8,0:0:0:0:
216,190,167764,5,10,0:0:0:0:
216,87,167921,1,8,0:0:0:0:
283,266,168079,1,12,0:0:0:0:
339,317,170606,6,0,B|374:242|410:293|450:194|450:194|442:113|356:60|234:105|275:228,1,440.999986541748,2|0,0:0|0:0,0:0:0:0:
210,228,171237,6,0,B|130:247|102:305|102:305|22:211|113:197|26:95|26:95|67:120|139:116,1,440.999986541748,2|0,0:0|0:0,0:0:0:0:
189,157,171869,6,0,B|211:130|241:130|241:130|238:82|283:50|283:50|345:63|356:124|356:124|356:90|387:65,1,314.999990386963,2|0,0:0|0:0,0:0:0:0:
440,142,172343,1,8,0:0:0:0:
452,326,172500,2,0,L|480:228,1,101.250003862381,2|0,0:0|0:0,0:0:0:0:
383,214,172816,1,8,0:0:0:0:
383,214,172974,1,8,0:0:0:0:
170,212,173132,5,6,0:0:0:0:
170,212,173448,2,0,L|178:104,1,90,8|0,0:0|0:0,0:0:0:0:
266,318,173764,5,2,0:0:0:0:
266,318,174079,2,0,L|273:229,1,90,8|0,0:0|0:0,0:0:0:0:
234,121,174395,5,2,0:0:0:0:
234,121,174711,1,8,0:0:0:0:
185,255,174869,1,8,0:0:0:0:
143,124,175027,1,2,0:0:0:0:
143,124,175185,1,2,0:0:0:0:
268,186,175343,1,8,0:0:0:0:
119,291,175500,1,8,0:0:0:0:
187,366,175658,5,4,0:0:0:0:
96,3,175816,1,2,0:0:0:0:
106,381,175974,5,8,0:0:0:0:
328,97,176132,1,2,0:0:0:0:
406,266,176290,5,8,0:0:0:0:
57,64,176448,1,2,0:0:0:0:
316,377,176606,5,8,0:0:0:0:
411,25,176764,1,2,0:0:0:0:
121,344,176921,5,8,0:0:0:0:
501,225,177079,1,2,0:0:0:0:
58,166,177237,5,8,0:0:0:0:
404,358,177395,1,2,0:0:0:0:
132,26,177553,5,8,0:0:0:0:
217,370,177711,1,2,0:0:0:0:
280,47,177869,5,8,0:0:0:0:
128,348,178027,1,2,0:0:0:0:
42,163,178185,5,6,0:0:0:0:
40,118,178264,1,0,0:0:0:0:
61,79,178343,1,0,0:0:0:0:
100,57,178421,1,0,0:0:0:0:
144,57,178500,1,8,0:0:0:0:
182,79,178579,1,0,0:0:0:0:
203,118,178658,1,0,0:0:0:0:
214,162,178737,1,0,0:0:0:0:
246,192,178816,5,12,0:0:0:0:
289,200,178895,1,0,0:0:0:0:
331,184,178974,1,0,0:0:0:0:
356,147,179053,1,0,0:0:0:0:
357,103,179132,5,8,0:0:0:0:
359,59,179211,1,0,0:0:0:0:
390,28,179290,1,0,0:0:0:0:
434,28,179369,1,0,0:0:0:0:
466,58,179448,6,0,B|520:146|450:146|503:256,3,180,6|2|2|2,0:0|0:0|0:0|0:0,0:0:0:0:
192,256,180711,6,0,B|214:196|174:176|187:93|187:93|195:151|245:188,1,270.000010299683,6|0,0:0|0:0,0:0:0:0:
292,283,181185,1,0,0:0:0:0:
93,182,181343,1,2,0:0:0:0:
162,334,181500,1,0,0:0:0:0:
331,153,181658,1,2,0:0:0:0:
163,51,181816,1,8,0:0:0:0:
163,51,181895,1,0,0:0:0:0:
163,51,181974,6,0,P|116:129|143:233,1,202.500007724762,10|0,0:0|0:0,0:0:0:0:
200,381,182290,2,0,P|247:303|220:199,1,202.500007724762
264,88,182606,2,0,P|175:109|121:202,1,202.500007724762,2|0,0:0|0:0,0:0:0:0:
224,234,182921,1,8,0:0:0:0:
252,270,182999,1,8,0:0:0:0:
297,283,183078,1,8,0:0:0:0:
341,269,183157,1,8,0:0:0:0:
369,232,183237,6,0,P|344:155|456:203,1,270.000010299683,2|0,0:0|0:0,0:0:0:0:
434,287,183711,1,0,0:0:0:0:
232,162,183869,1,2,0:0:0:0:
306,318,184027,1,0,0:0:0:0:
398,134,184185,1,8,0:0:0:0:
395,87,184263,1,8,0:0:0:0:
366,51,184342,1,8,0:0:0:0:
321,38,184421,1,8,0:0:0:0:
277,54,184500,6,0,B|140:100|144:-6|7:58,2,270.000010299683,2|2|2,0:0|0:0|0:0,0:0:0:0:
242,178,185290,1,0,0:0:0:0:
368,63,185448,1,8,0:0:0:0:
368,63,185527,1,0,0:0:0:0:
368,63,185606,1,8,0:0:0:0:
354,327,185764,6,0,L|276:49,1,270.000010299683,6|0,0:0|0:0,0:0:0:0:
223,205,186395,1,2,0:0:0:0:
223,104,186553,1,0,0:0:0:0:
122,103,186711,1,2,0:0:0:0:
122,205,186869,2,0,P|66:207|17:128,1,135.000005149842
86,31,187185,5,2,0:0:0:0:
203,225,187343,1,0,0:0:0:0:
98,296,187500,2,8,B|56:158|136:190|81:17,1,270.000010299683,10|8,0:0|0:0,0:0:0:0:
314,243,187974,5,8,0:0:0:0:
290,48,188132,1,8,0:0:0:0:
180,243,188290,1,2,0:0:0:0:
180,243,188448,1,8,0:0:0:0:
201,61,188606,1,8,0:0:0:0:
279,331,188764,1,2,0:0:0:0:
325,221,188921,5,2,0:0:0:0:
189,327,189079,1,2,0:0:0:0:
235,161,189237,1,8,0:0:0:0:
402,368,189395,1,2,0:0:0:0:
436,242,189553,5,8,0:0:0:0:
303,367,189711,1,8,0:0:0:0:
342,256,189869,5,12,0:0:0:0:
301,279,189947,1,0,0:0:0:0:
254,280,190026,1,10,0:0:0:0:
213,258,190105,1,0,0:0:0:0:
187,220,190184,1,8,0:0:0:0:
182,173,190263,1,0,0:0:0:0:
196,129,190342,1,8,0:0:0:0:
186,83,190421,1,0,0:0:0:0:
153,50,190500,5,8,0:0:0:0:
108,38,190579,1,0,0:0:0:0:
63,51,190658,1,10,0:0:0:0:
32,85,190737,1,0,0:0:0:0:
22,130,190816,6,0,L|98:277,1,135.000005149842,6|8,0:0|0:0,0:0:0:0:
82,362,191132,1,2,0:0:0:0:
154,142,191290,1,8,0:0:0:0:
212,346,191448,5,2,0:0:0:0:
62,110,191606,1,8,0:0:0:0:
48,325,191764,5,2,0:0:0:0:
278,167,191921,1,8,0:0:0:0:
264,352,192079,5,2,0:0:0:0:
206,50,192237,1,8,0:0:0:0:
158,285,192395,5,2,0:0:0:0:
432,184,192553,1,8,0:0:0:0:
353,345,192711,5,2,0:0:0:0:
281,58,192869,1,8,0:0:0:0:
196,358,193027,5,10,0:0:0:0:
196,358,193106,1,8,0:0:0:0:
196,358,193185,1,8,0:0:0:0:
196,358,193264,1,8,0:0:0:0:
196,358,193343,6,0,B|196:249|196:249|146:170,1,202.500007724762,4|0,0:0|0:0,0:0:0:0:
199,111,193658,1,8,0:0:0:0:
199,111,193737,1,8,0:0:0:0:
199,111,193816,1,8,0:0:0:0:
199,111,193895,1,8,0:0:0:0:
199,111,193974,6,0,B|314:70|312:138|453:99,1,202.500007724762,4|0,0:0|0:0,0:0:0:0:
445,208,194290,1,8,0:0:0:0:
445,208,194369,1,8,0:0:0:0:
445,208,194448,1,8,0:0:0:0:
445,208,194527,1,8,0:0:0:0:
445,208,194606,6,0,B|405:226|406:272|406:272|296:239|311:320|186:258,1,270.000010299683,4|0,0:0|0:0,0:0:0:0:
194,109,195079,5,2,0:0:0:0:
194,109,195237,2,0,B|266:55|266:55|335:55|335:55|258:110,1,202.500007724762,2|0,0:0|0:0,0:0:0:0:
294,139,195553,2,0,P|379:198|382:91,1,202.500007724762,2|0,0:0|0:0,0:0:0:0:
431,93,195869,2,0,L|492:294,1,202.500007724762,2|0,0:0|0:0,0:0:0:0:
458,308,196185,2,0,P|384:254|360:349,1,202.500007724762,2|0,0:0|0:0,0:0:0:0:
304,336,196500,5,2,0:0:0:0:
199,185,196658,1,0,0:0:0:0:
191,332,196816,1,8,0:0:0:0:
283,124,196974,5,4,0:0:0:0:
111,291,197132,1,2,0:0:0:0:
111,291,197290,1,2,0:0:0:0:
139,82,197448,1,8,0:0:0:0:
232,264,197606,1,8,0:0:0:0:
50,125,197764,5,8,0:0:0:0:
50,125,197843,1,0,0:0:0:0:
50,125,197921,1,8,0:0:0:0:
164,250,198079,1,2,0:0:0:0:
256,116,198237,1,0,0:0:0:0:
147,336,198395,5,6,0:0:0:0:
215,60,198553,1,8,0:0:0:0:
215,60,198632,1,0,0:0:0:0:
215,60,198711,1,2,0:0:0:0:
247,346,198869,5,12,0:0:0:0:
99,121,199027,1,2,0:0:0:0:
99,121,199106,1,0,0:0:0:0:
99,121,199185,1,8,0:0:0:0:
101,368,199343,5,6,0:0:0:0:
311,88,199500,1,8,0:0:0:0:
203,375,199658,5,6,0:0:0:0:
192,30,199816,1,8,0:0:0:0:
192,30,199895,1,0,0:0:0:0:
192,30,199974,1,2,0:0:0:0:
297,340,200132,5,12,0:0:0:0:
70,138,200290,1,2,0:0:0:0:
201,360,200448,5,8,0:0:0:0:
143,23,200606,1,6,0:0:0:0:
109,348,200764,5,8,0:0:0:0:
298,24,200921,1,6,0:0:0:0:
298,24,201000,1,0,0:0:0:0:
298,24,201079,1,8,0:0:0:0:
263,350,201237,5,6,0:0:0:0:
79,164,201395,1,8,0:0:0:0:
79,164,201474,1,0,0:0:0:0:
79,164,201553,1,6,0:0:0:0:
148,340,201711,5,8,0:0:0:0:
405,165,201869,1,6,0:0:0:0:
328,337,202027,5,8,0:0:0:0:
224,34,202185,1,6,0:0:0:0:
226,364,202343,5,12,0:0:0:0:
496,135,202500,1,2,0:0:0:0:
377,369,202658,5,12,0:0:0:0:
293,17,202816,1,2,0:0:0:0:
443,368,202974,5,8,0:0:0:0:
109,107,203132,1,6,0:0:0:0:
242,257,203290,1,8,0:0:0:0:
108,382,203448,5,4,0:0:0:0:
70,350,203527,1,0,0:0:0:0:
53,304,203606,1,2,0:0:0:0:
59,255,203685,1,0,0:0:0:0:
88,216,203764,5,8,0:0:0:0:
132,194,203843,1,0,0:0:0:0:
181,197,203921,1,2,0:0:0:0:
223,222,204000,1,0,0:0:0:0:
262,257,204079,5,4,0:0:0:0:
315,258,204158,1,0,0:0:0:0:
356,225,204237,1,2,0:0:0:0:
367,173,204316,1,0,0:0:0:0:
342,127,204395,5,8,0:0:0:0:
333,74,204474,1,0,0:0:0:0:
360,29,204553,1,2,0:0:0:0:
410,11,204632,1,0,0:0:0:0:
459,30,204711,5,4,0:0:0:0:
459,98,204790,1,0,0:0:0:0:
459,165,204869,1,2,0:0:0:0:
459,233,204948,1,0,0:0:0:0:
458,301,205027,5,8,0:0:0:0:
418,354,205106,1,0,0:0:0:0:
354,371,205185,1,2,0:0:0:0:
294,344,205264,1,0,0:0:0:0:
264,285,205343,5,4,0:0:0:0:
278,220,205421,1,0,0:0:0:0:
299,157,205500,1,2,0:0:0:0:
283,92,205579,1,8,0:0:0:0:
234,47,205658,5,0,0:0:0:0:
169,36,205737,1,0,0:0:0:0:
107,62,205816,1,2,0:0:0:0:
71,118,205895,1,0,0:0:0:0:
70,184,205974,5,4,3:2:0:0:
141,218,206053,1,0,3:2:0:0:
212,252,206132,1,8,3:2:0:0:
283,286,206211,1,0,3:2:0:0:
286,209,206290,5,4,3:2:0:0:
341,156,206369,1,0,3:2:0:0:
418,157,206448,1,8,3:2:0:0:
447,88,206527,1,0,3:2:0:0:
402,27,206606,5,4,3:2:0:0:
327,35,206685,1,0,3:2:0:0:
295,103,206764,1,8,3:2:0:0:
297,181,206843,1,0,3:2:0:0:
255,246,206921,5,4,3:2:0:0:
184,275,207000,1,0,3:2:0:0:
108,259,207079,1,8,3:2:0:0:
55,202,207158,1,0,3:2:0:0:
43,125,207237,5,4,3:2:0:0:
186,186,208343,2,0,L|207:144,3,30,2|0|0|0,3:0|3:0|3:0|3:0,3:0:0:0:
323,102,208816,6,0,P|314:173|233:261,2,180,6|2|2,0:0|0:0|0:0,0:0:0:0:
205,103,209606,1,8,0:0:0:0:
205,103,209685,1,0,0:0:0:0:
205,103,209764,6,0,B|208:192|208:192|119:223,1,180,10|0,0:0|0:0,0:0:0:0:
200,283,210237,1,0,0:0:0:0:
200,283,210395,1,2,0:0:0:0:
373,153,210553,1,0,0:0:0:0:
82,336,210712,1,8,0:0:0:0:
83,304,210790,1,8,0:0:0:0:
84,273,210869,1,8,0:0:0:0:
86,241,210948,1,8,0:0:0:0:
87,210,211027,6,0,B|166:142|105:108|208:48,2,180,6|2|2,0:0|0:0|0:0,0:0:0:0:
184,213,211816,1,8,0:0:0:0:
50,103,211974,1,2,0:0:0:0:
176,53,212132,1,8,0:0:0:0:
191,69,212210,1,0,0:0:0:0:
207,85,212290,6,0,B|286:127|286:127|408:118,2,180,12|2|2,0:0|0:0|0:0,0:0:0:0:
312,234,213079,1,8,0:0:0:0:
312,234,213158,1,0,0:0:0:0:
312,234,213237,2,0,P|265:243|216:232,1,90,10|0,0:0|0:0,0:0:0:0:
254,164,213553,6,0,B|250:95|250:95|348:19,2,180,6|2|2,0:0|0:0|0:0,0:0:0:0:
348,120,214343,1,8,0:0:0:0:
145,192,214500,1,2,0:0:0:0:
267,254,214658,5,8,0:0:0:0:
267,254,214816,1,8,0:0:0:0:
102,46,214974,1,2,0:0:0:0:
102,46,215132,1,2,0:0:0:0:
160,318,215290,1,8,0:0:0:0:
160,318,215448,1,8,0:0:0:0:
304,100,215606,1,2,0:0:0:0:
275,302,215764,1,8,0:0:0:0:
156,154,215921,1,8,0:0:0:0:
156,154,216000,1,0,0:0:0:0:
156,154,216079,6,0,L|195:253,1,90,10|0,0:0|0:0,0:0:0:0:
326,223,216395,1,2,0:0:0:0:
323,36,216553,6,0,L|284:135,1,90
250,271,216869,1,0,0:0:0:0:
176,113,217027,1,2,0:0:0:0:
376,221,217185,1,0,0:0:0:0:
169,346,217343,1,2,0:0:0:0:
268,120,217500,5,12,0:0:0:0:
269,164,217578,1,0,0:0:0:0:
248,203,217657,1,2,0:0:0:0:
211,228,217736,1,0,0:0:0:0:
166,231,217815,1,8,0:0:0:0:
125,214,217895,1,0,0:0:0:0:
83,226,217974,5,2,0:0:0:0:
56,261,218053,1,0,0:0:0:0:
57,305,218132,1,8,0:0:0:0:
84,340,218211,1,0,0:0:0:0:
127,350,218290,1,2,0:0:0:0:
155,315,218368,1,0,0:0:0:0:
184,280,218447,1,8,0:0:0:0:
212,245,218526,1,0,0:0:0:0:
240,210,218606,6,2,L|270:104,1,90,6|8,0:0|0:0,0:0:0:0:
247,25,218921,1,2,0:0:0:0:
74,373,219079,1,8,0:0:0:0:
101,31,219237,5,2,0:0:0:0:
270,384,219395,1,8,0:0:0:0:
215,28,219553,5,2,0:0:0:0:
174,355,219711,1,8,0:0:0:0:
296,28,219869,5,2,0:0:0:0:
337,355,220027,1,8,0:0:0:0:
201,12,220185,5,2,0:0:0:0:
147,371,220343,1,8,0:0:0:0:
310,12,220501,5,2,0:0:0:0:
364,371,220659,1,8,0:0:0:0:
250,148,220816,5,10,0:0:0:0:
250,148,220895,1,8,0:0:0:0:
250,148,220974,1,8,0:0:0:0:
250,148,221053,1,8,0:0:0:0:
250,148,221132,6,0,B|176:150|176:150|111:187,1,135,4|0,0:0|0:0,0:0:0:0:
134,227,221448,1,8,0:0:0:0:
134,227,221527,1,8,0:0:0:0:
134,227,221606,1,8,0:0:0:0:
134,227,221685,1,8,0:0:0:0:
134,227,221764,6,0,P|214:226|242:295,1,135,4|0,0:0|0:0,0:0:0:0:
282,255,222079,1,8,0:0:0:0:
282,255,222158,1,8,0:0:0:0:
282,255,222237,1,8,0:0:0:0:
282,255,222316,1,8,0:0:0:0:
282,255,222395,6,0,B|240:190|312:114|312:114|405:175|377:231,1,270,4|0,0:0|0:0,0:0:0:0:
418,306,223027,2,0,L|300:352,1,90,2|0,0:0|0:0,0:0:0:0:
282,255,223343,2,0,L|198:222,1,90,2|0,0:0|0:0,0:0:0:0:
206,332,223658,5,2,0:0:0:0:
206,332,223974,2,0,B|191:280|191:280|199:210,1,90,8|0,0:0|0:0,0:0:0:0:
281,177,224290,1,2,0:0:0:0:
91,231,224448,1,8,0:0:0:0:
176,117,224606,1,8,0:0:0:0:
290,310,224764,5,6,0:0:0:0:
257,81,224921,1,8,0:0:0:0:
150,316,225079,1,8,0:0:0:0:
317,196,225237,1,8,0:0:0:0:
38,158,225395,1,8,0:0:0:0:
242,348,225553,1,8,0:0:0:0:
173,74,225711,1,8,0:0:0:0:
70,331,225869,1,8,0:0:0:0:
317,196,226027,1,8,0:0:0:0:
39,384,227448,6,0,B|43:344|19:311|19:311|92:230|-27:184|68:91|68:91|160:81|190:178|190:178|225:184|260:152|260:152|221:212|229:308|229:308|296:248|349:300|349:300|323:219|374:194|374:194|376:140|376:140|338:76|363:38|429:17|492:58|475:129|475:129|493:170|493:170|452:216|463:291,1,1440,6|0,0:0|0:0,0:0:0:0:
