osu file format v14

[General]
AudioFilename: audio.mp3
AudioLeadIn: 0
PreviewTime: 179462
Countdown: 0
SampleSet: Soft
StackLeniency: 0.7
Mode: 3
LetterboxInBreaks: 0
SpecialStyle: 1
WidescreenStoryboard: 0

[Editor]
Bookmarks: 49357,69567,132725,147883,152935
DistanceSpacing: 1.1
BeatDivisor: 4
GridSize: 32
TimelineZoom: 1.9

[Metadata]
Title:First Storm feat. Hatsune Miku
TitleUnicode:初嵐 feat. 初音ミク
Artist:DECO*27
ArtistUnicode:DECO*27
Creator:Chrisse
Version:Unwavering Faith
Source:
Tags:chinese deco 27 mes rockwell vocaloid hatsune miku arigatou rock chulan l43yrnt mirsaaa
BeatmapID:3988424
BeatmapSetID:1930716

[Difficulty]
HPDrainRate:8
CircleSize:4
OverallDifficulty:8
ApproachRate:5
SliderMultiplier:1.4
SliderTickRate:1

[Events]
//Background and Video events
0,0,"wallpapersden.com_hatsune-miku-hd-vocaloid_1920x1080 (1).jpg",0,0
//Break Periods
//Storyboard Layer 0 (Background)
//Storyboard Layer 1 (Fail)
//Storyboard Layer 2 (Pass)
//Storyboard Layer 3 (Foreground)
//Storyboard Layer 4 (Overlay)
//Storyboard Sound Samples
Sample,42409,0,"Hat open.wav",40
Sample,42567,0,"Hat open.wav",40
Sample,101778,0,"Tom3.wav",40
Sample,156725,0,"E6S.wav",60
Sample,156725,0,"E5S.wav",60
Sample,157041,0,"F5S.wav",60
Sample,157357,0,"G5S.wav",60
Sample,157672,0,"E5S.wav",60
Sample,157988,0,"C6S.wav",60
Sample,159567,0,"F5S.wav",60
Sample,159883,0,"G5S.wav",60
Sample,160199,0,"E5S.wav",60
Sample,161620,0,"D7S.wav",80
Sample,162409,0,"A6S.wav",80
Sample,163988,0,"A#6S_Bb6S.wav",80
Sample,164620,0,"G6S.wav",80
Sample,179462,0,"E6S.wav",60
Sample,179462,0,"E5S.wav",60
Sample,179778,0,"F5S.wav",60
Sample,180093,0,"G5S.wav",60
Sample,180409,0,"E5S.wav",60

[TimingPoints]
1357,315.789473684211,4,2,1,40,1,0
74620,-100,4,2,1,40,0,1
96093,-100,4,2,1,40,0,0
180725,-100,4,2,1,40,0,1
198409,-100,4,2,1,40,0,0
203462,-100,4,2,1,40,0,1
207251,-100,4,2,1,40,0,0
208830,-100,4,2,1,40,0,1
213567,-100,4,2,1,40,0,0

[HitObjects]
320,192,1357,5,0,0:0:0:60:A6S.wav
448,192,1357,1,0,0:0:0:0:
192,192,1514,1,0,0:0:0:60:F6S.wav
320,192,1672,1,0,0:0:0:60:A6S.wav
64,192,1830,1,0,0:0:0:60:G6S.wav
448,192,1830,1,0,0:0:0:0:
320,192,2146,1,0,0:0:0:60:F6S.wav
64,192,2304,1,0,0:0:0:60:G6S.wav
192,192,2462,1,0,0:0:0:60:C7S.wav
448,192,2462,1,0,0:0:0:0:
320,192,2778,1,0,0:0:0:60:D7S.wav
448,192,2935,1,0,0:0:0:60:A6S.wav
192,192,3093,1,0,0:0:0:60:G6S.wav
320,192,3093,1,0,0:0:0:0:
64,192,3409,1,0,0:0:0:60:F6S.wav
192,192,3567,1,0,0:0:0:60:G6S.wav
320,192,3883,1,0,0:0:0:60:A#3S_Bb3S.wav
448,192,3883,1,0,0:0:0:0:
64,192,4041,1,0,0:0:0:60:D4S.wav
192,192,4199,1,0,0:0:0:60:F4S.wav
320,192,4357,1,0,0:0:0:60:A#4S_Bb4S.wav
448,192,4514,128,0,6093:0:0:0:60:C5S.wav
64,192,4672,1,0,0:0:0:60:F5S.wav
192,192,4830,1,0,0:0:0:60:G5S.wav
320,192,4988,1,0,0:0:0:60:C6S.wav
64,192,5146,128,0,6093:0:0:0:60:A6S.wav
192,192,5146,1,0,0:0:0:0:
320,192,5462,1,0,0:0:0:60:G6S.wav
320,192,5620,1,0,0:0:0:60:G6S.wav
192,192,5935,1,0,0:0:0:60:F6S.wav
192,192,6093,1,0,0:0:0:60:F6S.wav
64,192,6409,1,2,0:0:0:0:
192,192,6409,1,4,0:0:0:0:
320,192,6409,1,0,0:0:0:0:
448,192,6409,1,0,0:0:0:0:
192,192,6725,1,8,0:0:0:0:
320,192,6725,1,0,0:0:0:40:Hat open.wav
448,192,6725,1,0,0:0:0:0:
64,192,7041,1,2,0:0:0:0:
320,192,7041,1,0,0:0:0:40:Hat open.wav
192,192,7199,1,2,0:0:0:0:
448,192,7199,1,0,0:0:0:40:Hat open.wav
64,192,7357,1,8,0:0:0:0:
320,192,7357,1,0,0:0:0:40:Hat open.wav
448,192,7357,1,0,0:0:0:0:
64,192,7593,1,8,0:0:0:0:
192,192,7593,1,0,0:0:0:0:
320,192,7672,1,2,0:0:0:0:
448,192,7672,1,0,0:0:0:40:Hat open.wav
64,192,7988,1,8,0:0:0:0:
320,192,7988,1,0,0:0:0:40:Hat open.wav
448,192,7988,1,0,0:0:0:0:
192,192,8146,1,0,0:0:0:0:
64,192,8304,1,2,0:0:0:0:
448,192,8304,1,0,0:0:0:40:Hat open.wav
192,192,8462,1,2,0:0:0:0:
320,192,8462,1,0,0:0:0:40:Hat open.wav
64,192,8620,1,8,0:0:0:0:
320,192,8620,1,0,0:0:0:40:Hat open.wav
448,192,8620,1,0,0:0:0:0:
64,192,8778,1,8,0:0:0:0:
192,192,8778,1,0,0:0:0:0:
448,192,8778,1,0,0:0:0:0:
64,192,8935,1,2,0:0:0:0:
192,192,8935,1,4,0:0:0:0:
320,192,8935,1,0,0:0:0:0:
448,192,8935,1,0,0:0:0:0:
192,192,9251,1,8,0:0:0:0:
320,192,9251,1,0,0:0:0:40:Hat open.wav
448,192,9251,1,0,0:0:0:0:
64,192,9567,1,2,0:0:0:0:
192,192,9567,1,0,0:0:0:40:Hat open.wav
320,192,9725,1,2,0:0:0:0:
448,192,9725,1,0,0:0:0:40:Hat open.wav
64,192,9883,1,8,0:0:0:0:
192,192,9883,1,0,0:0:0:40:Hat open.wav
320,192,9883,1,0,0:0:0:0:
320,192,10120,1,8,0:0:0:0:
448,192,10120,1,0,0:0:0:0:
64,192,10199,1,2,0:0:0:0:
192,192,10199,1,0,0:0:0:40:Hat open.wav
64,192,10514,1,8,0:0:0:0:
192,192,10514,1,0,0:0:0:40:Hat open.wav
448,192,10514,1,0,0:0:0:0:
320,192,10672,1,0,0:0:0:0:
192,192,10830,1,2,0:0:0:0:
448,192,10830,1,0,0:0:0:40:Hat open.wav
64,192,10988,1,2,0:0:0:0:
320,192,10988,1,0,0:0:0:0:
64,192,11146,1,8,0:0:0:0:
192,192,11146,1,0,0:0:0:0:
448,192,11146,1,0,0:0:0:0:
320,192,11304,1,2,0:0:0:0:
448,192,11304,1,0,0:0:0:0:
64,192,11462,1,2,0:0:0:0:
192,192,11462,1,4,0:0:0:0:
320,192,11462,1,0,0:0:0:0:
448,192,11462,1,0,0:0:0:0:
64,192,11778,1,8,0:0:0:0:
192,192,11778,1,0,0:0:0:40:Hat open.wav
448,192,11778,1,0,0:0:0:0:
320,192,11935,1,0,0:0:0:0:
192,192,12093,1,2,0:0:0:0:
448,192,12093,1,0,0:0:0:40:Hat open.wav
64,192,12251,1,2,0:0:0:0:
320,192,12251,1,0,0:0:0:40:Hat open.wav
192,192,12409,1,8,0:0:0:0:
320,192,12409,1,0,0:0:0:40:Hat open.wav
448,192,12409,1,0,0:0:0:0:
64,192,12567,1,2,0:0:0:0:
192,192,12567,1,4,0:0:0:0:
448,192,12567,1,0,0:0:0:0:
320,192,12725,1,0,0:0:0:0:
64,192,12883,1,2,0:0:0:0:
448,192,12883,1,0,0:0:0:0:
192,192,13041,1,8,0:0:0:0:
320,192,13041,1,0,0:0:0:40:Hat open.wav
448,192,13041,1,0,0:0:0:0:
64,192,13199,1,0,0:0:0:0:
192,192,13199,1,0,0:0:0:0:
64,192,13357,1,2,0:0:0:0:
320,192,13357,1,0,0:0:0:40:Hat open.wav
448,192,13357,1,0,0:0:0:0:
192,192,13514,1,2,0:0:0:0:
448,192,13514,1,0,0:0:0:0:
64,192,13672,1,8,0:0:0:0:
192,192,13672,1,4,0:0:0:0:
320,192,13672,1,0,0:0:0:0:
320,192,13830,1,2,0:0:0:0:
448,192,13830,1,0,0:0:0:0:
64,192,13988,1,8,0:0:0:0:
192,192,13988,1,4,0:0:0:0:
320,192,13988,1,0,0:0:0:0:
448,192,13988,1,0,0:0:0:0:
64,192,14146,1,2,0:0:0:0:
192,192,14146,1,0,0:0:0:0:
320,192,14304,1,2,0:0:0:0:
448,192,14304,1,0,0:0:0:0:
64,192,14462,1,8,0:0:0:0:
192,192,14462,1,4,0:0:0:0:
320,192,14462,1,0,0:0:0:0:
64,192,14778,1,2,0:0:0:0:
448,192,14778,1,0,0:0:0:0:
192,192,14935,1,2,0:0:0:0:
320,192,14935,1,0,0:0:0:0:
64,192,15093,1,8,0:0:0:0:
192,192,15093,1,4,0:0:0:0:
320,192,15093,1,0,0:0:0:0:
448,192,15093,1,0,0:0:0:0:
320,192,15409,1,2,0:0:0:0:
448,192,15409,1,0,0:0:0:0:
64,192,15567,1,8,0:0:0:0:
192,192,15567,1,2,0:0:0:0:
320,192,15646,1,8,0:0:0:0:
64,192,15725,1,8,0:0:0:0:
448,192,15725,1,0,0:0:0:0:
192,192,15804,1,8,0:0:0:0:
320,192,15883,1,8,0:0:0:0:
448,192,15883,1,2,0:0:0:0:
64,192,15962,1,8,0:0:0:0:
192,192,16041,1,8,0:0:0:0:
320,192,16041,1,0,0:0:0:0:
448,192,16120,1,8,0:0:0:0:
64,192,16199,1,8,0:0:0:0:
192,192,16199,1,2,0:0:0:0:
320,192,16278,1,0,0:0:0:40:Tom1.wav
448,192,16278,1,0,0:0:0:0:
64,192,16357,1,0,0:0:0:40:Tom2.wav
192,192,16357,1,0,0:0:0:0:
320,192,16435,1,0,0:0:0:40:Tom3.wav
448,192,16435,1,0,0:0:0:0:
64,192,16514,1,10,0:0:0:0:
192,192,16514,1,4,0:0:0:0:
64,192,16830,1,8,0:0:0:0:
192,192,16830,1,0,0:0:0:40:Hat open.wav
320,192,16830,1,0,0:0:0:0:
448,192,16988,1,0,0:0:0:0:
192,192,17146,1,8,0:0:0:0:
320,192,17146,1,0,0:0:0:40:Hat open.wav
448,192,17146,1,0,0:0:0:0:
64,192,17304,1,2,0:0:0:0:
192,192,17304,1,0,0:0:0:0:
64,192,17462,1,8,0:0:0:0:
192,192,17462,1,0,0:0:0:40:Hat open.wav
320,192,17462,1,0,0:0:0:0:
320,192,17620,1,2,0:0:0:0:
448,192,17620,1,0,0:0:0:0:
192,192,17778,1,8,0:0:0:0:
320,192,17778,1,0,0:0:0:40:Hat open.wav
448,192,17778,1,0,0:0:0:0:
64,192,18093,1,8,0:0:0:0:
192,192,18093,1,0,0:0:0:40:Hat open.wav
448,192,18093,1,0,0:0:0:0:
320,192,18251,1,2,0:0:0:0:
448,192,18251,1,0,0:0:0:0:
64,192,18409,1,8,0:0:0:0:
192,192,18409,1,0,0:0:0:40:Hat open.wav
320,192,18409,1,0,0:0:0:0:
448,192,18567,1,2,0:0:0:0:
320,192,18646,1,2,0:0:0:0:
64,192,18725,1,8,0:0:0:0:
192,192,18725,1,4,0:0:0:0:
320,192,18804,1,8,0:0:0:0:
448,192,18804,1,0,0:0:0:0:
64,192,18883,1,0,0:0:0:40:Tom1.wav
192,192,18962,1,0,0:0:0:40:Tom2.wav
64,192,19041,1,2,0:0:0:0:
320,192,19041,1,4,0:0:0:0:
448,192,19041,1,0,0:0:0:0:
64,192,19357,1,8,0:0:0:0:
192,192,19357,1,4,0:0:0:0:
320,192,19435,1,8,0:0:0:0:
448,192,19435,1,0,0:0:0:0:
64,192,19514,1,8,0:0:0:0:
192,192,19514,1,0,0:0:0:0:
320,192,19593,1,8,0:0:0:0:
448,192,19593,1,0,0:0:0:0:
64,192,19672,1,2,0:0:0:0:
192,192,19672,1,4,0:0:0:0:
320,192,19988,1,8,0:0:0:0:
448,192,19988,1,0,0:0:0:0:
64,192,20067,1,8,0:0:0:0:
192,192,20067,1,0,0:0:0:0:
448,192,20146,1,0,0:0:0:40:Tom1.wav
320,192,20225,1,0,0:0:0:40:Tom2.wav
64,192,20304,1,8,0:0:0:0:
192,192,20304,1,2,0:0:0:0:
448,192,20304,1,4,0:0:0:0:
192,192,20620,1,8,0:0:0:0:
320,192,20620,1,0,0:0:0:0:
448,192,20620,1,0,0:0:0:0:
64,192,20778,1,0,0:0:0:0:
64,192,20935,1,8,0:0:0:0:
192,192,20935,1,4,0:0:0:0:
320,192,20935,1,0,0:0:0:0:
320,192,21093,1,2,0:0:0:0:
448,192,21093,1,0,0:0:0:0:
64,192,21251,1,8,0:0:0:0:
192,192,21251,1,0,0:0:0:0:
448,192,21251,1,0,0:0:0:0:
320,192,21409,1,0,0:0:0:0:
64,192,21567,1,2,0:0:0:0:
192,192,21567,1,4,0:0:0:0:
320,192,21567,1,0,0:0:0:0:
448,192,21567,1,0,0:0:0:0:
64,192,21883,1,8,0:0:0:0:
320,192,21883,1,0,0:0:0:40:Hat open.wav
448,192,21883,1,0,0:0:0:0:
192,192,22041,1,0,0:0:0:0:
320,192,22199,1,2,0:0:0:0:
448,192,22199,1,0,0:0:0:40:Hat open.wav
64,192,22357,1,2,0:0:0:0:
192,192,22357,1,0,0:0:0:0:
64,192,22514,1,8,0:0:0:0:
320,192,22514,1,0,0:0:0:0:
448,192,22514,1,0,0:0:0:0:
192,192,22672,1,2,0:0:0:0:
320,192,22672,1,0,0:0:0:0:
64,192,22830,1,8,0:0:0:0:
192,192,22830,1,2,0:0:0:0:
448,192,22830,1,4,0:0:0:0:
320,192,22988,1,8,0:0:0:0:
448,192,22988,1,0,0:0:0:0:
64,192,23067,1,8,0:0:0:0:
192,192,23067,1,0,0:0:0:0:
320,192,23146,1,8,0:0:0:0:
448,192,23146,1,0,0:0:0:0:
64,192,23304,1,8,0:0:0:0:
192,192,23304,1,0,0:0:0:0:
320,192,23462,1,8,0:0:0:0:
448,192,23462,1,0,0:0:0:0:
64,192,23620,1,8,0:0:0:0:
448,192,23620,1,0,0:0:0:0:
192,192,23778,1,0,0:0:0:40:Tom1.wav
320,192,23778,1,0,0:0:0:0:
64,192,23935,1,0,0:0:0:40:Tom2.wav
448,192,23935,1,0,0:0:0:0:
192,192,24093,1,2,0:0:0:0:
320,192,24093,1,4,0:0:0:0:
448,192,24093,128,0,25357:0:0:0:40:Tom3.wav
64,192,24251,1,0,0:0:0:20:soft-hitclap.wav
192,192,24409,1,8,0:0:0:0:
320,192,24409,1,0,0:0:0:0:
64,192,24567,1,0,0:0:0:20:soft-hitclap.wav
192,192,24646,1,0,0:0:0:20:soft-hitclap.wav
320,192,24725,1,0,0:0:0:20:soft-hitclap.wav
64,192,24883,1,0,0:0:0:20:soft-hitclap.wav
192,192,25041,1,8,0:0:0:0:
320,192,25041,1,0,0:0:0:0:
320,192,25199,1,0,0:0:0:20:soft-hitclap.wav
64,192,25357,1,0,0:0:0:20:soft-hitclap.wav
192,192,25514,1,0,0:0:0:20:soft-hitclap.wav
320,192,25672,1,8,0:0:0:0:
448,192,25672,1,0,0:0:0:0:
64,192,25830,1,0,0:0:0:20:soft-hitclap.wav
192,192,25909,1,0,0:0:0:20:soft-hitclap.wav
320,192,25988,1,0,0:0:0:20:soft-hitclap.wav
448,192,25988,1,0,0:0:0:0:
64,192,26146,1,2,0:0:0:0:
192,192,26146,1,0,0:0:0:0:
192,192,26304,1,8,0:0:0:0:
320,192,26304,1,0,0:0:0:0:
448,192,26304,1,0,0:0:0:0:
320,192,26462,1,2,0:0:0:0:
448,192,26462,1,0,0:0:0:0:
64,192,26620,128,2,27883:0:0:0:0:
192,192,26620,1,0,0:0:0:0:
448,192,26778,1,0,0:0:0:20:soft-hitclap.wav
192,192,26935,1,8,0:0:0:0:
320,192,26935,1,0,0:0:0:0:
448,192,27093,1,0,0:0:0:20:soft-hitclap.wav
320,192,27172,1,0,0:0:0:20:soft-hitclap.wav
192,192,27251,1,0,0:0:0:20:soft-hitclap.wav
448,192,27409,1,0,0:0:0:20:soft-hitclap.wav
192,192,27567,1,8,0:0:0:0:
320,192,27567,1,0,0:0:0:0:
192,192,27725,1,0,0:0:0:20:soft-hitclap.wav
448,192,27883,1,0,0:0:0:20:soft-hitclap.wav
320,192,28041,1,0,0:0:0:20:soft-hitclap.wav
64,192,28199,1,8,0:0:0:0:
192,192,28199,1,0,0:0:0:0:
448,192,28357,1,0,0:0:0:20:soft-hitclap.wav
320,192,28435,1,0,0:0:0:20:soft-hitclap.wav
64,192,28514,1,0,0:0:0:20:soft-hitclap.wav
192,192,28514,1,0,0:0:0:0:
320,192,28672,1,0,0:0:0:20:soft-hitclap.wav
448,192,28672,1,0,0:0:0:0:
192,192,28830,1,2,0:0:0:0:
320,192,28830,1,8,0:0:0:0:
448,192,28830,1,0,0:0:0:0:
64,192,28988,1,0,0:0:0:20:soft-hitclap.wav
192,192,29146,1,2,0:0:0:0:
448,192,29146,128,0,30409:0:0:0:0:
320,192,29304,1,0,0:0:0:20:soft-hitclap.wav
192,192,29462,1,8,0:0:0:0:
320,192,29462,1,0,0:0:0:0:
64,192,29620,1,0,0:0:0:20:soft-hitclap.wav
192,192,29699,1,0,0:0:0:20:soft-hitclap.wav
320,192,29778,1,0,0:0:0:20:soft-hitclap.wav
64,192,29935,1,0,0:0:0:20:soft-hitclap.wav
64,192,30093,1,8,0:0:0:0:
192,192,30093,1,0,0:0:0:0:
320,192,30251,1,0,0:0:0:20:soft-hitclap.wav
64,192,30409,128,0,31672:0:0:0:20:soft-hitclap.wav
192,192,30409,1,0,0:0:0:0:
448,192,30567,1,0,0:0:0:20:soft-hitclap.wav
320,192,30725,1,8,0:0:0:0:
448,192,30725,1,0,0:0:0:0:
192,192,30883,1,0,0:0:0:20:soft-hitclap.wav
320,192,30962,1,0,0:0:0:20:soft-hitclap.wav
448,192,31041,1,0,0:0:0:20:soft-hitclap.wav
192,192,31199,1,0,0:0:0:20:soft-hitclap.wav
192,192,31357,1,2,0:0:0:0:
320,192,31357,1,8,0:0:0:0:
448,192,31514,1,0,0:0:0:20:soft-hitclap.wav
192,192,31672,1,2,0:0:0:0:
320,192,31672,128,0,32935:0:0:0:0:
448,192,31830,1,0,0:0:0:20:soft-hitclap.wav
64,192,31988,1,8,0:0:0:0:
192,192,31988,1,0,0:0:0:0:
448,192,32146,1,0,0:0:0:20:soft-hitclap.wav
192,192,32225,1,0,0:0:0:20:soft-hitclap.wav
64,192,32304,1,0,0:0:0:20:soft-hitclap.wav
448,192,32462,1,0,0:0:0:20:soft-hitclap.wav
64,192,32620,1,8,0:0:0:0:
192,192,32620,1,0,0:0:0:0:
192,192,32778,1,0,0:0:0:20:soft-hitclap.wav
448,192,32935,1,0,0:0:0:20:soft-hitclap.wav
64,192,33093,1,0,0:0:0:20:soft-hitclap.wav
192,192,33251,1,8,0:0:0:0:
320,192,33251,1,0,0:0:0:0:
448,192,33409,1,0,0:0:0:20:soft-hitclap.wav
320,192,33488,1,0,0:0:0:20:soft-hitclap.wav
64,192,33567,1,0,0:0:0:20:soft-hitclap.wav
192,192,33567,1,0,0:0:0:0:
320,192,33725,1,0,0:0:0:20:soft-hitclap.wav
448,192,33725,1,0,0:0:0:0:
64,192,33883,1,2,0:0:0:0:
320,192,33883,1,8,0:0:0:0:
448,192,33883,1,0,0:0:0:40:Hat open.wav
192,192,34041,1,0,0:0:0:0:
192,192,34199,1,4,0:0:0:0:
320,192,34199,1,2,0:0:0:0:
448,192,34199,128,0,35462:0:0:0:0:
64,192,34357,1,0,0:0:0:20:soft-hitclap.wav
64,192,34514,1,8,0:0:0:0:
192,192,34514,1,0,0:0:0:0:
320,192,34672,1,0,0:0:0:20:soft-hitclap.wav
192,192,34751,1,0,0:0:0:20:soft-hitclap.wav
64,192,34830,1,0,0:0:0:20:soft-hitclap.wav
320,192,34988,1,0,0:0:0:20:soft-hitclap.wav
192,192,35146,1,8,0:0:0:0:
320,192,35146,1,0,0:0:0:0:
64,192,35304,1,0,0:0:0:20:soft-hitclap.wav
320,192,35462,1,0,0:0:0:20:soft-hitclap.wav
192,192,35620,1,0,0:0:0:20:soft-hitclap.wav
64,192,35778,1,8,0:0:0:0:
448,192,35778,1,0,0:0:0:0:
192,192,35935,1,0,0:0:0:20:soft-hitclap.wav
320,192,36014,1,0,0:0:0:20:soft-hitclap.wav
64,192,36093,128,0,36725:0:0:0:20:soft-hitclap.wav
448,192,36093,1,0,0:0:0:0:
192,192,36251,1,0,0:0:0:20:soft-hitclap.wav
192,192,36409,1,10,0:0:0:0:
320,192,36409,1,0,0:0:0:40:Hat open.wav
448,192,36567,1,0,0:0:0:20:soft-hitclap.wav
192,192,36725,128,2,37988:0:0:0:0:
320,192,36725,1,0,0:0:0:0:
448,192,36883,1,0,0:0:0:20:soft-hitclap.wav
320,192,37041,1,8,0:0:0:0:
448,192,37041,1,0,0:0:0:0:
64,192,37199,1,0,0:0:0:20:soft-hitclap.wav
320,192,37278,1,0,0:0:0:20:soft-hitclap.wav
448,192,37357,1,0,0:0:0:20:soft-hitclap.wav
64,192,37514,1,0,0:0:0:20:soft-hitclap.wav
64,192,37672,1,8,0:0:0:0:
448,192,37672,1,0,0:0:0:0:
320,192,37830,1,0,0:0:0:20:soft-hitclap.wav
64,192,37988,1,0,0:0:0:20:soft-hitclap.wav
448,192,37988,128,0,39251:0:0:0:0:
320,192,38146,1,0,0:0:0:20:soft-hitclap.wav
64,192,38304,1,8,0:0:0:0:
192,192,38304,1,0,0:0:0:0:
320,192,38462,1,0,0:0:0:20:soft-hitclap.wav
192,192,38541,1,0,0:0:0:20:soft-hitclap.wav
64,192,38620,1,0,0:0:0:20:soft-hitclap.wav
320,192,38778,1,2,0:0:0:0:
192,192,38935,1,8,0:0:0:0:
320,192,38935,1,0,0:0:0:0:
64,192,39093,1,2,0:0:0:0:
192,192,39251,128,2,40514:0:0:0:0:
320,192,39251,1,0,0:0:0:0:
64,192,39409,1,0,0:0:0:20:soft-hitclap.wav
320,192,39567,1,8,0:0:0:0:
448,192,39567,1,0,0:0:0:0:
448,192,39725,1,0,0:0:0:20:soft-hitclap.wav
320,192,39804,1,0,0:0:0:20:soft-hitclap.wav
64,192,39883,1,0,0:0:0:20:soft-hitclap.wav
448,192,40041,1,0,0:0:0:20:soft-hitclap.wav
320,192,40199,1,8,0:0:0:0:
448,192,40199,1,0,0:0:0:0:
64,192,40357,1,0,0:0:0:20:soft-hitclap.wav
64,192,40514,128,0,41778:0:0:0:20:soft-hitclap.wav
448,192,40514,1,0,0:0:0:0:
320,192,40672,1,0,0:0:0:20:soft-hitclap.wav
192,192,40830,1,8,0:0:0:0:
448,192,40830,1,0,0:0:0:0:
192,192,40988,1,0,0:0:0:20:soft-hitclap.wav
320,192,41067,1,0,0:0:0:20:soft-hitclap.wav
448,192,41146,1,0,0:0:0:20:soft-hitclap.wav
320,192,41304,1,0,0:0:0:20:soft-hitclap.wav
320,192,41462,1,8,0:0:0:0:
448,192,41462,1,0,0:0:0:40:Hat open.wav
192,192,41620,1,2,0:0:0:0:
320,192,41778,1,2,0:0:0:0:
448,192,41778,128,4,43041:0:0:0:0:
64,192,42093,1,8,0:0:0:0:
192,192,42093,1,0,0:0:0:40:Hat open.wav
320,192,42409,1,2,0:0:0:0:
64,192,42567,1,2,0:0:0:0:
64,192,42725,1,8,0:0:0:0:
192,192,42725,1,0,0:0:0:40:Hat open.wav
192,192,42883,1,2,0:0:0:0:
320,192,42883,1,4,0:0:0:0:
64,192,43041,1,0,0:0:0:0:
448,192,43199,1,2,0:0:0:0:
192,192,43357,1,8,0:0:0:0:
320,192,43357,1,0,0:0:0:0:
64,192,43514,1,8,0:0:0:0:
192,192,43593,1,8,0:0:0:0:
320,192,43672,1,2,0:0:0:0:
448,192,43672,1,8,0:0:0:0:
64,192,43830,1,8,0:0:0:0:
192,192,43909,1,8,0:0:0:0:
448,192,43988,1,8,0:0:0:0:
320,192,44067,1,8,0:0:0:0:
64,192,44146,1,0,0:0:0:40:Tom1.wav
192,192,44146,1,0,0:0:0:0:
192,192,44304,1,4,0:0:0:0:
320,192,44304,1,2,0:0:0:0:
448,192,44304,1,0,0:0:0:0:
320,192,44462,1,0,0:0:0:0:
64,192,44620,1,8,0:0:0:0:
192,192,44620,1,0,0:0:0:0:
448,192,44620,1,0,0:0:0:0:
64,192,44778,1,0,0:0:0:0:
320,192,44935,1,0,0:0:0:0:
192,192,45093,1,2,0:0:0:0:
448,192,45093,1,0,0:0:0:0:
64,192,45251,1,8,0:0:0:0:
320,192,45251,1,0,0:0:0:0:
448,192,45251,1,0,0:0:0:0:
192,192,45409,1,0,0:0:0:0:
320,192,45567,1,2,0:0:0:0:
448,192,45567,1,0,0:0:0:0:
64,192,45725,1,0,0:0:0:0:
64,192,45883,1,8,0:0:0:0:
192,192,45883,1,0,0:0:0:0:
448,192,45883,1,0,0:0:0:0:
320,192,46041,1,0,0:0:0:0:
192,192,46199,1,0,0:0:0:0:
64,192,46357,1,2,0:0:0:0:
448,192,46357,1,0,0:0:0:0:
64,192,46514,1,8,0:0:0:0:
192,192,46514,1,0,0:0:0:40:Hat open.wav
320,192,46514,1,0,0:0:0:0:
448,192,46672,1,0,0:0:0:0:
64,192,46830,1,2,0:0:0:0:
192,192,46830,1,0,0:0:0:0:
448,192,46988,1,0,0:0:0:0:
192,192,47146,1,8,0:0:0:0:
320,192,47146,1,0,0:0:0:0:
448,192,47146,1,0,0:0:0:0:
64,192,47304,1,0,0:0:0:0:
192,192,47462,1,0,0:0:0:0:
320,192,47620,1,2,0:0:0:0:
448,192,47620,1,0,0:0:0:0:
64,192,47778,1,8,0:0:0:0:
192,192,47778,1,0,0:0:0:0:
448,192,47778,1,0,0:0:0:0:
320,192,47935,1,0,0:0:0:0:
64,192,48093,1,2,0:0:0:0:
192,192,48093,1,0,0:0:0:0:
448,192,48251,1,0,0:0:0:0:
64,192,48409,1,8,0:0:0:0:
192,192,48409,1,0,0:0:0:40:Hat open.wav
320,192,48409,1,0,0:0:0:0:
320,192,48567,1,2,0:0:0:0:
448,192,48567,1,0,0:0:0:0:
192,192,48725,1,0,0:0:0:0:
64,192,48883,1,2,0:0:0:0:
320,192,48883,1,0,0:0:0:0:
64,192,49041,1,8,0:0:0:0:
192,192,49041,1,0,0:0:0:20:soft-hitfinish.wav
448,192,49041,1,0,0:0:0:0:
320,192,49199,1,0,0:0:0:0:
64,192,49357,1,2,0:0:0:0:
192,192,49357,128,4,49988:0:0:0:0:
448,192,49357,1,0,0:0:0:0:
320,192,49514,1,0,0:0:0:0:
64,192,49672,1,8,0:0:0:0:
448,192,49672,128,0,49988:0:0:0:0:
320,192,49830,1,0,0:0:0:0:
320,192,49988,128,0,50620:0:0:0:0:
192,192,50146,1,2,0:0:0:0:
64,192,50304,1,8,0:0:0:0:
448,192,50304,128,0,50620:0:0:0:0:
192,192,50462,1,0,0:0:0:0:
64,192,50620,1,2,0:0:0:0:
192,192,50620,128,0,51251:0:0:0:0:
448,192,50778,1,0,0:0:0:0:
64,192,50935,128,8,51251:0:0:0:0:
320,192,50935,1,0,0:0:0:0:
448,192,51093,1,0,0:0:0:0:
448,192,51251,128,0,51883:0:0:0:0:
320,192,51409,1,2,0:0:0:0:
64,192,51567,1,8,0:0:0:0:
192,192,51567,128,0,51883:0:0:0:40:Hat open.wav
320,192,51725,1,0,0:0:0:0:
64,192,51883,1,2,0:0:0:0:
320,192,51883,1,0,0:0:0:0:
448,192,52041,1,0,0:0:0:0:
192,192,52199,1,8,0:0:0:0:
320,192,52199,1,0,0:0:0:0:
64,192,52357,128,0,52830:0:0:0:0:
448,192,52514,128,0,52830:0:0:0:0:
192,192,52672,1,2,0:0:0:0:
192,192,52830,1,8,0:0:0:0:
320,192,52830,1,0,0:0:0:0:
64,192,52988,1,0,0:0:0:0:
192,192,53146,1,2,0:0:0:0:
320,192,53146,1,0,0:0:0:0:
64,192,53304,1,2,0:0:0:0:
448,192,53304,1,0,0:0:0:0:
64,192,53462,1,8,0:0:0:0:
192,192,53462,1,0,0:0:0:20:soft-hitfinish.wav
320,192,53462,1,0,0:0:0:0:
448,192,53620,1,0,0:0:0:0:
64,192,53778,1,2,0:0:0:0:
192,192,53778,1,0,0:0:0:0:
320,192,53935,1,2,0:0:0:0:
448,192,53935,1,0,0:0:0:0:
64,192,54093,1,8,0:0:0:0:
192,192,54093,1,4,0:0:0:0:
320,192,54093,1,0,0:0:0:0:
448,192,54251,1,0,0:0:0:0:
192,192,54409,1,2,0:0:0:0:
320,192,54409,1,4,0:0:0:0:
448,192,54409,1,0,0:0:0:0:
64,192,54567,1,0,0:0:0:0:
64,192,54725,1,8,0:0:0:0:
192,192,54725,1,0,0:0:0:0:
320,192,54725,1,0,0:0:0:0:
448,192,54883,1,0,0:0:0:0:
64,192,55041,1,0,0:0:0:0:
320,192,55199,1,2,0:0:0:0:
448,192,55199,1,0,0:0:0:0:
64,192,55357,1,8,0:0:0:0:
192,192,55357,1,0,0:0:0:40:Hat open.wav
448,192,55357,1,0,0:0:0:0:
320,192,55514,1,0,0:0:0:0:
64,192,55672,1,2,0:0:0:0:
448,192,55672,1,0,0:0:0:0:
192,192,55830,1,0,0:0:0:0:
64,192,55988,1,8,0:0:0:0:
320,192,55988,1,0,0:0:0:0:
448,192,55988,1,0,0:0:0:0:
192,192,56146,1,0,0:0:0:0:
320,192,56304,1,0,0:0:0:0:
64,192,56462,1,2,0:0:0:0:
448,192,56462,1,0,0:0:0:0:
64,192,56620,1,8,0:0:0:0:
192,192,56620,1,0,0:0:0:40:Hat open.wav
320,192,56620,1,0,0:0:0:0:
320,192,56778,1,0,0:0:0:0:
64,192,56935,1,2,0:0:0:0:
192,192,56935,1,4,0:0:0:0:
448,192,56935,1,0,0:0:0:0:
64,192,57093,1,0,0:0:0:0:
192,192,57251,1,8,0:0:0:0:
320,192,57251,1,0,0:0:0:0:
448,192,57251,1,0,0:0:0:0:
448,192,57409,1,0,0:0:0:0:
64,192,57567,1,2,0:0:0:0:
192,192,57567,1,0,0:0:0:0:
320,192,57725,1,2,0:0:0:0:
448,192,57725,1,0,0:0:0:0:
64,192,57883,1,8,0:0:0:0:
192,192,57883,1,0,0:0:0:40:Hat open.wav
320,192,57883,1,0,0:0:0:0:
64,192,58041,1,0,0:0:0:0:
320,192,58199,1,2,0:0:0:0:
448,192,58199,1,0,0:0:0:0:
192,192,58357,1,0,0:0:0:0:
64,192,58514,1,8,0:0:0:0:
320,192,58514,1,0,0:0:0:0:
448,192,58514,1,0,0:0:0:0:
192,192,58672,1,2,0:0:0:0:
320,192,58672,1,0,0:0:0:0:
64,192,58830,1,0,0:0:0:0:
320,192,58988,1,2,0:0:0:0:
448,192,58988,1,0,0:0:0:0:
192,192,59146,1,8,0:0:0:0:
320,192,59146,1,0,0:0:0:20:soft-hitfinish.wav
448,192,59146,1,0,0:0:0:0:
64,192,59304,1,0,0:0:0:0:
64,192,59462,1,2,0:0:0:0:
192,192,59462,1,4,0:0:0:0:
320,192,59462,1,0,0:0:0:0:
448,192,59620,1,0,0:0:0:0:
192,192,59778,1,8,0:0:0:0:
320,192,59778,1,0,0:0:0:0:
448,192,59778,1,0,0:0:0:0:
64,192,59935,1,0,0:0:0:0:
448,192,60093,1,0,0:0:0:0:
64,192,60251,1,2,0:0:0:0:
192,192,60251,1,0,0:0:0:0:
192,192,60409,1,8,0:0:0:0:
320,192,60409,1,0,0:0:0:0:
448,192,60409,1,0,0:0:0:0:
64,192,60567,1,2,0:0:0:0:
448,192,60567,1,0,0:0:0:0:
192,192,60725,1,2,0:0:0:0:
320,192,60725,1,0,0:0:0:0:
448,192,60883,1,0,0:0:0:0:
192,192,61041,1,8,0:0:0:0:
320,192,61041,1,0,0:0:0:0:
448,192,61041,1,0,0:0:0:0:
64,192,61199,1,0,0:0:0:0:
320,192,61357,1,0,0:0:0:0:
64,192,61514,1,2,0:0:0:0:
192,192,61514,1,0,0:0:0:0:
64,192,61672,1,8,0:0:0:0:
320,192,61672,1,0,0:0:0:0:
448,192,61672,1,0,0:0:0:0:
192,192,61830,1,0,0:0:0:0:
64,192,61988,1,2,0:0:0:0:
192,192,61988,1,4,0:0:0:0:
320,192,61988,1,0,0:0:0:0:
320,192,62146,1,2,0:0:0:0:
448,192,62146,1,0,0:0:0:0:
64,192,62304,1,0,0:0:0:0:
64,192,62462,1,2,0:0:0:0:
192,192,62462,1,0,0:0:0:0:
192,192,62620,1,8,0:0:0:0:
320,192,62620,1,0,0:0:0:20:soft-hitfinish.wav
448,192,62620,1,0,0:0:0:0:
64,192,62778,1,2,0:0:0:0:
448,192,62778,1,0,0:0:0:0:
192,192,62935,1,2,0:0:0:0:
320,192,62935,1,0,0:0:0:0:
64,192,63093,1,8,0:0:0:0:
192,192,63093,1,4,0:0:0:0:
320,192,63093,1,0,0:0:0:0:
448,192,63093,1,0,0:0:0:0:
448,192,63409,1,2,0:0:0:0:
320,192,63488,1,2,0:0:0:0:
64,192,63567,1,8,0:0:0:0:
192,192,63567,1,0,0:0:0:0:
64,192,63725,1,8,0:0:0:0:
448,192,63725,1,0,0:0:0:0:
192,192,63804,1,8,0:0:0:0:
320,192,63804,1,0,0:0:0:0:
64,192,63883,1,8,0:0:0:0:
448,192,63883,1,0,0:0:0:0:
192,192,64041,1,0,0:0:0:40:Tom1.wav
320,192,64041,1,0,0:0:0:0:
64,192,64199,1,0,0:0:0:40:Tom2.wav
192,192,64199,1,0,0:0:0:0:
320,192,64357,1,0,0:0:0:40:Tom3.wav
448,192,64357,1,0,0:0:0:0:
64,192,64514,128,4,65146:0:0:0:0:
192,192,64514,1,2,0:0:0:0:
448,192,64514,1,0,0:0:0:0:
192,192,64830,128,0,65146:0:0:0:0:
448,192,64988,1,2,0:0:0:0:
320,192,65146,128,2,65778:0:0:0:0:
448,192,65146,1,0,0:0:0:0:
64,192,65462,128,8,65778:0:0:0:0:
192,192,65462,1,0,0:0:0:0:
192,192,65778,1,2,0:0:0:0:
448,192,65778,128,0,66409:0:0:0:0:
320,192,66093,128,0,66409:0:0:0:0:
64,192,66251,1,2,0:0:0:0:
64,192,66409,1,2,0:0:0:0:
192,192,66409,128,0,67041:0:0:0:0:
320,192,66725,128,8,67041:0:0:0:0:
448,192,66725,1,0,0:0:0:0:
64,192,67041,128,2,67357:0:0:0:0:
448,192,67041,1,0,0:0:0:0:
448,192,67357,128,0,67514:0:0:0:0:
192,192,67514,128,2,67672:0:0:0:0:
320,192,67514,1,0,0:0:0:0:
64,192,67672,1,8,0:0:0:0:
448,192,67672,1,0,0:0:0:0:
192,192,67830,1,8,0:0:0:0:
320,192,67830,1,0,0:0:0:0:
320,192,67988,1,2,0:0:0:0:
448,192,67988,1,0,0:0:0:0:
64,192,68146,1,8,0:0:0:0:
192,192,68225,1,8,0:0:0:0:
320,192,68304,1,2,0:0:0:0:
448,192,68304,1,0,0:0:0:20:soft-hitfinish.wav
64,192,68462,1,8,0:0:0:0:
192,192,68462,1,0,0:0:0:0:
320,192,68541,1,8,0:0:0:0:
448,192,68541,1,0,0:0:0:0:
64,192,68620,1,8,0:0:0:0:
192,192,68620,1,2,0:0:0:0:
320,192,68778,1,8,0:0:0:0:
448,192,68778,1,0,0:0:0:0:
64,192,68935,1,8,0:0:0:0:
448,192,68935,1,0,0:0:0:0:
192,192,69093,1,8,0:0:0:0:
320,192,69093,1,0,0:0:0:0:
320,192,69251,1,8,0:0:0:0:
448,192,69251,1,0,0:0:0:40:Tom1.wav
64,192,69409,1,0,0:0:0:40:Tom2.wav
192,192,69409,1,0,0:0:0:0:
192,192,69567,1,2,0:0:0:0:
320,192,69567,1,4,0:0:0:0:
448,192,69567,128,0,70199:0:0:0:40:Tom3.wav
64,192,69725,1,2,0:0:0:0:
192,192,69883,1,8,0:0:0:0:
320,192,69883,128,0,70199:0:0:0:0:
64,192,70199,128,0,70830:0:0:0:0:
192,192,70514,128,8,70830:0:0:0:0:
320,192,70514,1,2,0:0:0:0:
320,192,70830,1,2,0:0:0:0:
448,192,70830,128,0,71462:0:0:0:0:
192,192,70988,1,2,0:0:0:0:
64,192,71146,1,8,0:0:0:0:
320,192,71146,128,0,71462:0:0:0:0:
192,192,71462,128,0,72093:0:0:0:0:
64,192,71778,128,8,72093:0:0:0:0:
320,192,71778,1,0,0:0:0:40:Hat open.wav
448,192,71935,1,2,0:0:0:0:
320,192,72093,1,8,0:0:0:0:
448,192,72093,1,4,0:0:0:0:
64,192,72251,1,2,0:0:0:0:
192,192,72251,1,0,0:0:0:0:
320,192,72409,1,8,0:0:0:0:
448,192,72409,1,0,0:0:0:40:Hat open.wav
64,192,72567,1,2,0:0:0:0:
192,192,72646,1,2,0:0:0:0:
320,192,72725,1,8,0:0:0:0:
448,192,72725,1,0,0:0:0:40:Hat open.wav
192,192,72883,1,2,0:0:0:0:
320,192,72883,1,0,0:0:0:0:
64,192,73041,1,8,0:0:0:0:
448,192,73041,1,0,0:0:0:0:
192,192,73120,1,0,0:0:0:40:Tom1.wav
320,192,73120,1,0,0:0:0:0:
64,192,73199,1,0,0:0:0:40:Tom2.wav
448,192,73199,1,0,0:0:0:0:
192,192,73278,1,0,0:0:0:40:Tom3.wav
320,192,73278,1,0,0:0:0:0:
64,192,73357,1,0,0:0:0:40:Hat open.wav
448,192,73357,1,0,0:0:0:60:E5S.wav
192,192,73672,1,0,0:0:0:60:F5S.wav
448,192,73988,1,0,0:0:0:60:G5S.wav
64,192,74304,1,0,0:0:0:60:E5S.wav
64,192,74620,1,2,0:0:0:0:
192,192,74620,1,4,0:0:0:0:
320,192,74620,1,0,0:0:0:60:C6S.wav
448,192,74620,1,0,0:0:0:0:
192,192,74935,1,8,0:0:0:0:
320,192,74935,1,0,0:0:0:40:Hat open.wav
448,192,74935,1,0,0:0:0:0:
64,192,75093,1,0,0:0:0:0:
192,192,75251,1,2,0:0:0:0:
320,192,75251,1,0,0:0:0:40:Hat open.wav
64,192,75409,1,2,0:0:0:0:
448,192,75409,1,0,0:0:0:40:Hat open.wav
64,192,75567,1,8,0:0:0:0:
192,192,75567,1,0,0:0:0:40:Hat open.wav
320,192,75567,1,0,0:0:0:0:
320,192,75804,1,8,0:0:0:0:
448,192,75804,1,0,0:0:0:0:
64,192,75883,1,2,0:0:0:0:
192,192,75883,1,0,0:0:0:40:Hat open.wav
448,192,76041,1,0,0:0:0:0:
64,192,76199,1,8,0:0:0:0:
320,192,76199,1,0,0:0:0:40:Hat open.wav
448,192,76199,1,0,0:0:0:0:
192,192,76357,1,0,0:0:0:0:
64,192,76514,1,2,0:0:0:0:
192,192,76514,1,0,0:0:0:40:Hat open.wav
320,192,76672,1,2,0:0:0:0:
448,192,76672,1,0,0:0:0:40:Hat open.wav
64,192,76830,1,8,0:0:0:0:
192,192,76830,1,0,0:0:0:40:Hat open.wav
448,192,76830,1,0,0:0:0:0:
64,192,76988,1,8,0:0:0:0:
192,192,76988,1,0,0:0:0:0:
320,192,76988,1,0,0:0:0:0:
64,192,77146,1,2,0:0:0:0:
192,192,77146,1,4,0:0:0:0:
320,192,77146,1,0,0:0:0:0:
448,192,77146,1,0,0:0:0:0:
64,192,77462,1,8,0:0:0:0:
192,192,77462,1,0,0:0:0:40:Hat open.wav
448,192,77462,1,0,0:0:0:0:
64,192,77620,1,0,0:0:0:0:
320,192,77778,1,2,0:0:0:0:
448,192,77778,1,0,0:0:0:40:Hat open.wav
64,192,77935,1,2,0:0:0:0:
192,192,77935,1,0,0:0:0:40:Hat open.wav
64,192,78093,1,8,0:0:0:0:
192,192,78093,1,0,0:0:0:40:Hat open.wav
320,192,78093,1,0,0:0:0:0:
448,192,78251,1,0,0:0:0:0:
320,192,78330,1,8,0:0:0:0:
64,192,78409,1,2,0:0:0:0:
192,192,78409,1,0,0:0:0:0:
64,192,78567,1,0,0:0:0:0:
192,192,78725,1,8,0:0:0:0:
320,192,78725,1,0,0:0:0:40:Hat open.wav
448,192,78725,1,0,0:0:0:0:
448,192,78883,1,0,0:0:0:40:Hat open.wav
192,192,79041,1,2,0:0:0:0:
320,192,79041,1,0,0:0:0:40:Hat open.wav
64,192,79199,1,2,0:0:0:0:
448,192,79199,1,0,0:0:0:0:
192,192,79357,1,8,0:0:0:0:
320,192,79357,1,0,0:0:0:0:
448,192,79357,1,0,0:0:0:0:
64,192,79514,1,2,0:0:0:0:
320,192,79514,1,0,0:0:0:0:
64,192,79672,1,4,0:0:0:0:
192,192,79672,1,2,0:0:0:0:
320,192,79672,1,0,0:0:0:0:
448,192,79672,1,0,0:0:0:0:
192,192,79988,1,8,0:0:0:0:
320,192,79988,1,0,0:0:0:40:Hat open.wav
448,192,79988,1,0,0:0:0:0:
64,192,80304,1,2,0:0:0:0:
192,192,80304,1,0,0:0:0:40:Hat open.wav
320,192,80462,1,2,0:0:0:0:
448,192,80462,1,0,0:0:0:40:Hat open.wav
64,192,80620,1,8,0:0:0:0:
192,192,80620,1,0,0:0:0:0:
448,192,80620,1,0,0:0:0:0:
64,192,80778,1,2,0:0:0:0:
192,192,80778,1,4,0:0:0:0:
320,192,80778,1,0,0:0:0:0:
448,192,80778,1,0,0:0:0:0:
64,192,81093,1,2,0:0:0:0:
448,192,81093,1,0,0:0:0:0:
192,192,81251,1,8,0:0:0:0:
320,192,81251,1,0,0:0:0:40:Hat open.wav
448,192,81251,1,0,0:0:0:0:
64,192,81409,1,0,0:0:0:40:Hat open.wav
192,192,81409,1,0,0:0:0:0:
320,192,81567,1,2,0:0:0:0:
448,192,81567,1,0,0:0:0:40:Hat open.wav
64,192,81725,1,2,0:0:0:0:
192,192,81725,1,0,0:0:0:0:
192,192,81883,1,8,0:0:0:0:
320,192,81883,1,4,0:0:0:0:
448,192,81883,1,0,0:0:0:0:
64,192,82041,1,2,0:0:0:0:
448,192,82041,1,0,0:0:0:0:
64,192,82199,1,8,0:0:0:0:
192,192,82199,1,4,0:0:0:0:
320,192,82199,1,0,0:0:0:0:
192,192,82357,1,2,0:0:0:0:
320,192,82357,1,0,0:0:0:0:
64,192,82514,1,2,0:0:0:0:
448,192,82514,1,0,0:0:0:0:
64,192,82672,1,8,0:0:0:0:
192,192,82672,1,0,0:0:0:0:
320,192,82672,1,0,0:0:0:0:
320,192,82988,1,2,0:0:0:0:
448,192,82988,1,0,0:0:0:0:
64,192,83146,1,2,0:0:0:0:
192,192,83146,1,0,0:0:0:0:
64,192,83304,1,8,0:0:0:0:
192,192,83304,1,4,0:0:0:0:
320,192,83304,1,0,0:0:0:0:
448,192,83304,1,0,0:0:0:0:
448,192,83462,1,0,0:0:0:0:
192,192,83620,1,2,0:0:0:0:
320,192,83620,1,0,0:0:0:0:
64,192,83778,1,8,0:0:0:0:
448,192,83778,1,2,0:0:0:0:
320,192,83857,1,8,0:0:0:0:
64,192,83935,1,8,0:0:0:0:
192,192,83935,1,0,0:0:0:0:
320,192,84014,1,8,0:0:0:0:
448,192,84014,1,0,0:0:0:0:
64,192,84093,1,8,0:0:0:0:
192,192,84093,1,2,0:0:0:0:
320,192,84172,1,8,0:0:0:0:
448,192,84172,1,0,0:0:0:0:
64,192,84251,1,8,0:0:0:0:
192,192,84251,1,0,0:0:0:0:
320,192,84330,1,8,0:0:0:0:
448,192,84330,1,0,0:0:0:0:
64,192,84409,1,8,0:0:0:0:
192,192,84409,1,0,0:0:0:40:Tom1.wav
448,192,84488,1,0,0:0:0:40:Tom2.wav
320,192,84567,1,0,0:0:0:40:Tom3.wav
64,192,84646,1,0,0:0:0:40:Tom3.wav
192,192,84725,1,4,0:0:0:0:
320,192,84725,1,2,0:0:0:0:
448,192,84725,1,8,0:0:0:0:
192,192,85041,1,8,0:0:0:0:
320,192,85041,1,0,0:0:0:40:Hat open.wav
448,192,85041,1,0,0:0:0:0:
64,192,85199,1,0,0:0:0:0:
192,192,85278,1,0,0:0:0:0:
320,192,85357,1,8,0:0:0:0:
448,192,85357,1,0,0:0:0:40:Hat open.wav
64,192,85514,1,2,0:0:0:0:
192,192,85514,1,0,0:0:0:0:
64,192,85672,1,8,0:0:0:0:
320,192,85672,1,0,0:0:0:40:Hat open.wav
448,192,85672,1,0,0:0:0:0:
192,192,85830,1,2,0:0:0:0:
320,192,85830,1,0,0:0:0:0:
64,192,85988,1,8,0:0:0:0:
192,192,85988,1,0,0:0:0:40:Hat open.wav
448,192,85988,1,0,0:0:0:0:
320,192,86146,1,0,0:0:0:0:
64,192,86304,1,8,0:0:0:0:
192,192,86304,1,0,0:0:0:40:Hat open.wav
448,192,86304,1,0,0:0:0:0:
64,192,86462,1,2,0:0:0:0:
320,192,86462,1,0,0:0:0:0:
192,192,86620,1,8,0:0:0:0:
320,192,86620,1,0,0:0:0:40:Hat open.wav
448,192,86620,1,0,0:0:0:0:
64,192,86778,1,2,0:0:0:0:
192,192,86857,1,2,0:0:0:0:
320,192,86935,1,8,0:0:0:0:
448,192,86935,1,0,0:0:0:0:
64,192,87014,1,8,0:0:0:0:
192,192,87014,1,0,0:0:0:0:
448,192,87093,1,0,0:0:0:40:Tom1.wav
320,192,87172,1,0,0:0:0:40:Tom2.wav
64,192,87251,1,2,0:0:0:0:
192,192,87251,1,4,0:0:0:0:
448,192,87251,1,0,0:0:0:0:
64,192,87567,1,8,0:0:0:0:
192,192,87567,1,4,0:0:0:0:
320,192,87646,1,8,0:0:0:0:
448,192,87646,1,0,0:0:0:0:
64,192,87725,1,8,0:0:0:0:
192,192,87725,1,0,0:0:0:0:
320,192,87804,1,8,0:0:0:0:
448,192,87804,1,0,0:0:0:0:
64,192,87883,1,4,0:0:0:0:
192,192,87883,1,2,0:0:0:0:
64,192,88199,1,8,0:0:0:0:
192,192,88199,1,0,0:0:0:0:
320,192,88278,1,8,0:0:0:0:
448,192,88278,1,0,0:0:0:0:
64,192,88357,1,0,0:0:0:40:Tom1.wav
192,192,88435,1,0,0:0:0:40:Tom2.wav
64,192,88514,1,2,0:0:0:0:
320,192,88514,1,4,0:0:0:0:
448,192,88514,1,0,0:0:0:0:
192,192,88830,1,8,0:0:0:0:
320,192,88830,1,0,0:0:0:0:
448,192,88830,1,0,0:0:0:0:
64,192,88988,1,2,0:0:0:0:
448,192,88988,1,0,0:0:0:20:soft-hitfinish.wav
64,192,89146,1,8,0:0:0:0:
192,192,89146,1,0,0:0:0:20:soft-hitfinish.wav
320,192,89146,1,0,0:0:0:0:
320,192,89304,1,2,0:0:0:0:
448,192,89304,1,0,0:0:0:0:
64,192,89462,1,8,0:0:0:0:
192,192,89462,1,0,0:0:0:0:
448,192,89462,1,0,0:0:0:0:
64,192,89620,1,8,0:0:0:0:
192,192,89620,1,0,0:0:0:0:
320,192,89620,1,0,0:0:0:0:
64,192,89778,1,2,0:0:0:0:
192,192,89778,1,4,0:0:0:0:
320,192,89778,1,0,0:0:0:0:
448,192,89778,1,0,0:0:0:0:
448,192,89935,1,0,0:0:0:0:
64,192,90093,1,8,0:0:0:0:
192,192,90093,1,0,0:0:0:40:Hat open.wav
320,192,90093,1,0,0:0:0:0:
64,192,90251,1,0,0:0:0:0:
320,192,90409,1,2,0:0:0:0:
448,192,90409,1,0,0:0:0:40:Hat open.wav
64,192,90567,1,2,0:0:0:0:
192,192,90567,1,0,0:0:0:40:Hat open.wav
192,192,90725,1,8,0:0:0:0:
320,192,90725,1,0,0:0:0:40:Hat open.wav
448,192,90725,1,0,0:0:0:0:
64,192,90883,1,0,0:0:0:0:
64,192,91041,1,2,0:0:0:0:
192,192,91041,1,8,0:0:0:0:
448,192,91041,1,0,0:0:0:40:Hat open.wav
320,192,91199,1,2,0:0:0:0:
448,192,91199,1,0,0:0:0:0:
64,192,91357,1,8,0:0:0:0:
192,192,91357,1,0,0:0:0:40:Hat open.wav
320,192,91357,1,0,0:0:0:0:
448,192,91514,1,2,0:0:0:0:
320,192,91593,1,2,0:0:0:0:
64,192,91672,1,8,0:0:0:0:
192,192,91672,1,0,0:0:0:0:
64,192,91830,1,2,0:0:0:0:
320,192,91830,1,0,0:0:0:0:
192,192,91988,1,8,0:0:0:0:
320,192,91988,1,0,0:0:0:0:
448,192,91988,1,0,0:0:0:0:
64,192,92146,1,2,0:0:0:0:
192,192,92146,1,0,0:0:0:0:
448,192,92225,1,2,0:0:0:0:
192,192,92304,1,10,0:0:0:0:
320,192,92304,1,4,0:0:0:0:
64,192,92383,1,0,0:0:0:0:
448,192,92462,1,8,0:0:0:0:
320,192,92541,1,8,0:0:0:0:
64,192,92620,1,2,0:0:0:0:
192,192,92620,1,8,0:0:0:0:
448,192,92699,1,8,0:0:0:0:
64,192,92778,1,8,0:0:0:0:
320,192,92778,1,4,0:0:0:0:
192,192,92857,1,8,0:0:0:0:
320,192,92935,1,2,0:0:0:0:
448,192,92935,1,8,0:0:0:0:
64,192,93014,1,8,0:0:0:0:
192,192,93093,1,8,0:0:0:0:
448,192,93172,1,8,0:0:0:0:
64,192,93251,1,2,0:0:0:0:
320,192,93251,1,8,0:0:0:0:
192,192,93330,1,8,0:0:0:0:
320,192,93409,1,8,0:0:0:0:
64,192,93488,1,8,0:0:0:0:
192,192,93567,1,2,0:0:0:0:
448,192,93567,1,8,0:0:0:0:
320,192,93646,1,8,0:0:0:0:
448,192,93725,1,8,0:0:0:0:
192,192,93804,1,8,0:0:0:0:
64,192,93883,1,2,0:0:0:0:
448,192,93883,1,8,0:0:0:0:
320,192,93962,1,8,0:0:0:0:
64,192,94041,1,4,0:0:0:0:
192,192,94041,1,8,0:0:0:0:
448,192,94120,1,8,0:0:0:0:
192,192,94199,1,2,0:0:0:0:
320,192,94199,1,8,0:0:0:0:
64,192,94278,1,8,0:0:0:0:
448,192,94357,1,8,0:0:0:0:
320,192,94435,1,8,0:0:0:0:
64,192,94514,1,2,0:0:0:0:
192,192,94514,1,8,0:0:0:0:
448,192,94593,1,8,0:0:0:0:
320,192,94672,1,2,0:0:0:0:
64,192,94751,1,2,0:0:0:0:
192,192,94830,1,8,0:0:0:0:
320,192,94830,1,0,0:0:0:0:
448,192,94909,1,8,0:0:0:0:
64,192,94988,1,2,0:0:0:0:
192,192,95067,1,2,0:0:0:0:
320,192,95146,1,8,0:0:0:0:
448,192,95146,1,0,0:0:0:0:
64,192,95225,1,8,0:0:0:0:
192,192,95225,1,0,0:0:0:0:
320,192,95304,1,8,0:0:0:0:
448,192,95304,1,0,0:0:0:0:
64,192,95383,1,8,0:0:0:0:
192,192,95383,1,0,0:0:0:0:
448,192,95462,1,2,0:0:0:0:
320,192,95541,1,2,0:0:0:0:
64,192,95620,1,8,0:0:0:0:
192,192,95620,1,0,0:0:0:0:
320,192,95699,1,8,0:0:0:0:
448,192,95699,1,0,0:0:0:0:
64,192,95778,1,0,0:0:0:40:Tom1.wav
192,192,95857,1,0,0:0:0:40:Tom2.wav
320,192,95935,1,2,0:0:0:0:
448,192,95935,1,0,0:0:0:0:
64,192,96014,1,2,0:0:0:0:
192,192,96093,1,8,0:0:0:0:
320,192,96093,1,0,0:0:0:40:Hat open.wav
448,192,96093,1,0,0:0:0:0:
64,192,96409,1,0,0:0:0:0:
64,192,96567,1,0,0:0:0:0:
448,192,96883,1,0,0:0:0:0:
448,192,97041,1,0,0:0:0:0:
64,192,97357,1,2,0:0:0:0:
192,192,97357,1,4,0:0:0:0:
320,192,97357,1,0,0:0:0:0:
448,192,97357,1,0,0:0:0:0:
64,192,97514,1,0,0:0:0:20:soft-hitclap.wav
448,192,97514,1,0,0:0:0:0:
64,192,97672,1,8,0:0:0:0:
192,192,97672,1,0,0:0:0:0:
320,192,97672,1,0,0:0:0:0:
448,192,97830,1,0,0:0:0:20:soft-hitclap.wav
320,192,97909,1,0,0:0:0:20:soft-hitclap.wav
64,192,97988,1,0,0:0:0:20:soft-hitclap.wav
192,192,97988,1,0,0:0:0:0:
320,192,98146,1,0,0:0:0:20:soft-hitclap.wav
448,192,98146,1,0,0:0:0:0:
192,192,98304,1,8,0:0:0:0:
320,192,98304,1,0,0:0:0:0:
448,192,98304,1,0,0:0:0:0:
64,192,98462,1,0,0:0:0:20:soft-hitclap.wav
192,192,98620,1,0,0:0:0:20:soft-hitclap.wav
320,192,98620,1,0,0:0:0:0:
64,192,98778,1,0,0:0:0:20:soft-hitclap.wav
448,192,98778,1,0,0:0:0:0:
192,192,98935,1,8,0:0:0:0:
320,192,98935,1,0,0:0:0:0:
448,192,98935,1,0,0:0:0:0:
64,192,99093,1,0,0:0:0:20:soft-hitclap.wav
192,192,99172,1,0,0:0:0:20:soft-hitclap.wav
320,192,99251,1,0,0:0:0:20:soft-hitclap.wav
448,192,99251,1,0,0:0:0:0:
64,192,99409,1,2,0:0:0:0:
192,192,99409,1,0,0:0:0:0:
64,192,99567,1,8,0:0:0:0:
192,192,99567,1,0,0:0:0:40:Hat open.wav
320,192,99567,1,0,0:0:0:0:
320,192,99725,1,2,0:0:0:0:
448,192,99725,1,0,0:0:0:0:
192,192,99883,1,2,0:0:0:0:
320,192,99883,1,0,0:0:0:0:
448,192,99883,1,0,0:0:0:0:
64,192,100041,1,8,0:0:0:0:
192,192,100041,1,0,0:0:0:0:
64,192,100199,1,8,0:0:0:0:
192,192,100199,1,0,0:0:0:0:
320,192,100199,1,0,0:0:0:0:
448,192,100357,1,0,0:0:0:20:soft-hitclap.wav
320,192,100435,1,0,0:0:0:20:soft-hitclap.wav
64,192,100514,1,0,0:0:0:20:soft-hitclap.wav
192,192,100514,1,0,0:0:0:0:
192,192,100672,1,0,0:0:0:20:soft-hitclap.wav
448,192,100672,1,0,0:0:0:0:
64,192,100830,1,8,0:0:0:0:
320,192,100830,1,0,0:0:0:0:
448,192,100830,1,0,0:0:0:0:
64,192,100988,1,2,0:0:0:0:
192,192,100988,1,0,0:0:0:0:
320,192,101067,1,2,0:0:0:0:
448,192,101067,1,0,0:0:0:0:
64,192,101146,1,4,0:0:0:0:
192,192,101146,1,8,0:0:0:0:
320,192,101304,1,2,0:0:0:0:
448,192,101304,1,0,0:0:0:0:
64,192,101462,1,8,0:0:0:0:
192,192,101462,1,0,0:0:0:0:
320,192,101462,1,0,0:0:0:0:
64,192,101620,1,0,0:0:0:40:Tom1.wav
192,192,101699,1,0,0:0:0:40:Tom2.wav
320,192,101778,1,2,0:0:0:0:
448,192,101778,1,0,0:0:0:40:Hat open.wav
64,192,101935,1,2,0:0:0:0:
192,192,101935,1,0,0:0:0:0:
192,192,102093,1,8,0:0:0:0:
320,192,102093,1,0,0:0:0:40:Hat open.wav
64,192,102251,1,8,0:0:0:0:
448,192,102251,1,0,0:0:0:0:
192,192,102330,1,8,0:0:0:0:
320,192,102330,1,0,0:0:0:0:
64,192,102409,1,2,0:0:0:0:
448,192,102409,1,4,0:0:0:0:
192,192,102567,1,0,0:0:0:0:
64,192,102725,1,8,0:0:0:0:
320,192,102725,1,0,0:0:0:40:Hat open.wav
448,192,102725,1,0,0:0:0:0:
192,192,102883,1,0,0:0:0:0:
320,192,103041,1,2,0:0:0:0:
448,192,103041,1,0,0:0:0:40:Hat open.wav
64,192,103199,1,2,0:0:0:0:
192,192,103199,1,0,0:0:0:0:
192,192,103357,1,8,0:0:0:0:
320,192,103357,1,0,0:0:0:40:Hat open.wav
448,192,103357,1,0,0:0:0:0:
64,192,103514,1,2,0:0:0:0:
448,192,103514,1,0,0:0:0:0:
320,192,103672,1,0,0:0:0:40:Hat open.wav
64,192,103830,1,2,0:0:0:0:
192,192,103830,1,0,0:0:0:0:
64,192,103988,1,8,0:0:0:0:
192,192,103988,1,0,0:0:0:40:Hat open.wav
320,192,103988,1,0,0:0:0:0:
448,192,104146,1,0,0:0:0:0:
64,192,104225,1,8,0:0:0:0:
192,192,104225,1,0,0:0:0:0:
320,192,104304,1,2,0:0:0:0:
448,192,104304,1,0,0:0:0:40:Hat open.wav
192,192,104462,1,2,0:0:0:0:
320,192,104462,1,0,0:0:0:0:
64,192,104620,1,8,0:0:0:0:
192,192,104620,1,0,0:0:0:0:
448,192,104620,1,0,0:0:0:0:
64,192,104778,1,2,0:0:0:0:
320,192,104778,1,0,0:0:0:0:
192,192,104935,1,2,0:0:0:0:
320,192,104935,1,4,0:0:0:0:
448,192,104935,1,0,0:0:0:0:
64,192,105251,1,8,0:0:0:0:
192,192,105251,1,0,0:0:0:0:
320,192,105251,1,0,0:0:0:0:
64,192,105409,1,2,0:0:0:0:
192,192,105409,1,4,0:0:0:0:
320,192,105409,1,0,0:0:0:0:
448,192,105409,1,0,0:0:0:0:
192,192,105725,1,2,0:0:0:0:
448,192,105725,1,0,0:0:0:0:
64,192,105883,1,8,0:0:0:0:
320,192,105883,1,0,0:0:0:0:
448,192,105883,1,0,0:0:0:0:
64,192,106041,1,2,0:0:0:0:
192,192,106041,1,4,0:0:0:0:
320,192,106041,1,0,0:0:0:0:
320,192,106357,1,2,0:0:0:0:
448,192,106357,1,0,0:0:0:0:
64,192,106514,1,8,0:0:0:0:
192,192,106514,1,4,0:0:0:0:
320,192,106514,1,0,0:0:0:0:
448,192,106672,1,8,0:0:0:0:
320,192,106751,1,8,0:0:0:0:
64,192,106830,1,8,0:0:0:0:
192,192,106830,1,0,0:0:0:0:
192,192,106988,1,0,0:0:0:40:Tom1.wav
448,192,106988,1,0,0:0:0:0:
64,192,107146,1,0,0:0:0:40:Tom2.wav
320,192,107146,1,0,0:0:0:0:
192,192,107304,1,0,0:0:0:40:Tom3.wav
448,192,107304,1,0,0:0:0:0:
64,192,107462,1,2,0:0:0:0:
192,192,107462,1,4,0:0:0:0:
320,192,107462,1,0,0:0:0:0:
448,192,107462,1,0,0:0:0:0:
64,192,107620,1,0,0:0:0:0:
448,192,107778,1,0,0:0:0:0:
192,192,107935,1,0,0:0:0:0:
320,192,108093,1,0,0:0:0:0:
448,192,108409,1,0,0:0:0:0:
64,192,108567,128,0,109041:0:0:0:0:
192,192,109041,128,0,109120:0:0:0:60:F6S.wav
320,192,109357,128,0,109435:0:0:0:60:E6S.wav
448,192,109672,128,0,109751:0:0:0:60:C6S.wav
320,192,109830,1,0,0:0:0:0:
64,192,109988,1,0,0:0:0:60:A5S.wav
192,192,109988,128,0,110067:0:0:0:0:
320,192,110146,1,0,0:0:0:0:
448,192,110304,1,0,0:0:0:0:
64,192,110462,1,0,0:0:0:0:
192,192,110620,1,0,0:0:0:0:
448,192,110935,1,0,0:0:0:0:
64,192,111093,128,0,111567:0:0:0:0:
448,192,111883,128,0,111962:0:0:0:60:A5S.wav
64,192,112199,128,0,112278:0:0:0:60:G5S.wav
192,192,112514,1,4,0:0:0:0:
320,192,112514,1,0,0:0:0:60:C5S.wav
448,192,112514,128,0,112593:0:0:0:0:
64,192,112830,1,0,0:0:0:0:
192,192,113146,1,0,0:0:0:0:
320,192,113462,1,0,0:0:0:0:
64,192,113778,1,0,0:0:0:60:E5S.wav
192,192,113778,1,0,0:0:0:0:
448,192,114093,1,0,0:0:0:0:
320,192,114409,1,0,0:0:0:0:
192,192,114725,1,0,0:0:0:0:
64,192,114883,1,8,0:0:0:0:
192,192,114962,1,8,0:0:0:0:
64,192,115041,1,4,0:0:0:0:
320,192,115041,1,2,0:0:0:0:
448,192,115041,1,0,0:0:0:0:
64,192,115514,1,2,0:0:0:0:
192,192,115514,1,0,0:0:0:0:
320,192,115672,1,8,0:0:0:0:
448,192,115672,1,0,0:0:0:0:
64,192,115830,1,0,0:0:0:40:Tom1.wav
192,192,115830,1,0,0:0:0:0:
320,192,115988,1,0,0:0:0:0:
192,192,116146,1,0,0:0:0:40:Tom2.wav
448,192,116146,1,0,0:0:0:0:
320,192,116304,1,0,0:0:0:40:Tom3.wav
448,192,116304,1,0,0:0:0:0:
64,192,116462,1,8,0:0:0:0:
192,192,116462,1,0,0:0:0:0:
320,192,116620,1,0,0:0:0:0:
64,192,116778,1,2,0:0:0:0:
448,192,116778,1,0,0:0:0:0:
192,192,116935,1,8,0:0:0:0:
320,192,116935,1,0,0:0:0:0:
64,192,117093,1,8,0:0:0:0:
448,192,117093,1,0,0:0:0:0:
192,192,117172,1,8,0:0:0:0:
320,192,117172,1,0,0:0:0:0:
64,192,117251,1,0,0:0:0:40:Tom1.wav
448,192,117251,1,0,0:0:0:0:
192,192,117409,1,0,0:0:0:40:Tom2.wav
320,192,117409,1,0,0:0:0:0:
64,192,117567,128,4,117646:0:0:0:0:
192,192,117567,1,2,0:0:0:0:
448,192,117567,1,0,0:0:0:40:Tom3.wav
448,192,117883,1,0,0:0:0:0:
192,192,118041,1,2,0:0:0:0:
320,192,118041,1,0,0:0:0:0:
64,192,118199,1,8,0:0:0:0:
448,192,118199,1,0,0:0:0:0:
320,192,118830,1,2,0:0:0:0:
448,192,118830,1,0,0:0:0:0:
64,192,118988,1,0,0:0:0:0:
192,192,119146,1,2,0:0:0:0:
320,192,119146,1,0,0:0:0:0:
448,192,119304,1,0,0:0:0:0:
192,192,119462,1,8,0:0:0:0:
320,192,119462,1,0,0:0:0:0:
64,192,119620,1,2,0:0:0:0:
448,192,119620,1,0,0:0:0:0:
320,192,119778,1,0,0:0:0:0:
64,192,119935,1,0,0:0:0:0:
320,192,120093,1,2,0:0:0:0:
448,192,120093,128,0,121357:0:0:0:40:Hat open.wav
64,192,120409,1,0,0:0:0:0:
192,192,120567,1,2,0:0:0:0:
320,192,120567,1,0,0:0:0:0:
64,192,120725,128,8,121357:0:0:0:0:
320,192,120725,1,0,0:0:0:0:
192,192,121041,1,0,0:0:0:0:
192,192,121357,1,2,0:0:0:0:
320,192,121357,128,0,121988:0:0:0:0:
64,192,121672,1,2,0:0:0:0:
448,192,121672,1,0,0:0:0:0:
192,192,121830,1,0,0:0:0:0:
64,192,121988,1,8,0:0:0:0:
448,192,121988,1,0,0:0:0:0:
192,192,122146,1,0,0:0:0:0:
320,192,122304,1,2,0:0:0:0:
448,192,122304,1,0,0:0:0:0:
64,192,122462,1,0,0:0:0:0:
192,192,122620,1,2,0:0:0:0:
320,192,122620,1,4,0:0:0:0:
448,192,122620,1,0,0:0:0:0:
64,192,122935,1,2,0:0:0:0:
320,192,122935,1,0,0:0:0:0:
192,192,123093,1,0,0:0:0:0:
320,192,123251,1,8,0:0:0:0:
448,192,123251,1,0,0:0:0:0:
64,192,123725,1,2,0:0:0:0:
192,192,123725,1,0,0:0:0:0:
320,192,123883,1,0,0:0:0:0:
448,192,123883,1,0,0:0:0:0:
192,192,124041,1,0,0:0:0:0:
64,192,124199,1,2,0:0:0:0:
448,192,124199,1,0,0:0:0:0:
320,192,124357,1,0,0:0:0:0:
192,192,124514,1,8,0:0:0:0:
448,192,124514,1,0,0:0:0:0:
320,192,124672,1,0,0:0:0:0:
64,192,124830,1,2,0:0:0:0:
448,192,124830,1,0,0:0:0:0:
192,192,124988,1,0,0:0:0:0:
64,192,125146,1,2,0:0:0:0:
320,192,125146,1,4,0:0:0:0:
448,192,125146,1,0,0:0:0:0:
192,192,125462,1,2,0:0:0:0:
320,192,125462,1,0,0:0:0:40:Hat open.wav
64,192,125778,1,8,0:0:0:0:
192,192,125778,1,0,0:0:0:40:Hat open.wav
320,192,126093,1,2,0:0:0:0:
448,192,126093,1,0,0:0:0:40:Hat open.wav
64,192,126251,1,2,0:0:0:0:
192,192,126251,1,4,0:0:0:0:
448,192,126251,1,0,0:0:0:0:
192,192,126409,1,0,0:0:0:0:
320,192,126409,1,0,0:0:0:0:
64,192,126567,1,2,0:0:0:0:
448,192,126567,1,0,0:0:0:0:
192,192,126725,1,8,0:0:0:0:
320,192,126725,1,0,0:0:0:0:
64,192,126883,1,2,0:0:0:0:
192,192,127041,1,8,0:0:0:0:
320,192,127041,1,0,0:0:0:0:
64,192,127199,1,8,0:0:0:0:
448,192,127199,1,0,0:0:0:0:
192,192,127278,1,8,0:0:0:0:
320,192,127278,1,0,0:0:0:0:
64,192,127357,1,0,0:0:0:40:Tom1.wav
448,192,127357,1,0,0:0:0:0:
192,192,127514,1,0,0:0:0:40:Tom2.wav
320,192,127514,1,0,0:0:0:0:
64,192,127672,1,2,0:0:0:0:
320,192,127672,1,4,0:0:0:0:
448,192,127672,1,0,0:0:0:40:Tom3.wav
192,192,127830,1,0,0:0:0:0:
64,192,127988,1,8,0:0:0:0:
320,192,127988,1,0,0:0:0:0:
448,192,127988,1,0,0:0:0:0:
192,192,128146,1,0,0:0:0:0:
448,192,128304,1,0,0:0:0:0:
64,192,128462,1,2,0:0:0:0:
192,192,128462,1,0,0:0:0:0:
64,192,128620,1,8,0:0:0:0:
320,192,128620,1,0,0:0:0:0:
448,192,128620,1,0,0:0:0:0:
192,192,128778,1,0,0:0:0:0:
64,192,128935,1,2,0:0:0:0:
448,192,128935,1,0,0:0:0:0:
192,192,129093,1,0,0:0:0:0:
320,192,129093,1,0,0:0:0:0:
64,192,129251,1,8,0:0:0:0:
192,192,129251,1,0,0:0:0:0:
448,192,129251,1,0,0:0:0:0:
320,192,129409,1,0,0:0:0:0:
64,192,129567,1,0,0:0:0:0:
192,192,129567,1,0,0:0:0:0:
320,192,129725,1,2,0:0:0:0:
448,192,129725,1,0,0:0:0:0:
64,192,129883,1,8,0:0:0:0:
192,192,129883,1,0,0:0:0:40:Hat open.wav
448,192,129883,1,0,0:0:0:0:
320,192,130041,1,0,0:0:0:0:
192,192,130199,1,2,0:0:0:0:
448,192,130199,1,0,0:0:0:0:
64,192,130357,1,0,0:0:0:0:
192,192,130514,1,8,0:0:0:0:
320,192,130514,1,0,0:0:0:0:
448,192,130514,1,0,0:0:0:0:
64,192,130672,1,0,0:0:0:0:
192,192,130672,1,0,0:0:0:0:
320,192,130830,1,0,0:0:0:0:
192,192,130988,1,2,0:0:0:0:
448,192,130988,1,0,0:0:0:0:
64,192,131146,1,8,0:0:0:0:
192,192,131146,1,0,0:0:0:0:
320,192,131146,1,0,0:0:0:0:
448,192,131304,1,0,0:0:0:0:
64,192,131462,1,2,0:0:0:0:
192,192,131462,1,0,0:0:0:0:
320,192,131620,1,0,0:0:0:0:
448,192,131620,1,0,0:0:0:0:
64,192,131778,1,8,0:0:0:0:
192,192,131778,1,0,0:0:0:40:Hat open.wav
320,192,131778,1,0,0:0:0:0:
64,192,131935,1,2,0:0:0:0:
448,192,131935,1,0,0:0:0:0:
192,192,132093,1,0,0:0:0:0:
320,192,132093,1,0,0:0:0:0:
64,192,132251,1,2,0:0:0:0:
448,192,132251,1,0,0:0:0:0:
64,192,132409,1,8,0:0:0:0:
192,192,132409,1,4,0:0:0:0:
320,192,132409,1,0,0:0:0:0:
320,192,132567,1,0,0:0:0:0:
64,192,132725,128,2,133357:0:0:0:0:
192,192,132725,1,4,0:0:0:0:
448,192,132725,1,0,0:0:0:0:
320,192,132883,1,0,0:0:0:0:
192,192,133041,128,8,133357:0:0:0:0:
448,192,133041,1,0,0:0:0:0:
320,192,133199,1,0,0:0:0:0:
448,192,133357,128,0,133988:0:0:0:0:
64,192,133514,1,2,0:0:0:0:
192,192,133672,1,8,0:0:0:0:
320,192,133672,128,0,133988:0:0:0:0:
64,192,133830,1,0,0:0:0:0:
64,192,133988,1,2,0:0:0:0:
192,192,133988,128,0,134620:0:0:0:0:
320,192,134146,1,0,0:0:0:0:
64,192,134304,128,8,134620:0:0:0:0:
448,192,134304,1,0,0:0:0:0:
320,192,134462,1,0,0:0:0:0:
448,192,134620,128,0,135251:0:0:0:0:
192,192,134778,1,2,0:0:0:0:
64,192,134935,128,8,135251:0:0:0:0:
320,192,134935,1,0,0:0:0:40:Hat open.wav
192,192,135093,1,0,0:0:0:0:
192,192,135251,1,2,0:0:0:0:
320,192,135251,1,0,0:0:0:0:
448,192,135409,1,0,0:0:0:0:
192,192,135567,1,8,0:0:0:0:
320,192,135567,1,0,0:0:0:0:
64,192,135725,128,0,136199:0:0:0:0:
448,192,135883,128,0,136199:0:0:0:0:
192,192,136041,1,2,0:0:0:0:
192,192,136199,1,8,0:0:0:0:
320,192,136199,1,0,0:0:0:0:
64,192,136357,1,0,0:0:0:0:
192,192,136514,1,2,0:0:0:0:
448,192,136514,1,0,0:0:0:0:
64,192,136672,1,2,0:0:0:0:
320,192,136672,1,0,0:0:0:0:
192,192,136830,1,8,0:0:0:0:
320,192,136830,1,4,0:0:0:0:
448,192,136830,1,0,0:0:0:0:
448,192,136988,1,0,0:0:0:0:
64,192,137146,1,2,0:0:0:0:
192,192,137146,1,0,0:0:0:0:
320,192,137304,1,2,0:0:0:0:
448,192,137304,1,0,0:0:0:0:
64,192,137462,1,8,0:0:0:0:
192,192,137462,1,4,0:0:0:0:
320,192,137462,1,0,0:0:0:0:
64,192,137620,1,0,0:0:0:0:
192,192,137778,1,2,0:0:0:0:
320,192,137778,1,4,0:0:0:0:
448,192,137778,1,0,0:0:0:0:
320,192,137935,1,0,0:0:0:0:
64,192,138093,1,8,0:0:0:0:
192,192,138093,1,0,0:0:0:0:
448,192,138093,1,0,0:0:0:0:
320,192,138251,1,0,0:0:0:0:
192,192,138409,1,0,0:0:0:0:
64,192,138567,1,2,0:0:0:0:
448,192,138567,1,0,0:0:0:0:
192,192,138725,1,8,0:0:0:0:
320,192,138725,1,0,0:0:0:40:Hat open.wav
448,192,138725,1,0,0:0:0:0:
320,192,138883,1,0,0:0:0:0:
192,192,139041,1,2,0:0:0:0:
448,192,139041,1,0,0:0:0:0:
64,192,139199,1,0,0:0:0:0:
192,192,139357,1,8,0:0:0:0:
320,192,139357,1,0,0:0:0:0:
448,192,139357,1,0,0:0:0:0:
320,192,139514,1,0,0:0:0:0:
448,192,139672,1,0,0:0:0:0:
192,192,139830,1,2,0:0:0:0:
320,192,139830,1,0,0:0:0:0:
64,192,139988,1,8,0:0:0:0:
192,192,139988,1,0,0:0:0:40:Hat open.wav
320,192,139988,1,0,0:0:0:0:
64,192,140146,1,0,0:0:0:0:
192,192,140304,1,2,0:0:0:0:
320,192,140304,1,4,0:0:0:0:
448,192,140304,1,0,0:0:0:0:
320,192,140462,1,0,0:0:0:0:
64,192,140620,1,8,0:0:0:0:
192,192,140620,1,0,0:0:0:0:
448,192,140620,1,0,0:0:0:0:
64,192,140778,1,0,0:0:0:0:
320,192,140935,1,2,0:0:0:0:
448,192,140935,1,0,0:0:0:0:
64,192,141093,1,2,0:0:0:0:
192,192,141093,1,0,0:0:0:0:
192,192,141251,1,8,0:0:0:0:
320,192,141251,1,0,0:0:0:40:Hat open.wav
448,192,141251,1,0,0:0:0:0:
448,192,141409,1,0,0:0:0:0:
64,192,141567,1,2,0:0:0:0:
192,192,141567,1,0,0:0:0:0:
320,192,141567,1,0,0:0:0:0:
320,192,141725,1,0,0:0:0:0:
64,192,141883,1,8,0:0:0:0:
192,192,141883,1,0,0:0:0:0:
448,192,141883,1,0,0:0:0:0:
192,192,142041,1,2,0:0:0:0:
320,192,142041,1,0,0:0:0:0:
64,192,142199,1,0,0:0:0:0:
320,192,142357,1,2,0:0:0:0:
448,192,142357,1,0,0:0:0:0:
64,192,142514,1,8,0:0:0:0:
192,192,142514,1,4,0:0:0:0:
320,192,142514,1,0,0:0:0:0:
192,192,142672,1,0,0:0:0:0:
64,192,142830,1,2,0:0:0:0:
320,192,142830,1,4,0:0:0:0:
448,192,142830,1,0,0:0:0:0:
192,192,142988,1,0,0:0:0:0:
64,192,143146,1,8,0:0:0:0:
320,192,143146,1,0,0:0:0:0:
448,192,143146,1,0,0:0:0:0:
192,192,143304,1,0,0:0:0:0:
320,192,143462,1,0,0:0:0:0:
64,192,143620,1,2,0:0:0:0:
448,192,143620,1,0,0:0:0:0:
192,192,143778,1,8,0:0:0:0:
320,192,143778,1,0,0:0:0:0:
448,192,143778,1,0,0:0:0:0:
64,192,143935,1,2,0:0:0:0:
192,192,143935,1,0,0:0:0:0:
320,192,144093,1,2,0:0:0:0:
448,192,144093,1,0,0:0:0:0:
64,192,144251,1,0,0:0:0:0:
192,192,144409,1,8,0:0:0:0:
320,192,144409,1,0,0:0:0:0:
448,192,144409,1,0,0:0:0:0:
448,192,144567,1,0,0:0:0:0:
64,192,144725,1,0,0:0:0:0:
192,192,144725,1,0,0:0:0:0:
320,192,144883,1,2,0:0:0:0:
448,192,144883,1,0,0:0:0:0:
64,192,145041,1,8,0:0:0:0:
192,192,145041,1,0,0:0:0:0:
320,192,145041,1,0,0:0:0:0:
192,192,145199,1,0,0:0:0:0:
64,192,145357,1,2,0:0:0:0:
320,192,145357,1,4,0:0:0:0:
448,192,145357,1,0,0:0:0:0:
192,192,145514,1,2,0:0:0:0:
320,192,145514,1,0,0:0:0:0:
448,192,145672,1,0,0:0:0:0:
64,192,145830,1,2,0:0:0:0:
320,192,145830,1,0,0:0:0:0:
192,192,145988,1,8,0:0:0:0:
320,192,145988,1,0,0:0:0:0:
448,192,145988,1,0,0:0:0:0:
64,192,146146,1,2,0:0:0:0:
192,192,146146,1,0,0:0:0:0:
320,192,146304,1,2,0:0:0:0:
448,192,146304,1,0,0:0:0:0:
64,192,146462,1,8,0:0:0:0:
192,192,146462,1,4,0:0:0:0:
320,192,146462,1,0,0:0:0:0:
448,192,146462,1,0,0:0:0:0:
448,192,146778,1,2,0:0:0:0:
320,192,146857,1,0,0:0:0:0:
64,192,146935,1,8,0:0:0:0:
192,192,146935,1,0,0:0:0:0:
64,192,147093,1,8,0:0:0:0:
448,192,147093,1,0,0:0:0:0:
192,192,147172,1,8,0:0:0:0:
320,192,147172,1,0,0:0:0:0:
64,192,147251,1,8,0:0:0:0:
448,192,147251,1,0,0:0:0:0:
192,192,147409,1,0,0:0:0:40:Tom1.wav
320,192,147409,1,0,0:0:0:0:
320,192,147567,1,0,0:0:0:40:Tom2.wav
448,192,147567,1,0,0:0:0:0:
64,192,147725,1,0,0:0:0:40:Tom3.wav
192,192,147725,1,0,0:0:0:0:
64,192,147883,128,2,148514:0:0:0:0:
192,192,147883,1,4,0:0:0:0:
320,192,147883,1,0,0:0:0:0:
192,192,148199,128,0,148514:0:0:0:0:
448,192,148357,1,2,0:0:0:0:
320,192,148514,1,2,0:0:0:0:
448,192,148514,128,0,149146:0:0:0:0:
192,192,148830,1,8,0:0:0:0:
320,192,148830,128,0,149146:0:0:0:0:
64,192,149146,128,2,149778:0:0:0:0:
192,192,149146,1,0,0:0:0:0:
320,192,149462,128,0,149778:0:0:0:0:
192,192,149620,1,2,0:0:0:0:
192,192,149778,1,2,0:0:0:0:
448,192,149778,128,0,150409:0:0:0:0:
64,192,150093,1,8,0:0:0:0:
192,192,150093,128,0,150409:0:0:0:0:
64,192,150409,1,2,0:0:0:0:
320,192,150409,128,0,150725:0:0:0:0:
64,192,150725,128,0,150883:0:0:0:0:
192,192,150883,1,2,0:0:0:0:
320,192,150883,128,0,151041:0:0:0:0:
64,192,151041,1,8,0:0:0:0:
448,192,151041,1,0,0:0:0:0:
192,192,151199,1,8,0:0:0:0:
320,192,151199,1,0,0:0:0:0:
64,192,151357,1,2,0:0:0:0:
448,192,151357,1,0,0:0:0:0:
320,192,151514,1,8,0:0:0:0:
192,192,151593,1,8,0:0:0:0:
64,192,151672,1,2,0:0:0:0:
448,192,151672,1,0,0:0:0:0:
64,192,151830,1,8,0:0:0:0:
192,192,151909,1,8,0:0:0:0:
320,192,151988,1,8,0:0:0:0:
448,192,151988,1,2,0:0:0:0:
64,192,152146,1,8,0:0:0:0:
192,192,152146,1,0,0:0:0:0:
64,192,152304,1,8,0:0:0:0:
448,192,152304,1,0,0:0:0:0:
192,192,152462,1,8,0:0:0:0:
320,192,152462,1,0,0:0:0:0:
320,192,152620,1,8,0:0:0:0:
448,192,152620,1,0,0:0:0:40:Tom1.wav
64,192,152778,1,0,0:0:0:40:Tom2.wav
192,192,152778,1,0,0:0:0:0:
64,192,152935,128,2,153567:0:0:0:0:
192,192,152935,1,0,0:0:0:40:Tom3.wav
320,192,152935,1,0,0:0:0:0:
448,192,153093,1,2,0:0:0:0:
192,192,153251,128,8,153567:0:0:0:0:
320,192,153251,1,0,0:0:0:0:
448,192,153567,128,0,154199:0:0:0:0:
192,192,153883,1,10,0:0:0:0:
320,192,153883,128,0,154199:0:0:0:40:Hat open.wav
64,192,154199,128,2,154830:0:0:0:0:
192,192,154199,1,0,0:0:0:0:
320,192,154357,1,2,0:0:0:0:
192,192,154514,128,8,154830:0:0:0:0:
448,192,154514,1,0,0:0:0:0:
320,192,154830,128,0,155462:0:0:0:0:
192,192,155146,1,8,0:0:0:0:
448,192,155146,128,0,155462:0:0:0:40:Hat open.wav
64,192,155304,1,2,0:0:0:0:
64,192,155462,1,8,0:0:0:0:
192,192,155462,1,4,0:0:0:0:
320,192,155620,1,2,0:0:0:0:
448,192,155620,1,0,0:0:0:0:
64,192,155778,1,8,0:0:0:0:
192,192,155778,1,0,0:0:0:0:
448,192,155935,1,2,0:0:0:0:
320,192,156014,1,0,0:0:0:0:
64,192,156093,1,8,0:0:0:0:
192,192,156093,1,0,0:0:0:0:
320,192,156251,1,2,0:0:0:0:
448,192,156251,1,0,0:0:0:0:
64,192,156409,1,8,0:0:0:0:
192,192,156409,1,0,0:0:0:0:
320,192,156488,1,0,0:0:0:40:Tom1.wav
448,192,156488,1,0,0:0:0:0:
64,192,156567,1,0,0:0:0:40:Tom2.wav
192,192,156567,1,0,0:0:0:0:
320,192,156646,1,0,0:0:0:40:Tom3.wav
448,192,156646,1,0,0:0:0:0:
64,192,156725,1,8,0:0:0:0:
192,192,156725,1,0,0:0:0:40:Hat open.wav
320,192,157041,1,0,0:0:0:60:F6S.wav
192,192,157357,1,0,0:0:0:60:G6S.wav
64,192,157672,1,0,0:0:0:60:E6S.wav
192,192,157988,128,6,158541:0:0:0:0:
320,192,157988,128,0,158383:0:0:0:60:C5S.wav
448,192,157988,128,0,159172:0:0:0:60:C7S.wav
320,192,158462,128,0,159172:0:0:0:0:
192,192,158620,128,0,159172:0:0:0:0:
64,192,159251,128,0,160120:0:0:0:60:E6S.wav
192,192,159251,128,0,159804:0:0:0:60:E5S.wav
320,192,159251,128,0,159488:0:0:0:0:
320,192,159567,128,0,160435:0:0:0:60:F6S.wav
192,192,159883,128,0,160435:0:0:0:60:G6S.wav
64,192,160199,128,0,160435:0:0:0:60:E6S.wav
64,192,160514,128,0,161541:0:0:0:60:C7S.wav
320,192,160514,128,0,161067:0:0:0:60:C6S.wav
448,192,160514,128,0,160909:0:0:0:0:
448,192,160988,128,0,161699:0:0:0:0:
320,192,161146,128,0,161699:0:0:0:0:
64,192,161620,128,0,161699:0:0:0:80:D6S.wav
192,192,161778,128,0,162014:0:0:0:80:C6S.wav
320,192,161778,128,0,162330:0:0:0:80:C7S.wav
448,192,161778,128,0,162646:0:0:0:0:
64,192,162093,1,0,0:0:0:80:A#5S_Bb5S.wav
192,192,162093,128,0,162962:0:0:0:80:A#6S_Bb6S.wav
320,192,162409,128,0,162962:0:0:0:80:A5S.wav
64,192,162725,1,0,0:0:0:80:C6S.wav
448,192,162725,128,0,162962:0:0:0:80:C7S.wav
192,192,163041,1,2,0:0:0:0:
320,192,163041,1,0,0:0:0:80:A#5S_Bb5S.wav
448,192,163041,1,0,0:0:0:80:A#6S_Bb6S.wav
64,192,163199,1,0,0:0:0:0:
192,192,163357,1,2,0:0:0:0:
448,192,163357,1,0,0:0:0:40:Hat open.wav
320,192,163514,1,0,0:0:0:0:
64,192,163672,1,2,0:0:0:0:
448,192,163672,128,0,163751:0:0:0:80:A#6S_Bb6S.wav
192,192,163830,128,0,163909:0:0:0:80:A6S.wav
64,192,163988,1,2,0:0:0:0:
320,192,163988,128,0,164067:0:0:0:40:Hat open.wav
448,192,164146,128,0,164225:0:0:0:80:C7S.wav
64,192,164304,1,2,0:0:0:0:
192,192,164304,1,0,0:0:0:0:
320,192,164462,128,0,164541:0:0:0:80:A6S.wav
192,192,164620,128,2,164699:0:0:0:0:
448,192,164620,1,0,0:0:0:40:Hat open.wav
64,192,164778,128,0,164857:0:0:0:80:F6S.wav
320,192,164935,1,2,0:0:0:0:
448,192,164935,1,0,0:0:0:0:
192,192,165093,1,0,0:0:0:0:
64,192,165251,128,2,165330:0:0:0:0:
320,192,165251,1,0,0:0:0:40:Hat open.wav
192,192,165409,1,0,0:0:0:0:
64,192,165567,1,4,0:0:0:0:
320,192,165567,1,2,0:0:0:0:
448,192,165567,1,0,0:0:0:0:
448,192,165725,1,0,0:0:0:40:Tom1.wav
320,192,165804,1,0,0:0:0:40:Tom2.wav
64,192,165883,1,0,0:0:0:40:Tom3.wav
192,192,165883,1,0,0:0:0:0:
320,192,166041,1,2,0:0:0:0:
448,192,166041,128,0,166357:0:0:0:40:Hat open.wav
64,192,166199,1,0,0:0:0:0:
64,192,166357,1,2,0:0:0:0:
192,192,166357,1,0,0:0:0:40:Hat open.wav
320,192,166514,1,0,0:0:0:0:
64,192,166672,128,2,166988:0:0:0:0:
192,192,166672,1,4,0:0:0:0:
448,192,166672,1,0,0:0:0:0:
320,192,166830,1,0,0:0:0:0:
192,192,166988,1,2,0:0:0:0:
448,192,166988,1,0,0:0:0:0:
64,192,167146,1,8,0:0:0:0:
192,192,167146,1,0,0:0:0:0:
320,192,167146,1,0,0:0:0:0:
64,192,167304,1,8,0:0:0:0:
448,192,167304,1,0,0:0:0:0:
192,192,167383,1,8,0:0:0:0:
320,192,167383,1,0,0:0:0:0:
64,192,167462,1,2,0:0:0:0:
448,192,167462,1,8,0:0:0:0:
192,192,167620,1,8,0:0:0:0:
320,192,167620,1,0,0:0:0:0:
448,192,167620,1,0,0:0:0:0:
64,192,167778,1,0,0:0:0:40:Tom1.wav
192,192,167778,1,0,0:0:0:0:
320,192,167935,1,0,0:0:0:40:Tom2.wav
448,192,167935,1,0,0:0:0:0:
64,192,168093,1,2,0:0:0:0:
192,192,168093,1,4,0:0:0:0:
448,192,168093,1,0,0:0:0:40:Tom3.wav
192,192,168251,1,0,0:0:0:20:soft-hitclap.wav
320,192,168251,1,0,0:0:0:0:
64,192,168409,1,8,0:0:0:0:
448,192,168409,1,0,0:0:0:0:
320,192,168567,1,0,0:0:0:20:soft-hitclap.wav
192,192,168646,1,0,0:0:0:20:soft-hitclap.wav
64,192,168725,1,0,0:0:0:20:soft-hitclap.wav
320,192,168883,1,0,0:0:0:20:soft-hitclap.wav
448,192,168883,1,0,0:0:0:0:
64,192,169041,1,8,0:0:0:0:
192,192,169041,1,0,0:0:0:0:
192,192,169199,1,0,0:0:0:20:soft-hitclap.wav
320,192,169199,1,0,0:0:0:0:
64,192,169357,1,0,0:0:0:20:soft-hitclap.wav
448,192,169357,1,0,0:0:0:0:
192,192,169514,1,0,0:0:0:20:soft-hitclap.wav
320,192,169514,1,0,0:0:0:0:
320,192,169672,1,8,0:0:0:0:
448,192,169672,1,0,0:0:0:0:
64,192,169830,1,0,0:0:0:0:
192,192,169830,1,0,0:0:0:0:
320,192,169988,1,0,0:0:0:20:soft-hitclap.wav
448,192,169988,1,0,0:0:0:0:
64,192,170146,1,2,0:0:0:0:
448,192,170146,1,0,0:0:0:20:soft-hitclap.wav
64,192,170304,1,8,0:0:0:0:
192,192,170304,1,0,0:0:0:40:Hat open.wav
320,192,170304,1,0,0:0:0:0:
320,192,170462,1,2,0:0:0:0:
448,192,170462,1,0,0:0:0:0:
192,192,170620,128,4,171172:0:0:0:0:
320,192,170620,128,2,171172:0:0:0:0:
448,192,170620,128,0,171251:0:0:0:0:
64,192,171251,128,4,171883:0:0:0:0:
192,192,171251,128,2,171804:0:0:0:0:
320,192,171251,128,0,171804:0:0:0:0:
192,192,171883,128,4,172357:0:0:0:0:
320,192,171883,128,2,172357:0:0:0:0:
448,192,171883,128,0,172514:0:0:0:0:
64,192,172357,1,0,0:0:0:0:
64,192,172514,1,4,0:0:0:0:
192,192,172514,1,2,0:0:0:0:
320,192,172514,1,0,0:0:0:0:
320,192,172830,1,0,0:0:0:0:
64,192,172988,1,0,0:0:0:0:
192,192,173146,1,4,0:0:0:0:
320,192,173146,1,2,0:0:0:0:
448,192,173146,1,0,0:0:0:0:
64,192,173304,1,0,0:0:0:0:
64,192,173462,1,8,0:0:0:0:
192,192,173462,1,0,0:0:0:40:Hat open.wav
320,192,173462,1,0,0:0:0:0:
448,192,173620,1,0,0:0:0:0:
320,192,173778,1,2,0:0:0:0:
448,192,173778,1,0,0:0:0:40:Hat open.wav
64,192,173935,1,2,0:0:0:0:
192,192,173935,1,0,0:0:0:40:Hat open.wav
192,192,174093,1,8,0:0:0:0:
320,192,174093,1,0,0:0:0:40:Hat open.wav
448,192,174093,1,0,0:0:0:0:
64,192,174251,1,0,0:0:0:0:
192,192,174409,1,2,0:0:0:0:
320,192,174409,1,8,0:0:0:0:
448,192,174409,1,0,0:0:0:40:Hat open.wav
64,192,174567,1,0,0:0:0:0:
64,192,174725,1,8,0:0:0:0:
192,192,174725,1,0,0:0:0:40:Hat open.wav
448,192,174725,1,0,0:0:0:0:
320,192,174883,1,0,0:0:0:0:
192,192,175041,1,2,0:0:0:0:
448,192,175041,1,0,0:0:0:40:Hat open.wav
64,192,175199,1,2,0:0:0:0:
320,192,175199,1,0,0:0:0:40:Hat open.wav
64,192,175357,1,8,0:0:0:0:
192,192,175357,1,0,0:0:0:40:Hat open.wav
320,192,175357,1,0,0:0:0:0:
192,192,175514,1,2,0:0:0:0:
448,192,175514,1,0,0:0:0:0:
64,192,175672,1,8,0:0:0:0:
320,192,175672,1,4,0:0:0:0:
448,192,175672,1,0,0:0:0:0:
320,192,175830,1,0,0:0:0:0:
64,192,175988,1,8,0:0:0:0:
192,192,175988,1,0,0:0:0:40:Hat open.wav
448,192,175988,1,0,0:0:0:0:
320,192,176146,1,0,0:0:0:0:
192,192,176304,1,8,0:0:0:0:
320,192,176304,1,0,0:0:0:40:Hat open.wav
448,192,176304,1,0,0:0:0:0:
64,192,176462,1,2,0:0:0:0:
192,192,176462,1,0,0:0:0:0:
64,192,176620,1,8,0:0:0:0:
320,192,176620,1,0,0:0:0:40:Hat open.wav
448,192,176620,1,0,0:0:0:0:
192,192,176778,1,2,0:0:0:0:
448,192,176778,1,0,0:0:0:0:
64,192,176935,1,8,0:0:0:0:
192,192,176935,1,0,0:0:0:40:Hat open.wav
320,192,176935,1,0,0:0:0:0:
448,192,177093,1,0,0:0:0:0:
192,192,177251,1,8,0:0:0:0:
320,192,177251,1,0,0:0:0:40:Hat open.wav
448,192,177251,1,0,0:0:0:0:
64,192,177409,1,0,0:0:0:0:
192,192,177567,1,8,0:0:0:0:
320,192,177567,1,0,0:0:0:40:Hat open.wav
448,192,177567,1,0,0:0:0:0:
64,192,177725,1,2,0:0:0:0:
320,192,177725,1,0,0:0:0:0:
64,192,177883,1,8,0:0:0:0:
192,192,177883,1,0,0:0:0:40:Hat open.wav
448,192,177883,1,0,0:0:0:0:
192,192,178041,1,2,0:0:0:0:
320,192,178041,1,0,0:0:0:0:
64,192,178199,1,2,0:0:0:0:
448,192,178199,1,8,0:0:0:0:
320,192,178278,1,8,0:0:0:0:
64,192,178357,1,8,0:0:0:0:
192,192,178435,1,8,0:0:0:0:
448,192,178514,1,10,0:0:0:0:
320,192,178593,1,8,0:0:0:0:
64,192,178672,1,8,0:0:0:0:
192,192,178672,1,0,0:0:0:0:
448,192,178751,1,8,0:0:0:0:
320,192,178830,1,10,0:0:0:0:
64,192,178909,1,8,0:0:0:0:
192,192,178988,1,8,0:0:0:0:
320,192,178988,1,0,0:0:0:0:
448,192,179067,1,8,0:0:0:0:
64,192,179146,1,2,0:0:0:0:
192,192,179146,1,8,0:0:0:0:
320,192,179225,1,8,0:0:0:0:
448,192,179304,1,8,0:0:0:0:
64,192,179383,1,8,0:0:0:0:
192,192,179383,1,0,0:0:0:0:
320,192,179462,128,8,179541:0:0:0:0:
448,192,179462,1,0,0:0:0:40:Hat open.wav
192,192,179778,128,0,179857:0:0:0:60:F6S.wav
448,192,180093,128,0,180172:0:0:0:60:G6S.wav
64,192,180409,128,0,180488:0:0:0:60:E6S.wav
64,192,180725,1,6,0:0:0:0:
192,192,180725,1,0,0:0:0:60:C5S.wav
320,192,180725,1,0,0:0:0:60:C7S.wav
448,192,180725,128,0,180804:0:0:0:60:C6S.wav
64,192,181041,1,8,0:0:0:0:
192,192,181041,1,0,0:0:0:40:Hat open.wav
320,192,181041,1,0,0:0:0:0:
448,192,181199,1,0,0:0:0:0:
64,192,181357,1,2,0:0:0:0:
192,192,181357,1,0,0:0:0:40:Hat open.wav
320,192,181514,1,2,0:0:0:0:
448,192,181514,1,0,0:0:0:40:Hat open.wav
192,192,181672,1,8,0:0:0:0:
320,192,181672,1,0,0:0:0:40:Hat open.wav
448,192,181672,1,0,0:0:0:0:
64,192,181909,1,8,0:0:0:0:
192,192,181909,1,0,0:0:0:0:
320,192,181988,1,2,0:0:0:0:
448,192,181988,1,0,0:0:0:40:Hat open.wav
192,192,182146,1,0,0:0:0:0:
64,192,182304,1,8,0:0:0:0:
320,192,182304,1,0,0:0:0:40:Hat open.wav
448,192,182304,1,0,0:0:0:0:
448,192,182462,1,0,0:0:0:0:
64,192,182620,1,2,0:0:0:0:
192,192,182620,1,0,0:0:0:40:Hat open.wav
320,192,182778,1,2,0:0:0:0:
448,192,182778,1,0,0:0:0:40:Hat open.wav
64,192,182935,1,8,0:0:0:0:
192,192,182935,1,0,0:0:0:40:Hat open.wav
448,192,182935,1,0,0:0:0:0:
64,192,183093,1,8,0:0:0:0:
192,192,183093,1,0,0:0:0:0:
320,192,183093,1,0,0:0:0:0:
64,192,183251,1,2,0:0:0:0:
192,192,183251,1,4,0:0:0:0:
320,192,183251,1,0,0:0:0:0:
448,192,183251,1,0,0:0:0:0:
192,192,183567,1,8,0:0:0:0:
320,192,183567,1,0,0:0:0:40:Hat open.wav
448,192,183567,1,0,0:0:0:0:
64,192,183725,1,0,0:0:0:0:
320,192,183883,1,2,0:0:0:0:
448,192,183883,1,0,0:0:0:40:Hat open.wav
64,192,184041,1,2,0:0:0:0:
192,192,184041,1,0,0:0:0:40:Hat open.wav
64,192,184199,1,8,0:0:0:0:
192,192,184199,1,0,0:0:0:40:Hat open.wav
320,192,184199,1,0,0:0:0:0:
448,192,184357,1,0,0:0:0:0:
320,192,184435,1,8,0:0:0:0:
64,192,184514,1,2,0:0:0:0:
192,192,184514,1,0,0:0:0:0:
64,192,184672,1,0,0:0:0:0:
192,192,184830,1,8,0:0:0:0:
320,192,184830,1,0,0:0:0:40:Hat open.wav
448,192,184830,1,0,0:0:0:0:
448,192,184988,1,0,0:0:0:40:Hat open.wav
64,192,185146,1,2,0:0:0:0:
192,192,185146,1,0,0:0:0:40:Hat open.wav
320,192,185304,1,2,0:0:0:0:
448,192,185304,1,0,0:0:0:0:
64,192,185462,1,8,0:0:0:0:
192,192,185462,1,0,0:0:0:0:
320,192,185462,1,0,0:0:0:0:
64,192,185620,1,2,0:0:0:0:
448,192,185620,1,0,0:0:0:0:
64,192,185778,1,4,0:0:0:0:
192,192,185778,1,2,0:0:0:0:
320,192,185778,1,0,0:0:0:0:
448,192,185778,1,0,0:0:0:0:
192,192,186093,1,8,0:0:0:0:
320,192,186093,1,0,0:0:0:40:Hat open.wav
448,192,186093,1,0,0:0:0:0:
64,192,186409,1,2,0:0:0:0:
192,192,186409,1,0,0:0:0:40:Hat open.wav
320,192,186567,1,2,0:0:0:0:
448,192,186567,1,0,0:0:0:40:Hat open.wav
64,192,186725,1,8,0:0:0:0:
192,192,186725,1,0,0:0:0:0:
448,192,186725,1,0,0:0:0:0:
64,192,186883,1,2,0:0:0:0:
192,192,186883,1,4,0:0:0:0:
320,192,186883,1,0,0:0:0:0:
448,192,186883,1,0,0:0:0:0:
64,192,187199,1,2,0:0:0:0:
192,192,187199,1,0,0:0:0:0:
192,192,187357,1,8,0:0:0:0:
320,192,187357,1,0,0:0:0:40:Hat open.wav
448,192,187357,1,0,0:0:0:0:
64,192,187514,1,0,0:0:0:40:Hat open.wav
448,192,187514,1,0,0:0:0:0:
192,192,187672,1,2,0:0:0:0:
320,192,187672,1,0,0:0:0:40:Hat open.wav
320,192,187830,1,2,0:0:0:0:
448,192,187830,1,0,0:0:0:0:
64,192,187988,1,8,0:0:0:0:
192,192,187988,1,4,0:0:0:0:
448,192,187988,1,0,0:0:0:0:
192,192,188146,1,2,0:0:0:0:
320,192,188146,1,0,0:0:0:0:
64,192,188304,1,8,0:0:0:0:
320,192,188304,1,4,0:0:0:0:
448,192,188304,1,0,0:0:0:0:
192,192,188462,1,2,0:0:0:0:
448,192,188462,1,0,0:0:0:0:
64,192,188620,1,2,0:0:0:0:
320,192,188620,1,0,0:0:0:0:
64,192,188778,1,8,0:0:0:0:
192,192,188778,1,0,0:0:0:0:
320,192,188778,1,0,0:0:0:0:
448,192,188935,1,0,0:0:0:0:
64,192,189093,1,2,0:0:0:0:
192,192,189093,1,0,0:0:0:0:
320,192,189251,1,2,0:0:0:0:
448,192,189251,1,0,0:0:0:0:
64,192,189409,1,8,0:0:0:0:
192,192,189409,1,4,0:0:0:0:
320,192,189409,1,0,0:0:0:0:
448,192,189409,1,0,0:0:0:0:
64,192,189567,1,0,0:0:0:0:
320,192,189725,1,2,0:0:0:0:
448,192,189725,1,0,0:0:0:0:
64,192,189883,1,8,0:0:0:0:
192,192,189883,1,2,0:0:0:0:
320,192,189962,1,8,0:0:0:0:
64,192,190041,1,8,0:0:0:0:
448,192,190041,1,0,0:0:0:0:
192,192,190120,1,8,0:0:0:0:
320,192,190199,1,8,0:0:0:0:
448,192,190199,1,2,0:0:0:0:
64,192,190278,1,8,0:0:0:0:
192,192,190357,1,8,0:0:0:0:
320,192,190357,1,0,0:0:0:0:
448,192,190435,1,8,0:0:0:0:
64,192,190514,1,8,0:0:0:0:
192,192,190514,1,0,0:0:0:40:Tom1.wav
320,192,190593,1,0,0:0:0:40:Tom2.wav
448,192,190593,1,0,0:0:0:0:
64,192,190672,1,0,0:0:0:40:Tom3.wav
192,192,190672,1,0,0:0:0:0:
320,192,190751,1,0,0:0:0:40:Tom3.wav
448,192,190751,1,0,0:0:0:0:
64,192,190830,1,6,0:0:0:0:
192,192,190830,1,8,0:0:0:0:
320,192,190988,1,0,0:0:0:0:
64,192,191146,1,8,0:0:0:0:
320,192,191146,1,0,0:0:0:40:Hat open.wav
448,192,191146,1,0,0:0:0:0:
448,192,191304,1,0,0:0:0:0:
64,192,191462,1,8,0:0:0:0:
192,192,191462,1,0,0:0:0:40:Hat open.wav
320,192,191462,1,0,0:0:0:0:
64,192,191620,1,2,0:0:0:0:
192,192,191620,1,0,0:0:0:0:
192,192,191778,1,8,0:0:0:0:
320,192,191778,1,0,0:0:0:40:Hat open.wav
448,192,191778,1,0,0:0:0:0:
320,192,191935,1,2,0:0:0:0:
448,192,191935,1,0,0:0:0:0:
64,192,192093,1,8,0:0:0:0:
192,192,192093,1,0,0:0:0:40:Hat open.wav
320,192,192093,1,0,0:0:0:0:
448,192,192251,1,0,0:0:0:0:
192,192,192409,1,8,0:0:0:0:
320,192,192409,1,0,0:0:0:40:Hat open.wav
448,192,192409,1,0,0:0:0:0:
64,192,192567,1,2,0:0:0:0:
192,192,192567,1,0,0:0:0:0:
64,192,192725,1,8,0:0:0:0:
192,192,192725,1,0,0:0:0:40:Hat open.wav
320,192,192725,1,0,0:0:0:0:
448,192,192883,1,2,0:0:0:0:
320,192,192962,1,2,0:0:0:0:
64,192,193041,1,8,0:0:0:0:
192,192,193041,1,0,0:0:0:0:
320,192,193120,1,8,0:0:0:0:
448,192,193120,1,0,0:0:0:0:
64,192,193199,1,0,0:0:0:40:Tom1.wav
192,192,193278,1,0,0:0:0:40:Tom2.wav
64,192,193357,1,2,0:0:0:0:
320,192,193357,1,4,0:0:0:0:
448,192,193357,1,0,0:0:0:0:
64,192,193672,1,8,0:0:0:0:
192,192,193672,1,4,0:0:0:0:
320,192,193751,1,8,0:0:0:0:
448,192,193751,1,0,0:0:0:0:
64,192,193830,1,8,0:0:0:0:
192,192,193830,1,0,0:0:0:0:
320,192,193909,1,8,0:0:0:0:
448,192,193909,1,0,0:0:0:0:
64,192,193988,1,4,0:0:0:0:
192,192,193988,1,2,0:0:0:0:
320,192,194304,1,8,0:0:0:0:
448,192,194304,1,0,0:0:0:0:
64,192,194383,1,8,0:0:0:0:
192,192,194383,1,0,0:0:0:0:
448,192,194462,1,0,0:0:0:40:Tom1.wav
320,192,194541,1,0,0:0:0:40:Tom2.wav
64,192,194620,1,2,0:0:0:0:
192,192,194620,1,4,0:0:0:0:
448,192,194620,1,0,0:0:0:0:
64,192,194935,1,8,0:0:0:0:
192,192,194935,1,0,0:0:0:0:
448,192,194935,1,0,0:0:0:0:
192,192,195093,1,2,0:0:0:0:
320,192,195093,1,0,0:0:0:20:soft-hitfinish.wav
64,192,195251,1,8,0:0:0:0:
320,192,195251,1,0,0:0:0:20:soft-hitfinish.wav
448,192,195251,1,0,0:0:0:0:
192,192,195409,1,2,0:0:0:0:
448,192,195409,1,0,0:0:0:0:
64,192,195567,1,8,0:0:0:0:
192,192,195567,1,0,0:0:0:0:
320,192,195567,1,0,0:0:0:0:
64,192,195725,1,8,0:0:0:0:
320,192,195725,1,0,0:0:0:0:
448,192,195725,1,0,0:0:0:0:
64,192,195883,1,2,0:0:0:0:
192,192,195883,1,4,0:0:0:0:
320,192,195883,1,0,0:0:0:0:
448,192,195883,1,0,0:0:0:0:
192,192,196041,1,0,0:0:0:0:
64,192,196199,1,8,0:0:0:0:
320,192,196199,1,0,0:0:0:0:
448,192,196199,1,0,0:0:0:0:
448,192,196357,1,0,0:0:0:0:
192,192,196514,1,2,0:0:0:0:
320,192,196514,1,0,0:0:0:0:
64,192,196672,1,2,0:0:0:0:
448,192,196672,1,0,0:0:0:0:
64,192,196830,1,8,0:0:0:0:
192,192,196830,1,0,0:0:0:0:
320,192,196830,1,0,0:0:0:0:
448,192,196988,1,0,0:0:0:0:
320,192,197146,1,2,0:0:0:0:
448,192,197146,1,0,0:0:0:0:
64,192,197304,1,2,0:0:0:0:
192,192,197304,1,0,0:0:0:0:
64,192,197462,1,8,0:0:0:0:
192,192,197462,1,0,0:0:0:0:
320,192,197462,1,0,0:0:0:0:
448,192,197620,1,2,0:0:0:0:
320,192,197699,1,2,0:0:0:0:
64,192,197778,1,8,0:0:0:0:
192,192,197778,1,0,0:0:0:0:
320,192,197935,1,2,0:0:0:0:
448,192,197935,1,0,0:0:0:0:
64,192,198093,1,8,0:0:0:0:
192,192,198093,1,0,0:0:0:0:
448,192,198093,1,0,0:0:0:0:
320,192,198251,1,2,0:0:0:0:
192,192,198330,1,2,0:0:0:0:
64,192,198409,1,2,0:0:0:0:
320,192,198409,1,8,0:0:0:0:
448,192,198409,1,4,0:0:0:0:
64,192,198567,1,2,0:0:0:0:
192,192,198567,1,0,0:0:0:0:
64,192,198725,1,2,0:0:0:0:
192,192,198725,1,0,0:0:0:0:
64,192,198883,1,8,0:0:0:0:
192,192,198883,1,4,0:0:0:0:
320,192,198883,1,0,0:0:0:0:
320,192,199041,1,2,0:0:0:0:
448,192,199041,1,0,0:0:0:0:
320,192,199199,1,2,0:0:0:0:
448,192,199199,1,0,0:0:0:0:
192,192,199357,1,4,0:0:0:0:
320,192,199357,1,8,0:0:0:0:
448,192,199357,1,0,0:0:0:0:
64,192,199514,1,2,0:0:0:0:
192,192,199514,1,0,0:0:0:0:
192,192,199672,1,8,0:0:0:0:
320,192,199672,1,4,0:0:0:0:
448,192,199672,1,0,0:0:0:0:
64,192,199830,1,2,0:0:0:0:
320,192,199830,1,0,0:0:0:0:
64,192,199988,1,2,0:0:0:0:
192,192,199988,1,0,0:0:0:0:
64,192,200146,1,4,0:0:0:0:
192,192,200146,1,8,0:0:0:0:
320,192,200146,1,0,0:0:0:0:
192,192,200304,1,2,0:0:0:0:
448,192,200304,1,0,0:0:0:0:
320,192,200462,1,2,0:0:0:0:
448,192,200462,1,0,0:0:0:0:
192,192,200620,1,4,0:0:0:0:
320,192,200620,1,8,0:0:0:0:
448,192,200620,1,0,0:0:0:0:
64,192,200778,1,2,0:0:0:0:
192,192,200778,1,0,0:0:0:0:
64,192,200935,1,8,0:0:0:0:
320,192,200935,1,4,0:0:0:0:
448,192,200935,1,0,0:0:0:0:
192,192,201093,1,2,0:0:0:0:
320,192,201093,1,0,0:0:0:0:
64,192,201251,1,2,0:0:0:0:
448,192,201251,1,0,0:0:0:0:
192,192,201409,1,4,0:0:0:0:
320,192,201409,1,8,0:0:0:0:
448,192,201409,1,0,0:0:0:0:
64,192,201567,1,2,0:0:0:0:
320,192,201567,1,0,0:0:0:0:
192,192,201725,1,2,0:0:0:0:
448,192,201725,1,0,0:0:0:0:
64,192,201883,1,4,0:0:0:0:
192,192,201883,1,8,0:0:0:0:
320,192,201883,1,0,0:0:0:0:
64,192,202041,1,2,0:0:0:0:
448,192,202041,1,0,0:0:0:0:
192,192,202199,1,8,0:0:0:0:
320,192,202199,1,4,0:0:0:0:
448,192,202199,1,0,0:0:0:0:
64,192,202357,1,2,0:0:0:0:
320,192,202357,1,0,0:0:0:0:
64,192,202514,1,8,0:0:0:0:
192,192,202514,1,0,0:0:0:0:
448,192,202514,1,0,0:0:0:0:
320,192,202672,1,2,0:0:0:0:
448,192,202672,1,0,0:0:0:0:
64,192,202830,1,8,0:0:0:0:
192,192,202830,1,0,0:0:0:0:
320,192,202909,1,8,0:0:0:0:
64,192,202988,1,0,0:0:0:40:Tom1.wav
448,192,202988,1,0,0:0:0:0:
192,192,203067,1,0,0:0:0:40:Tom1.wav
320,192,203146,1,0,0:0:0:40:Tom2.wav
448,192,203146,1,0,0:0:0:0:
64,192,203225,1,0,0:0:0:40:Tom2.wav
192,192,203304,1,0,0:0:0:40:Tom3.wav
320,192,203383,1,0,0:0:0:40:Tom3.wav
192,192,203462,1,8,0:0:0:0:
448,192,203462,1,4,0:0:0:0:
64,192,203541,1,0,0:0:0:0:
320,192,203620,1,8,0:0:0:0:
448,192,203620,1,0,0:0:0:0:
192,192,203699,1,8,0:0:0:0:
64,192,203778,1,8,0:0:0:0:
448,192,203778,1,2,0:0:0:0:
320,192,203857,1,8,0:0:0:0:
64,192,203935,1,8,0:0:0:0:
192,192,203935,1,4,0:0:0:0:
448,192,204014,1,8,0:0:0:0:
192,192,204093,1,8,0:0:0:0:
320,192,204093,1,2,0:0:0:0:
64,192,204172,1,8,0:0:0:0:
320,192,204251,1,8,0:0:0:0:
448,192,204251,1,0,0:0:0:0:
192,192,204330,1,8,0:0:0:0:
64,192,204409,1,8,0:0:0:0:
320,192,204409,1,2,0:0:0:0:
448,192,204488,1,0,0:0:0:0:
64,192,204567,1,8,0:0:0:0:
192,192,204646,1,8,0:0:0:0:
320,192,204725,1,2,0:0:0:0:
448,192,204725,1,0,0:0:0:0:
64,192,204804,1,0,0:0:0:0:
192,192,204883,1,8,0:0:0:0:
320,192,204883,1,0,0:0:0:0:
448,192,204962,1,8,0:0:0:0:
64,192,205041,1,8,0:0:0:0:
192,192,205041,1,2,0:0:0:0:
320,192,205120,1,0,0:0:0:0:
448,192,205199,1,12,0:0:0:0:
64,192,205278,1,8,0:0:0:0:
192,192,205357,1,8,0:0:0:0:
320,192,205357,1,2,0:0:0:0:
448,192,205435,1,8,0:0:0:0:
64,192,205514,1,8,0:0:0:0:
192,192,205593,1,8,0:0:0:0:
320,192,205672,1,8,0:0:0:0:
448,192,205672,1,2,0:0:0:0:
192,192,205751,1,8,0:0:0:0:
64,192,205830,1,2,0:0:0:0:
448,192,205909,1,2,0:0:0:0:
192,192,205988,1,8,0:0:0:0:
320,192,205988,1,0,0:0:0:0:
64,192,206067,1,8,0:0:0:0:
320,192,206146,1,2,0:0:0:0:
448,192,206146,1,0,0:0:0:0:
192,192,206225,1,2,0:0:0:0:
64,192,206304,1,8,0:0:0:0:
448,192,206304,1,0,0:0:0:0:
320,192,206383,1,8,0:0:0:0:
64,192,206462,1,8,0:0:0:0:
192,192,206462,1,0,0:0:0:0:
448,192,206541,1,8,0:0:0:0:
320,192,206620,1,2,0:0:0:0:
64,192,206699,1,2,0:0:0:0:
192,192,206699,1,0,0:0:0:0:
320,192,206778,1,8,0:0:0:0:
448,192,206778,1,0,0:0:0:0:
192,192,206857,1,8,0:0:0:0:
64,192,206935,1,0,0:0:0:40:Tom1.wav
320,192,207014,1,0,0:0:0:40:Tom2.wav
448,192,207014,1,0,0:0:0:0:
64,192,207093,1,0,0:0:0:40:Tom3.wav
192,192,207093,1,0,0:0:0:0:
448,192,207172,1,0,0:0:0:40:Tom3.wav
64,192,207251,1,8,0:0:0:0:
192,192,207251,1,0,0:0:0:40:Hat open.wav
320,192,207251,1,0,0:0:0:0:
448,192,207567,1,0,0:0:0:0:
448,192,207725,1,0,0:0:0:0:
64,192,208041,1,0,0:0:0:0:
64,192,208199,1,0,0:0:0:0:
320,192,208357,1,0,0:0:0:40:Tom1.wav
448,192,208357,1,0,0:0:0:0:
64,192,208409,1,8,0:0:0:0:
192,192,208409,1,0,0:0:0:0:
320,192,208462,1,0,0:0:0:40:Tom2.wav
448,192,208462,1,0,0:0:0:0:
64,192,208514,1,0,0:0:0:40:Tom3.wav
192,192,208514,1,0,0:0:0:0:
64,192,208830,1,2,0:0:0:0:
192,192,208830,1,4,0:0:0:0:
320,192,208830,1,0,0:0:0:0:
448,192,208830,1,0,0:0:0:0:
320,192,208988,1,0,0:0:0:0:
64,192,209146,1,2,0:0:0:0:
448,192,209146,1,0,0:0:0:40:Hat open.wav
64,192,209304,1,2,0:0:0:0:
192,192,209304,1,0,0:0:0:40:Hat open.wav
192,192,209462,1,8,0:0:0:0:
320,192,209462,1,0,0:0:0:40:Hat open.wav
448,192,209462,1,0,0:0:0:0:
320,192,209699,1,8,0:0:0:0:
448,192,209699,1,0,0:0:0:0:
64,192,209778,1,2,0:0:0:0:
192,192,209778,1,0,0:0:0:40:Hat open.wav
320,192,209935,1,0,0:0:0:0:
64,192,210093,1,8,0:0:0:0:
192,192,210093,1,0,0:0:0:40:Hat open.wav
448,192,210093,1,0,0:0:0:0:
320,192,210251,1,0,0:0:0:0:
64,192,210409,1,2,0:0:0:0:
448,192,210409,1,0,0:0:0:40:Hat open.wav
192,192,210567,1,2,0:0:0:0:
320,192,210567,1,0,0:0:0:40:Hat open.wav
64,192,210725,1,8,0:0:0:0:
320,192,210725,1,0,0:0:0:40:Hat open.wav
448,192,210725,1,0,0:0:0:0:
64,192,210883,1,8,0:0:0:0:
192,192,210883,1,0,0:0:0:0:
448,192,210883,1,0,0:0:0:0:
64,192,211041,1,2,0:0:0:0:
192,192,211041,1,4,0:0:0:0:
320,192,211041,1,0,0:0:0:0:
448,192,211041,1,0,0:0:0:0:
192,192,211357,1,8,0:0:0:0:
320,192,211357,1,0,0:0:0:40:Hat open.wav
448,192,211357,1,0,0:0:0:0:
64,192,211672,1,2,0:0:0:0:
192,192,211672,1,0,0:0:0:40:Hat open.wav
320,192,211830,1,2,0:0:0:0:
448,192,211830,1,0,0:0:0:40:Hat open.wav
192,192,211988,1,8,0:0:0:0:
320,192,211988,1,0,0:0:0:40:Hat open.wav
448,192,211988,1,0,0:0:0:0:
64,192,212225,1,8,0:0:0:0:
192,192,212225,1,0,0:0:0:0:
320,192,212304,1,2,0:0:0:0:
448,192,212304,1,0,0:0:0:40:Hat open.wav
64,192,212620,1,8,0:0:0:0:
192,192,212620,1,0,0:0:0:40:Hat open.wav
448,192,212620,1,0,0:0:0:0:
320,192,212778,1,0,0:0:0:0:
192,192,212935,1,2,0:0:0:0:
320,192,212935,1,0,0:0:0:40:Hat open.wav
64,192,213093,1,2,0:0:0:0:
448,192,213093,1,0,0:0:0:0:
192,192,213251,1,8,0:0:0:0:
320,192,213251,1,0,0:0:0:0:
448,192,213251,1,0,0:0:0:0:
64,192,213409,1,2,0:0:0:0:
192,192,213409,1,0,0:0:0:0:
64,192,213567,1,2,0:0:0:0:
192,192,213567,1,4,0:0:0:0:
320,192,213567,1,0,0:0:0:0:
448,192,213567,1,0,0:0:0:0:
192,192,213883,1,8,0:0:0:0:
320,192,213883,1,0,0:0:0:40:Hat open.wav
448,192,213883,1,0,0:0:0:0:
320,192,214199,1,2,0:0:0:0:
448,192,214199,1,0,0:0:0:40:Hat open.wav
64,192,214357,1,2,0:0:0:0:
448,192,214357,1,0,0:0:0:40:Hat open.wav
64,192,214514,1,8,0:0:0:0:
192,192,214514,1,0,0:0:0:40:Hat open.wav
320,192,214514,1,0,0:0:0:0:
64,192,214672,1,2,0:0:0:0:
192,192,214672,1,4,0:0:0:0:
320,192,214672,1,0,0:0:0:0:
448,192,214672,1,0,0:0:0:0:
448,192,214830,1,0,0:0:0:0:
64,192,214988,1,2,0:0:0:0:
192,192,214988,1,0,0:0:0:0:
192,192,215146,1,8,0:0:0:0:
320,192,215146,1,0,0:0:0:40:Hat open.wav
448,192,215146,1,0,0:0:0:0:
320,192,215304,1,0,0:0:0:0:
448,192,215304,1,0,0:0:0:0:
64,192,215462,1,2,0:0:0:0:
192,192,215462,1,0,0:0:0:40:Hat open.wav
320,192,215620,1,2,0:0:0:0:
448,192,215620,1,0,0:0:0:0:
64,192,215778,1,8,0:0:0:0:
192,192,215778,1,4,0:0:0:0:
320,192,215778,1,0,0:0:0:0:
64,192,215935,1,2,0:0:0:0:
448,192,215935,1,0,0:0:0:0:
64,192,216093,1,8,0:0:0:0:
192,192,216093,1,4,0:0:0:0:
320,192,216093,1,0,0:0:0:0:
448,192,216093,1,0,0:0:0:0:
192,192,216251,1,2,0:0:0:0:
320,192,216251,1,0,0:0:0:0:
64,192,216409,1,2,0:0:0:0:
448,192,216409,1,0,0:0:0:0:
192,192,216567,1,8,0:0:0:0:
320,192,216567,1,4,0:0:0:0:
448,192,216567,1,0,0:0:0:0:
64,192,216725,1,0,0:0:0:0:
320,192,216883,1,2,0:0:0:0:
448,192,216883,1,0,0:0:0:0:
64,192,217041,1,2,0:0:0:0:
192,192,217041,1,0,0:0:0:0:
64,192,217199,1,8,0:0:0:0:
192,192,217199,1,4,0:0:0:0:
320,192,217199,1,0,0:0:0:0:
448,192,217199,1,0,0:0:0:0:
64,192,217514,1,2,0:0:0:0:
192,192,217514,1,0,0:0:0:0:
320,192,217672,1,8,0:0:0:0:
448,192,217672,1,2,0:0:0:0:
192,192,217751,1,8,0:0:0:0:
64,192,217830,1,8,0:0:0:0:
448,192,217830,1,0,0:0:0:0:
320,192,217909,1,8,0:0:0:0:
64,192,217988,1,8,0:0:0:0:
192,192,217988,1,2,0:0:0:0:
448,192,218067,1,8,0:0:0:0:
192,192,218146,1,8,0:0:0:0:
320,192,218146,1,0,0:0:0:0:
64,192,218225,1,8,0:0:0:0:
320,192,218304,1,8,0:0:0:0:
448,192,218304,1,2,0:0:0:0:
64,192,218383,1,0,0:0:0:40:Tom1.wav
192,192,218383,1,0,0:0:0:0:
320,192,218462,1,0,0:0:0:40:Tom2.wav
448,192,218462,1,0,0:0:0:0:
64,192,218541,1,0,0:0:0:40:Tom3.wav
192,192,218541,1,0,0:0:0:0:
320,192,218620,1,10,0:0:0:0:
448,192,218620,1,4,0:0:0:0:
64,192,218935,1,8,0:0:0:0:
320,192,218935,1,0,0:0:0:40:Hat open.wav
448,192,218935,1,0,0:0:0:0:
64,192,219251,1,8,0:0:0:0:
192,192,219251,1,0,0:0:0:40:Hat open.wav
320,192,219251,1,0,0:0:0:0:
320,192,219409,1,2,0:0:0:0:
448,192,219409,1,0,0:0:0:0:
64,192,219567,1,8,0:0:0:0:
192,192,219567,1,0,0:0:0:40:Hat open.wav
448,192,219567,1,0,0:0:0:0:
192,192,219725,1,2,0:0:0:0:
320,192,219725,1,0,0:0:0:0:
64,192,219883,1,8,0:0:0:0:
320,192,219883,1,0,0:0:0:40:Hat open.wav
448,192,219883,1,0,0:0:0:0:
192,192,220199,1,8,0:0:0:0:
320,192,220199,1,0,0:0:0:40:Hat open.wav
448,192,220199,1,0,0:0:0:0:
64,192,220357,1,2,0:0:0:0:
448,192,220357,1,0,0:0:0:0:
64,192,220514,1,8,0:0:0:0:
192,192,220514,1,0,0:0:0:40:Hat open.wav
320,192,220514,1,0,0:0:0:0:
448,192,220672,1,2,0:0:0:0:
320,192,220751,1,2,0:0:0:0:
64,192,220830,1,8,0:0:0:0:
192,192,220830,1,4,0:0:0:0:
320,192,220909,1,8,0:0:0:0:
448,192,220909,1,0,0:0:0:0:
64,192,220988,1,0,0:0:0:40:Tom1.wav
192,192,221067,1,0,0:0:0:40:Tom2.wav
64,192,221146,1,2,0:0:0:0:
320,192,221146,1,4,0:0:0:0:
448,192,221146,1,0,0:0:0:0:
320,192,221462,1,8,0:0:0:0:
448,192,221462,1,4,0:0:0:0:
64,192,221541,1,8,0:0:0:0:
192,192,221541,1,0,0:0:0:0:
320,192,221620,1,8,0:0:0:0:
448,192,221620,1,0,0:0:0:0:
64,192,221699,1,8,0:0:0:0:
192,192,221699,1,0,0:0:0:0:
320,192,221778,1,2,0:0:0:0:
448,192,221778,1,4,0:0:0:0:
320,192,222093,1,8,0:0:0:0:
448,192,222093,1,0,0:0:0:0:
64,192,222172,1,8,0:0:0:0:
192,192,222172,1,0,0:0:0:0:
448,192,222251,1,0,0:0:0:40:Tom1.wav
320,192,222330,1,0,0:0:0:40:Tom2.wav
64,192,222409,1,8,0:0:0:0:
192,192,222409,1,2,0:0:0:0:
448,192,222409,1,4,0:0:0:0:
64,192,222725,1,8,0:0:0:0:
192,192,222725,1,0,0:0:0:0:
320,192,222725,1,0,0:0:0:0:
192,192,223041,1,8,0:0:0:0:
320,192,223041,1,4,0:0:0:0:
448,192,223041,1,0,0:0:0:0:
64,192,223199,1,2,0:0:0:0:
448,192,223199,1,0,0:0:0:0:
64,192,223357,1,8,0:0:0:0:
192,192,223357,1,0,0:0:0:0:
320,192,223357,1,0,0:0:0:0:
64,192,223672,1,2,0:0:0:0:
192,192,223672,1,4,0:0:0:0:
320,192,223672,1,0,0:0:0:0:
448,192,223672,1,0,0:0:0:0:
64,192,223988,1,8,0:0:0:0:
320,192,223988,1,0,0:0:0:40:Hat open.wav
448,192,223988,1,0,0:0:0:0:
192,192,224146,1,0,0:0:0:0:
320,192,224304,1,2,0:0:0:0:
448,192,224304,1,0,0:0:0:40:Hat open.wav
64,192,224462,1,2,0:0:0:0:
192,192,224462,1,0,0:0:0:0:
64,192,224620,1,8,0:0:0:0:
192,192,224620,1,0,0:0:0:0:
320,192,224620,1,0,0:0:0:0:
64,192,224778,1,2,0:0:0:0:
192,192,224778,1,4,0:0:0:0:
320,192,224778,1,0,0:0:0:0:
448,192,224778,1,0,0:0:0:0:
64,192,224935,1,8,0:0:0:0:
320,192,224935,1,0,0:0:0:0:
448,192,224935,1,0,0:0:0:0:
192,192,225093,1,2,0:0:0:0:
320,192,225093,1,0,0:0:0:0:
64,192,225251,1,8,0:0:0:0:
192,192,225251,1,0,0:0:0:40:Tom2.wav
448,192,225251,1,0,0:0:0:0:
320,192,225409,1,2,0:0:0:0:
448,192,225409,1,0,0:0:0:0:
64,192,225567,1,8,0:0:0:0:
192,192,225567,1,0,0:0:0:40:Tom3.wav
320,192,225567,1,0,0:0:0:0:
64,192,225725,1,8,0:0:0:0:
192,192,225725,1,0,0:0:0:40:Tom3.wav
448,192,225725,1,0,0:0:0:0:
192,192,225883,1,8,0:0:0:0:
320,192,225883,1,0,0:0:0:40:Tom3.wav
448,192,225883,1,0,0:0:0:0:
64,192,226041,1,8,0:0:0:0:
192,192,226041,1,0,0:0:0:40:Tom3.wav
448,192,226041,1,0,0:0:0:0:
64,192,227462,1,2,0:0:0:0:
192,192,227462,1,4,0:0:0:0:
320,192,227462,128,0,232514:0:0:0:0:
448,192,227462,128,0,233778:0:0:0:0:
