osu file format v14

[General]
AudioFilename: stormii.mp3
AudioLeadIn: 0
PreviewTime: 85728
Countdown: 0
SampleSet: Soft
StackLeniency: 0.7
Mode: 0
LetterboxInBreaks: 0
WidescreenStoryboard: 1

[Editor]
Bookmarks: 127649
DistanceSpacing: 1.3
BeatDivisor: 2
GridSize: 32
TimelineZoom: 0.9

[Metadata]
Title:First Storm feat. Hatsune Miku
TitleUnicode:初嵐 feat. 初音ミク
Artist:DECO*27
ArtistUnicode:DECO*27
Creator:Asaiga
Version:Easy
Source:
Tags:rui Akitoshi Corinn -Laura- -NanoRIPE- Rumia- ProEzreal Chinese deco 27 Mes Rockwell vocaloid
BeatmapID:1474796
BeatmapSetID:696175

[Difficulty]
HPDrainRate:2.8
CircleSize:2.2
OverallDifficulty:3.2
ApproachRate:3.2
SliderMultiplier:0.75
SliderTickRate:1

[Events]
//Background and Video events
0,0,"miku e.jpg",0,0
//Break Periods
2,97534,106024
2,158165,161578
//Storyboard Layer 0 (Background)
//Storyboard Layer 1 (Fail)
//Storyboard Layer 2 (Pass)
//Storyboard Layer 3 (Foreground)
//Storyboard Sound Samples

[TimingPoints]
1334,315.789473684211,4,2,0,5,1,0
5123,-100,4,2,0,40,0,0
6386,-100,4,2,1,80,0,1
24070,-100,4,2,1,50,0,0
64491,-100,4,2,1,60,0,0
69544,-100,4,2,1,70,0,0
74597,-100,4,2,1,80,0,1
96070,-100,4,2,1,70,0,0
107439,-100,4,2,1,40,0,0
127649,-100,4,2,1,70,0,0
147860,-100,4,2,1,60,0,0
152912,-100,4,2,1,70,0,0
157965,-100,4,2,1,50,0,0
163018,-100,4,2,1,5,0,0
165544,-100,4,2,1,70,0,0
168070,-100,4,2,1,80,0,1
175649,-100,4,2,1,5,0,1
179439,-100,4,2,1,80,0,0
180702,-100,4,2,1,80,0,1
208491,-100,4,2,1,80,0,0
227597,-100,4,2,1,5,0,0

[Colours]
Combo1 : 237,150,191
Combo2 : 190,90,135
Combo3 : 230,176,79
Combo4 : 96,88,239
Combo5 : 130,210,141
Combo6 : 104,209,232

[HitObjects]
52,106,6386,6,0,B|78:79|78:79|197:79,1,150,4|2,0:0|0:0,0:0:0:0:
274,128,7334,1,8,0:0:0:0:
191,179,7649,2,0,L|179:312,1,112.5,2|0,0:0|0:0,0:0:0:0:
307,365,8597,1,8,0:0:0:0:
390,314,8912,6,0,B|400:202|400:202|444:167,1,150,4|2,0:0|0:0,0:0:0:0:
508,121,9860,1,8,0:0:0:0:
420,77,10176,2,0,L|296:64,1,112.5,2|0,0:0|0:0,0:0:0:0:
173,8,11123,1,8,0:0:0:0:
92,63,11439,6,0,B|63:152|63:152|94:244,1,187.5,4|2,0:0|0:0,0:0:0:0:
135,329,12544,2,0,P|233:375|336:322,1,225,4|2,0:0|0:0,0:0:0:0:
415,207,13965,5,4,0:0:0:0:
365,69,14439,2,0,B|211:60,1,150,8|8,0:0|0:0,0:0:0:0:
90,136,15544,1,8,3:2:0:0:
140,219,15860,2,0,L|233:224,1,75,8|8,3:2|3:2,0:0:0:0:
288,286,16491,6,0,L|298:383,1,75,4|8,0:0|0:0,0:0:0:0:
392,347,17123,2,0,L|382:251,1,75,2|8,0:0|0:0,0:0:0:0:
428,185,17755,2,0,L|441:52,1,112.5,4|0,0:0|0:0,0:0:0:0:
299,28,18702,1,8,0:0:0:0:
212,74,19018,6,0,B|158:70|158:70|124:47|124:47|44:36,2,150,4|4|4,0:0|0:0|0:0,0:0:0:0:
296,122,20597,1,8,0:0:0:0:
213,173,20912,2,0,L|206:253,1,75,2|8,0:0|0:0,0:0:0:0:
218,344,21544,6,0,P|309:362|383:293,1,187.5,2|2,0:0|0:0,0:0:0:0:
407,213,22649,2,0,L|485:208,2,75,2|0|8,0:0|3:0|0:0,0:0:0:0:
368,123,23597,1,8,0:0:0:0:
234,182,24070,6,0,B|200:190|162:173|162:173|119:156|76:182,2,150,4|2|2,0:0|0:0|0:0,0:0:0:0:
466,359,26281,1,8,0:0:0:0:
371,335,26597,6,0,B|337:327|299:344|299:344|256:361|213:335,2,150,2|2|0,0:0|0:0|0:0,0:0:0:0:
488,66,28807,1,0,0:0:0:0:
404,16,29123,6,0,L|316:27,2,75,2|8|2,0:0|0:0|0:0,0:0:0:0:
488,66,30070,1,8,0:0:0:0:
442,152,30386,2,0,L|451:227,2,75,2|8|2,0:0|0:0|0:0,0:0:0:0:
351,114,31334,1,8,0:0:0:0:
278,178,31649,6,0,P|205:191|126:145,1,150,2|2,0:0|0:0,0:0:0:0:
138,159,33860,1,8,0:0:0:0:
59,100,34176,6,0,P|39:170|74:234,1,150,4|0,0:0|0:0,0:0:0:0:
74,234,36386,1,8,0:0:0:0:
154,289,36702,6,0,L|315:281,2,150,2|2|2,0:0|0:0|0:0,0:0:0:0:
28,25,38912,1,8,0:0:0:0:
101,88,39228,6,0,B|175:76|175:76|247:95|247:95|324:85,1,225,10|8,0:0|0:0,0:0:0:0:
418,69,40491,2,0,B|456:134|456:134|422:288,1,225,2|8,0:0|0:0,0:0:0:0:
346,342,41755,6,0,B|113:341,1,225,4|8,0:0|0:0,0:0:0:0:
42,283,43018,1,0,0:0:0:0:
213,46,43965,1,8,3:2:0:0:
154,123,44281,6,0,P|212:141|296:97,1,150,4|0,0:0|0:0,0:0:0:0:
333,17,45228,1,8,0:0:0:0:
389,96,45544,1,2,0:0:0:0:
251,354,46491,1,8,1:2:0:0:
338,310,46807,6,0,P|285:263|193:274,1,150,2|0,0:0|0:0,0:0:0:0:
158,348,47755,1,8,0:0:0:0:
109,263,48070,1,2,0:0:0:0:
389,179,49018,1,8,1:2:0:0:
333,98,49334,6,0,L|347:17,2,75,4|8|0,0:0|0:0|0:0,0:0:0:0:
389,179,50281,1,8,0:0:0:0:
305,229,50597,2,0,L|291:310,2,75,2|8|0,0:0|0:0|0:0,0:0:0:0:
247,150,51544,1,8,1:2:0:0:
333,98,51860,6,0,P|274:53|188:68,1,150,2|0,0:0|0:0,0:0:0:0:
120,113,52807,1,8,0:0:0:0:
159,202,53123,2,0,B|197:215|231:192|231:192|285:243|285:243|325:210|375:222,1,225,2|8,0:0|1:2,0:0:0:0:
414,142,54386,6,0,P|444:183|421:291,1,150,4|0,0:0|0:0,0:0:0:0:
367,350,55334,1,8,0:0:0:0:
281,302,55649,2,0,P|245:237|263:166,1,150,2|0,0:0|0:0,0:0:0:0:
327,93,56597,1,8,1:2:0:0:
250,32,56912,6,0,L|163:22,1,75,4|8,0:0|0:0,0:0:0:0:
78,11,57544,2,0,L|66:95,1,75,0|8,0:0|0:0,0:0:0:0:
53,182,58176,1,2,0:0:0:0:
288,355,59123,1,8,1:2:0:0:
217,287,59439,6,0,P|171:266|98:270,2,112.5,4|0|8,0:0|0:0|0:0,0:0:0:0:
275,209,60702,2,0,P|325:230|383:229,2,112.5,2|0|8,0:0|0:0|0:0,0:0:0:0:
235,119,61965,6,0,L|247:29,1,75,4|0,0:0|0:0,0:0:0:0:
337,11,62597,1,8,0:0:0:0:
410,137,63070,2,0,B|426:244|360:219|382:328,1,187.5,4|8,0:0|3:2,0:0:0:0:
455,379,64176,1,2,0:0:0:0:
479,284,64491,5,4,0:0:0:0:
195,357,65439,1,8,0:0:0:0:
219,262,65755,1,2,0:0:0:0:
37,32,66702,1,8,0:0:0:0:
97,108,67018,6,0,L|88:206,2,75,2|0|8,0:0|0:0|0:0,0:0:0:0:
173,47,67965,1,0,0:0:0:0:
249,107,68281,2,0,L|323:113,2,75,2|0|0,3:0|3:0|3:0,0:0:0:0:
173,47,69228,1,0,3:0:0:0:
97,108,69544,5,4,0:0:0:0:
241,361,70491,1,8,0:0:0:0:
325,311,70807,1,4,0:0:0:0:
183,54,71755,1,8,0:0:0:0:
261,110,72070,6,0,L|352:107,1,75,4|8,0:0|0:0,0:0:0:0:
433,102,72702,2,0,L|427:177,1,75,2|8,0:2|0:2,0:0:0:0:
418,274,73334,1,2,0:0:0:0:
418,274,74597,6,0,P|362:321|282:312,1,150,4|2,0:0|0:0,0:0:0:0:
216,250,75544,1,8,0:0:0:0:
261,163,75860,2,0,L|271:78,1,75,2|8,0:0|0:0,0:0:0:0:
192,29,76491,2,0,L|111:23,1,75,2|8,0:0|0:0,0:0:0:0:
29,67,77123,6,0,P|-1:133|32:214,1,150,4|2,0:0|0:0,0:0:0:0:
97,264,78070,1,8,0:0:0:0:
179,212,78386,2,0,L|262:218,1,75,2|8,0:0|0:0,0:0:0:0:
327,152,79018,2,0,L|335:74,1,75,2|8,0:0|0:0,0:0:0:0:
429,52,79649,6,0,L|421:126,1,75,4|8,0:0|0:0,0:0:0:0:
472,209,80281,1,2,0:0:0:0:
400,336,80755,2,0,P|335:300|247:316,1,150,4|2,0:0|0:0,0:0:0:0:
131,375,81860,1,8,0:0:0:0:
84,289,82176,5,12,0:0:0:0:
206,208,82649,2,0,P|275:183|302:113,1,150,8|8,0:0|0:0,0:0:0:0:
182,37,83755,1,8,3:2:0:0:
105,96,84070,2,0,L|97:172,1,75,8|8,3:2|3:2,0:0:0:0:
170,235,84702,6,0,L|248:244,1,75,4|8,0:0|0:0,0:0:0:0:
292,328,85334,2,0,L|370:319,1,75,8|8,0:0|0:0,0:0:0:0:
463,305,85965,1,8,0:0:0:0:
483,209,86281,1,8,0:0:0:0:
403,152,86597,2,0,L|390:60,1,75,8|8,0:0|3:2,0:0:0:0:
307,29,87228,6,0,B|253:33|253:33|219:56|219:56|153:65,2,150,4|4|4,3:2|0:0|0:0,0:0:0:0:
392,77,88807,1,8,0:0:0:0:
345,162,89123,2,0,L|352:236,1,75,8|8,0:0|0:0,0:0:0:0:
416,310,89755,5,4,0:0:0:0:
323,338,90070,2,0,P|253:327|187:367,1,150,8|2,0:0|0:0,0:0:0:0:
104,315,91018,2,0,B|81:159,1,150,2|2,0:0|0:0,0:0:0:0:
66,70,91965,1,8,0:0:0:0:
156,105,92281,5,12,3:2:0:0:
280,28,92755,2,0,L|392:32,1,112.5,4|8,3:2|3:2,0:0:0:0:
465,96,93544,1,12,3:2:0:0:
386,219,94018,2,0,L|263:224,1,112.5,4|8,3:2|3:2,0:0:0:0:
205,153,94807,5,8,3:2:0:0:
125,275,95281,2,0,L|-1:271,1,112.5,0|8,3:0|3:2,0:0:0:0:
19,174,96070,1,8,3:2:0:0:
19,174,97334,5,4,0:0:0:0:
62,69,107439,6,0,B|42:146|105:206|105:206|149:165|219:163,1,262.5,4|0,0:0|0:0,0:0:0:0:
343,211,109018,2,0,P|377:199|428:196,2,75
253,250,109965,6,0,B|178:271|104:265|104:265|175:282|202:322,1,262.5
415,195,111860,2,0,P|454:185|485:166,1,75
417,95,112491,5,4,0:0:0:0:
417,95,113755,1,0,0:0:0:0:
147,208,114702,1,0,0:0:0:0:
175,114,115018,6,0,P|230:156|242:233,1,150,4|8,0:0|0:0,0:0:0:0:
242,232,117544,6,0,L|410:229,1,150,4|8,0:0|0:0,0:0:0:0:
391,229,119439,2,0,L|386:141,1,75,8|2,0:0|0:0,0:0:0:0:
360,60,120070,2,0,P|295:23|207:41,2,150,4|8|2,0:0|0:0|0:0,0:0:0:0:
360,60,122597,5,4,0:0:0:0:
360,60,123860,1,2,0:0:0:0:
360,60,125123,2,0,L|366:151,1,75,4|2,0:0|0:0,0:0:0:0:
300,208,125755,1,8,0:0:0:0:
381,329,126228,2,0,P|328:312|266:324,1,112.5,4|8,0:0|0:0,0:0:0:0:
183,360,127018,2,0,L|174:275,1,75,8|2,0:0|0:0,0:0:0:0:
91,234,127649,6,0,L|107:82,1,150,4|0,0:0|0:0,0:0:0:0:
177,17,128596,1,8,0:0:0:0:
204,110,128912,1,2,0:0:0:0:
487,37,129859,1,8,1:2:0:0:
416,104,130175,6,0,P|390:173|420:242,1,150,2|0,0:0|0:0,0:0:0:0:
509,275,131123,1,8,0:0:0:0:
434,337,131438,1,2,0:0:0:0:
147,277,132386,1,8,1:2:0:0:
217,209,132702,6,0,L|230:131,2,75,4|8|0,0:0|0:0|0:0,0:0:0:0:
247,301,133649,1,8,0:0:0:0:
335,260,133965,2,0,L|409:272,2,75,2|8|0,0:0|0:0|0:0,0:0:0:0:
247,301,134912,1,8,1:2:0:0:
217,209,135228,6,0,P|157:208|107:174,1,112.5,2|0,0:0|0:0,0:0:0:0:
47,50,136175,1,8,0:0:0:0:
137,85,136491,2,0,B|179:78|211:90|211:90|258:31|258:31|291:55|356:53,1,225,2|8,0:0|1:2,0:0:0:0:
423,29,137754,6,0,P|451:97|429:167,1,150,4|0,0:0|0:0,0:0:0:0:
338,204,138702,1,8,0:0:0:0:
259,146,139017,2,0,P|185:142|123:199,1,150,2|0,0:0|0:0,0:0:0:0:
110,283,139965,1,8,1:2:0:0:
177,352,140281,6,0,L|252:348,1,75,4|8,0:0|0:0,0:0:0:0:
320,278,140912,2,0,L|409:284,1,75,0|8,0:0|0:0,0:0:0:0:
455,359,141544,1,2,0:0:0:0:
491,68,142491,1,8,1:2:0:0:
424,139,142807,6,0,P|418:195|445:259,2,112.5,4|0|8,0:0|0:0|0:0,0:0:0:0:
391,47,144070,2,0,P|337:23|265:32,2,112.5,2|0|8,0:0|0:0|0:0,0:0:0:0:
424,139,145333,6,0,L|418:232,1,75,4|0,0:0|0:0,0:0:0:0:
472,296,145965,1,8,0:0:0:0:
333,343,146438,2,0,B|232:315|255:382|144:353,1,187.5,4|0,0:0|3:0,0:0:0:0:
191,265,147544,1,2,0:0:0:0:
133,186,147859,5,4,0:0:0:0:
375,22,148807,1,8,0:0:0:0:
344,114,149123,1,2,0:0:0:0:
509,355,150070,1,8,0:0:0:0:
436,289,150386,6,0,L|353:286,2,75,2|0|8,0:0|0:0|0:0,0:0:0:0:
437,192,151333,1,0,0:0:0:0:
360,132,151649,2,0,L|280:129,2,75,2|0|0,0:0|3:0|3:0,0:0:0:0:
367,34,152596,1,0,3:0:0:0:
445,91,152912,5,4,0:0:0:0:
286,336,153859,1,8,0:0:0:0:
265,240,154176,1,4,0:0:0:0:
64,27,155123,1,8,0:0:0:0:
34,119,155439,6,0,L|43:194,1,75,4|8,0:0|0:0,0:0:0:0:
124,246,156070,2,0,L|114:330,1,75,8|0,3:2|3:0,0:0:0:0:
31,371,156702,1,2,0:0:0:0:
31,371,157965,5,4,0:0:0:0:
256,192,163018,12,4,165544,0:0:0:0:
438,122,168070,6,0,L|360:114,1,75,12|8,0:0|0:0,0:0:0:0:
290,49,168702,2,0,L|212:41,1,75,8|8,0:0|0:0,0:0:0:0:
124,76,169333,1,8,0:0:0:0:
118,173,169649,1,8,0:0:0:0:
193,235,169965,2,0,L|280:245,1,75,8|8,0:0|3:2,0:0:0:0:
360,213,170596,6,0,B|414:219|414:219|450:244|450:244|522:253,2,150,4|4|4,3:2|0:0|0:0,0:0:0:0:
267,243,172175,1,8,0:0:0:0:
218,158,172491,2,0,L|142:168,1,75,8|8,0:0|0:0,0:0:0:0:
71,101,173123,5,4,0:0:0:0:
16,181,173438,2,0,P|2:239|27:304,1,112.5,8|2,0:0|0:0,0:0:0:0:
138,369,174386,2,0,B|305:358,1,150,2|2,0:0|0:0,0:0:0:0:
356,290,175333,1,8,0:0:0:0:
256,192,175649,12,4,179439,0:0:0:0:
145,114,180702,6,0,P|94:167|95:247,1,150,4|2,0:0|0:0,0:0:0:0:
154,315,181649,1,8,0:0:0:0:
230,254,181965,2,0,L|313:259,1,75,2|8,0:0|0:0,0:0:0:0:
354,342,182596,2,0,L|436:337,1,75,2|8,0:0|0:0,0:0:0:0:
507,279,183228,6,0,P|512:211|455:153,1,150,4|2,0:0|0:0,0:0:0:0:
366,186,184175,1,8,0:0:0:0:
311,104,184491,2,0,L|319:21,1,75,2|8,0:0|0:0,0:0:0:0:
222,50,185123,2,0,L|147:43,1,75,2|8,0:0|0:0,0:0:0:0:
57,5,185754,6,0,L|50:84,1,75,4|8,0:0|0:0,0:0:0:0:
42,177,186386,1,2,0:0:0:0:
183,139,186860,2,0,P|184:217|141:286,1,150,4|2,0:0|0:0,0:0:0:0:
8,316,187965,1,8,0:0:0:0:
94,361,188281,5,12,0:0:0:0:
237,334,188754,2,0,P|297:291|376:295,1,150,8|8,0:0|0:0,0:0:0:0:
507,356,189860,1,8,3:2:0:0:
471,265,190175,2,0,L|493:177,1,75,8|8,3:2|3:2,0:0:0:0:
458,99,190807,6,0,L|381:121,1,75,12|8,0:0|0:0,0:0:0:0:
292,149,191439,2,0,L|215:126,1,75,8|8,0:0|0:0,0:0:0:0:
129,90,192070,1,8,0:0:0:0:
63,162,192386,1,8,0:0:0:0:
151,203,192702,2,0,L|165:296,1,75,8|8,0:0|3:2,0:0:0:0:
141,372,193333,6,0,B|195:368|195:368|229:345|229:345|309:334,2,150,4|4|4,3:2|0:0|0:0,0:0:0:0:
67,308,194912,1,8,0:0:0:0:
126,230,195228,2,0,L|217:223,1,75,8|8,0:0|0:0,0:0:0:0:
266,151,195860,5,4,0:0:0:0:
356,186,196175,2,0,P|396:248|377:333,1,150,8|2,0:0|0:0,0:0:0:0:
305,376,197123,2,0,B|144:371,1,150,2|2,0:0|0:0,0:0:0:0:
95,293,198070,1,8,0:0:0:0:
155,216,198386,6,0,L|142:103,2,112.5,4|2|8,0:0|0:0|0:0,0:0:0:0:
226,281,199649,2,0,L|345:268,1,112.5,4|2,0:0|0:0,0:0:0:0:
467,337,200597,1,8,0:0:0:0:
436,244,200912,6,0,L|421:114,2,112.5,4|2|8,0:0|0:0|0:0,0:0:0:0:
337,268,202176,2,0,L|206:284,1,112.5,4|2,0:0|0:0,0:0:0:0:
105,365,203123,1,8,0:0:0:0:
125,269,203439,5,12,3:2:0:0:
65,135,203913,2,0,P|120:147|196:138,1,112.5,4|8,3:2|3:2,0:0:0:0:
259,93,204702,1,12,3:2:0:0:
399,134,205176,2,0,P|380:184|397:258,1,112.5,4|8,3:2|3:2,0:0:0:0:
444,320,205965,5,8,3:2:0:0:
299,295,206439,2,0,P|245:301|195:348,1,112.5,0|8,3:0|3:2,0:0:0:0:
126,274,207228,1,8,3:2:0:0:
126,274,208807,6,0,L|113:192,1,75,4|2,0:0|0:0,0:0:0:0:
96,103,209439,1,8,0:0:0:0:
186,140,209754,2,0,L|337:133,1,150,2|0,0:0|0:0,0:0:0:0:
399,59,210702,1,8,0:0:0:0:
472,123,211017,6,0,B|485:235|485:235|446:282,1,150,4|2,0:0|0:0,0:0:0:0:
386,326,211965,1,8,0:0:0:0:
323,251,212281,2,0,L|199:243,1,112.5,2|0,0:0|0:0,0:0:0:0:
97,335,213228,1,8,0:0:0:0:
112,238,213544,6,0,B|74:152|74:152|113:63,1,187.5,4|2,0:0|0:0,0:0:0:0:
203,33,214649,2,0,P|322:86|436:29,1,262.5,4|2,0:0|0:0,0:0:0:0:
505,98,216070,5,4,0:0:0:0:
437,227,216544,2,0,B|273:220,1,150,8|8,0:0|0:0,0:0:0:0:
170,134,217649,1,8,3:2:0:0:
187,229,217965,2,0,L|166:326,1,75,8|8,3:2|3:2,0:0:0:0:
73,301,218596,6,0,L|56:227,1,75,4|8,0:0|0:0,0:0:0:0:
59,129,219228,2,0,L|74:55,1,75,2|8,0:0|0:0,0:0:0:0:
172,56,219860,2,0,L|291:56,1,112.5,4|0,0:0|0:0,0:0:0:0:
424,15,220807,1,8,0:0:0:0:
376,100,221123,6,0,B|380:154|380:154|404:191|404:191|409:257,2,150,4|4|4,0:0|0:0|0:0,0:0:0:0:
284,56,222702,1,8,0:0:0:0:
208,117,223018,2,0,L|201:194,1,75,2|8,0:0|0:0,0:0:0:0:
236,282,223649,6,0,P|318:311|397:252,1,187.5,2|2,0:0|0:0,0:0:0:0:
426,165,224754,2,0,L|505:156,2,75,2|0|8,0:0|3:0|0:0,0:0:0:0:
369,85,225702,1,8,0:0:0:0:
256,192,227439,5,0,0:0:0:0:
256,192,227597,12,0,232491,0:0:0:0:
